osu file format v14

[General]
AudioFilename: audio.mp3
AudioLeadIn: 0
PreviewTime: 38067
Countdown: 0
SampleSet: None
StackLeniency: 0.7
Mode: 0
LetterboxInBreaks: 0
WidescreenStoryboard: 0

[Editor]
DistanceSpacing: 1
BeatDivisor: 4
GridSize: 8
TimelineZoom: 2

[Metadata]
Title:Sayonara Waltz
TitleUnicode:さよならワルツ
Artist:la la larks
ArtistUnicode:la la larks
Creator:Mirash
Version:Expert
Source:
Tags:Delis captin1 Niva Nivalis Culture Vulture
BeatmapID:1706996
BeatmapSetID:813903

[Difficulty]
HPDrainRate:7
CircleSize:4
OverallDifficulty:9
ApproachRate:9.5
SliderMultiplier:1.7
SliderTickRate:1

[Events]
//Background and Video events
0,0,"pachipachi.jpg",0,0
//Break Periods
2,62673,74152
2,123690,133643
//Storyboard Layer 0 (Background)
//Storyboard Layer 1 (Fail)
//Storyboard Layer 2 (Pass)
//Storyboard Layer 3 (Foreground)
//Storyboard Sound Samples

[TimingPoints]
1457,254.237288135593,6,3,1,60,1,0
13660,-200,6,2,1,40,0,0
25863,-125,6,3,1,50,0,0
36541,-100,6,3,1,60,0,0
37304,-100,6,3,1,90,0,0
37368,-100,6,3,1,30,0,0
37558,-100,6,3,1,90,0,0
37622,-100,6,3,1,30,0,0
37812,-100,6,3,1,40,0,0
38067,-76.9230769230769,6,3,1,70,0,0
74677,-125,6,3,1,50,0,0
85355,-100,6,3,1,70,0,0
86880,-125,6,3,1,60,0,0
97558,-125,6,3,1,70,0,0
98321,-125,6,3,1,80,0,0
99084,-76.9230769230769,6,3,1,70,0,0
134168,-100,6,3,1,70,0,0
147897,-83.3333333333333,6,3,1,70,0,0
153999,-100,6,3,1,70,0,0
158575,-83.3333333333333,6,3,1,80,0,0
161626,-76.9230769230769,6,3,1,70,0,0

[Colours]
Combo1 : 255,210,77
Combo2 : 217,122,45
Combo3 : 65,183,207
Combo4 : 187,79,154

[HitObjects]
503,229,694,5,2,0:0:0:0:
416,198,948,1,8,0:0:0:0:
487,137,1202,1,4,0:0:0:0:
316,212,1457,6,2,P|315:123|324:37,1,170,6|0,0:1|0:0,0:0:0:0:
216,125,1838,2,2,P|149:134|84:65,1,170,0|2,0:1|0:1,0:0:0:0:
158,261,2219,2,2,P|204:251|253:253,1,85,10|0,0:1|0:0,0:0:0:0:
425,284,2473,2,0,P|366:300|336:331,1,85,2|0,0:1|0:0,0:0:0:0:
81,356,2728,5,8,0:0:0:0:
60,273,2855,1,2,0:0:0:0:
98,334,2982,2,0,B|194:321|166:383|286:367,1,170,4|2,0:0|0:0,0:0:0:0:
327,302,3363,2,0,P|389:298|525:350,1,170,8|0,0:1|0:0,0:0:0:0:
245,282,3745,2,0,B|281:191|213:194|236:111,2,170,8|2|4,0:1|0:0|0:0,0:0:0:0:
11,187,4507,6,2,P|80:167|104:49,1,170,6|0,0:1|0:0,0:0:0:0:
77,4,4889,2,2,P|163:6|246:23,1,170,0|2,0:0|0:1,0:0:0:0:
314,76,5270,2,0,P|400:78|483:95,1,170,10|0,0:1|0:1,0:0:0:0:
505,176,5651,1,0,0:0:0:0:
408,243,5779,1,8,0:0:0:0:
425,164,5906,1,2,0:0:0:0:
489,255,6033,2,0,P|475:311|346:327,1,170,4|0,0:0|0:0,0:0:0:0:
211,344,6414,6,0,P|218:201|204:88,1,255,8|8,0:1|0:1,0:0:0:0:
205,91,7050,1,0,0:0:0:0:
124,63,7177,1,8,0:0:0:0:
94,142,7304,1,4,0:0:0:0:
170,178,7431,1,2,0:0:0:0:
298,136,7558,6,2,P|351:117|472:132,1,170,6|0,0:1|0:0,0:0:0:0:
375,279,7940,2,2,P|300:320|201:283,1,170,0|2,0:0|0:1,0:0:0:0:
467,216,8321,2,0,P|458:296|454:338,1,85,10|0,0:1|0:0,0:0:0:0:
223,208,8575,5,4,0:0:0:0:
160,150,8702,1,0,0:0:0:0:
171,65,8829,1,8,0:0:0:0:
243,21,8956,1,2,0:0:0:0:
99,17,9084,6,0,P|74:54|62:195,1,170,4|0,0:0|0:0,0:0:0:0:
239,286,9465,1,0,0:0:0:0:
239,286,9592,2,0,P|164:297|126:206,1,170,0|8,0:0|0:1,0:0:0:0:
121,224,10101,1,0,0:0:0:0:
203,205,10228,1,8,0:0:0:0:
350,291,10355,1,4,0:0:0:0:
432,272,10482,1,2,0:0:0:0:
334,124,10609,6,2,L|331:313,1,170,6|0,0:1|0:0,0:0:0:0:
155,225,10990,2,2,P|130:146|182:56,1,170,0|2,0:0|0:1,0:0:0:0:
235,27,11372,2,0,L|322:48,1,85,10|0,0:1|0:0,0:0:0:0:
253,321,11626,2,0,L|170:301,1,85,0|2,0:0|0:0,0:0:0:0:
251,172,11880,1,8,0:0:0:0:
251,172,12134,6,2,B|151:152|177:204|71:180,1,170,4|2,0:0|0:1,0:0:0:0:
148,366,12516,2,0,P|56:326|51:250,1,170,10|0,0:1|0:0,0:0:0:0:
257,342,12897,2,2,P|316:338|354:215,2,170,10|8|0,0:1|0:0|0:1,0:0:0:0:
506,192,13660,5,4,0:1:0:0:
506,192,13914,1,0,0:0:0:0:
436,148,14168,2,0,P|395:157|339:165,2,85,8|4|0,0:3|0:3|0:0,0:0:0:0:
279,118,14931,1,0,0:0:0:0:
9,193,15185,6,0,P|51:187|98:183,1,85,4|0,0:3|0:0,0:0:0:0:
174,228,15567,1,0,0:0:0:0:
174,228,15694,1,4,0:3:0:0:
174,228,15821,1,2,0:3:0:0:
174,228,15948,1,4,0:3:0:0:
382,327,16584,5,2,0:3:0:0:
296,350,16711,2,0,L|310:255,1,85,4|0,0:2|0:0,0:0:0:0:
200,354,17092,2,0,L|187:269,1,85,2|0,0:3|0:0,0:0:0:0:
85,348,17473,2,0,L|99:253,2,85,4|2|0,0:3|0:3|0:0,0:0:0:0:
256,190,18236,5,4,0:3:0:0:
256,190,18490,1,0,0:0:0:0:
157,235,18618,1,0,0:0:0:0:
93,163,18745,1,4,0:3:0:0:
184,120,18872,1,2,0:0:0:0:
93,163,18999,1,4,0:3:0:0:
254,12,19507,5,0,0:0:0:0:
339,11,19762,2,0,P|351:65|347:105,2,85,4|0|8,0:3|0:0|0:3,0:0:0:0:
173,11,20524,2,0,P|161:65|165:105,2,85,4|0|2,0:3|0:0|0:3,0:0:0:0:
256,251,21287,5,4,0:3:0:0:
256,251,21541,1,0,0:0:0:0:
370,347,21668,1,0,0:0:0:0:
387,179,21795,1,4,0:3:0:0:
296,170,21923,1,2,0:3:0:0:
336,247,22050,1,4,0:3:0:0:
144,311,22685,5,0,0:0:0:0:
144,311,22812,2,0,P|136:263|127:220,2,85,4|0|8,0:3|0:0|0:3,0:0:0:0:
58,194,23575,1,4,0:3:0:0:
95,128,23829,1,0,0:0:0:0:
95,128,24211,1,2,0:2:0:0:
95,128,24338,2,0,L|190:132,1,85,4|0,0:3|0:0,0:0:0:0:
243,172,24719,1,2,0:3:0:0:
289,96,24846,2,0,L|235:95,1,42.5,0|0,0:0|0:0,0:0:0:0:
281,248,25101,5,8,0:1:0:0:
474,158,25355,1,4,0:2:0:0:
467,373,25609,1,2,0:2:0:0:
409,318,25863,6,0,L|259:326,1,136,4|0,0:1|0:0,0:0:0:0:
188,358,26245,2,0,P|146:319|122:243,1,136,2|2,0:2|0:2,0:0:0:0:
280,108,26626,2,0,P|264:149|264:245,2,136,8|2|0,0:1|0:2|0:0,0:0:0:0:
470,104,27262,5,2,0:2:0:0:
498,184,27389,2,0,P|430:181|363:175,1,136,4|2,0:0|0:2,0:0:0:0:
175,52,27897,2,0,P|107:58|39:61,2,136,0|8|2,0:0|0:1|0:0,0:0:0:0:
238,111,28660,1,4,0:2:0:0:
85,232,28914,6,0,P|130:240|236:210,1,136,4|0,0:0|0:0,0:0:0:0:
316,150,29295,2,0,P|365:167|440:134,1,136,2|2,0:2|0:2,0:0:0:0:
195,9,29677,2,0,P|187:70|206:160,2,136,8|2|0,0:1|0:2|0:0,0:0:0:0:
355,300,30440,5,4,0:0:0:0:
355,300,30694,1,0,0:0:0:0:
241,252,30821,1,2,0:2:0:0:
198,366,30948,2,0,L|176:295,1,68,0|2,0:0|0:2,0:0:0:0:
346,220,31202,2,0,L|360:61,2,136,8|0|2,0:1|0:0|0:0,0:0:0:0:
9,190,31965,6,0,P|91:157|116:98,1,136,4|2,0:0|0:2,0:0:0:0:
256,6,32473,1,2,0:2:0:0:
503,190,32728,2,0,P|421:157|396:98,1,136,8|2,0:1|0:0,0:0:0:0:
257,190,33236,5,4,0:2:0:0:
223,261,33490,2,0,L|73:252,1,136,4|0,0:0|0:0,0:0:0:0:
210,332,33872,2,0,L|283:336,1,68,2|2,0:2|0:0,0:0:0:0:
20,176,34253,2,0,L|155:184,1,136,8|2,0:1|0:0,0:0:0:0:
316,199,34762,1,4,0:2:0:0:
476,213,35016,1,4,0:0:0:0:
476,213,35270,5,0,0:0:0:0:
344,123,35397,1,2,0:2:0:0:
408,252,35524,1,8,0:0:0:0:
419,85,35651,1,2,0:2:0:0:
407,169,35779,5,8,0:1:0:0:
201,288,36033,5,2,0:2:0:0:
56,112,36287,6,2,B|64:78|64:78|54:23,1,68,4|2,0:2|0:1,0:0:0:0:
10,192,36541,6,2,L|206:209,1,170,4|10,0:0|0:1,0:0:0:0:
305,310,36923,1,2,0:0:0:0:
262,229,37050,1,8,0:1:0:0:
218,307,37177,1,4,0:0:0:0:
350,233,37304,6,0,B|347:182,1,42.5,6|0,0:0|2:0,0:0:0:0:
190,50,37558,2,0,B|192:92,1,42.5,6|0,0:0|2:0,0:0:0:0:
261,380,37812,5,0,0:0:0:0:
261,380,37940,1,0,0:0:0:0:
261,380,38067,1,4,0:1:0:0:
261,380,38321,5,2,0:2:0:0:
340,332,38448,1,8,0:1:0:0:
179,230,38575,1,0,0:0:0:0:
181,322,38702,1,2,0:2:0:0:
349,233,38829,5,8,0:1:0:0:
151,39,39084,5,4,0:0:0:0:
44,297,39338,5,4,0:0:0:0:
110,136,39592,6,0,L|105:247,1,110.499994941712,4|0,0:2|0:0,0:0:0:0:
361,120,39846,1,4,0:2:0:0:
442,133,39973,2,0,L|437:22,1,110.499994941712,8|0,0:1|0:0,0:0:0:0:
260,336,40228,1,4,0:2:0:0:
241,262,40355,2,0,L|252:26,1,220.999989883423,8|4,0:1|0:2,0:0:0:0:
504,200,40736,5,0,0:0:0:0:
371,249,40863,1,0,0:0:0:0:
393,105,40990,1,4,0:2:0:0:
504,200,41118,1,4,0:1:0:0:
504,200,41372,5,2,0:2:0:0:
418,179,41499,1,0,0:0:0:0:
245,305,41626,1,0,0:0:0:0:
331,326,41753,1,2,0:2:0:0:
176,367,41880,5,8,0:1:0:0:
336,17,42134,5,0,0:0:0:0:
175,124,42262,2,0,L|59:112,1,110.499994941712,2|8,0:2|0:0,0:0:0:0:
336,215,42516,1,2,0:0:0:0:
281,110,42643,6,0,P|375:85|491:138,1,220.999989883423,4|0,0:0|0:0,0:0:0:0:
228,252,43024,2,0,P|134:277|48:174,1,220.999989883423,8|0,0:1|0:0,0:0:0:0:
302,31,43406,5,8,0:1:0:0:
474,255,43660,5,4,0:0:0:0:
218,364,43914,5,4,0:0:0:0:
246,199,44168,6,0,L|259:83,1,110.499994941712,4|0,0:1|0:0,0:0:0:0:
330,57,44423,1,2,0:0:0:0:
109,116,44550,2,0,P|49:126|-6:128,1,110.499994941712,8|0,0:1|0:0,0:0:0:0:
160,48,44804,1,2,0:0:0:0:
160,267,44931,2,0,P|185:317|249:341,1,110.499994941712,8|0,0:1|0:0,0:0:0:0:
56,213,45185,1,4,0:2:0:0:
349,166,45312,2,0,L|322:292,1,110.499994941712,8|0,0:1|0:0,0:0:0:0:
126,124,45567,1,4,0:2:0:0:
449,202,45694,2,0,L|472:93,1,110.499994941712,8|0,0:1|0:0,0:0:0:0:
203,77,45948,5,2,0:0:0:0:
151,284,46075,1,8,0:1:0:0:
251,192,46202,1,0,0:0:0:0:
221,323,46329,5,2,0:0:0:0:
133,44,46456,1,8,0:1:0:0:
133,44,46711,5,2,0:2:0:0:
283,73,46838,1,0,0:0:0:0:
211,205,46965,1,8,0:0:0:0:
63,175,47092,1,8,0:1:0:0:
360,153,47219,6,0,P|421:212|404:354,1,220.999989883423,4|8,0:1|0:0,0:0:0:0:
265,55,47601,2,0,P|313:142|289:267,1,220.999989883423,8|0,0:1|0:0,0:0:0:0:
8,156,47982,2,0,P|95:108|220:132,1,220.999989883423,8|0,0:1|0:0,0:0:0:0:
239,325,48363,1,8,0:1:0:0:
285,227,48490,1,8,0:0:0:0:
179,232,48618,1,2,0:0:0:0:
352,310,48745,6,0,P|401:230|388:108,1,220.999989883423,4|0,0:0|0:0,0:0:0:0:
158,46,49126,2,0,P|131:150|211:234,1,220.999989883423,8|0,0:1|0:0,0:0:0:0:
305,241,49507,2,2,P|289:184|252:148,1,110.499994941712,10|0,0:1|0:0,0:0:0:0:
101,227,49762,2,2,P|117:284|154:320,1,110.499994941712,0|2,0:0|0:1,0:0:0:0:
145,131,50016,1,2,0:1:0:0:
253,323,50143,1,0,0:0:0:0:
200,230,50270,5,6,0:1:0:0:
200,230,50524,5,2,0:2:0:0:
314,149,50651,1,8,0:1:0:0:
333,290,50779,1,0,0:0:0:0:
278,223,50906,1,2,0:2:0:0:
442,203,51033,5,8,0:1:0:0:
230,19,51287,5,4,0:0:0:0:
66,253,51541,5,4,0:0:0:0:
182,330,51668,1,4,0:2:0:0:
278,223,51795,2,0,P|310:176|275:21,1,220.999989883423,4|4,0:0|0:2,0:0:0:0:
50,37,52177,2,0,P|121:31|229:133,1,220.999989883423,8|4,0:1|0:2,0:0:0:0:
189,315,52558,2,2,P|287:336|389:266,1,220.999989883423,10|8,0:1|0:1,0:0:0:0:
164,198,52940,1,4,0:2:0:0:
31,202,53067,1,10,0:1:0:0:
34,338,53194,1,10,0:1:0:0:
109,276,53321,5,6,0:1:0:0:
109,276,53575,5,2,0:2:0:0:
105,112,53702,1,0,0:0:0:0:
265,107,53829,1,0,0:0:0:0:
200,183,53956,1,2,0:2:0:0:
219,12,54084,2,0,L|340:35,1,110.499994941712,8|0,0:1|0:0,0:0:0:0:
433,203,54338,2,0,P|368:182|323:186,1,110.499994941712,8|8,0:0|0:1,0:0:0:0:
126,266,54592,2,0,L|17:245,1,110.499994941712,2|0,0:0|0:0,0:0:0:0:
52,71,54846,6,0,P|122:71|212:196,1,220.999989883423,4|0,0:0|0:0,0:0:0:0:
342,337,55228,2,0,P|411:329|461:188,1,220.999989883423,8|0,0:1|0:0,0:0:0:0:
229,282,55609,2,0,P|170:309|120:305,1,110.499994941712,8|0,0:1|0:0,0:0:0:0:
297,144,55863,2,0,P|358:141|407:154,1,110.499994941712,8|0,0:0|0:0,0:0:0:0:
55,88,56118,2,0,P|25:146|12:197,1,110.499994941712,2|0,0:0|0:0,0:0:0:0:
256,9,56372,5,4,0:1:0:0:
211,68,56626,5,0,0:0:0:0:
6,23,56753,1,8,0:0:0:0:
81,27,57007,5,0,0:0:0:0:
130,242,57134,1,8,0:1:0:0:
200,205,57389,5,2,0:0:0:0:
23,364,57516,1,2,0:2:0:0:
107,381,57770,5,2,0:0:0:0:
41,139,57897,1,4,0:0:0:0:
0,224,58151,5,2,0:0:0:0:
269,122,58279,1,8,0:1:0:0:
208,48,58533,5,2,0:2:0:0:
272,244,58660,2,0,P|329:209|342:149,1,110.499994941712,4|0,0:0|0:0,0:0:0:0:
160,175,58914,5,8,0:0:0:0:
73,279,59041,1,2,0:0:0:0:
185,352,59168,1,8,0:1:0:0:
160,175,59295,5,8,0:1:0:0:
166,261,59423,2,0,L|189:33,1,220.999989883423,4|2,0:1|0:2,0:0:0:0:
330,199,59804,1,8,0:0:0:0:
330,199,59931,2,0,P|292:254|245:277,1,110.499994941712,0|0,0:0|0:0,0:0:0:0:
77,267,60185,2,0,P|31:233|51:69,1,220.999989883423,8|8,0:1|0:0,0:0:0:0:
144,6,60567,1,0,0:0:0:0:
274,37,60694,2,0,P|326:71|345:134,1,110.499994941712,2|2,0:0|0:2,0:0:0:0:
178,309,60948,6,0,L|154:81,1,220.999989883423,4|2,0:1|0:2,0:0:0:0:
314,298,61329,2,0,L|315:56,1,220.999989883423,8|2,0:0|0:2,0:0:0:0:
426,334,61711,2,2,L|443:217,1,110.499994941712,8|2,0:1|0:1,0:0:0:0:
79,354,61965,2,2,L|62:237,1,110.499994941712,8|2,0:0|0:1,0:0:0:0:
0,180,62219,1,4,0:2:0:0:
249,10,62473,1,4,0:1:0:0:
499,191,74677,5,4,0:1:0:0:
499,191,74931,1,0,0:0:0:0:
499,191,75058,2,0,P|416:180|344:197,1,136,2|2,0:2|0:2,0:0:0:0:
301,256,75440,2,0,P|252:253|198:189,2,136,8|2|0,0:1|0:2|0:0,0:0:0:0:
263,54,76202,2,0,P|180:42|100:153,1,204,4|0,0:0|0:0,0:0:0:0:
20,183,76711,2,0,P|20:224|17:260,1,68,0|0,0:0|0:0,0:0:0:0:
135,354,76965,2,0,P|132:320|133:286,1,68,8|0,0:1|0:0,0:0:0:0:
255,368,77219,1,2,0:0:0:0:
255,368,77473,1,4,0:2:0:0:
297,298,77728,6,0,P|306:253|295:148,1,136,4|0,0:0|0:0,0:0:0:0:
254,79,78109,2,0,L|412:91,1,136,2|2,0:2|0:2,0:0:0:0:
468,59,78490,2,0,P|449:26|418:7,1,68,8|0,0:1|0:0,0:0:0:0:
393,172,78745,2,0,P|436:164|461:146,1,68,2|0,0:2|0:0,0:0:0:0:
329,0,78999,2,0,L|305:155,1,136,0|4,0:0|0:0,0:0:0:0:
234,166,79380,1,0,0:0:0:0:
153,138,79507,2,0,P|116:83|123:17,2,136,0|0|8,0:0|0:0|0:1,0:0:0:0:
153,138,80270,1,0,0:0:0:0:
20,227,80524,6,0,L|27:300,1,68,2|0,0:0|0:0,0:0:0:0:
73,362,80779,2,0,P|138:336|160:248,1,136,4|2,0:0|0:2,0:0:0:0:
256,192,81287,1,2,0:2:0:0:
439,362,81541,2,0,P|374:336|352:248,1,136,8|2,0:1|0:0,0:0:0:0:
265,38,82050,2,0,L|260:131,1,68,4|0,0:2|0:0,0:0:0:0:
183,145,82304,2,0,P|133:139|89:67,1,136,4|0,0:0|0:0,0:0:0:0:
264,209,82685,2,0,L|351:202,1,68,0|2,0:0|0:0,0:0:0:0:
335,207,83067,2,0,L|485:197,2,136,8|2|4,0:1|0:0|0:2,0:0:0:0:
150,289,83702,5,0,0:0:0:0:
150,289,83829,2,0,L|238:283,1,68,4|0,0:0|0:0,0:0:0:0:
97,227,84084,2,0,L|29:231,1,68,0|2,0:0|0:2,0:0:0:0:
164,76,84338,2,0,P|180:150|162:226,2,136,8|8|2,0:0|0:1|0:2,0:0:0:0:
87,57,84973,1,0,0:0:0:0:
34,114,85101,2,2,P|78:143|105:178,1,68,4|2,0:2|0:1,0:0:0:0:
304,348,85355,6,2,B|335:317|335:317|373:295,1,85,4|0,0:2|0:0,0:0:0:0:
179,210,85609,2,2,B|190:252|190:252|190:296,1,85,14|0,0:1|0:0,0:0:0:0:
361,170,85863,1,4,0:0:0:0:
283,138,85990,1,4,0:0:0:0:
280,244,86118,2,0,P|261:181|295:53,2,170,6|4|2,0:1|0:2|0:2,0:0:0:0:
16,88,86880,6,0,P|55:61|152:69,1,136,4|0,0:1|0:0,0:0:0:0:
144,175,87262,1,8,0:1:0:0:
64,189,87389,2,0,P|56:251|67:286,1,68,0|0,0:0|0:0,0:0:0:0:
177,363,87643,2,0,P|209:295|189:225,2,136,8|2|6,0:1|0:0|0:0,0:0:0:0:
276,120,88406,6,0,P|337:106|422:138,1,136,4|0,0:0|0:0,0:0:0:0:
450,299,88787,2,0,P|408:280|378:241,1,68,2|2,0:0|0:2,0:0:0:0:
392,265,89168,2,0,L|248:281,2,136,8|0|4,0:1|0:0|0:0,0:0:0:0:
106,138,89931,6,0,P|173:110|193:29,1,136,4|0,0:0|0:0,0:0:0:0:
109,25,90312,1,2,0:0:0:0:
23,69,90440,2,0,L|26:153,1,68,2|0,0:2|0:0,0:0:0:0:
73,339,90694,2,0,L|65:191,2,136,8|2|2,0:1|0:0|0:0,0:0:0:0:
283,231,91456,6,0,P|258:203|219:178,1,68,4|0,0:0|0:0,0:0:0:0:
195,277,91711,1,0,0:0:0:0:
268,339,91838,2,0,P|329:320|349:305,1,68,2|2,0:0|0:2,0:0:0:0:
195,277,92092,1,0,0:0:0:0:
365,193,92219,2,0,P|420:181|513:207,2,136,8|0|4,0:1|0:0|0:0,0:0:0:0:
147,47,92982,6,0,P|82:52|9:75,1,136,4|0,0:1|0:0,0:0:0:0:
2,162,93363,1,2,0:0:0:0:
75,205,93490,2,0,L|89:123,1,68,2|0,0:2|0:0,0:0:0:0:
221,73,93745,2,0,P|249:128|252:161,1,68,8|0,0:1|0:0,0:0:0:0:
184,315,93999,2,0,P|225:285|256:276,1,68,2|0,0:0|0:0,0:0:0:0:
426,213,94253,2,0,P|369:219|333:211,1,68,6|0,0:0|0:0,0:0:0:0:
159,209,94507,6,0,P|108:226|75:320,1,136,4|0,0:0|0:0,0:0:0:0:
320,287,94889,1,2,0:0:0:0:
283,212,95016,2,0,P|298:147|280:69,2,136,2|8|2,0:2|0:1|0:0,0:0:0:0:
283,212,95906,5,0,0:0:0:0:
119,209,96033,2,0,P|179:199|202:190,1,68,4|0,0:0|0:0,0:0:0:0:
342,149,96287,2,0,P|300:134|258:132,1,68,0|2,0:0|0:0,0:0:0:0:
74,121,96541,2,0,P|108:121|148:132,1,68,2|0,0:2|0:0,0:0:0:0:
361,245,96795,2,0,P|317:230|280:196,1,68,8|0,0:1|0:0,0:0:0:0:
235,22,97050,2,2,L|219:99,1,68,0|2,0:0|0:1,0:0:0:0:
194,333,97304,2,2,L|207:266,1,68,4|2,0:2|0:1,0:0:0:0:
208,174,97558,5,4,0:0:0:0:
309,117,97685,1,8,0:1:0:0:
381,223,97812,1,4,0:0:0:0:
485,163,97940,1,8,0:1:0:0:
505,190,98321,5,4,0:0:0:0:
7,190,98575,1,4,0:0:0:0:
254,1,99084,5,4,0:1:0:0:
254,1,99338,5,2,0:2:0:0:
194,57,99465,1,8,0:1:0:0:
316,111,99592,1,0,0:0:0:0:
227,198,99719,1,2,0:2:0:0:
511,192,99846,5,8,0:1:0:0:
318,35,100101,5,4,0:0:0:0:
175,277,100355,5,4,0:0:0:0:
315,359,100609,6,0,L|303:230,1,110.499994941712,4|0,0:2|0:0,0:0:0:0:
58,191,100863,1,4,0:2:0:0:
10,114,100990,2,0,P|85:74|230:80,1,220.999989883423,8|4,0:1|0:2,0:0:0:0:
332,153,101372,2,0,P|385:176|449:145,1,110.499994941712,8|0,0:1|0:0,0:0:0:0:
213,193,101626,2,0,P|151:224|127:272,1,110.499994941712,4|0,0:2|0:0,0:0:0:0:
330,273,101880,5,0,0:0:0:0:
321,69,102007,1,4,0:2:0:0:
132,143,102134,1,4,0:1:0:0:
132,143,102389,5,2,0:2:0:0:
288,175,102516,1,0,0:0:0:0:
175,308,102643,1,0,0:0:0:0:
196,216,102770,1,2,0:2:0:0:
329,344,102897,6,0,P|378:285|378:125,1,220.999989883423,8|0,0:1|0:0,0:0:0:0:
163,32,103279,2,0,P|130:92|206:220,1,220.999989883423,2|2,0:2|0:0,0:0:0:0:
355,71,103660,2,0,P|300:50|246:55,1,110.499994941712,4|0,0:0|0:0,0:0:0:0:
65,246,103914,1,0,0:0:0:0:
119,316,104041,2,0,P|171:328|231:318,1,110.499994941712,8|0,0:1|0:0,0:0:0:0:
454,184,104295,1,0,0:0:0:0:
473,108,104423,2,0,P|446:51|399:14,1,110.499994941712,8|0,0:1|0:0,0:0:0:0:
94,107,104677,5,4,0:0:0:0:
233,136,104804,1,0,0:0:0:0:
204,275,104931,1,4,0:0:0:0:
65,246,105058,1,0,0:0:0:0:
276,213,105185,6,0,P|339:221|391:237,1,110.499994941712,4|0,0:1|0:0,0:0:0:0:
430,303,105440,1,2,0:0:0:0:
183,335,105567,2,0,P|153:276|143:219,1,110.499994941712,8|0,0:1|0:0,0:0:0:0:
74,343,105821,1,2,0:0:0:0:
151,123,105948,2,0,L|275:140,1,110.499994941712,8|0,0:1|0:0,0:0:0:0:
382,259,106202,1,4,0:2:0:0:
418,30,106329,2,0,P|371:65|353:122,1,110.499994941712,8|0,0:1|0:0,0:0:0:0:
121,210,106584,5,4,0:2:0:0:
338,374,106711,1,8,0:1:0:0:
292,211,106838,1,0,0:0:0:0:
394,320,106965,5,2,0:0:0:0:
54,246,107092,1,8,0:1:0:0:
148,290,107346,5,2,0:0:0:0:
199,151,107473,1,8,0:1:0:0:
148,290,107601,1,0,0:0:0:0:
304,255,107728,2,0,P|329:197|307:130,1,110.499994941712,2|0,0:2|0:0,0:0:0:0:
96,36,107982,2,0,P|88:90|112:138,1,110.499994941712,8|8,0:0|0:1,0:0:0:0:
43,304,108236,6,0,B|171:282|124:373|255:356,1,220.999989883423,4|8,0:1|0:0,0:0:0:0:
43,304,108618,2,0,P|31:241|13:184,1,110.499994941712,8|0,0:1|0:0,0:0:0:0:
37,110,108872,1,0,0:0:0:0:
164,203,108999,2,0,P|271:183|374:220,1,220.999989883423,8|0,0:1|0:0,0:0:0:0:
301,31,109380,5,8,0:1:0:0:
169,68,109507,1,8,0:0:0:0:
218,0,109634,1,2,0:0:0:0:
86,37,109762,2,0,P|46:94|68:248,1,220.999989883423,4|0,0:0|0:0,0:0:0:0:
231,354,110143,2,0,P|274:298|231:153,1,220.999989883423,8|0,0:1|0:0,0:0:0:0:
148,263,110524,2,2,P|123:328|128:377,1,110.499994941712,10|0,0:1|0:0,0:0:0:0:
335,155,110779,2,2,L|313:28,1,110.499994941712,0|2,0:0|0:1,0:0:0:0:
161,173,111033,5,2,0:1:0:0:
276,334,111160,1,0,0:0:0:0:
429,208,111287,1,6,0:1:0:0:
429,208,111541,5,2,0:2:0:0:
282,162,111668,1,8,0:1:0:0:
327,320,111795,1,0,0:0:0:0:
345,229,111923,1,2,0:2:0:0:
26,211,112050,5,8,0:1:0:0:
256,255,112304,5,4,0:0:0:0:
279,11,112558,5,4,0:0:0:0:
56,53,112812,6,0,P|130:30|259:108,1,220.999989883423,4|4,0:0|0:2,0:0:0:0:
163,152,113194,2,0,P|239:121|375:171,1,220.999989883423,8|4,0:1|0:2,0:0:0:0:
125,284,113575,2,0,P|61:255|31:206,1,110.499994941712,10|0,0:1|0:0,0:0:0:0:
281,237,113829,2,2,P|283:292|261:342,1,110.499994941712,10|4,0:1|0:2,0:0:0:0:
257,114,114084,5,10,0:1:0:0:
400,55,114211,1,10,0:1:0:0:
500,193,114338,1,6,0:1:0:0:
500,193,114592,5,2,0:2:0:0:
401,143,114719,1,0,0:0:0:0:
351,242,114846,1,0,0:0:0:0:
450,292,114973,1,2,0:2:0:0:
285,155,115101,5,8,0:1:0:0:
85,371,115355,5,8,0:0:0:0:
0,84,115609,5,2,0:0:0:0:
42,211,115863,6,0,P|108:185|134:145,1,110.499994941712,4|0,0:0|0:0,0:0:0:0:
128,43,116118,1,0,0:0:0:0:
293,147,116245,2,0,P|398:139|525:169,1,220.999989883423,8|0,0:1|0:0,0:0:0:0:
314,324,116626,2,0,P|237:289|228:148,1,220.999989883423,8|8,0:1|0:0,0:0:0:0:
394,346,117007,5,0,0:0:0:0:
290,163,117134,1,2,0:0:0:0:
187,352,117262,1,0,0:0:0:0:
0,191,117389,5,4,0:1:0:0:
70,224,117643,5,0,0:0:0:0:
264,171,117770,1,8,0:0:0:0:
315,238,118024,5,0,0:0:0:0:
111,159,118151,1,8,0:1:0:0:
176,112,118406,5,2,0:0:0:0:
100,334,118533,1,2,0:2:0:0:
61,262,118787,5,2,0:0:0:0:
320,327,118914,1,4,0:0:0:0:
252,366,119168,5,2,0:0:0:0:
362,112,119295,1,8,0:1:0:0:
402,181,119550,5,2,0:2:0:0:
291,87,119677,2,0,P|230:107|188:151,1,110.499994941712,4|0,0:0|0:0,0:0:0:0:
138,333,119931,1,8,0:0:0:0:
84,245,120058,1,2,0:0:0:0:
270,211,120185,5,8,0:1:0:0:
197,267,120312,1,8,0:1:0:0:
284,298,120440,2,0,P|374:286|416:170,1,220.999989883423,4|2,0:1|0:2,0:0:0:0:
216,118,120821,1,8,0:0:0:0:
161,178,120948,2,0,P|135:229|136:289,1,110.499994941712,0|0,0:0|0:0,0:0:0:0:
343,118,121202,2,0,P|303:43|173:29,1,220.999989883423,8|8,0:1|0:0,0:0:0:0:
106,84,121584,1,0,0:0:0:0:
272,227,121711,5,2,0:0:0:0:
134,166,121838,1,2,0:2:0:0:
78,303,121965,1,4,0:1:0:0:
75,223,122219,5,2,0:2:0:0:
213,162,122346,1,8,0:0:0:0:
269,299,122473,1,0,0:0:0:0:
131,360,122601,1,2,0:2:0:0:
255,13,122728,5,10,0:1:0:0:
255,13,122855,1,2,0:1:0:0:
255,13,122982,1,8,0:0:0:0:
255,13,123109,1,2,0:1:0:0:
154,84,123236,2,2,P|159:152|199:206,1,110.499994941712,4|2,0:2|0:1,0:0:0:0:
409,237,123490,1,4,0:1:0:0:
12,193,134168,5,2,0:0:0:0:
12,193,134931,2,2,P|78:183|202:209,1,170,2|4,0:2|0:0,0:0:0:0:
228,268,135312,2,0,P|286:257|323:240,2,85,8|4|0,0:1|0:0|0:0,0:0:0:0:
269,118,135694,6,2,P|346:138|378:228,1,170,6|0,0:1|0:0,0:0:0:0:
141,358,136075,1,8,0:1:0:0:
141,358,136202,2,2,L|151:266,1,85,8|2,0:0|0:1,0:0:0:0:
44,120,136456,2,0,L|34:204,1,85,4|0,1:2|0:0,0:0:0:0:
128,154,136711,2,2,P|146:79|233:48,1,170,2|0,0:1|0:0,0:0:0:0:
282,110,137092,1,0,0:0:0:0:
455,290,137219,6,2,P|391:300|321:204,1,170,4|0,0:0|0:1,0:0:0:0:
359,152,137601,1,10,0:1:0:0:
211,232,137728,2,2,L|110:215,1,85,8|2,0:0|0:1,0:0:0:0:
279,319,137982,5,2,0:0:0:0:
265,53,138109,2,2,P|252:115|248:239,1,170,2|0,0:1|0:0,0:0:0:0:
194,308,138490,2,0,P|250:313|291:322,1,85,0|0,0:0|0:0,0:0:0:0:
436,306,138745,6,0,P|444:231|428:132,2,170,4|2|8,0:1|0:1|0:0,0:0:0:0:
317,300,139380,1,0,0:0:0:0:
253,356,139507,2,0,L|156:342,1,85,10|0,0:1|0:0,0:0:0:0:
35,293,139762,2,2,L|95:215,1,85,2|0,0:1|0:0,0:0:0:0:
198,135,140016,2,2,L|234:226,1,85,2|0,0:1|0:0,0:0:0:0:
72,223,140270,6,2,L|102:124,1,85,4|2,0:0|0:1,0:0:0:0:
244,67,140524,2,0,L|314:142,1,85,2|0,0:1|0:0,0:0:0:0:
286,287,140779,2,2,L|185:310,1,85,8|2,0:0|0:1,0:0:0:0:
90,47,141033,6,2,L|186:11,1,85,10|0,0:1|0:0,0:0:0:0:
372,127,141287,2,2,L|369:243,1,85,8|2,0:0|0:1,0:0:0:0:
106,299,141541,2,2,L|21:243,1,85,4|2,0:0|0:1,0:0:0:0:
247,247,141795,6,2,P|311:272|341:386,1,170,6|0,0:1|0:0,0:0:0:0:
183,289,142177,1,2,0:0:0:0:
179,215,142304,2,0,P|178:150|179:111,1,85,2|2,0:1|0:1,0:0:0:0:
429,58,142558,1,10,0:1:0:0:
350,24,142685,1,0,0:0:0:0:
276,66,142812,1,8,0:0:0:0:
263,150,142940,1,2,0:1:0:0:
431,207,143067,2,2,P|404:163|387:117,1,85,2|2,0:0|0:1,0:0:0:0:
427,333,143321,6,2,P|323:304|244:325,1,170,4|2,0:0|0:1,0:0:0:0:
80,327,143702,1,0,0:0:0:0:
118,258,143829,2,2,P|167:257|220:269,1,85,8|2,0:0|0:1,0:0:0:0:
354,144,144084,1,10,0:1:0:0:
354,144,144338,5,8,0:0:0:0:
250,88,144465,1,0,0:0:0:0:
194,191,144592,1,4,0:0:0:0:
298,247,144719,1,2,0:0:0:0:
150,97,144846,6,0,L|157:-2,1,85,6|0,0:1|0:0,0:0:0:0:
321,84,145101,2,0,L|314:-15,1,85,2|0,0:1|0:0,0:0:0:0:
399,227,145355,2,2,L|415:135,1,85,8|2,0:0|0:1,0:0:0:0:
264,366,145609,2,2,B|244:305|263:244|263:244|245:249|245:249|254:188|231:131,1,255,10|2,0:1|0:0,0:0:0:0:
58,201,146118,2,0,P|99:197|145:175,1,85,4|0,0:2|0:0,0:0:0:0:
341,176,146372,6,0,P|399:187|464:302,1,170,4|8,0:1|0:0,0:0:0:0:
160,285,146753,1,4,0:2:0:0:
120,368,146880,2,0,P|197:359|229:345,1,85,4|4,0:0|0:2,0:0:0:0:
273,125,147134,6,0,P|331:112|381:15,1,170,4|8,0:1|0:0,0:0:0:0:
51,133,147516,1,8,0:1:0:0:
11,50,147643,2,0,P|88:59|120:73,1,85,4|4,0:0|0:2,0:0:0:0:
501,193,147897,5,4,0:0:0:0:
501,193,148088,1,2,0:0:0:0:
501,193,148151,2,0,P|452:181|380:196,1,101.999996887207,2|2,0:1|0:1,0:0:0:0:
249,210,148406,2,2,P|283:173|306:103,1,101.999996887207,8|2,0:0|0:1,0:0:0:0:
347,242,148660,2,2,P|333:316|191:340,1,203.999993774414,8|2,0:1|0:1,0:0:0:0:
141,293,149041,1,2,0:2:0:0:
175,197,149168,1,8,0:0:0:0:
109,118,149295,1,2,0:1:0:0:
18,217,149423,5,4,0:0:0:0:
18,217,149613,1,2,0:0:0:0:
18,217,149677,2,0,P|33:157|39:107,1,101.999996887207,2|2,0:1|0:1,0:0:0:0:
96,281,149931,2,2,P|151:235|196:209,1,101.999996887207,8|2,0:0|0:1,0:0:0:0:
116,378,150185,2,2,P|196:372|314:305,1,203.999993774414,8|2,0:0|0:1,0:0:0:0:
374,247,150567,2,0,P|448:252|491:267,2,101.999996887207,2|8|2,0:2|0:0|0:1,0:0:0:0:
292,191,150948,6,0,P|326:112|446:84,2,203.999993774414,4|2|8,0:0|0:1|0:0,0:0:0:0:
76,138,151584,1,2,0:1:0:0:
144,79,151711,2,2,L|255:99,1,101.999996887207,8|2,0:1|0:1,0:0:0:0:
146,259,151965,2,0,P|86:283|37:267,1,101.999996887207,2|2,0:1|0:2,0:0:0:0:
278,358,152219,2,2,P|275:286|291:235,1,101.999996887207,8|2,0:0|0:1,0:0:0:0:
481,207,152473,6,0,P|417:216|366:343,1,203.999993774414,4|2,0:0|0:1,0:0:0:0:
179,352,152855,1,2,0:1:0:0:
185,250,152982,2,2,P|188:187|198:139,1,101.999996887207,8|2,0:0|0:1,0:0:0:0:
348,68,153236,5,10,0:1:0:0:
258,305,153490,5,4,0:2:0:0:
24,206,153745,5,4,0:0:0:0:
115,127,153999,6,0,L|305:152,1,170,4|2,0:1|0:2,0:0:0:0:
283,149,154317,1,0,0:0:0:0:
283,149,154380,2,0,P|271:192|267:243,2,85,2|8|0,0:2|0:0|0:0,0:0:0:0:
431,353,154762,2,0,P|437:265|387:173,1,170,8|2,0:1|0:0,0:0:0:0:
194,353,155270,1,8,0:0:0:0:
2,211,155524,2,0,P|97:212|179:281,2,170,4|2|8,0:0|0:0|0:0,0:0:0:0:
268,200,156287,2,0,L|259:3,1,170,8|0,0:1|0:0,0:0:0:0:
260,30,156795,5,2,0:0:0:0:
340,137,156923,1,4,0:2:0:0:
188,145,157050,2,0,B|100:130|100:130|52:156|9:144,2,170,4|0|8,0:1|0:0|0:0,0:0:0:0:
334,360,157812,2,0,B|360:309|360:309|340:237|260:248,1,170,8|0,0:1|0:0,0:0:0:0:
210,300,158194,1,0,0:0:0:0:
131,331,158321,2,0,P|75:306|35:265,1,85,8|0,0:0|0:0,0:0:0:0:
231,167,158575,6,2,P|310:147|435:180,1,203.999993774414,6|0,0:1|0:0,0:0:0:0:
288,301,158956,2,2,P|207:313|132:223,1,203.999993774414,2|2,0:1|0:1,0:0:0:0:
92,91,159338,2,2,P|134:54|192:49,1,101.999996887207,10|0,0:1|0:0,0:0:0:0:
422,196,159592,2,2,P|372:227|317:228,1,101.999996887207,2|2,0:0|0:1,0:0:0:0:
289,13,159846,2,0,L|306:120,1,101.999996887207,8|0,0:0|0:0,0:0:0:0:
153,273,160101,1,6,0:1:0:0:
153,273,160355,5,4,0:0:0:0:
176,162,160482,1,2,0:0:0:0:
287,181,160609,1,4,0:0:0:0:
223,229,160736,5,2,0:0:0:0:
257,62,160863,1,8,0:1:0:0:
424,90,160990,1,8,0:0:0:0:
429,300,161118,5,4,0:0:0:0:
323,173,161245,1,0,1:0:0:0:
263,331,161372,1,4,1:2:0:0:
256,8,161626,5,4,0:1:0:0:
256,8,161880,5,2,0:2:0:0:
149,36,162007,1,8,0:1:0:0:
257,172,162134,1,0,0:0:0:0:
364,144,162262,1,2,0:2:0:0:
98,204,162389,5,8,0:1:0:0:
98,204,162643,5,4,0:0:0:0:
178,128,162770,1,0,0:0:0:0:
39,132,162897,1,4,0:0:0:0:
14,258,163024,1,2,0:0:0:0:
176,289,163151,6,0,P|225:238|195:87,1,220.999989883423,4|4,0:2|0:2,0:0:0:0:
98,0,163533,2,0,P|76:75|100:229,1,220.999989883423,8|4,0:1|0:2,0:0:0:0:
302,327,163914,2,0,P|315:267|299:220,1,110.499994941712,8|0,0:1|0:0,0:0:0:0:
125,304,164168,2,0,P|162:351|218:374,1,110.499994941712,4|0,0:2|0:0,0:0:0:0:
219,107,164423,2,0,L|196:223,1,110.499994941712,0|4,0:0|0:2,0:0:0:0:
509,194,164677,5,4,0:1:0:0:
509,194,164931,5,2,0:2:0:0:
378,138,165058,1,0,0:0:0:0:
317,272,165185,1,0,0:0:0:0:
448,328,165312,1,2,0:2:0:0:
417,225,165440,6,0,P|383:176|232:132,1,220.999989883423,8|0,0:1|0:0,0:0:0:0:
126,280,165821,2,0,P|161:302|231:306,2,110.499994941712,2|8|2,0:2|0:0|0:0,0:0:0:0:
55,51,166202,2,0,P|109:40|187:68,1,110.499994941712,4|2,0:0|0:2,0:0:0:0:
209,152,166456,1,2,0:2:0:0:
459,102,166584,2,0,P|405:91|327:119,1,110.499994941712,8|0,0:1|0:0,0:0:0:0:
54,168,166838,1,2,0:2:0:0:
143,293,166965,1,8,0:1:0:0:
143,293,167219,5,4,0:0:0:0:
257,204,167346,1,0,0:0:0:0:
168,79,167473,1,4,0:0:0:0:
54,168,167601,1,2,0:0:0:0:
313,131,167728,6,0,P|347:129|444:145,1,110.499994941712,4|0,0:1|0:0,0:0:0:0:
482,197,167982,1,2,0:0:0:0:
227,227,168109,2,0,P|261:229|358:213,1,110.499994941712,8|0,0:1|0:0,0:0:0:0:
482,197,168363,1,2,0:0:0:0:
103,111,168490,2,0,P|137:109|234:125,1,110.499994941712,8|0,0:1|0:0,0:0:0:0:
482,197,168745,1,4,0:2:0:0:
146,349,168872,6,0,P|116:288|101:218,1,110.499994941712,8|0,0:1|0:0,0:0:0:0:
256,52,169126,1,4,0:2:0:0:
366,349,169253,2,0,P|396:288|411:218,1,110.499994941712,8|0,0:1|0:0,0:0:0:0:
256,39,169507,1,2,0:0:0:0:
254,374,169634,2,0,L|257:248,1,110.499994941712,8|0,0:1|0:0,0:0:0:0:
256,26,169889,1,2,0:0:0:0:
258,190,170016,5,8,0:1:0:0:
173,277,170270,5,2,0:2:0:0:
153,123,170397,1,0,0:0:0:0:
337,107,170524,1,8,0:0:0:0:
357,261,170651,1,8,0:1:0:0:
258,190,170779,6,0,B|168:171|168:171|104:227|38:187,1,220.999989883423,4|8,0:1|0:0,0:0:0:0:
277,108,171160,2,0,B|367:127|367:127|431:71|497:111,1,220.999989883423,8|0,0:1|0:0,0:0:0:0:
123,104,171541,1,8,0:1:0:0:
123,104,171795,5,0,0:0:0:0:
205,79,171923,1,8,0:1:0:0:
269,192,172050,5,8,0:0:0:0:
187,167,172177,1,2,0:0:0:0:
220,278,172304,6,0,P|290:278|377:167,1,220.999989883423,4|0,0:0|0:0,0:0:0:0:
123,278,172685,2,0,P|179:357|314:360,1,220.999989883423,8|0,0:1|0:0,0:0:0:0:
451,205,173067,2,2,P|451:139|427:94,1,110.499994941712,10|0,0:1|0:0,0:0:0:0:
185,50,173321,2,2,P|136:101|116:154,1,110.499994941712,0|2,0:0|0:1,0:0:0:0:
375,317,173575,5,2,0:1:0:0:
332,59,173702,1,0,0:0:0:0:
130,212,173829,1,6,0:1:0:0:
130,212,174084,5,2,0:2:0:0:
228,187,174211,1,8,0:1:0:0:
250,288,174338,1,0,0:0:0:0:
166,275,174465,5,2,0:2:0:0:
312,225,174592,2,0,P|296:162|270:113,1,110.499994941712,8|0,0:1|0:0,0:0:0:0:
131,131,174846,2,0,L|2:161,1,110.499994941712,4|0,0:0|0:0,0:0:0:0:
16,249,175101,5,4,0:0:0:0:
176,358,175228,1,4,0:2:0:0:
355,298,175355,2,0,P|374:226|342:64,1,220.999989883423,4|4,0:0|0:2,0:0:0:0:
172,12,175736,2,0,P|136:65|206:215,1,220.999989883423,8|4,0:1|0:2,0:0:0:0:
350,8,176118,2,2,P|287:9|243:41,1,110.499994941712,10|0,0:1|0:0,0:0:0:0:
125,315,176372,5,10,0:1:0:0:
194,338,176456,5,2,0:0:0:0:
267,334,176541,5,2,0:0:0:0:
324,287,176626,6,0,P|343:241|388:189,1,110.499994941712,10|10,0:1|0:1,0:0:0:0:
243,235,176880,2,0,P|169:232|110:102,1,220.999989883423,6|2,0:1|0:2,0:0:0:0:
280,156,177262,1,0,0:0:0:0:
507,203,177389,1,4,0:2:0:0:
507,203,177643,6,0,B|451:195|451:195|401:145,1,110.499994941712,8|0,0:1|0:0,0:0:0:0:
425,368,177897,2,0,B|459:323|459:323|528:305,1,110.499994941712,8|8,0:0|0:1,0:0:0:0:
288,196,178151,1,2,0:0:0:0:
303,340,178279,1,4,0:2:0:0:
238,276,178406,6,0,P|166:271|94:153,1,220.999989883423,4|4,0:0|0:2,0:0:0:0:
253,21,178787,2,0,P|335:53|387:200,1,220.999989883423,8|4,0:1|0:2,0:0:0:0:
101,82,179168,2,0,P|134:39|185:10,1,110.499994941712,8|4,0:1|0:2,0:0:0:0:
266,204,179423,5,8,0:0:0:0:
261,94,179550,1,4,0:2:0:0:
172,148,179677,1,2,0:0:0:0:
172,148,179931,5,4,0:1:0:0:
96,228,180058,1,2,0:2:0:0:
202,257,180185,1,0,0:0:0:0:
281,180,180312,5,8,0:0:0:0:
389,202,180440,1,2,0:2:0:0:
308,167,180567,1,0,0:0:0:0:
358,298,180694,6,0,L|475:314,1,110.499994941712,8|2,0:1|0:2,0:0:0:0:
295,343,180948,1,2,0:0:0:0:
222,331,181075,2,0,L|112:316,1,110.499994941712,2|8,0:2|0:0,0:0:0:0:
29,243,181329,1,2,0:0:0:0:
180,149,181456,5,4,0:0:0:0:
269,83,181584,1,2,0:2:0:0:
168,38,181711,1,2,0:0:0:0:
293,211,181838,6,0,B|345:198|345:198|414:214,1,110.499994941712,8|2,0:1|0:2,0:0:0:0:
198,294,182092,1,2,0:2:0:0:
139,210,182219,2,0,B|87:197|87:197|18:213,1,110.499994941712,4|2,0:0|0:2,0:0:0:0:
250,11,182473,5,8,0:0:0:0:
346,99,182601,1,2,0:0:0:0:
258,189,182728,1,8,0:1:0:0:
162,101,182855,1,8,0:1:0:0:
389,261,182982,6,0,B|253:239|311:316|161:293,1,220.999989883423,4|0,0:1|0:0,0:0:0:0:
389,261,183363,2,0,L|501:258,1,110.499994941712,8|0,0:0|0:0,0:0:0:0:
369,182,183618,1,0,0:0:0:0:
270,131,183745,2,0,L|28:138,1,220.999989883423,8|8,0:1|0:0,0:0:0:0:
360,78,184126,1,0,0:0:0:0:
369,182,184253,2,0,L|481:179,1,110.499994941712,2|4,0:0|0:2,0:0:0:0:
209,297,184507,5,4,0:1:0:0:
206,307,184571,1,0,0:0:0:0:
204,317,184634,1,2,0:2:0:0:
201,327,184698,1,0,0:0:0:0:
199,338,184762,2,0,B|142:344|142:344|78:311,1,110.499994941712,2|8,0:2|0:0,0:0:0:0:
227,150,185016,2,0,B|284:144|284:144|348:177,1,110.499994941712,0|6,0:0|0:2,0:0:0:0:
443,330,185270,5,8,0:1:0:0:
349,248,185397,1,2,0:1:0:0:
184,256,185524,5,8,0:0:0:0:
90,174,185651,1,2,0:1:0:0:
258,0,185779,5,4,0:2:0:0:
258,384,186033,5,4,0:1:0:0:
