osu file format v14

[General]
AudioFilename: audio.mp3
AudioLeadIn: 0
PreviewTime: 98959
Countdown: 0
SampleSet: Soft
StackLeniency: 0.5
Mode: 0
LetterboxInBreaks: 0
WidescreenStoryboard: 1

[Editor]
Bookmarks: 13663,38069,74680,86883,123493,135696,146374,161629,186035,197985
DistanceSpacing: 1.5
BeatDivisor: 4
GridSize: 8
TimelineZoom: 2.799999

[Metadata]
Title:Sayonara Waltz
TitleUnicode:さよならワルツ
Artist:la la larks
ArtistUnicode:la la larks
Creator:Elayue
Version:bongo's Insane
Source:
Tags:japanese rock jrock j-rock bunda Culture Vulture bongo amateurre olibomby AyameMyMommy Pile goth asuka goth_asuka elicz1 some hero some_hero
BeatmapID:3151845
BeatmapSetID:1217160

[Difficulty]
HPDrainRate:5
CircleSize:4
OverallDifficulty:8
ApproachRate:9
SliderMultiplier:1.4
SliderTickRate:1

[Events]
//Background and Video events
0,0,"Konachan.com - 310378 clouds nobody original scenic skyrick9413 stars sunset.jpg",0,0
//Break Periods
2,62676,74080
2,123693,134334
//Storyboard Layer 0 (Background)
//Storyboard Layer 1 (Fail)
//Storyboard Layer 2 (Pass)
//Storyboard Layer 3 (Foreground)
//Storyboard Layer 4 (Overlay)
//Storyboard Sound Samples

[TimingPoints]
697,254.237288135593,3,2,1,75,1,0
1459,254.237288135593,3,2,1,75,1,0
1459,-100,3,2,1,52,0,0
7306,-100,3,2,2,52,0,0
7560,-100,3,2,1,52,0,0
10230,-100,3,2,1,38,0,0
10357,-100,3,2,1,52,0,0
13663,-111.111111111111,3,2,1,52,0,0
20208,-111.111111111111,3,2,1,30,0,0
20272,-111.111111111111,3,2,1,52,0,0
23259,-111.111111111111,3,2,1,30,0,0
23323,-111.111111111111,3,2,1,52,0,0
36544,-90.9090909090909,3,2,1,52,0,0
38069,-90.9090909090909,3,2,1,78,0,0
39340,-90.9090909090909,3,2,2,78,0,0
39594,-90.9090909090909,3,2,1,78,0,0
42391,-90.9090909090909,3,2,2,78,0,0
42645,-90.9090909090909,3,2,1,78,0,0
43916,-90.9090909090909,3,2,2,78,0,0
44170,-90.9090909090909,3,2,1,78,0,0
48492,-90.9090909090909,3,2,2,78,0,0
48747,-90.9090909090909,3,2,1,78,0,0
49891,-90.9090909090909,3,2,2,78,0,0
50018,-90.9090909090909,3,2,1,78,0,0
50145,-90.9090909090909,3,2,2,78,0,0
50272,-90.9090909090909,3,2,1,78,0,0
51543,-90.9090909090909,3,2,2,78,0,0
51797,-90.9090909090909,3,2,1,78,0,0
54594,-90.9090909090909,3,2,2,78,0,0
54848,-90.9090909090909,3,2,1,78,0,0
56120,-90.9090909090909,3,2,2,78,0,0
56374,-90.9090909090909,3,2,1,78,0,0
59043,-90.9090909090909,3,2,1,40,0,0
59170,-90.9090909090909,3,2,1,60,0,0
59297,-90.9090909090909,3,2,1,78,0,0
60696,-90.9090909090909,3,2,2,78,0,0
60950,-90.9090909090909,3,2,1,78,0,0
62094,-90.9090909090909,3,2,2,78,0,0
62221,-90.9090909090909,3,2,1,78,0,0
62475,-90.9090909090909,3,2,1,52,0,0
74680,-111.111111111111,3,2,1,52,0,0
85358,-100,3,2,1,52,0,0
97814,-100,3,2,1,44,0,0
97942,-100,3,2,1,52,0,0
98324,-90.9090909090909,3,2,1,52,0,0
99086,-90.9090909090909,3,2,1,78,0,0
100357,-90.9090909090909,3,2,2,78,0,0
100611,-90.9090909090909,3,2,1,78,0,0
101755,-90.9090909090909,3,2,2,78,0,0
101882,-90.9090909090909,3,2,1,78,0,0
103408,-90.9090909090909,3,2,2,78,0,0
103662,-90.9090909090909,3,2,1,78,0,0
104933,-90.9090909090909,3,2,2,78,0,0
105187,-90.9090909090909,3,2,1,78,0,0
108111,-90.9090909090909,3,2,2,78,0,0
108238,-90.9090909090909,3,2,1,78,0,0
109509,-90.9090909090909,3,2,2,78,0,0
109764,-90.9090909090909,3,2,1,78,0,0
111035,-90.9090909090909,3,2,2,78,0,0
111289,-90.9090909090909,3,2,1,78,0,0
112560,-90.9090909090909,3,2,2,78,0,0
112814,-90.9090909090909,3,2,1,78,0,0
115611,-90.9090909090909,3,2,2,78,0,0
115865,-90.9090909090909,3,2,1,78,0,0
117136,-90.9090909090909,3,2,2,78,0,0
117391,-90.9090909090909,3,2,1,78,0,0
120060,-90.9090909090909,3,2,2,78,0,0
120187,-90.9090909090909,3,2,1,78,0,0
121713,-90.9090909090909,3,2,2,78,0,0
121967,-90.9090909090909,3,2,1,78,0,0
122348,-90.9090909090909,3,2,1,30,0,0
122475,-90.9090909090909,3,2,1,40,0,0
122603,-90.9090909090909,3,2,1,50,0,0
122730,-90.9090909090909,3,2,1,64,0,0
122984,-90.9090909090909,3,2,1,78,0,0
123365,-90.9090909090909,3,2,2,78,0,0
123492,-90.9090909090909,3,2,1,62,0,0
135188,-100,3,2,1,62,0,0
138365,-100,3,2,1,30,0,0
138492,-100,3,2,1,62,0,0
142941,-100,3,2,2,62,0,0
143069,-100,3,2,1,62,0,0
143196,-100,3,2,2,62,0,0
143323,-100,3,2,1,62,0,0
144594,-100,3,2,2,62,0,0
144848,-100,3,2,1,62,0,0
145992,-100,3,2,2,62,0,0
146374,-100,3,2,1,62,0,0
148281,-100,3,2,2,62,0,0
148662,-100,3,2,1,62,0,0
149679,-100,3,2,2,62,0,0
149806,-100,3,2,1,62,0,0
150696,-100,3,2,2,62,0,0
150950,-100,3,2,1,62,0,0
152221,-100,3,2,2,62,0,0
152475,-100,3,2,1,62,0,0
153747,-100,3,2,2,62,0,0
154001,-100,3,2,1,62,0,0
155272,-100,3,2,2,62,0,0
155526,-100,3,2,1,62,0,0
156670,-100,3,2,1,30,0,0
156797,-100,3,2,1,40,0,0
156925,-100,3,2,1,50,0,0
157052,-100,3,2,1,62,0,0
160357,-100,3,2,1,40,0,0
160611,-100,3,2,1,50,0,0
160865,-100,3,2,1,60,0,0
161120,-100,3,2,1,62,0,0
161374,-100,3,2,1,60,0,0
161629,-90.9090909090909,3,2,1,78,0,0
162899,-90.9090909090909,3,2,2,78,0,0
163153,-90.9090909090909,3,2,1,78,0,0
164297,-90.9090909090909,3,2,2,78,0,0
164425,-90.9090909090909,3,2,1,78,0,0
165950,-90.9090909090909,3,2,2,78,0,0
166204,-90.9090909090909,3,2,1,78,0,0
167475,-90.9090909090909,3,2,2,78,0,0
167730,-90.9090909090909,3,2,1,78,0,0
169128,-90.9090909090909,3,2,2,78,0,0
169255,-90.9090909090909,3,2,1,78,0,0
170272,-90.9090909090909,3,2,1,60,0,0
170399,-90.9090909090909,3,2,1,64,0,0
170526,-90.9090909090909,3,2,1,68,0,0
170653,-90.9090909090909,3,2,1,72,0,0
170781,-90.9090909090909,3,2,1,78,0,0
172052,-90.9090909090909,3,2,2,78,0,0
172306,-90.9090909090909,3,2,1,78,0,0
173704,-90.9090909090909,3,2,2,78,0,0
173831,-90.9090909090909,3,2,1,78,0,0
175103,-90.9090909090909,3,2,2,78,0,0
175230,-90.9090909090909,3,2,1,78,0,0
176458,-90.9090909090909,3,2,1,60,0,0
176628,-90.9090909090909,3,2,1,78,0,0
176755,-90.9090909090909,3,2,2,78,0,0
176882,-90.9090909090909,3,2,1,78,0,0
178153,-90.9090909090909,3,2,2,78,0,0
178281,-90.9090909090909,3,2,1,78,0,0
182603,-90.9090909090909,3,2,2,78,0,0
182730,-90.9090909090909,3,2,1,78,0,0
182857,-90.9090909090909,3,2,2,78,0,0
182984,-90.9090909090909,3,2,1,78,0,0
184255,-90.9090909090909,3,2,2,78,0,0
184509,-90.9090909090909,3,2,1,78,0,0
184636,-90.9090909090909,3,2,1,30,0,0
184764,-90.9090909090909,3,2,1,78,0,0
184891,-90.9090909090909,3,2,1,60,0,0
185018,-90.9090909090909,3,2,1,78,0,0
185145,-90.9090909090909,3,2,1,40,0,0
185272,-90.9090909090909,3,2,1,78,0,0
185399,-90.9090909090909,3,2,1,40,0,0
185526,-90.9090909090909,3,2,1,78,0,0
188661,-90.9090909090909,3,2,1,40,0,0
188831,-90.9090909090909,3,2,1,78,0,0
190230,-90.9090909090909,3,2,1,50,0,0
190357,-90.9090909090909,3,2,1,60,0,0
190484,-90.9090909090909,3,2,1,70,0,0
190611,-90.9090909090909,3,2,1,78,0,0
193280,-90.9090909090909,3,2,1,40,0,0
193408,-90.9090909090909,3,2,1,78,0,0
194297,-90.9090909090909,3,2,2,78,0,0
194425,-90.9090909090909,3,2,1,78,0,0
194679,-90.9090909090909,3,2,1,40,0,0
194806,-90.9090909090909,3,2,1,50,0,0
194933,-90.9090909090909,3,2,1,60,0,0
195060,-90.9090909090909,3,2,1,70,0,0
195187,-90.9090909090909,3,2,1,78,0,0
196204,-90.9090909090909,3,2,1,50,0,0
196458,-90.9090909090909,3,2,1,58,0,0
196713,-90.9090909090909,3,2,1,64,0,0
196967,-90.9090909090909,3,2,1,70,0,0
197221,-90.9090909090909,3,2,1,78,0,0

[Colours]
Combo1 : 188,121,255
Combo2 : 183,183,255
Combo3 : 130,186,255

[HitObjects]
174,177,697,6,0,L|165:143,1,35,8|0,2:0|2:0,2:0:0:0:
196,290,951,1,8,2:3:0:0:
52,163,1205,1,4,2:3:0:0:
255,88,1459,6,0,P|322:105|392:111,1,140,6|2,1:2|2:0,2:0:0:0:
415,45,1841,2,0,P|400:77|392:111,1,70,0|0,2:0|1:0,2:0:0:0:
468,187,2095,1,0,2:0:0:0:
468,187,2222,2,0,P|458:256|433:321,1,140,10|2,2:0|2:0,2:0:0:0:
344,371,2603,1,8,2:3:0:0:
344,371,2730,2,0,P|336:337|339:302,1,70,2|4,1:2|2:3,0:0:0:0:
259,221,2985,6,0,L|120:241,1,140,2|0,1:2|2:0,2:0:0:0:
120,241,3366,2,0,P|130:275|138:309,1,70,10|0,2:0|0:0,0:0:0:0:
77,64,3747,2,0,P|144:64|180:120,1,140,10|8,2:0|2:3,2:0:0:0:
19,162,4256,1,4,2:3:0:0:
287,113,4510,6,0,P|321:117|355:126,1,70,6|0,1:2|0:0,2:0:0:0:
443,77,4764,1,2,2:0:0:0:
443,77,4891,2,0,P|456:109|464:143,1,70,10|0,2:3|0:0,0:0:0:0:
352,227,5146,1,2,2:0:0:0:
352,227,5273,2,0,P|418:228|452:286,1,140,10|2,2:0|2:0,2:0:0:0:
360,332,5654,2,0,L|290:324,1,70,8|2,2:3|1:2,0:0:0:0:
154,272,5908,5,4,2:3:0:0:
154,272,6035,2,0,P|219:252|245:189,1,140,2|0,1:2|2:0,2:0:0:0:
149,99,6417,1,10,2:0:0:0:
149,99,6544,2,0,L|157:168,1,70,0|0,1:2|0:0,2:0:0:0:
50,287,6798,2,0,L|58:218,1,70,10|0,2:0|2:0,2:0:0:0:
251,99,7052,5,8,2:3:0:0:
285,92,7179,1,4,2:3:0:0:
320,93,7306,1,8,2:3:0:0:
353,102,7433,1,4,2:3:0:0:
384,118,7561,6,0,P|366:186|360:256,1,140,6|2,1:2|2:0,2:0:0:0:
441,307,7942,2,0,P|451:273|453:238,1,70,10|0,2:3|0:0,0:0:0:0:
296,324,8196,1,0,2:0:0:0:
296,324,8324,2,0,B|213:331|238:299|160:302,1,140,10|2,2:0|2:0,2:0:0:0:
80,357,8705,1,8,2:3:0:0:
80,357,8832,2,0,P|69:323|67:288,1,70,2|4,1:2|2:3,2:0:0:0:
189,149,9086,2,0,P|252:171|271:236,1,140,2|0,1:2|2:0,2:0:0:0:
135,225,9468,2,0,P|109:201|94:169,1,70,6|0,2:3|1:2,2:0:0:0:
280,8,9849,6,0,P|293:77|279:145,1,140,10|8,2:0|2:3,2:0:0:0:
384,124,10230,1,0,2:0:0:0:
384,124,10358,2,0,P|385:89|394:55,1,70,4|0,2:3|2:0,0:0:0:0:
485,203,10612,6,0,L|347:228,1,140,6|2,1:2|2:0,2:0:0:0:
389,313,10993,2,0,L|457:327,1,70,10|0,2:3|1:0,0:0:0:0:
305,371,11247,1,0,0:0:0:0:
305,371,11374,2,0,P|281:307|217:286,1,140,10|2,2:0|2:0,2:0:0:0:
136,354,11756,1,8,2:3:0:0:
105,336,11883,1,2,1:2:0:0:
94,302,12010,1,4,2:3:0:0:
109,270,12137,6,0,L|130:131,1,140,2|0,1:2|2:0,2:0:0:0:
130,131,12519,2,0,L|117:62,1,70,10|0,2:3|1:2,2:0:0:0:
171,216,12900,2,0,P|239:205|299:169,1,140,10|8,2:0|3:0,2:0:0:0:
246,95,13281,1,0,2:0:0:0:
246,95,13408,1,8,3:0:0:0:
477,251,13663,6,0,P|414:251|354:270,1,125.999996154785,6|0,1:2|0:0,0:0:0:0:
368,332,14044,2,0,L|354:270,1,62.9999980773926,0|10,0:0|2:3,0:0:0:0:
465,346,14425,1,6,2:3:0:0:
154,227,15188,5,2,1:2:0:0:
158,231,15569,1,6,2:3:0:0:
158,231,15696,2,0,L|219:218,1,62.9999980773926,8|8,2:3|2:3,0:0:0:0:
298,260,15950,1,4,2:3:0:0:
80,168,16713,6,0,P|64:228|64:291,2,125.999996154785,2|0|8,1:2|0:0|2:3,0:0:0:0:
153,110,17476,1,6,2:3:0:0:
381,73,18239,5,2,1:2:0:0:
381,73,18620,2,0,L|390:135,1,62.9999980773926,6|8,2:3|2:3,0:0:0:0:
339,208,18874,1,8,2:3:0:0:
339,208,19002,1,4,2:3:0:0:
155,352,19764,6,0,L|172:227,1,125.999996154785,2|0,1:2|0:0,0:0:0:0:
28,312,20273,2,0,L|10:187,1,125.999996154785,10|6,2:3|2:3,0:0:0:0:
258,191,21290,6,0,P|197:184|165:132,1,125.999996154785,2|0,1:2|0:0,0:0:0:0:
253,101,21671,1,6,2:3:0:0:
253,101,21798,2,0,L|241:39,1,62.9999980773926,10|8,2:3|2:3,0:0:0:0:
327,0,22052,1,4,2:3:0:0:
470,155,22815,5,2,1:2:0:0:
470,155,23324,2,0,L|461:290,1,125.999996154785,10|6,2:3|2:3,0:0:0:0:
461,280,24341,5,2,1:2:0:0:
378,345,24722,1,4,2:3:0:0:
378,345,24849,2,0,L|316:332,2,62.9999980773926,8|0|8,2:3|0:0|2:0,0:0:0:0:
245,188,25358,1,8,2:3:0:0:
164,371,25612,1,4,2:3:0:0:
245,279,25866,5,6,1:2:0:0:
85,303,26120,1,2,2:0:0:0:
84,303,26247,2,0,P|114:292|138:272,1,62.9999980773926,2|0,2:0|1:2,0:0:0:0:
249,283,26502,1,2,2:0:0:0:
249,283,26629,2,0,P|260:221|250:159,1,125.999996154785,10|2,2:0|2:0,2:0:0:0:
63,216,27137,1,2,1:2:0:0:
156,58,27391,6,0,P|145:120|155:182,1,125.999996154785,2|0,1:2|2:0,2:0:0:0:
250,159,27773,2,0,P|254:127|253:96,1,62.9999980773926,2|0,2:0|1:2,0:0:0:0:
476,36,28154,6,0,P|414:31|367:70,1,125.999996154785,8|0,2:0|2:0,2:0:0:0:
455,233,28663,2,0,L|438:172,1,62.9999980773926,2|0,1:2|2:0,2:0:0:0:
351,204,28917,6,0,L|340:266,1,62.9999980773926,2|0,1:2|0:0,2:0:0:0:
373,340,29171,2,0,P|326:298|265:289,1,125.999996154785,2|0,2:0|1:2,0:0:0:0:
222,179,29552,1,2,2:0:0:0:
222,179,29680,6,0,P|183:227|124:247,1,125.999996154785,10|2,2:0|2:0,2:0:0:0:
175,334,30188,1,2,1:2:0:0:
44,184,30442,5,2,1:2:0:0:
44,184,30951,1,0,1:2:0:0:
167,79,31205,2,0,B|253:98|253:98|286:81,2,125.999996154785,8|0|2,2:0|2:0|1:2,2:0:0:0:
361,27,31968,6,0,P|374:55|380:86,1,62.9999980773926,2|0,1:2|0:0,2:0:0:0:
469,114,32222,2,0,P|451:139|427:160,1,62.9999980773926,2|0,2:0|2:0,0:0:0:0:
325,173,32476,1,2,1:2:0:0:
512,267,32730,6,0,L|387:254,1,125.999996154785,10|2,2:0|2:0,2:0:0:0:
315,313,33112,1,0,2:0:0:0:
315,313,33239,1,2,1:2:0:0:
149,352,33493,6,0,P|158:289|153:227,1,125.999996154785,2|0,1:2|2:0,2:0:0:0:
241,180,33874,1,2,2:0:0:0:
241,180,34002,2,0,P|245:211|250:242,1,62.9999980773926,2|0,1:2|2:0,2:0:0:0:
151,134,34256,5,8,2:0:0:0:
151,134,34764,1,0,1:2:0:0:
295,5,35019,6,0,P|304:35|310:65,1,62.9999980773926,2|0,1:2|0:0,2:0:0:0:
512,116,35273,2,0,P|490:139|466:159,1,62.9999980773926,2|0,2:0|0:0,2:0:0:0:
439,0,35526,2,0,P|432:28|422:58,1,62.9999980773926,2|0,1:2|2:0,2:0:0:0:
215,158,35781,6,0,P|239:179|259:203,1,62.9999980773926,10|0,2:0|0:0,2:0:0:0:
354,154,36035,2,0,P|363:184|369:214,1,62.9999980773926,2|0,2:0|0:0,2:0:0:0:
150,287,36290,2,0,P|180:293|210:304,1,62.9999980773926,2|0,1:2|2:0,2:0:0:0:
432,382,36544,6,0,P|358:366|319:302,1,154.000004699707,2|8,1:2|2:0,0:0:0:0:
503,233,36925,1,8,2:0:0:0:
503,233,37052,2,0,P|503:271|494:308,1,77.0000023498536,0|0,1:2|0:0,0:0:0:0:
369,215,37307,5,12,2:0:0:0:
76,135,37561,1,12,2:0:0:0:
76,135,37815,6,0,B|82:115|77:95|77:95|73:117|61:127,1,77.0000023498536,2|2,2:0|2:0,0:0:0:0:
13,41,38069,6,0,P|87:61|163:60,1,154.000004699707,4|2,1:2|1:2,2:0:0:0:
335,31,38451,1,8,2:3:0:0:
245,11,38578,2,0,P|248:49|263:84,1,77.0000023498536,2|0,1:2|0:0,2:0:0:0:
479,65,38832,6,0,P|412:102|380:170,1,154.000004699707,10|10,2:0|1:3,2:0:0:0:
257,248,39213,1,4,2:3:0:0:
257,248,39341,2,0,P|250:210|236:174,1,77.0000023498536,10|4,1:3|2:3,0:0:0:0:
367,266,39595,6,0,L|442:283,1,77.0000023498536,2|0,1:2|0:0,2:0:0:0:
253,351,39849,1,0,1:2:0:0:
253,351,39976,2,0,L|328:368,1,77.0000023498536,10|0,2:0|1:2,2:0:0:0:
83,280,40230,1,0,2:0:0:0:
146,352,40358,6,0,P|163:317|175:281,1,77.0000023498536,10|0,2:0|0:0,2:0:0:0:
64,64,40612,2,0,P|46:98|34:134,1,77.0000023498536,8|0,1:3|2:0,2:0:0:0:
273,160,40866,2,0,P|238:142|202:130,1,77.0000023498536,4|0,1:3|2:0,2:0:0:0:
0,243,41120,5,4,1:2:0:0:
349,96,41374,2,0,P|345:58|333:22,1,77.0000023498536,2|8,1:2|2:3,0:0:0:0:
432,0,41629,2,0,P|436:37|449:74,1,77.0000023498536,2|4,1:2|2:3,2:0:0:0:
399,241,41883,6,0,L|413:165,1,77.0000023498536,10|0,2:0|0:0,2:0:0:0:
490,263,42137,1,10,1:3:0:0:
490,263,42264,2,0,P|416:271|372:332,1,154.000004699707,6|4,2:3|2:3,0:0:0:0:
144,159,42646,6,0,P|147:197|154:235,1,77.0000023498536,2|0,1:2|0:0,2:0:0:0:
306,212,42900,1,2,1:2:0:0:
306,212,43027,2,0,B|236:215|244:235|154:235,1,154.000004699707,10|0,2:0|2:0,2:0:0:0:
236,375,43408,6,0,P|264:348|276:312,1,77.0000023498536,10|0,2:0|0:0,2:0:0:0:
30,198,43663,2,0,P|38:235|64:263,1,77.0000023498536,8|4,1:3|2:3,0:0:0:0:
286,107,43917,2,0,P|249:96|212:104,1,77.0000023498536,8|4,1:3|2:3,2:0:0:0:
388,57,44171,6,0,L|400:133,1,77.0000023498536,6|0,1:2|0:0,2:0:0:0:
111,133,44425,5,2,1:2:0:0:
111,133,44552,2,0,L|124:57,1,77.0000023498536,10|0,2:3|0:0,2:0:0:0:
377,234,44807,5,6,2:3:0:0:
377,234,44934,2,0,L|389:310,1,77.0000023498536,10|0,2:0|0:0,2:0:0:0:
100,310,45188,5,10,1:3:0:0:
100,310,45315,2,0,L|112:233,1,77.0000023498536,6|0,2:3|0:0,2:0:0:0:
256,40,45569,5,6,2:3:0:0:
256,40,45696,2,0,L|256:126,1,77.0000023498536,2|0,1:2|2:0,0:0:0:0:
256,234,45950,5,2,1:2:0:0:
256,234,46078,2,0,L|256:311,1,77.0000023498536,10|0,2:0|2:0,2:0:0:0:
335,79,46332,5,2,2:0:0:0:
335,79,46459,2,0,L|181:79,1,154.000004699707,10|10,2:0|1:3,2:0:0:0:
217,164,46841,2,0,L|294:164,1,77.0000023498536,2|4,2:0|1:3,0:0:0:0:
32,164,47095,1,8,2:0:0:0:
122,200,47222,6,0,B|109:164|117:121|117:121|88:95|48:88,1,154.000004699707,6|0,1:2|1:2,2:0:0:0:
181,79,47603,2,0,P|151:104|117:121,1,77.0000023498536,10|0,2:3|1:2,2:0:0:0:
0,265,47858,5,4,2:3:0:0:
0,265,47985,2,0,P|74:275|113:337,1,154.000004699707,8|10,2:0|1:3,2:0:0:0:
14,339,48366,2,0,P|1:303|0:265,1,77.0000023498536,4|10,2:3|1:3,0:0:0:0:
190,271,48620,1,4,2:3:0:0:
248,342,48747,6,0,P|309:298|326:225,1,154.000004699707,2|0,1:2|1:2,2:0:0:0:
435,149,49129,1,10,2:0:0:0:
435,149,49256,2,0,P|443:187|457:223,1,77.0000023498536,0|0,1:2|2:0,0:0:0:0:
366,52,49510,6,0,P|321:113|249:135,1,154.000004699707,10|8,2:0|1:3,2:0:0:0:
252,8,49891,2,0,P|278:37|291:73,1,77.0000023498536,8|4,2:3|1:3,0:0:0:0:
169,202,50146,1,4,2:3:0:0:
169,202,50273,6,0,L|15:216,1,154.000004699707,4|2,1:2|1:2,2:0:0:0:
30,69,50654,1,10,2:3:0:0:
117,43,50781,2,0,P|119:81|110:118,1,77.0000023498536,2|0,1:2|0:0,2:0:0:0:
64,308,51035,6,0,P|98:325|136:331,1,77.0000023498536,10|0,2:0|2:0,2:0:0:0:
254,155,51290,1,10,1:3:0:0:
254,155,51417,2,0,P|256:193|269:229,1,77.0000023498536,4|10,2:3|1:3,0:0:0:0:
462,261,51671,1,4,2:3:0:0:
443,165,51798,6,0,P|383:211|360:284,1,154.000004699707,2|0,1:2|1:2,2:0:0:0:
203,338,52180,2,0,B|208:287|162:228|162:228|149:259,1,154.000004699707,10|0,2:0|2:0,2:0:0:0:
128,350,52561,6,0,P|166:351|202:338,1,77.0000023498536,10|0,2:0|0:0,2:0:0:0:
189,134,52815,2,0,P|149:132|113:144,1,77.0000023498536,8|4,1:3|3:0,2:0:0:0:
283,384,53069,2,0,P|310:357|327:322,1,77.0000023498536,4|8,1:3|2:0,0:0:0:0:
47,216,53324,6,0,P|23:143|33:67,1,154.000004699707,4|2,1:2|1:2,2:0:0:0:
281,90,53705,1,10,2:3:0:0:
281,90,53832,2,0,P|288:127|288:166,1,77.0000023498536,2|4,1:2|2:3,2:0:0:0:
45,298,54086,6,0,B|132:309|120:277|196:279,1,154.000004699707,10|10,2:0|1:3,2:0:0:0:
250,356,54468,2,0,P|275:327|287:291,1,77.0000023498536,4|10,2:3|1:3,0:0:0:0:
460,241,54722,1,4,2:3:0:0:
381,300,54849,6,0,P|317:260|306:186,1,154.000004699707,2|2,1:2|1:2,2:0:0:0:
374,103,55230,2,0,P|390:137|395:175,1,77.0000023498536,10|0,2:0|0:0,2:0:0:0:
273,98,55485,1,2,2:0:0:0:
273,98,55612,6,0,L|197:82,1,77.0000023498536,10|0,2:0|0:0,2:0:0:0:
216,332,55866,2,0,L|267:274,1,77.0000023498536,8|4,1:3|2:3,2:0:0:0:
41,165,56120,2,0,L|65:238,1,77.0000023498536,8|4,1:3|2:3,2:0:0:0:
183,227,56374,6,0,L|159:154,1,77.0000023498536,6|0,1:2|0:0,2:0:0:0:
384,80,56629,5,2,1:2:0:0:
384,80,56756,2,0,L|360:153,1,77.0000023498536,10|0,2:3|0:0,2:0:0:0:
186,311,57010,5,6,2:3:0:0:
186,311,57137,2,0,L|162:238,1,77.0000023498536,10|0,2:0|0:0,2:0:0:0:
377,187,57391,5,10,1:3:0:0:
377,187,57518,2,0,L|353:260,1,77.0000023498536,6|0,2:3|0:0,2:0:0:0:
176,46,57773,5,6,2:3:0:0:
176,46,57900,2,0,L|152:119,1,77.0000023498536,2|0,1:2|2:0,0:0:0:0:
315,282,58154,5,2,1:2:0:0:
315,282,58281,2,0,L|291:209,1,77.0000023498536,10|0,2:0|2:0,2:0:0:0:
113,140,58535,5,2,2:0:0:0:
113,140,58662,2,0,L|89:213,1,77.0000023498536,10|0,2:0|2:0,2:0:0:0:
338,123,58917,2,0,L|286:65,1,77.0000023498536,10|8,1:3|2:0,2:0:0:0:
240,326,59171,2,0,L|315:310,1,77.0000023498536,10|8,2:0|2:0,0:0:0:0:
74,333,59425,6,0,P|68:258|6:217,1,154.000004699707,6|0,1:2|1:2,2:0:0:0:
52,73,59807,1,10,2:3:0:0:
113,140,59934,2,0,P|151:134|187:123,1,77.0000023498536,0|4,1:2|2:3,2:0:0:0:
371,44,60188,6,0,B|337:87|337:87|381:176,1,154.000004699707,8|10,2:0|1:3,2:0:0:0:
476,142,60569,2,0,L|470:65,1,77.0000023498536,4|10,2:3|1:3,0:0:0:0:
454,235,60824,1,4,2:3:0:0:
511,290,60951,6,0,P|438:270|362:279,1,154.000004699707,2|0,1:2|1:2,2:0:0:0:
134,348,61332,2,0,P|207:368|283:359,1,154.000004699707,10|0,2:0|2:0,2:0:0:0:
120,126,61713,6,0,P|115:164|107:201,1,77.0000023498536,10|0,2:0|0:0,2:0:0:0:
300,127,61968,2,0,P|268:104|240:78,1,77.0000023498536,8|8,1:3|2:3,0:0:0:0:
209,282,62222,2,0,P|244:266|280:255,1,77.0000023498536,4|0,1:3|2:0,2:0:0:0:
212,179,62476,5,4,1:2:0:0:
207,220,74680,6,0,P|270:214|329:192,1,125.999996154785,6|2,1:2|2:0,2:0:0:0:
329,192,75061,2,0,L|310:132,1,62.9999980773926,2|0,2:0|1:2,2:0:0:0:
142,21,75442,2,0,L|116:144,1,125.999996154785,10|2,2:0|2:0,2:0:0:0:
84,252,75951,1,2,1:2:0:0:
248,322,76205,6,0,P|185:329|132:361,1,125.999996154785,2|0,1:2|2:0,2:0:0:0:
84,252,76713,2,0,P|147:244|200:212,1,125.999996154785,0|8,1:2|2:0,2:0:0:0:
200,212,77476,1,2,1:2:0:0:
394,354,77730,6,0,P|381:292|399:233,1,125.999996154785,2|2,1:2|2:0,2:0:0:0:
470,169,78112,2,0,P|484:198|491:228,1,62.9999980773926,2|0,2:0|1:2,0:0:0:0:
479,317,78366,1,2,2:0:0:0:
479,317,78493,1,10,2:0:0:0:
284,289,78747,1,2,2:0:0:0:
321,113,79002,1,2,1:2:0:0:
200,75,79256,6,0,L|226:198,1,125.999996154785,2|0,1:2|2:0,2:0:0:0:
90,265,79764,2,0,L|63:141,1,125.999996154785,0|8,1:2|2:0,2:0:0:0:
27,345,80527,1,2,1:2:0:0:
227,374,80781,6,0,P|257:319|253:257,1,125.999996154785,2|2,1:2|2:0,2:0:0:0:
202,72,81290,2,0,P|172:126|176:188,2,125.999996154785,2|10|2,1:2|2:0|2:0,2:0:0:0:
286,28,82052,1,2,1:2:0:0:
417,175,82307,6,0,P|475:154|512:104,1,125.999996154785,2|0,1:2|2:0,2:0:0:0:
325,126,82688,1,2,2:0:0:0:
325,126,82815,2,0,P|313:186|337:243,1,125.999996154785,2|8,1:2|2:0,2:0:0:0:
342,248,83705,5,2,2:0:0:0:
342,248,83832,2,0,P|280:259|220:279,2,125.999996154785,0|2|2,1:2|2:0|1:2,2:0:0:0:
76,207,84595,2,0,P|137:195|197:175,1,125.999996154785,10|2,2:0|2:0,2:0:0:0:
322,42,85103,1,2,1:2:0:0:
108,35,85358,6,0,L|95:103,1,70,6|0,1:2|0:0,2:0:0:0:
354,200,85612,2,0,L|341:131,1,70,6|0,1:2|0:0,2:0:0:0:
62,220,85866,5,14,2:0:0:0:
62,220,85993,1,8,2:0:0:0:
62,220,86120,2,0,P|96:214|131:211,1,70,6|0,1:2|0:0,2:0:0:0:
408,301,86374,2,0,P|373:307|338:310,1,70,6|0,1:2|0:0,2:0:0:0:
252,366,86629,1,2,1:2:0:0:
252,366,86883,6,0,P|247:331|241:296,1,70,6|0,1:2|2:0,2:0:0:0:
327,158,87137,1,2,2:0:0:0:
327,158,87264,2,0,P|331:192|337:227,1,70,10|0,2:0|1:0,2:0:0:0:
148,225,87519,1,0,2:0:0:0:
148,225,87646,6,0,P|210:195|234:131,1,140,10|2,2:0|2:0,2:0:0:0:
156,55,88027,2,0,P|145:88|143:123,1,70,0|2,2:0|1:2,0:0:0:0:
286,59,88281,1,0,0:0:0:0:
286,59,88408,6,0,P|355:57|406:102,1,140,2|0,1:2|2:0,2:0:0:0:
330,161,88790,1,2,2:0:0:0:
330,161,88917,1,0,1:2:0:0:
484,351,89171,6,0,P|449:359|416:369,1,70,8|0,2:0|0:0,2:0:0:0:
426,224,89425,2,0,P|365:257|325:314,1,140,0|0,2:0|1:2,2:0:0:0:
199,359,89807,1,2,2:0:0:0:
199,359,89934,6,0,P|211:325|215:291,1,70,2|0,1:2|2:0,2:0:0:0:
99,371,90188,1,0,0:0:0:0:
99,371,90315,2,0,P|78:304|32:252,1,140,2|0,2:0|0:0,0:0:0:0:
146,160,90696,6,0,P|144:194|139:229,1,70,10|0,2:0|2:0,2:0:0:0:
256,76,90951,2,0,P|226:57|199:35,1,70,2|0,2:0|2:0,2:0:0:0:
272,213,91205,2,0,P|302:196|335:183,1,70,2|0,1:2|2:0,2:0:0:0:
447,12,91459,6,0,P|383:34|364:99,1,140,2|0,1:2|2:0,2:0:0:0:
443,159,91841,2,0,L|512:165,1,70,2|0,2:0|1:2,2:0:0:0:
385,353,92222,6,0,L|374:283,1,70,8|0,2:0|2:0,2:0:0:0:
285,233,92476,2,0,L|296:163,1,70,0|0,2:0|2:0,2:0:0:0:
200,361,92730,2,0,L|189:291,1,70,2|0,1:2|0:0,2:0:0:0:
38,221,92985,6,0,P|70:208|100:191,1,70,2|0,1:2|2:0,2:0:0:0:
165,46,93239,2,0,P|159:80|159:115,1,70,2|0,2:0|2:0,2:0:0:0:
203,204,93493,1,2,1:2:0:0:
203,204,93747,6,0,B|288:201|266:220|341:217,1,140,10|2,2:0|2:0,2:0:0:0:
292,102,94129,1,0,2:0:0:0:
292,102,94256,2,0,P|280:140|278:192,1,70,2|0,1:2|2:0,0:0:0:0:
412,285,94510,6,0,P|435:219|443:149,1,140,2|0,1:2|2:0,2:0:0:0:
386,80,94891,2,0,P|378:45|379:11,2,70,2|2|0,2:0|1:2|2:0,2:0:0:0:
219,39,95273,6,0,L|81:67,1,140,8|0,2:0|2:0,2:0:0:0:
81,67,95781,2,0,L|99:134,1,70,0|2,1:2|2:0,0:0:0:0:
77,304,96035,6,0,P|111:296|144:284,1,70,2|0,1:2|0:0,2:0:0:0:
215,360,96290,2,0,P|233:330|247:298,1,70,2|0,2:0|0:0,2:0:0:0:
351,301,96544,2,0,P|342:266|330:234,1,70,2|0,1:2|2:0,2:0:0:0:
190,113,96798,6,0,P|224:121|256:133,1,70,10|0,2:0|0:0,2:0:0:0:
328,57,97053,2,0,P|346:86|360:118,1,70,2|0,2:0|0:0,2:0:0:0:
464,116,97307,2,0,P|455:150|443:182,1,70,2|0,1:2|2:0,2:0:0:0:
393,327,97561,5,10,2:0:0:0:
323,382,97687,1,8,2:0:0:0:
250,334,97815,1,8,2:0:0:0:
273,249,97942,1,8,2:0:0:0:
361,245,98069,2,0,P|361:279|364:314,1,70,0|0,1:2|0:0,2:0:0:0:
209,152,98324,6,0,P|204:75|192:0,1,154.000004699707,12|12,2:0|2:0,0:0:0:0:
192,0,99086,6,0,P|180:36|174:74,1,77.0000023498536,4|0,1:2|0:0,2:0:0:0:
30,236,99341,1,2,1:2:0:0:
109,202,99468,1,8,2:3:0:0:
185,245,99595,2,0,P|196:281|204:319,1,77.0000023498536,2|0,1:2|0:0,2:0:0:0:
76,369,99849,6,0,P|87:332|95:294,1,77.0000023498536,10|0,2:0|2:0,2:0:0:0:
275,75,100103,2,0,P|282:112|294:149,1,77.0000023498536,10|4,1:3|2:3,0:0:0:0:
466,374,100358,2,0,P|477:337|485:299,1,77.0000023498536,10|4,1:3|2:3,0:0:0:0:
279,242,100612,6,0,B|356:248|346:218|431:225,1,154.000004699707,2|0,1:2|1:2,2:0:0:0:
279,346,100993,1,10,1:3:0:0:
199,289,101120,2,0,P|187:252|187:214,1,77.0000023498536,4|0,1:3|2:0,2:0:0:0:
402,51,101374,6,0,L|392:127,1,77.0000023498536,10|0,2:0|0:0,2:0:0:0:
186,341,101629,1,8,1:3:0:0:
167,266,101756,1,8,2:3:0:0:
149,192,101883,2,0,L|139:268,1,77.0000023498536,4|0,1:3|2:0,2:0:0:0:
32,111,102137,6,0,P|106:98|149:37,1,154.000004699707,4|2,1:2|1:2,2:0:0:0:
309,166,102519,1,8,2:3:0:0:
256,37,102646,2,0,P|243:73|238:111,1,77.0000023498536,2|4,1:2|2:3,2:0:0:0:
19,243,102900,6,0,P|57:245|94:253,1,77.0000023498536,10|0,2:0|0:0,2:0:0:0:
234,269,103154,1,10,1:3:0:0:
161,184,103281,2,0,P|186:256|179:332,1,154.000004699707,6|4,2:3|2:3,0:0:0:0:
476,208,103663,6,0,P|438:217|403:233,1,77.0000023498536,2|0,1:2|0:0,2:0:0:0:
315,384,103917,1,2,1:2:0:0:
315,384,104044,2,0,P|325:346|328:308,1,77.0000023498536,10|0,2:0|0:0,2:0:0:0:
242,156,104298,1,0,2:0:0:0:
242,156,104425,6,0,P|268:183|300:205,1,77.0000023498536,10|0,2:0|0:0,2:0:0:0:
388,38,104680,2,0,P|380:75|376:114,1,77.0000023498536,8|8,1:3|2:0,0:0:0:0:
476,208,104934,2,0,P|438:217|403:233,1,77.0000023498536,8|4,1:3|2:3,2:0:0:0:
136,326,105188,6,0,L|119:250,1,77.0000023498536,6|0,1:2|0:0,2:0:0:0:
367,336,105442,5,2,1:2:0:0:
394,243,105569,2,0,L|410:167,1,77.0000023498536,10|0,2:3|0:0,2:0:0:0:
119,250,105824,5,6,2:3:0:0:
92,157,105951,2,0,L|75:81,1,77.0000023498536,10|0,2:0|0:0,2:0:0:0:
411,168,106205,5,10,1:3:0:0:
353,29,106332,2,0,L|336:104,1,77.0000023498536,6|0,2:3|0:0,2:0:0:0:
159,242,106586,5,6,2:3:0:0:
174,140,106713,2,0,L|190:215,1,77.0000023498536,2|0,1:2|2:0,0:0:0:0:
311,316,106968,5,2,1:2:0:0:
328,240,107095,2,0,L|311:315,1,77.0000023498536,10|0,2:0|2:0,2:0:0:0:
85,308,107349,5,2,2:0:0:0:
85,308,107476,2,0,P|117:328|154:337,1,77.0000023498536,10|0,2:0|2:0,2:0:0:0:
253,177,107730,1,10,1:3:0:0:
149,172,107858,2,0,P|158:209|173:244,1,77.0000023498536,8|4,2:3|1:3,0:0:0:0:
431,294,108112,5,2,2:0:0:0:
322,356,108239,2,0,P|334:280|370:212,1,154.000004699707,6|0,1:2|1:2,2:0:0:0:
512,160,108620,2,0,B|447:163|407:115|407:115|417:81,1,154.000004699707,10|4,2:3|2:3,2:0:0:0:
488,23,109002,1,8,2:0:0:0:
198,20,109256,6,0,P|203:58|215:94,1,77.0000023498536,10|4,1:3|2:3,2:0:0:0:
0,167,109510,2,0,P|5:128|17:92,1,77.0000023498536,10|4,1:3|2:3,0:0:0:0:
231,222,109764,6,0,P|169:176|96:151,1,154.000004699707,2|0,1:2|1:2,2:0:0:0:
6,339,110146,2,0,P|76:309|152:297,1,154.000004699707,10|0,2:0|2:0,0:0:0:0:
425,356,110527,6,0,L|411:280,1,77.0000023498536,10|0,2:0|0:0,2:0:0:0:
365,107,110781,1,8,1:3:0:0:
434,63,110908,1,8,2:0:0:0:
500,111,111035,2,0,L|486:186,1,77.0000023498536,8|4,1:3|2:3,0:0:0:0:
328,335,111290,6,0,P|261:300|238:228,1,154.000004699707,4|2,1:2|1:2,2:0:0:0:
148,58,111671,1,10,2:3:0:0:
97,126,111798,2,0,P|98:164|109:201,1,77.0000023498536,2|0,1:2|0:0,2:0:0:0:
300,48,112052,6,0,P|239:94|195:157,1,154.000004699707,10|10,2:0|1:3,2:0:0:0:
140,359,112434,1,4,2:3:0:0:
48,315,112561,2,0,P|32:279|24:242,1,77.0000023498536,10|4,1:3|2:3,0:0:0:0:
217,291,112815,6,0,B|299:297|280:258|366:262,1,154.000004699707,2|0,1:2|1:2,2:0:0:0:
430,346,113196,2,0,P|453:315|466:279,1,77.0000023498536,10|4,1:3|1:3,2:0:0:0:
371,91,113451,1,0,2:0:0:0:
280,131,113578,6,0,P|256:161|243:197,1,77.0000023498536,10|0,2:0|2:0,2:0:0:0:
472,80,113832,2,0,P|459:43|435:13,1,77.0000023498536,8|4,1:3|3:0,2:0:0:0:
145,209,114086,2,0,P|157:245|181:275,1,77.0000023498536,4|0,1:3|2:0,0:0:0:0:
164,24,114341,6,0,P|127:89|54:105,1,154.000004699707,4|2,1:2|1:2,2:0:0:0:
284,135,114722,1,10,2:3:0:0:
284,135,114849,2,0,P|277:98|278:59,1,77.0000023498536,2|4,1:2|2:3,2:0:0:0:
79,218,115103,6,0,P|153:220|204:275,1,154.000004699707,10|10,2:0|1:3,2:0:0:0:
31,369,115485,2,0,P|24:332|23:293,1,77.0000023498536,4|10,2:3|1:3,0:0:0:0:
121,313,115739,1,4,2:3:0:0:
206,371,115866,6,0,L|358:347,1,154.000004699707,2|2,1:2|1:2,2:0:0:0:
449,291,116247,2,0,P|453:329|463:366,1,77.0000023498536,10|0,2:0|0:0,2:0:0:0:
322,265,116502,1,2,2:0:0:0:
392,199,116629,6,0,L|409:124,1,77.0000023498536,10|0,2:0|0:0,2:0:0:0:
269,19,116883,1,4,2:3:0:0:
190,14,117010,1,8,1:3:0:0:
155,85,117137,2,0,L|172:159,1,77.0000023498536,8|4,1:3|2:3,2:0:0:0:
86,298,117391,6,0,P|123:306|159:320,1,77.0000023498536,6|0,1:2|0:0,2:0:0:0:
384,274,117646,5,2,1:2:0:0:
398,178,117773,2,0,P|360:186|324:200,1,77.0000023498536,10|0,2:3|0:0,2:0:0:0:
74,209,118027,5,6,2:3:0:0:
60,113,118154,2,0,P|97:121|133:135,1,77.0000023498536,10|0,2:0|0:0,2:0:0:0:
422,158,118408,5,10,1:3:0:0:
436,62,118535,2,0,P|398:70|362:84,1,77.0000023498536,6|0,2:3|0:0,2:0:0:0:
188,41,118790,5,6,2:3:0:0:
287,173,118917,2,0,L|271:98,1,77.0000023498536,2|0,1:2|2:0,0:0:0:0:
187,172,119171,5,2,1:2:0:0:
87,304,119298,2,0,L|103:228,1,77.0000023498536,10|0,2:0|2:0,2:0:0:0:
246,259,119552,5,2,2:0:0:0:
317,358,119680,2,0,B|222:369|237:337|165:349,1,154.000004699707,10|10,2:0|1:3,2:0:0:0:
334,198,120061,2,0,P|345:234|352:272,1,77.0000023498536,8|6,2:3|1:3,0:0:0:0:
87,304,120315,5,8,2:0:0:0:
29,234,120442,2,0,P|35:196|47:159,1,77.0000023498536,6|0,1:2|0:0,2:0:0:0:
177,42,120696,1,0,1:2:0:0:
177,42,120824,2,0,P|184:79|189:117,1,77.0000023498536,10|0,2:3|1:2,0:0:0:0:
221,283,121078,1,4,2:3:0:0:
130,217,121205,6,0,P|204:198|276:171,1,154.000004699707,8|10,2:0|1:3,2:0:0:0:
312,8,121586,2,0,P|292:41|278:77,1,77.0000023498536,4|10,2:3|1:3,0:0:0:0:
457,173,121841,1,4,2:3:0:0:
386,86,121968,6,0,L|358:253,1,154.000004699707,2|0,1:2|1:2,2:0:0:0:
400,343,122349,1,10,2:0:0:0:
497,358,122476,2,0,L|479:283,1,77.0000023498536,8|8,2:0|2:0,0:0:0:0:
304,320,122730,5,10,2:0:0:0:
221,341,122858,1,8,2:0:0:0:
152,291,122985,1,8,1:3:0:0:
152,265,123112,5,8,2:3:0:0:
69,244,123238,1,4,1:3:0:0:
0,294,123365,1,8,2:3:0:0:
87,339,123493,5,4,1:2:0:0:
203,161,134934,5,0,1:0:0:0:
203,161,135188,2,0,L|189:93,2,70,8|8|8,2:0|2:0|2:0,0:0:0:0:
273,107,135569,1,8,2:0:0:0:
95,143,135696,6,0,P|292:155|346:344,1,420,6|8,1:2|2:0,2:0:0:0:
346,344,136713,2,0,L|364:276,1,70,2|4,2:0|2:3,2:0:0:0:
292,211,136968,1,10,1:3:0:0:
292,211,137095,1,4,2:3:0:0:
208,326,137222,6,0,B|273:322|262:349|345:343,1,140,2|2,1:2|2:0,2:0:0:0:
131,372,137603,2,0,P|120:338|121:304,1,70,10|2,2:0|1:2,0:0:0:0:
167,232,137858,1,0,2:0:0:0:
3,218,137985,5,10,2:0:0:0:
32,294,138112,2,0,P|56:228|60:158,1,140,0|0,2:0|2:0,0:0:0:0:
60,158,138493,2,0,P|49:125|46:91,1,70,0|0,1:2|2:0,2:0:0:0:
214,29,138747,6,0,P|229:97|235:166,1,140,4|2,1:2|2:0,2:0:0:0:
144,113,139129,1,8,2:0:0:0:
277,85,139256,2,0,P|311:88|345:97,1,70,2|0,1:2|2:0,2:0:0:0:
486,37,139510,6,0,P|446:93|439:162,1,140,10|2,2:0|2:0,2:0:0:0:
346,202,139891,1,4,2:3:0:0:
346,202,140019,2,0,P|359:233|364:268,1,70,10|4,1:3|2:3,0:0:0:0:
250,358,140273,6,0,B|194:346|194:346|192:340|192:340|116:326,1,140,2|2,1:2|2:0,2:0:0:0:
22,305,140654,2,0,B|10:337|10:337|26:368,1,70,8|2,2:0|1:2,2:0:0:0:
241,262,141035,6,0,B|250:194|250:194|202:140,1,140,10|2,2:0|1:2,2:0:0:0:
84,237,141417,2,0,L|151:217,1,70,0|10,2:0|2:0,0:0:0:0:
34,35,141671,5,8,2:0:0:0:
134,91,141798,2,0,L|2:137,1,140,6|2,1:2|2:0,2:0:0:0:
237,55,142180,2,0,L|228:125,2,70,10|2|2,2:3|1:2|2:0,0:0:0:0:
307,208,142561,5,10,2:0:0:0:
380,248,142688,1,2,2:0:0:0:
458,218,142815,1,2,2:0:0:0:
475,136,142942,1,6,2:3:0:0:
399,87,143069,2,0,L|387:156,1,70,2|10,1:2|2:3,2:0:0:0:
452,340,143324,5,2,1:2:0:0:
452,340,143451,2,0,B|408:360|408:360|319:336,1,140,0|10,0:0|2:0,0:0:0:0:
223,347,143832,2,0,L|241:279,1,70,2|0,1:2|0:0,2:0:0:0:
84,342,144086,5,10,2:0:0:0:
84,342,144341,2,0,P|112:278|112:209,1,140,10|8,1:3|1:3,0:0:0:0:
33,159,144722,1,4,2:3:0:0:
200,23,144849,6,0,P|208:56|221:89,1,70,6|0,1:2|0:0,2:0:0:0:
363,40,145103,2,0,P|344:69|331:102,1,70,2|0,2:0|0:0,2:0:0:0:
466,167,145358,2,0,P|432:175|399:188,1,70,2|0,1:2|2:0,2:0:0:0:
462,329,145612,6,0,P|400:295|332:281,1,140,10|0,2:0|2:0,2:0:0:0:
257,338,145993,1,8,2:3:0:0:
257,338,146120,1,6,1:3:0:0:
23,180,146374,6,0,P|55:192|86:209,1,70,14|0,2:0|0:0,2:0:0:0:
305,141,146629,1,0,2:0:0:0:
237,196,146756,1,8,2:0:0:0:
163,152,146883,2,0,P|155:117|152:82,1,70,0|0,1:2|2:0,2:0:0:0:
391,182,147137,6,0,P|387:251|370:319,1,140,14|0,2:0|2:0,2:0:0:0:
201,367,147519,1,8,2:0:0:0:
198,275,147646,2,0,L|264:296,1,70,0|0,1:2|0:0,2:0:0:0:
6,304,147900,5,4,1:2:0:0:
74,374,148027,2,0,P|98:309|94:240,1,140,0|10,0:0|2:3,0:0:0:0:
34,127,148408,2,0,P|21:159|14:193,1,70,6|0,1:3|0:0,2:0:0:0:
152,138,148663,6,0,P|163:171|178:202,1,70,10|0,2:0|2:0,2:0:0:0:
86,44,148917,2,0,P|53:32|18:25,1,70,2|6,1:2|2:3,0:0:0:0:
194,45,149171,2,0,P|221:23|246:0,1,70,2|2,1:2|2:0,2:0:0:0:
377,133,149425,5,2,1:2:0:0:
466,49,149552,2,0,L|485:201,1,140,0|10,0:0|2:3,0:0:0:0:
282,148,149934,2,0,L|303:81,1,70,2|0,1:2|0:0,2:0:0:0:
380,252,150188,5,10,2:0:0:0:
396,336,150315,1,0,2:0:0:0:
483,343,150442,2,0,P|495:311|501:276,1,70,6|10,1:3|2:3,0:0:0:0:
288,261,150696,2,0,P|275:293|269:328,1,70,10|6,1:3|2:3,2:0:0:0:
150,230,150951,5,6,1:2:0:0:
37,301,151078,2,0,B|122:294|96:323|199:315,1,140,0|10,0:0|2:3,0:0:0:0:
115,145,151459,2,0,P|86:163|63:189,1,70,6|0,1:3|0:0,2:0:0:0:
242,187,151713,6,0,P|254:154|260:119,1,70,10|2,2:0|2:0,2:0:0:0:
46,2,151968,1,6,1:3:0:0:
127,21,152095,1,10,2:3:0:0:
208,39,152222,2,0,L|305:23,1,70,10|6,1:3|2:3,2:0:0:0:
371,167,152476,5,2,1:2:0:0:
453,19,152603,2,0,P|439:85|476:143,1,140,0|10,0:0|2:3,0:0:0:0:
426,345,152985,1,6,1:3:0:0:
343,365,153112,1,2,2:0:0:0:
272,303,153239,6,0,P|279:268|290:235,1,70,10|2,2:0|2:0,2:0:0:0:
130,282,153493,2,0,P|140:315|148:349,1,70,2|2,1:2|2:0,0:0:0:0:
202,211,153747,1,10,1:3:0:0:
122,181,153874,1,4,2:3:0:0:
39,231,154002,6,0,P|24:163|41:95,1,140,6|6,1:2|1:3,2:0:0:0:
256,87,154383,1,10,2:3:0:0:
156,0,154510,2,0,L|170:92,1,70,6|0,1:3|2:0,2:0:0:0:
355,135,154764,6,0,P|413:99|431:33,1,140,10|10,2:0|1:3,2:0:0:0:
286,209,155146,1,4,2:3:0:0:
286,209,155273,2,0,P|317:223|351:232,1,70,10|0,1:3|0:0,2:0:0:0:
349,338,155527,6,0,P|286:307|218:289,1,140,2|6,1:2|1:3,2:0:0:0:
154,360,155908,1,8,2:3:0:0:
72,303,156036,2,0,L|83:234,1,70,6|0,1:3|2:0,2:0:0:0:
12,123,156290,6,0,B|85:110|85:110|89:108|89:108|149:97,1,140,10|0,2:0|1:2,2:0:0:0:
65,0,156671,2,0,L|76:69,1,70,8|8,2:0|1:2,0:0:0:0:
217,178,156925,1,8,2:0:0:0:
282,106,157052,6,0,L|290:36,1,70,6|0,1:2|0:0,2:0:0:0:
493,45,157307,2,0,L|501:114,1,70,6|0,1:3|0:0,2:0:0:0:
383,185,157561,2,0,L|391:115,1,70,6|0,1:3|2:0,2:0:0:0:
504,275,157815,6,0,B|342:261|384:333|231:317,1,280,10|10,2:0|1:3,2:0:0:0:
151,364,158451,1,0,2:0:0:0:
32,206,158578,6,0,L|44:274,1,70,14|0,2:0|0:0,2:0:0:0:
310,373,158832,1,0,1:2:0:0:
331,291,158959,1,8,2:0:0:0:
269,230,159086,2,0,P|234:230|199:238,1,70,0|0,1:2|2:0,2:0:0:0:
46,90,159341,6,0,P|104:124|171:107,1,140,14|0,2:0|1:2,2:0:0:0:
346,74,159722,1,8,2:0:0:0:
246,5,159849,2,0,L|262:99,1,70,0|0,1:2|2:0,2:0:0:0:
403,213,160103,6,0,L|414:143,1,70,14|0,2:0|2:0,2:0:0:0:
462,288,160358,1,8,2:0:0:0:
386,313,160485,1,8,2:0:0:0:
321,266,160612,1,8,2:0:0:0:
247,298,160739,1,8,2:0:0:0:
176,249,160866,6,0,L|164:179,1,70,8|8,2:0|2:0,0:0:0:0:
108,30,161120,1,8,2:0:0:0:
108,30,161247,1,8,2:0:0:0:
35,94,161374,2,0,L|23:163,1,70,2|0,1:3|2:0,2:0:0:0:
266,196,161629,6,0,P|325:150|337:75,1,154.000004699707,4|2,1:2|1:2,2:0:0:0:
448,297,162010,1,8,2:3:0:0:
508,223,162137,2,0,P|500:185|485:150,1,77.0000023498536,2|0,1:2|0:0,2:0:0:0:
332,317,162391,6,0,B|253:325|274:300|178:307,1,154.000004699707,10|10,2:0|1:3,2:0:0:0:
84,261,162773,2,0,L|72:337,1,77.0000023498536,4|10,2:3|1:3,0:0:0:0:
297,232,163027,1,4,2:3:0:0:
189,140,163154,6,0,L|200:216,1,77.0000023498536,2|0,1:2|0:0,2:0:0:0:
44,81,163408,1,0,1:2:0:0:
14,185,163535,2,0,P|50:170|82:148,1,77.0000023498536,10|4,1:3|1:3,2:0:0:0:
211,52,163790,1,0,2:0:0:0:
284,101,163917,6,0,P|321:107|360:107,1,77.0000023498536,10|0,2:0|0:0,2:0:0:0:
143,306,164171,2,0,P|129:270|110:236,1,77.0000023498536,8|8,1:3|2:3,2:0:0:0:
393,321,164425,2,0,P|368:350|349:383,1,77.0000023498536,4|8,1:3|2:0,0:0:0:0:
209,218,164680,6,0,L|363:208,1,154.000004699707,4|2,1:2|1:2,2:0:0:0:
482,79,165061,1,8,2:3:0:0:
394,50,165188,2,0,P|398:88|408:125,1,77.0000023498536,2|4,1:2|2:3,2:0:0:0:
262,359,165442,6,0,P|247:283|208:217,1,154.000004699707,10|10,2:0|1:3,2:0:0:0:
46,141,165824,1,6,2:3:0:0:
41,236,165951,2,0,L|112:206,1,77.0000023498536,8|4,1:3|2:3,0:0:0:0:
205,51,166205,6,0,P|212:88|230:122,1,77.0000023498536,2|0,1:2|2:0,2:0:0:0:
398,292,166459,1,2,1:2:0:0:
398,292,166586,2,0,P|405:254|423:220,1,77.0000023498536,10|0,2:0|0:0,2:0:0:0:
143,272,166841,5,0,2:0:0:0:
99,353,166968,2,0,L|23:336,1,77.0000023498536,10|0,2:0|0:0,2:0:0:0:
228,247,167222,2,0,L|303:231,1,77.0000023498536,8|8,1:3|2:0,0:0:0:0:
67,132,167476,2,0,L|77:208,1,77.0000023498536,8|4,1:3|2:3,2:0:0:0:
366,139,167730,6,0,L|376:62,1,77.0000023498536,6|0,1:2|0:0,2:0:0:0:
131,71,167985,5,2,1:2:0:0:
67,132,168112,2,0,L|77:209,1,77.0000023498536,10|0,2:3|0:0,2:0:0:0:
311,276,168366,5,6,2:3:0:0:
375,215,168493,2,0,L|365:138,1,77.0000023498536,10|0,2:0|0:0,2:0:0:0:
76,208,168747,5,10,1:3:0:0:
150,271,168874,2,0,L|140:348,1,77.0000023498536,6|0,2:3|0:0,2:0:0:0:
292,79,169129,5,6,2:3:0:0:
218,142,169256,2,0,L|228:219,1,77.0000023498536,2|0,1:2|2:0,0:0:0:0:
439,354,169510,5,2,1:2:0:0:
365,291,169637,2,0,L|375:214,1,77.0000023498536,10|0,2:0|2:0,2:0:0:0:
487,64,169891,5,2,2:0:0:0:
485,158,170019,2,0,P|447:148|413:131,1,77.0000023498536,10|0,2:0|2:0,2:0:0:0:
143,105,170273,5,10,1:2:0:0:
218,142,170400,1,10,2:0:0:0:
290,98,170527,2,0,P|301:61|308:23,1,77.0000023498536,10|8,1:2|2:0,0:0:0:0:
53,147,170781,6,0,P|34:221|31:298,1,154.000004699707,6|0,1:2|1:2,2:0:0:0:
187,227,171163,1,10,2:3:0:0:
187,227,171290,2,0,P|157:251|133:281,1,77.0000023498536,0|4,1:2|2:3,2:0:0:0:
374,362,171544,6,0,P|378:287|441:247,1,154.000004699707,8|10,2:0|1:3,2:0:0:0:
308,192,171925,1,4,2:3:0:0:
308,192,172052,2,0,P|325:226|339:262,1,77.0000023498536,10|4,1:3|2:3,0:0:0:0:
497,88,172307,6,0,B|402:107|402:107|350:81,1,154.000004699707,2|0,1:2|1:2,2:0:0:0:
163,80,172688,1,10,2:0:0:0:
219,9,172815,2,0,P|241:40|252:76,1,77.0000023498536,0|0,2:0|2:0,2:0:0:0:
37,278,173069,6,0,L|24:201,1,77.0000023498536,10|0,2:0|0:0,2:0:0:0:
259,173,173324,2,0,L|271:249,1,77.0000023498536,8|8,1:3|2:0,0:0:0:0:
162,353,173578,1,4,1:3:0:0:
146,269,173705,1,4,2:3:0:0:
136,184,173832,6,0,L|123:107,1,77.0000023498536,4|0,1:2|2:0,2:0:0:0:
285,3,174086,1,2,1:2:0:0:
285,3,174213,1,10,2:3:0:0:
362,64,174341,2,0,L|349:140,1,77.0000023498536,2|0,1:2|0:0,2:0:0:0:
486,284,174595,6,0,B|435:250|370:245|370:245|374:274,1,154.000004699707,10|10,2:0|1:3,2:0:0:0:
262,349,174976,2,0,L|278:273,1,77.0000023498536,4|10,2:3|1:3,0:0:0:0:
429,207,175230,1,8,2:0:0:0:
349,139,175358,6,0,P|273:126|197:110,1,154.000004699707,2|0,1:2|1:2,2:0:0:0:
27,289,175739,2,0,P|64:281|103:278,1,77.0000023498536,10|4,1:3|1:3,2:0:0:0:
122,183,175993,1,0,2:0:0:0:
48,114,176120,6,0,P|32:149|21:186,1,77.0000023498536,10|0,2:0|2:0,2:0:0:0:
286,92,176374,2,0,P|263:61|236:33,1,77.0000023498536,8|0,1:3|0:0,2:0:0:0:
186,309,176629,2,0,P|224:304|261:295,1,77.0000023498536,4|4,1:3|2:3,0:0:0:0:
473,67,176883,6,0,B|419:52|419:52|388:82|399:144,1,154.000004699707,4|2,1:2|1:2,2:0:0:0:
479,303,177264,1,10,2:3:0:0:
493,207,177391,2,0,L|418:225,1,77.0000023498536,2|4,1:2|2:3,2:0:0:0:
279,370,177646,6,0,P|293:295|269:222,1,154.000004699707,10|10,2:0|1:3,2:0:0:0:
88,265,178027,1,4,2:3:0:0:
88,265,178154,2,0,P|82:302|89:340,1,77.0000023498536,10|8,1:3|2:0,0:0:0:0:
15,161,178408,6,0,P|90:168|159:137,1,154.000004699707,2|2,1:2|1:2,2:0:0:0:
9,59,178790,1,10,2:0:0:0:
83,0,178917,2,0,L|101:92,1,77.0000023498536,0|2,1:2|2:0,2:0:0:0:
245,194,179171,6,0,L|257:117,1,77.0000023498536,10|0,2:0|2:0,0:0:0:0:
489,86,179425,1,8,1:3:0:0:
430,27,179552,1,8,2:0:0:0:
354,62,179680,2,0,L|372:154,1,77.0000023498536,4|0,1:3|2:0,2:0:0:0:
484,264,179934,5,6,1:2:0:0:
414,312,180061,1,8,2:0:0:0:
337,276,180188,1,10,1:2:0:0:
339,249,180315,5,10,2:3:0:0:
262,213,180442,1,0,0:0:0:0:
192,261,180569,1,10,2:0:0:0:
249,383,180696,6,0,L|262:307,1,77.0000023498536,10|0,2:0|2:0,0:0:0:0:
92,160,180951,1,10,1:3:0:0:
39,221,181078,2,0,L|52:296,1,77.0000023498536,6|0,2:3|0:0,2:0:0:0:
262,213,181332,5,10,2:0:0:0:
315,152,181459,2,0,L|301:76,1,77.0000023498536,2|0,1:2|2:0,2:0:0:0:
398,302,181713,5,10,1:2:0:0:
451,241,181840,2,0,L|437:165,1,77.0000023498536,10|0,2:0|0:0,2:0:0:0:
220,31,182095,5,10,2:0:0:0:
167,92,182222,2,0,L|180:167,1,77.0000023498536,10|8,2:0|2:0,2:0:0:0:
280,269,182476,5,10,1:3:0:0:
214,322,182603,1,8,2:3:0:0:
141,278,182730,1,6,1:3:0:0:
75,331,182858,1,4,2:3:0:0:
160,378,182985,6,0,P|170:301|195:229,1,154.000004699707,6|0,1:2|1:2,2:0:0:0:
393,98,183366,2,0,P|411:131|421:168,1,77.0000023498536,10|0,2:3|1:2,0:0:0:0:
327,320,183620,1,4,2:3:0:0:
448,264,183747,6,0,B|368:262|388:231|298:233,1,154.000004699707,8|10,2:0|1:3,2:0:0:0:
133,129,184129,1,4,2:3:0:0:
221,63,184256,2,0,L|235:138,1,77.0000023498536,10|4,1:3|2:3,0:0:0:0:
203,337,184510,6,0,P|183:264|117:229,1,154.000004699707,2|0,1:2|1:2,2:0:0:0:
42,290,184891,1,10,2:0:0:0:
42,290,185019,2,0,L|59:364,1,77.0000023498536,8|8,2:3|2:0,0:0:0:0:
210,243,185273,6,0,L|227:168,1,77.0000023498536,10|8,2:0|2:0,0:0:0:0:
458,95,185527,1,8,2:3:0:0:
393,50,185654,1,8,2:3:0:0:
319,84,185781,2,0,L|334:159,1,77.0000023498536,4|8,2:3|2:3,0:0:0:0:
504,210,186035,6,0,P|428:222|369:270,1,154.000004699707,6|0,1:2|1:2,2:0:0:0:
466,372,186417,1,10,2:3:0:0:
466,372,186544,2,0,P|476:334|484:297,1,77.0000023498536,2|0,1:2|2:0,0:0:0:0:
356,364,186798,6,0,L|279:353,1,77.0000023498536,10|0,2:0|2:0,2:0:0:0:
86,246,187052,2,0,L|162:235,1,77.0000023498536,2|0,1:2|2:0,2:0:0:0:
172,364,187307,2,0,L|95:374,1,77.0000023498536,10|4,1:3|2:3,0:0:0:0:
291,243,187561,6,0,P|294:167|273:93,1,154.000004699707,6|0,1:2|1:2,2:0:0:0:
200,24,187942,2,0,P|182:59|173:96,1,77.0000023498536,10|2,2:0|1:2,2:0:0:0:
375,109,188196,1,0,2:0:0:0:
428,39,188324,6,0,L|504:50,1,77.0000023498536,10|0,2:0|2:0,2:0:0:0:
307,208,188578,2,0,L|383:196,1,77.0000023498536,2|0,1:2|0:0,2:0:0:0:
386,356,188832,2,0,L|462:367,1,77.0000023498536,2|0,1:2|2:0,0:0:0:0:
233,375,189086,6,0,P|225:300|177:241,1,154.000004699707,6|0,1:2|1:2,2:0:0:0:
71,137,189468,2,0,P|85:100|103:67,2,77.0000023498536,10|2|0,2:3|1:2|2:0,2:0:0:0:
35,316,189849,6,0,L|111:308,1,77.0000023498536,10|0,2:0|2:0,2:0:0:0:
230,151,190103,2,0,L|306:158,1,77.0000023498536,2|8,1:2|2:0,0:0:0:0:
475,268,190358,1,10,1:2:0:0:
475,268,190485,1,8,2:0:0:0:
393,323,190612,6,0,P|376:248|396:175,1,154.000004699707,6|0,1:2|1:2,2:0:0:0:
422,37,190993,1,10,2:0:0:0:
512,61,191120,2,0,P|492:94|465:121,1,77.0000023498536,2|0,1:2|2:0,0:0:0:0:
229,24,191374,6,0,L|239:100,1,77.0000023498536,14|0,2:0|2:0,2:0:0:0:
125,242,191629,2,0,L|135:165,1,77.0000023498536,2|4,1:2|3:0,2:0:0:0:
13,37,191883,2,0,L|23:113,1,77.0000023498536,2|0,1:2|2:0,2:0:0:0:
222,328,192137,6,0,B|195:312|195:312|139:353|79:335,1,154.000004699707,6|0,1:2|1:2,2:0:0:0:
328,205,192519,2,0,B|354:189|354:189|410:230|470:212,1,154.000004699707,10|0,2:0|2:0,2:0:0:0:
99,84,192900,6,0,P|89:121|73:156,1,77.0000023498536,10|0,2:0|2:0,2:0:0:0:
265,123,193154,2,0,P|237:96|215:64,1,77.0000023498536,2|2,1:2|2:0,2:0:0:0:
148,247,193408,2,0,P|184:236|223:233,1,77.0000023498536,2|0,1:2|2:0,2:0:0:0:
430,373,193663,6,0,L|415:219,1,154.000004699707,6|0,1:2|1:2,2:0:0:0:
387,81,194044,1,10,2:0:0:0:
490,68,194171,2,0,L|473:143,1,77.0000023498536,2|8,1:2|2:3,2:0:0:0:
323,314,194425,6,0,P|289:299|261:272,1,77.0000023498536,14|0,2:0|0:0,2:0:0:0:
55,175,194680,2,0,P|86:152|123:142,1,77.0000023498536,10|8,1:2|2:0,0:0:0:0:
142,322,194934,2,0,P|138:283|147:246,1,77.0000023498536,10|8,1:2|2:0,0:0:0:0:
316,70,195188,6,0,P|347:139|345:216,1,154.000004699707,6|0,1:2|1:2,2:0:0:0:
143,45,195569,2,0,P|177:60|205:87,1,77.0000023498536,10|2,2:0|1:2,0:0:0:0:
147,246,195824,1,0,2:0:0:0:
83,314,195951,6,0,L|7:327,1,77.0000023498536,14|0,2:0|2:0,2:0:0:0:
298,205,196205,2,0,L|222:191,1,77.0000023498536,8|8,1:2|2:0,0:0:0:0:
508,308,196459,2,0,L|432:321,1,77.0000023498536,10|10,1:2|2:0,0:0:0:0:
239,373,196713,5,10,1:2:0:0:
289,313,196841,1,10,2:0:0:0:
235,259,196968,1,10,1:2:0:0:
285,199,197095,1,10,2:0:0:0:
231,145,197222,1,2,1:3:0:0:
281,85,197349,1,2,2:0:0:0:
227,31,197476,5,10,1:2:0:0:
239,373,197730,1,14,1:2:0:0:
