osu file format v14

[General]
AudioFilename: audio.mp3
AudioLeadIn: 0
PreviewTime: 98959
Countdown: 0
SampleSet: Soft
StackLeniency: 0.5
Mode: 0
LetterboxInBreaks: 0
WidescreenStoryboard: 1

[Editor]
Bookmarks: 13662,38069,74679,86882,123492,135696,146374,161628,186035,197984
DistanceSpacing: 1
BeatDivisor: 4
GridSize: 16
TimelineZoom: 2.799999

[Metadata]
Title:Sayonara Waltz
TitleUnicode:さよならワルツ
Artist:la la larks
ArtistUnicode:la la larks
Creator:Elayue
Version:Random and haphazard, we'd always fool around and dance.
Source:
Tags:japanese rock jrock j-rock bunda Culture Vulture bongo amateurre olibomby AyameMyMommy Pile goth asuka goth_asuka elicz1 some hero some_hero
BeatmapID:2532497
BeatmapSetID:1217160

[Difficulty]
HPDrainRate:6
CircleSize:4
OverallDifficulty:8.7
ApproachRate:9.4
SliderMultiplier:1.7
SliderTickRate:1

[Events]
//Background and Video events
0,0,"Konachan.com - 310378 clouds nobody original scenic skyrick9413 stars sunset.jpg",0,0
//Break Periods
2,123693,132105
//Storyboard Layer 0 (Background)
//Storyboard Layer 1 (Fail)
//Storyboard Layer 2 (Pass)
//Storyboard Layer 3 (Foreground)
//Storyboard Layer 4 (Overlay)
//Storyboard Sound Samples

[TimingPoints]
697,254.237288135593,3,2,1,75,1,0
697,-90.9090909090909,3,2,1,75,0,0
1459,254.237288135593,3,2,1,52,1,0
7306,-100,3,2,2,52,0,0
7560,-100,3,2,1,52,0,0
10230,-100,3,2,1,38,0,0
10357,-100,3,2,1,52,0,0
20208,-100,3,2,1,30,0,0
20272,-100,3,2,1,52,0,0
23259,-100,3,2,1,30,0,0
23323,-100,3,2,1,52,0,0
25103,-111.111111111111,3,2,1,52,0,0
25865,-100,3,2,1,52,0,0
38069,-83.3333333333333,3,2,1,78,0,1
39340,-83.3333333333333,3,2,2,78,0,1
39594,-83.3333333333333,3,2,1,78,0,1
41882,-71.4285714285714,3,2,1,78,0,1
42136,-83.3333333333333,3,2,1,78,0,1
42391,-83.3333333333333,3,2,2,78,0,1
42645,-83.3333333333333,3,2,1,78,0,1
43916,-83.3333333333333,3,2,2,78,0,1
44170,-83.3333333333333,3,2,1,78,0,1
48492,-83.3333333333333,3,2,2,78,0,1
48747,-83.3333333333333,3,2,1,78,0,1
49891,-83.3333333333333,3,2,2,78,0,1
50018,-83.3333333333333,3,2,1,78,0,1
50145,-83.3333333333333,3,2,2,78,0,1
50272,-83.3333333333333,3,2,1,78,0,1
51543,-83.3333333333333,3,2,2,78,0,1
51797,-83.3333333333333,3,2,1,78,0,1
54594,-83.3333333333333,3,2,2,78,0,1
54848,-83.3333333333333,3,2,1,78,0,1
56120,-83.3333333333333,3,2,2,78,0,1
56374,-83.3333333333333,3,2,1,78,0,1
59043,-83.3333333333333,3,2,1,40,0,1
59170,-83.3333333333333,3,2,1,60,0,1
59297,-83.3333333333333,3,2,1,78,0,1
59425,-90.9090909090909,3,2,1,78,0,1
59933,-83.3333333333333,3,2,1,78,0,1
60696,-83.3333333333333,3,2,2,78,0,1
60950,-83.3333333333333,3,2,1,78,0,1
62094,-83.3333333333333,3,2,2,78,0,1
62221,-83.3333333333333,3,2,1,78,0,1
62475,-100,3,2,1,52,0,0
85357,-90.9090909090909,3,2,1,52,0,0
97814,-90.9090909090909,3,2,1,44,0,0
97942,-90.9090909090909,3,2,1,52,0,0
99086,-83.3333333333333,3,2,1,78,0,1
100357,-83.3333333333333,3,2,2,78,0,1
100611,-83.3333333333333,3,2,1,78,0,1
101755,-83.3333333333333,3,2,2,78,0,1
101882,-83.3333333333333,3,2,1,78,0,1
102899,-71.4285714285714,3,2,1,78,0,1
103153,-83.3333333333333,3,2,1,78,0,1
103408,-83.3333333333333,3,2,2,78,0,1
103662,-83.3333333333333,3,2,1,78,0,1
104933,-83.3333333333333,3,2,2,78,0,1
105187,-83.3333333333333,3,2,1,78,0,1
108111,-83.3333333333333,3,2,2,78,0,1
108238,-83.3333333333333,3,2,1,78,0,1
109509,-83.3333333333333,3,2,2,78,0,1
109764,-83.3333333333333,3,2,1,78,0,1
111035,-83.3333333333333,3,2,2,78,0,1
111289,-83.3333333333333,3,2,1,78,0,1
112560,-83.3333333333333,3,2,2,78,0,1
112814,-83.3333333333333,3,2,1,78,0,1
115611,-83.3333333333333,3,2,2,78,0,1
115865,-83.3333333333333,3,2,1,78,0,1
117136,-83.3333333333333,3,2,2,78,0,1
117391,-83.3333333333333,3,2,1,78,0,1
120060,-83.3333333333333,3,2,2,78,0,1
120187,-83.3333333333333,3,2,1,78,0,1
120442,-90.9090909090909,3,2,1,78,0,1
120950,-83.3333333333333,3,2,1,78,0,1
121713,-83.3333333333333,3,2,2,78,0,1
121967,-83.3333333333333,3,2,1,78,0,1
122348,-83.3333333333333,3,2,1,30,0,1
122475,-83.3333333333333,3,2,1,40,0,1
122603,-83.3333333333333,3,2,1,50,0,1
122730,-83.3333333333333,3,2,1,64,0,1
122984,-83.3333333333333,3,2,1,78,0,1
123365,-83.3333333333333,3,2,2,78,0,1
123492,-83.3333333333333,3,2,1,62,0,0
135696,-100,3,2,1,62,0,0
142941,-100,3,2,2,62,0,0
143069,-100,3,2,1,62,0,0
143196,-100,3,2,2,62,0,0
143323,-100,3,2,1,62,0,0
144594,-100,3,2,2,62,0,0
144848,-100,3,2,1,62,0,0
145992,-100,3,2,2,62,0,0
146374,-100,3,2,1,62,0,0
148281,-100,3,2,2,62,0,0
148662,-100,3,2,1,62,0,0
149679,-100,3,2,2,62,0,0
149806,-100,3,2,1,62,0,0
150696,-100,3,2,2,62,0,0
150950,-100,3,2,1,62,0,0
152221,-100,3,2,2,62,0,0
152475,-100,3,2,1,62,0,0
153747,-100,3,2,2,62,0,0
154001,-100,3,2,1,62,0,0
155272,-100,3,2,2,62,0,0
155526,-100,3,2,1,62,0,0
156670,-100,3,2,1,30,0,0
156797,-100,3,2,1,40,0,0
156925,-100,3,2,1,50,0,0
157052,-100,3,2,1,62,0,0
160357,-100,3,2,1,40,0,0
160611,-100,3,2,1,50,0,0
160865,-100,3,2,1,60,0,0
161120,-100,3,2,1,62,0,0
161374,-100,3,2,1,60,0,0
161628,-83.3333333333333,3,2,1,78,0,1
162899,-83.3333333333333,3,2,2,78,0,1
163153,-83.3333333333333,3,2,1,78,0,1
164297,-83.3333333333333,3,2,2,78,0,1
164425,-83.3333333333333,3,2,1,78,0,1
165950,-83.3333333333333,3,2,2,78,0,1
166204,-83.3333333333333,3,2,1,78,0,1
167475,-83.3333333333333,3,2,2,78,0,1
167730,-83.3333333333333,3,2,1,78,0,1
169128,-83.3333333333333,3,2,2,78,0,1
169255,-83.3333333333333,3,2,1,78,0,1
170272,-83.3333333333333,3,2,1,60,0,1
170399,-83.3333333333333,3,2,1,64,0,1
170526,-83.3333333333333,3,2,1,68,0,1
170653,-83.3333333333333,3,2,1,72,0,1
170781,-90.9090909090909,3,2,1,78,0,1
171162,-83.3333333333333,3,2,1,78,0,1
172052,-83.3333333333333,3,2,2,78,0,1
172306,-83.3333333333333,3,2,1,78,0,1
173704,-83.3333333333333,3,2,2,78,0,1
173831,-83.3333333333333,3,2,1,78,0,1
175103,-83.3333333333333,3,2,2,78,0,1
175230,-83.3333333333333,3,2,1,78,0,1
176458,-83.3333333333333,3,2,1,60,0,1
176628,-83.3333333333333,3,2,1,78,0,1
176755,-83.3333333333333,3,2,2,78,0,1
176882,-83.3333333333333,3,2,1,78,0,1
178153,-83.3333333333333,3,2,2,78,0,1
178281,-83.3333333333333,3,2,1,78,0,1
182603,-83.3333333333333,3,2,2,78,0,1
182730,-83.3333333333333,3,2,1,78,0,1
182857,-83.3333333333333,3,2,2,78,0,1
182984,-100,3,2,1,78,0,1
183492,-83.3333333333333,3,2,1,78,0,1
184255,-83.3333333333333,3,2,2,78,0,1
184509,-83.3333333333333,3,2,1,78,0,1
184636,-83.3333333333333,3,2,1,30,0,1
184764,-83.3333333333333,3,2,1,78,0,1
184891,-83.3333333333333,3,2,1,60,0,1
185018,-83.3333333333333,3,2,1,78,0,1
185145,-83.3333333333333,3,2,1,40,0,1
185272,-83.3333333333333,3,2,1,78,0,1
185399,-83.3333333333333,3,2,1,40,0,1
185526,-83.3333333333333,3,2,1,78,0,1
186035,-90.9090909090909,3,2,1,78,0,1
188661,-90.9090909090909,3,2,1,40,0,1
188831,-90.9090909090909,3,2,1,78,0,1
190230,-90.9090909090909,3,2,1,50,0,1
190357,-90.9090909090909,3,2,1,60,0,1
190484,-90.9090909090909,3,2,1,70,0,1
190611,-90.9090909090909,3,2,1,78,0,1
193280,-90.9090909090909,3,2,1,40,0,1
193408,-90.9090909090909,3,2,1,78,0,1
194297,-90.9090909090909,3,2,2,78,0,1
194425,-90.9090909090909,3,2,1,78,0,1
194679,-90.9090909090909,3,2,1,40,0,1
194806,-90.9090909090909,3,2,1,50,0,1
194933,-90.9090909090909,3,2,1,60,0,1
195060,-90.9090909090909,3,2,1,70,0,1
195187,-90.9090909090909,3,2,1,78,0,1
196204,-90.9090909090909,3,2,1,50,0,1
196458,-90.9090909090909,3,2,1,58,0,1
196713,-90.9090909090909,3,2,1,64,0,1
196967,-90.9090909090909,3,2,1,70,0,1
197221,-83.3333333333333,3,2,1,78,0,1
197730,-83.3333333333333,3,2,1,78,0,0

[Colours]
Combo1 : 188,121,255
Combo2 : 183,183,255
Combo3 : 130,186,255

[HitObjects]
36,191,697,6,0,L|21:141,1,46.7500014266968,8|0,2:0|2:0,2:0:0:0:
0,283,951,5,8,2:3:0:0:
79,356,1205,5,4,2:3:0:0:
192,260,1459,6,0,B|309:240|309:240|353:286,1,170,6|2,1:2|2:0,2:0:0:0:
348,357,1840,2,0,L|307:348,1,42.5,0|0,2:0|2:0,2:0:0:0:
418,307,1967,1,0,1:0:0:0:
492,356,2094,1,0,2:0:0:0:
460,242,2221,6,0,B|468:202|468:202|473:200|473:200|481:152,1,85,10|0,2:0|2:0,2:0:0:0:
317,140,2475,2,0,P|357:182|393:178,1,85,2|8,2:0|2:3,2:0:0:0:
475,79,2730,1,2,1:2:0:0:
386,164,2857,1,4,2:3:0:0:
265,82,2984,6,0,B|215:68|192:112|192:112|167:154|111:136,1,170,2|0,1:2|2:0,2:0:0:0:
23,81,3365,1,10,2:0:0:0:
23,81,3450,2,0,B|34:136|34:136|31:143|31:143|43:212,1,113.333333333333,0|0,1:0|2:0,2:0:0:0:
84,290,3747,2,0,L|-17:271,1,85,10|0,2:0|2:0,2:0:0:0:
120,140,4001,2,0,P|161:141|189:171,1,85,8|0,2:3|2:0,2:0:0:0:
245,341,4255,1,4,2:3:0:0:
172,257,4382,1,0,2:0:0:0:
339,309,4509,6,0,L|521:288,1,170,6|2,1:2|2:0,2:0:0:0:
431,140,4891,1,10,2:3:0:0:
431,140,4975,2,0,P|377:164|386:232,1,113.333333333333,0|2,1:0|2:0,2:0:0:0:
507,103,5272,2,0,B|499:61|499:61|501:56|501:56|494:17,1,85,10|0,2:0|2:0,2:0:0:0:
326,42,5526,2,0,L|428:59,1,85,2|8,2:0|2:3,2:0:0:0:
248,0,5781,1,2,1:2:0:0:
159,88,5908,1,4,2:3:0:0:
11,17,6035,6,0,L|30:188,1,170,2|0,1:2|2:0,2:0:0:0:
82,240,6416,2,0,L|72:281,1,42.5,10|0,2:0|2:0,2:0:0:0:
245,227,6543,2,0,P|204:174|146:194,1,127.5,0|0,1:2|2:0,2:0:0:0:
99,359,6797,2,0,B|136:351|136:351|141:353|141:353|186:346,1,85,10|0,2:0|2:0,2:0:0:0:
328,239,7052,2,0,B|290:231|290:231|285:233|285:233|241:226,1,85,8|4,2:3|2:3,2:0:0:0:
352,324,7306,1,8,2:3:0:0:
460,225,7433,1,4,2:3:0:0:
340,80,7560,6,0,B|360:190|360:190|327:239,1,170,6|2,1:2|2:0,2:0:0:0:
174,186,7942,1,10,2:3:0:0:
174,186,8026,2,0,P|207:144|267:145,1,113.333333333333,0|0,1:2|2:0,2:0:0:0:
270,315,8323,2,0,B|184:302,1,85,10|0,2:0|2:0,2:0:0:0:
11,291,8577,1,2,2:0:0:0:
161,376,8704,1,8,2:3:0:0:
89,233,8831,2,0,B|98:274|98:274|95:280|95:280|107:335,1,85,2|4,1:2|2:3,2:0:0:0:
40,151,9086,6,0,P|81:203|178:180,1,170,2|0,1:2|2:0,2:0:0:0:
147,114,9467,2,0,L|137:73,1,42.5,6|0,2:3|2:0,2:0:0:0:
246,217,9594,2,0,B|305:208|305:208|310:211|310:211|385:199,1,127.5,0|0,1:2|2:0,2:0:0:0:
448,168,9848,2,0,P|476:132|457:83,1,85,10|0,2:0|2:0,2:0:0:0:
364,194,10103,2,0,B|351:281,1,85,8|0,2:3|2:0,2:0:0:0:
318,129,10357,1,4,2:3:0:0:
437,242,10484,1,0,2:0:0:0:
303,342,10611,6,0,B|235:324|235:324|211:335|211:335|119:309,1,170,6|2,1:2|2:0,2:0:0:0:
87,373,10992,1,10,2:3:0:0:
0,209,11120,2,0,P|37:257|97:248,1,127.5,0|0,1:0|2:0,2:0:0:0:
159,197,11374,2,0,B|154:158|154:158|151:153|151:153|146:113,1,85,10|0,2:0|2:0,2:0:0:0:
94,15,11628,1,2,2:0:0:0:
58,152,11755,1,8,2:3:0:0:
212,60,11882,2,0,P|256:53|293:89,1,85,2|4,1:2|2:3,2:0:0:0:
252,217,12136,6,0,B|279:250|316:241|316:241|428:203,1,170,2|0,1:2|2:0,2:0:0:0:
496,136,12518,2,0,L|486:177,1,42.5,10|0,2:3|2:0,2:0:0:0:
403,293,12645,2,0,P|448:338|518:297,1,127.5,0|0,1:2|2:0,2:0:0:0:
413,195,12899,2,0,B|376:190|376:190|373:185|373:185|323:176,1,85,10|0,2:0|2:0,2:0:0:0:
156,262,13153,2,0,P|185:291|227:291,1,85,8|0,3:0|2:0,2:0:0:0:
324,168,13408,1,8,3:0:0:0:
308,300,13535,1,0,2:0:0:0:
230,89,13662,5,6,1:2:0:0:
76,316,14170,5,10,2:3:0:0:
47,242,14425,1,6,2:3:0:0:
272,381,15187,5,2,1:2:0:0:
399,172,15569,5,6,2:3:0:0:
427,247,15696,1,8,2:3:0:0:
502,219,15823,1,8,2:3:0:0:
473,144,15950,1,4,2:3:0:0:
272,381,16713,5,2,1:2:0:0:
79,136,17158,5,0,2:0:0:0:
76,149,17221,1,8,2:3:0:0:
135,199,17348,1,0,2:0:0:0:
63,225,17475,1,6,2:3:0:0:
257,29,18238,5,2,1:2:0:0:
399,212,18620,5,6,2:3:0:0:
474,183,18747,1,8,2:3:0:0:
445,108,18874,1,8,2:3:0:0:
371,137,19001,1,4,2:3:0:0:
361,305,19764,5,2,1:2:0:0:
219,207,20208,1,8,2:0:0:0:
213,193,20272,1,10,2:3:0:0:
172,277,20526,1,6,2:3:0:0:
310,24,21289,5,2,1:2:0:0:
259,216,21670,5,6,2:3:0:0:
170,189,21797,1,10,2:3:0:0:
95,98,21925,5,8,2:3:0:0:
7,124,22052,1,4,2:3:0:0:
266,362,22814,5,2,1:2:0:0:
404,127,23259,5,8,2:0:0:0:
404,127,23323,1,10,2:3:0:0:
439,213,23577,1,6,2:3:0:0:
242,343,24340,5,2,1:2:0:0:
84,172,24594,5,0,2:0:0:0:
163,133,24721,1,4,2:3:0:0:
156,221,24848,1,8,2:3:0:0:
326,166,25103,6,0,L|286:157,1,38.25,8|0,2:0|2:0,2:0:0:0:
361,253,25357,1,8,2:3:0:0:
512,161,25611,1,4,2:3:0:0:
293,331,25865,6,0,B|244:343|222:300|222:300|200:256|150:277,1,170,6|2,1:2|2:0,2:0:0:0:
0,384,26247,1,2,2:0:0:0:
122,352,26374,5,0,1:2:0:0:
29,253,26501,1,2,2:0:0:0:
117,56,26628,6,0,B|128:116|128:116|132:122|132:122|148:194,1,127.5,10|0,2:0|2:0,2:0:0:0:
137,197,26882,2,0,B|153:217|153:217|146:278,1,85,2|0,2:0|2:0,2:0:0:0:
45,150,27136,1,2,1:2:0:0:
265,0,27391,6,0,P|352:0|384:80,1,170,2|0,1:2|2:0,2:0:0:0:
373,198,27772,1,2,2:0:0:0:
373,198,27899,2,0,P|410:191|429:138,1,85,0|0,1:2|2:0,2:0:0:0:
242,81,28153,2,0,B|203:88|203:88|200:94|200:94|150:106,1,85,8|0,2:0|2:0,2:0:0:0:
286,155,28408,1,0,2:0:0:0:
30,73,28662,2,0,P|70:42|111:61,1,85,2|0,1:2|2:0,2:0:0:0:
193,184,28916,6,0,B|182:257|182:257|190:280|190:280|177:353,1,170,2|2,1:2|2:0,2:0:0:0:
105,231,29297,1,0,2:0:0:0:
253,384,29425,1,0,1:2:0:0:
315,332,29552,1,2,2:0:0:0:
105,231,29679,6,0,P|47:222|1:289,1,127.5,10|0,2:0|2:0,2:0:0:0:
11,275,29933,2,0,B|23:317|23:317|20:323|20:323|32:366,1,85,2|0,2:0|2:0,2:0:0:0:
193,184,30187,2,0,B|205:142|205:142|202:136|202:136|214:93,1,85,2|0,1:2|2:0,2:0:0:0:
424,96,30442,6,0,P|399:152|285:135,1,170,2|0,1:2|2:0,2:0:0:0:
194,19,30823,1,2,2:0:0:0:
194,19,30950,2,0,L|213:116,1,85,0|0,1:2|2:0,2:0:0:0:
61,259,31204,2,0,B|79:146|79:146|111:138|136:109,1,170,8|0,2:0|2:0,2:0:0:0:
0,308,31713,6,0,P|30:337|79:330,1,85,2|0,1:2|2:0,2:0:0:0:
202,231,31967,6,0,B|271:243|271:243|288:262|288:262|367:278,1,170,2|2,1:2|2:0,2:0:0:0:
405,344,32348,1,0,2:0:0:0:
501,207,32475,2,0,L|416:218,1,85,2|0,1:2|2:0,2:0:0:0:
248,326,32730,6,0,P|251:264|196:230,1,127.5,10|0,2:0|2:0,2:0:0:0:
190,241,32984,2,0,L|107:223,1,85,2|0,2:0|2:0,2:0:0:0:
36,337,33238,2,0,P|79:339|120:300,1,85,2|0,1:2|2:0,2:0:0:0:
58,151,33492,6,0,B|46:102|89:80|89:80|133:58|112:8,1,170,2|0,1:2|2:0,2:0:0:0:
2,59,33874,1,2,2:0:0:0:
165,119,34001,2,0,B|207:109|207:109|211:112|211:112|263:100,1,85,2|0,1:2|2:0,2:0:0:0:
405,107,34255,2,0,P|369:151|318:134,1,85,8|0,2:0|2:0,2:0:0:0:
268,19,34509,2,0,L|352:34,1,85,0|0,2:0|2:0,2:0:0:0:
405,107,34764,1,0,1:2:0:0:
511,6,34891,1,2,2:0:0:0:
410,218,35018,6,0,B|420:305|420:305|453:333,1,127.5,2|0,1:2|2:0,2:0:0:0:
460,325,35272,6,0,B|429:299|429:299|419:212,1,127.5,2|0,2:0|2:0,2:0:0:0:
344,151,35526,6,0,P|300:145|261:183,1,85,2|0,1:2|2:0,2:0:0:0:
213,309,35781,6,0,P|148:292|138:223,1,127.5,10|0,2:0|2:0,2:0:0:0:
140,232,36035,6,0,P|160:289|220:301,1,127.5,2|0,2:0|2:0,2:0:0:0:
282,251,36289,6,0,L|264:145,1,85,2|0,1:2|2:0,2:0:0:0:
235,384,36543,5,2,1:2:0:0:
365,272,36797,5,8,2:0:0:0:
193,128,36925,1,8,2:0:0:0:
378,280,37052,1,0,1:2:0:0:
53,187,37306,5,12,2:0:0:0:
39,375,37560,5,12,2:0:0:0:
111,106,37814,5,2,2:0:0:0:
111,106,37942,1,2,2:0:0:0:
0,290,38069,6,0,B|42:262|75:282|75:282|90:331|165:330,1,153,4|0,1:2|2:0,2:0:0:0:
191,278,38323,2,0,P|219:264|234:243,1,51,2|0,1:2|2:0,2:0:0:0:
151,179,38450,1,8,2:3:0:0:
292,329,38577,2,0,B|360:317|360:317|378:328|378:328|465:313,1,153,2|0,1:2|2:0,2:0:0:0:
510,272,38831,6,0,B|527:242|527:242|508:163,1,102,10|0,2:0|2:0,2:0:0:0:
369,36,39086,5,10,1:3:0:0:
424,154,39213,1,4,2:3:0:0:
457,18,39340,5,10,1:3:0:0:
340,166,39467,1,4,2:3:0:0:
261,68,39594,2,0,B|209:45|173:94|173:94|136:142|77:116,1,204,2|0,1:2|1:2,2:0:0:0:
46,49,39912,1,2,2:0:0:0:
46,49,39975,2,0,P|24:36|-21:49,1,51,10|0,2:0|2:0,2:0:0:0:
142,228,40103,2,0,P|167:185|155:138,1,102,0|0,1:2|2:0,2:0:0:0:
0,329,40357,6,0,B|109:308|109:308|150:338,1,153,10|0,2:0|2:0,2:0:0:0:
227,340,40611,6,0,P|260:376|310:373,1,102,8|0,1:3|2:0,2:0:0:0:
430,372,40865,2,0,P|463:336|512:338,1,102,4|0,1:3|2:0,2:0:0:0:
378,208,41120,6,0,B|360:334,1,102,4|0,1:2|2:0,2:0:0:0:
296,148,41374,1,2,1:2:0:0:
377,42,41501,1,8,2:3:0:0:
499,114,41628,2,0,B|456:121|456:121|452:118|452:118|398:127,1,102,2|4,1:2|2:3,2:0:0:0:
121,48,41882,2,0,B|145:-3|196:-15|237:9|237:9|228:65,1,178.5,10|0,2:0|2:0,2:0:0:0:
288,97,42136,6,0,L|296:151,1,51,10|0,1:3|2:0,2:0:0:0:
321,332,42264,1,6,2:3:0:0:
241,205,42391,5,8,1:3:0:0:
375,265,42518,1,4,2:3:0:0:
164,369,42645,6,0,B|132:351|139:315|139:315|160:208,1,153,2|0,1:2|2:0,2:0:0:0:
171,233,42899,2,0,L|177:289,1,51,2|0,1:2|2:0,2:0:0:0:
20,332,43026,6,0,B|3:245|3:245|-4:209|28:191,1,153,10|0,2:0|2:0,2:0:0:0:
40,199,43281,2,0,L|36:249,1,51,0|0,1:0|2:0,2:0:0:0:
0,86,43408,2,0,B|70:96|70:96|78:105|78:105|165:119,1,153,10|0,2:0|2:0,2:0:0:0:
165,97,43662,1,8,1:3:0:0:
264,163,43789,1,4,2:3:0:0:
381,49,43916,2,0,L|483:29,1,102,8|4,1:3|2:3,2:0:0:0:
280,10,44170,6,0,L|261:184,1,153,6|0,1:2|2:0,2:0:0:0:
277,168,44425,2,0,L|282:117,1,51,2|0,1:2|2:0,2:0:0:0:
418,195,44552,6,0,L|437:369,1,153,10|0,2:3|2:0,2:0:0:0:
423,351,44806,2,0,L|417:300,1,51,6|0,2:3|2:0,2:0:0:0:
221,310,44933,6,0,P|257:367|344:343,1,153,10|0,2:0|2:0,2:0:0:0:
344,366,45187,2,0,P|324:380|295:385,1,51,10|0,1:3|2:0,2:0:0:0:
145,243,45314,6,0,P|109:300|22:276,1,153,6|0,2:3|2:0,2:0:0:0:
22,299,45569,2,0,P|42:313|71:318,1,51,6|0,2:3|2:0,2:0:0:0:
218,198,45696,5,2,1:2:0:0:
142,114,45823,1,0,2:0:0:0:
273,21,45950,1,2,1:2:0:0:
273,21,46014,1,2,2:0:0:0:
273,21,46077,2,0,B|291:49|291:49|281:122,1,102,10|0,2:0|2:0,2:0:0:0:
341,247,46331,2,0,L|327:164,1,51,2|0,2:0|2:0,2:0:0:0:
390,128,46458,2,0,P|418:92|480:96,1,102,10|0,2:0|2:0,2:0:0:0:
497,230,46713,2,0,L|446:220,1,51,10|0,1:3|2:0,2:0:0:0:
250,244,46840,5,2,2:0:0:0:
385,352,46967,1,4,1:3:0:0:
437,234,47094,5,8,2:0:0:0:
224,370,47221,2,0,B|160:351|155:284|155:284|136:339|74:355,1,204,6|0,1:2|1:2,2:0:0:0:
305,351,47603,2,0,L|315:277,1,51,8|0,2:3|2:0,2:0:0:0:
239,143,47730,2,0,B|245:188|245:188|243:200|243:200|253:263,1,102,0|4,1:2|2:3,2:0:0:0:
18,303,47984,2,0,B|28:197|28:197|75:159,1,153,8|0,2:0|2:0,2:0:0:0:
88,85,48238,2,0,P|91:36|47:5,1,102,10|4,1:3|2:3,2:0:0:0:
1,109,48492,5,10,1:3:0:0:
150,174,48620,1,4,2:3:0:0:
293,74,48747,6,0,B|362:87|362:87|374:102|374:102|476:125,1,153,2|0,1:2|2:0,2:0:0:0:
501,59,49001,2,0,L|492:8,1,51,0|0,1:2|2:0,2:0:0:0:
397,193,49128,5,10,2:0:0:0:
512,167,49255,1,0,1:2:0:0:
370,290,49382,5,0,2:0:0:0:
226,217,49509,2,0,L|246:367,1,153,10|0,2:0|2:0,2:0:0:0:
90,177,49764,2,0,L|106:55,1,102,8|8,1:3|2:3,2:0:0:0:
148,255,50018,2,0,B|102:267|102:267|99:274|99:274|29:293,1,102,4|4,1:3|2:3,2:0:0:0:
248,138,50272,6,0,P|296:133|340:181,1,102,4|0,1:2|2:0,2:0:0:0:
366,240,50526,2,0,L|359:293,1,51,2|0,1:2|2:0,2:0:0:0:
423,378,50653,1,10,2:3:0:0:
349,287,50781,2,0,B|417:275|417:275|440:289|440:289|495:276,1,153,2|0,1:2|2:0,2:0:0:0:
477,201,51035,6,0,L|493:92,1,102,10|0,2:0|2:0,2:0:0:0:
310,14,51289,5,10,1:3:0:0:
384,109,51416,1,4,2:3:0:0:
238,62,51543,5,10,1:3:0:0:
423,37,51670,1,4,2:3:0:0:
257,194,51797,6,0,B|198:192|178:137|178:137|126:110|89:155,1,204,2|0,1:2|1:2,2:0:0:0:
32,226,52115,1,2,2:0:0:0:
32,226,52179,2,0,P|38:250|79:273,1,51,10|0,2:0|2:0,2:0:0:0:
96,162,52306,2,0,B|100:112|100:112|104:108|104:108|107:61,1,102,0|0,1:2|2:0,2:0:0:0:
132,298,52560,6,0,B|210:277|210:277|249:270|276:306,1,153,10|0,2:0|2:0,2:0:0:0:
338,351,52814,2,0,L|455:372,1,102,8|4,1:3|3:0,2:0:0:0:
350,255,53069,5,4,1:3:0:0:
214,365,53196,1,8,2:0:0:0:
255,198,53323,6,0,L|236:97,1,102,4|0,1:2|2:0,2:0:0:0:
198,16,53577,1,2,1:2:0:0:
326,113,53704,1,10,2:3:0:0:
410,0,53831,2,0,B|453:7|453:7|457:4|457:4|510:13,1,102,2|4,1:2|2:3,2:0:0:0:
236,97,54086,2,0,B|133:79|133:79|119:106|101:120,1,153,10|0,2:0|2:0,2:0:0:0:
168,222,54340,6,0,P|168:196|147:171,1,51,10|0,1:3|2:0,2:0:0:0:
9,270,54467,1,4,2:3:0:0:
76,191,54594,5,10,1:3:0:0:
223,302,54721,1,4,2:3:0:0:
436,225,54848,2,0,B|457:330|457:330|421:386,1,153,2|0,1:2|2:0,2:0:0:0:
418,365,55103,2,0,L|433:293,1,51,2|0,1:2|2:0,2:0:0:0:
322,120,55230,2,0,B|301:225|301:225|337:281,1,153,10|0,2:0|2:0,2:0:0:0:
340,260,55484,2,0,L|325:188,1,51,2|0,1:2|2:0,2:0:0:0:
268,362,55611,6,0,B|198:349|198:349|185:352|185:352|104:339,1,153,10|0,2:0|2:0,2:0:0:0:
39,364,55865,2,0,L|23:260,1,102,8|4,1:3|2:3,2:0:0:0:
179,168,56120,2,0,L|163:268,1,102,8|4,1:3|2:3,2:0:0:0:
35,168,56374,6,0,B|59:139|48:95|48:95|68:139|124:143,1,153,6|0,1:2|2:0,2:0:0:0:
118,133,56628,2,0,P|88:123|69:88,1,51,2|0,1:2|2:0,2:0:0:0:
192,85,56755,6,0,B|257:102|257:102|282:92|282:92|352:110,1,153,10|0,2:3|2:0,2:0:0:0:
348,99,57009,2,0,L|292:82,1,51,6|0,2:3|2:0,2:0:0:0:
427,2,57136,6,0,L|445:166,1,153,10|0,2:0|2:0,2:0:0:0:
458,155,57391,2,0,L|452:104,1,51,10|0,1:3|2:0,2:0:0:0:
351,215,57518,6,0,L|333:379,1,153,6|0,2:3|2:0,2:0:0:0:
320,368,57772,2,0,L|325:317,1,51,6|0,2:3|2:0,2:0:0:0:
512,251,57899,5,2,1:2:0:0:
446,303,58026,1,0,2:0:0:0:
351,215,58153,1,2,1:2:0:0:
237,290,58281,2,0,B|191:298|191:298|185:296|185:296|130:306,1,102,10|0,2:0|2:0,2:0:0:0:
43,384,58535,2,0,L|57:301,1,51,2|0,2:0|2:0,2:0:0:0:
163,219,58662,2,0,B|137:198|137:198|127:121,1,102,10|0,2:0|2:0,2:0:0:0:
0,198,58916,2,0,L|51:208,1,51,10|0,1:3|2:0,2:0:0:0:
89,22,59043,5,8,2:0:0:0:
0,86,59170,1,10,2:0:0:0:
221,133,59297,5,8,2:0:0:0:
329,19,59425,2,0,L|305:220,1,187,6|0,1:2|1:2,2:0:0:0:
427,286,59806,1,10,2:3:0:0:
470,214,59933,2,0,P|443:171|381:168,1,102,0|4,1:2|2:3,2:0:0:0:
275,284,60187,6,0,B|235:301|208:266|208:266|178:228|134:247,1,153,8|0,2:0|2:0,2:0:0:0:
80,291,60442,2,0,L|88:351,1,51,10|0,1:3|2:0,2:0:0:0:
205,149,60569,1,4,2:3:0:0:
268,270,60696,5,10,1:3:0:0:
114,177,60823,1,4,2:3:0:0:
255,41,60950,6,0,B|329:10|398:58|377:144|312:127|289:83,1,204,2|0,1:2|1:2,2:0:0:0:
172,30,61331,2,0,B|124:39|124:39|117:36|117:36|58:49,1,102,10|0,2:0|1:2,2:0:0:0:
0,206,61586,1,0,2:0:0:0:
205,149,61713,6,0,L|28:127,1,153,10|0,2:0|2:0,2:0:0:0:
172,246,61967,1,8,1:3:0:0:
306,105,62094,1,8,2:3:0:0:
393,264,62221,2,0,P|443:270|480:237,1,102,4|0,1:3|2:0,2:0:0:0:
312,116,62475,6,0,L|323:200,1,85,4|0,1:2|2:0,2:0:0:0:
279,384,62730,6,0,P|277:342|304:311,2,85,2|0|0,2:0|2:0|1:2,2:0:0:0:
480,238,63238,6,0,P|481:196|454:165,2,85,10|0|0,2:0|2:0|2:0,2:0:0:0:
481,353,63747,6,0,B|443:343|443:343|438:338|438:338|381:323,2,85,2|0|0,1:2|2:0|1:0,2:0:0:0:
206,222,64255,6,0,L|119:246,2,85,2|0|0,2:0|2:0|1:0,2:0:0:0:
265,61,64764,2,0,L|250:145,1,85,10|0,2:0|2:0,2:0:0:0:
372,251,65018,2,0,P|367:215|320:185,1,85,2|0,2:0|2:0,2:0:0:0:
206,222,65272,2,0,L|102:194,1,85,2|0,1:2|2:0,2:0:0:0:
0,369,65526,5,0,1:0:0:0:
38,79,65781,5,2,2:0:0:0:
119,114,65908,1,0,2:0:0:0:
123,199,66035,2,0,P|96:237|48:241,2,85,2|0|8,1:2|2:0|2:0,2:0:0:0:
38,79,66543,5,2,1:2:0:0:
107,16,66670,1,0,2:0:0:0:
199,57,66797,2,0,B|240:65|240:65|242:68|242:68|298:79,2,85,2|0|0,1:2|2:0|1:0,2:0:0:0:
361,199,67306,5,2,2:0:0:0:
433,154,67433,1,0,2:0:0:0:
394,82,67560,2,0,L|373:-7,1,85,2|0,1:2|2:0,2:0:0:0:
350,201,67814,5,10,2:0:0:0:
486,313,68069,5,2,2:0:0:0:
414,266,68196,1,2,2:0:0:0:
368,338,68323,1,2,1:2:0:0:
439,384,68450,1,2,2:0:0:0:
273,342,68577,5,4,1:0:0:0:
82,249,68831,6,0,L|-9:273,2,85,2|0|0,2:0|2:0|1:0,2:0:0:0:
194,172,69340,6,0,L|285:196,2,85,10|0|0,2:0|2:0|1:0,2:0:0:0:
37,27,69848,6,0,P|3:50|1:91,2,85,2|0|0,1:2|2:0|1:0,2:0:0:0:
191,69,70357,6,0,B|228:59|228:59|232:56|232:56|275:44,2,85,2|0|0,2:0|2:0|1:0,2:0:0:0:
353,79,70865,2,0,P|396:81|425:120,1,85,10|0,2:0|2:0,2:0:0:0:
377,258,71120,2,0,L|360:174,1,85,2|0,2:0|2:0,2:0:0:0:
501,277,71374,2,0,P|486:308|413:306,1,85,2|0,1:2|2:0,2:0:0:0:
276,193,71628,5,8,1:2:0:0:
199,384,71882,5,2,2:0:0:0:
164,303,72009,1,0,2:0:0:0:
78,299,72136,2,0,L|-4:333,2,85,2|0|8,1:2|2:0|2:0,2:0:0:0:
174,129,72645,5,2,2:0:0:0:
114,66,72772,1,8,2:0:0:0:
26,86,72899,2,0,P|5:106|6:171,2,85,2|0|0,1:2|2:0|1:0,2:0:0:0:
254,308,73408,5,2,2:0:0:0:
314,358,73535,1,8,2:0:0:0:
388,304,73662,2,0,L|477:277,1,85,2|0,1:2|2:0,2:0:0:0:
457,124,73916,2,0,B|441:165|441:165|443:171|443:171|431:204,2,85,10|0|0,2:0|2:0|2:0,2:0:0:0:
416,51,74297,1,2,1:2:0:0:
333,86,74425,1,2,1:2:0:0:
267,33,74552,1,2,2:0:0:0:
101,208,74679,6,0,P|122:183|190:190,1,85,6|0,1:2|2:0,2:0:0:0:
298,233,74933,1,2,2:0:0:0:
350,168,75060,2,0,B|341:131|341:131|344:126|344:126|328:66,1,85,2|0,2:0|1:2,2:0:0:0:
374,365,75442,6,0,B|382:311|336:296|336:296|285:275|298:232,1,170,10|2,2:0|2:0,2:0:0:0:
391,29,75950,6,0,P|431:41|448:91,1,85,2|0,1:2|2:0,2:0:0:0:
251,129,76204,6,0,B|141:99|141:99|126:124|87:145,1,170,2|0,1:2|2:0,2:0:0:0:
118,16,76586,1,0,2:0:0:0:
58,235,76713,6,0,P|20:198|29:154,1,85,0|0,1:2|2:0,2:0:0:0:
9,1,76967,2,0,B|18:40|18:40|22:44|22:44|33:85,1,85,8|0,2:0|2:0,2:0:0:0:
177,195,77221,2,0,L|152:276,1,85,0|0,2:0|2:0,2:0:0:0:
0,379,77475,6,0,P|42:330|112:353,1,127.5,2|0,1:2|2:0,2:0:0:0:
104,355,77730,6,0,B|145:364|145:364|149:368|149:368|199:379,1,85,2|0,1:2|2:0,2:0:0:0:
307,267,77984,1,2,2:0:0:0:
229,306,78111,1,2,2:0:0:0:
355,383,78238,2,0,P|387:347|373:300,1,85,0|2,1:2|2:0,2:0:0:0:
267,191,78492,6,0,L|288:108,1,85,10|0,2:0|2:0,2:0:0:0:
350,1,78747,2,0,P|376:39|359:87,1,85,2|0,2:0|2:0,2:0:0:0:
159,116,79001,2,0,P|173:56|231:41,1,127.5,2|0,1:2|2:0,2:0:0:0:
369,75,79255,6,0,B|409:63|409:63|413:67|413:67|454:55,1,85,2|0,1:2|2:0,2:0:0:0:
288,108,79509,1,0,2:0:0:0:
230,40,79636,1,0,2:0:0:0:
120,187,79764,6,0,P|85:163|76:123,1,85,0|0,1:2|2:0,2:0:0:0:
0,300,80018,2,0,B|73:282|73:282|95:290|95:290|186:270,1,170,8|0,2:0|2:0,2:0:0:0:
449,352,80526,6,0,P|491:347|514:305,1,85,2|0,1:2|2:0,2:0:0:0:
376,234,80781,2,0,L|358:331,1,85,2|0,1:2|2:0,2:0:0:0:
494,138,81035,2,0,B|502:177|502:177|500:183|500:183|509:221,1,85,2|0,2:0|2:0,2:0:0:0:
416,62,81289,6,0,P|359:56|319:110,1,127.5,2|0,1:2|2:0,2:0:0:0:
326,122,81543,6,0,B|367:135|367:135|369:139|369:139|419:156,1,85,10|0,2:0|2:0,2:0:0:0:
245,47,81797,2,0,P|204:48|175:95,1,85,2|0,2:0|2:0,2:0:0:0:
131,233,82052,2,0,P|157:196|136:145,1,85,2|0,1:2|2:0,2:0:0:0:
6,10,82306,6,0,B|32:135|32:135|74:156,1,170,2|0,1:2|2:0,2:0:0:0:
0,218,82687,1,2,2:0:0:0:
57,291,82814,2,0,L|40:374,1,85,2|0,1:2|2:0,2:0:0:0:
254,297,83069,6,0,P|235:248|117:244,1,170,8|0,2:0|2:0,2:0:0:0:
431,344,83577,6,0,P|395:347|362:381,1,85,0|2,1:2|2:0,2:0:0:0:
489,274,83831,2,0,B|495:231|495:231|499:228|499:228|508:173,1,85,0|0,1:2|2:0,2:0:0:0:
365,97,84086,2,0,P|391:128|432:130,1,85,2|0,2:0|2:0,2:0:0:0:
493,0,84340,2,0,L|512:82,1,85,2|0,1:2|2:0,2:0:0:0:
323,19,84594,2,0,L|240:0,1,85,10|0,2:0|2:0,2:0:0:0:
63,102,84848,6,0,P|90:47|151:46,1,127.5,2|0,2:0|2:0,2:0:0:0:
205,117,85103,2,0,L|192:206,1,85,2|0,1:2|2:0,2:0:0:0:
0,362,85357,6,0,L|45:349,1,46.75,6|0,1:2|2:0,2:0:0:0:
69,210,85611,6,0,L|114:222,1,46.75,6|0,1:2|2:0,2:0:0:0:
183,376,85865,5,14,2:0:0:0:
0,264,85992,1,8,2:0:0:0:
272,251,86120,6,0,L|317:263,1,46.75,6|0,1:2|2:0,2:0:0:0:
491,352,86374,6,0,P|493:280|430:245,1,140.25,6|0,1:2|2:0,2:0:0:0:
378,178,86628,6,0,P|323:138|328:71,1,140.25,2|0,1:2|2:0,2:0:0:0:
402,16,86882,2,0,B|447:25|447:25|451:28|451:28|508:40,1,93.5,6|0,1:2|2:0,2:0:0:0:
327,71,87136,1,2,2:0:0:0:
177,18,87264,2,0,L|115:36,1,46.75,10|0,2:0|2:0,2:0:0:0:
201,160,87391,6,0,P|232:129|219:70,1,93.5,0|0,1:0|2:0,2:0:0:0:
50,72,87645,2,0,B|63:118|63:118|69:120|69:120|82:166,1,93.5,10|0,2:0|2:0,2:0:0:0:
51,291,87899,2,0,P|14:259|25:197,1,93.5,2|0,2:0|2:0,2:0:0:0:
131,347,88153,6,0,B|225:321|225:321|273:344,1,140.25,2|0,1:2|2:0,2:0:0:0:
340,384,88408,6,0,B|331:324|381:307|381:307|432:289|423:218,1,187,2|0,1:2|2:0,2:0:0:0:
346,182,88789,1,2,2:0:0:0:
512,81,88916,2,0,L|480:191,1,93.5,0|0,1:2|2:0,2:0:0:0:
281,108,89170,6,0,P|292:53|383:35,1,140.25,8|0,2:0|2:0,2:0:0:0:
209,158,89425,2,0,P|166:158|131:108,2,93.5,0|0|0,2:0|2:0|1:2,2:0:0:0:
181,51,89806,1,2,2:0:0:0:
56,173,89933,6,0,L|81:277,1,93.5,2|0,1:2|2:0,2:0:0:0:
91,272,90124,2,0,B|70:284|70:284|55:351,1,93.5,0|0,2:0|2:0,2:0:0:0:
166,246,90314,1,2,2:0:0:0:
330,332,90442,2,0,P|268:354|219:296,1,140.25,0|0,1:2|2:0,2:0:0:0:
375,253,90696,6,0,B|419:240|419:240|424:242|424:242|469:232,1,93.5,10|0,2:0|2:0,2:0:0:0:
344,79,90950,2,0,L|322:169,1,93.5,2|0,2:0|2:0,2:0:0:0:
484,115,91204,2,0,P|484:87|425:49,1,93.5,2|0,1:2|2:0,2:0:0:0:
225,139,91458,6,0,B|186:176|122:167|95:125|95:125|119:82,1,187,2|0,1:2|2:0,2:0:0:0:
250,18,91840,2,0,L|264:93,1,46.75,2|0,2:0|2:0,2:0:0:0:
253,226,91967,6,0,B|270:253|270:253|241:369,1,140.25,0|0,1:2|2:0,2:0:0:0:
233,369,92221,2,0,B|185:375|185:375|182:379|182:379|128:387,1,93.5,8|0,2:0|2:0,2:0:0:0:
352,289,92475,2,0,P|406:301|417:354,1,93.5,0|0,2:0|2:0,2:0:0:0:
165,280,92730,6,0,P|103:285|72:209,1,140.25,2|0,1:2|2:0,2:0:0:0:
79,214,92984,6,0,L|62:121,1,93.5,2|0,1:2|2:0,2:0:0:0:
0,6,93238,2,0,B|47:19|47:19|50:24|50:24|99:38,1,93.5,2|0,2:0|2:0,2:0:0:0:
257,63,93492,2,0,P|189:53|152:122,1,140.25,2|0,1:2|2:0,2:0:0:0:
288,142,93747,6,0,P|329:172|386:144,1,93.5,10|0,2:0|2:0,2:0:0:0:
499,13,94001,2,0,B|488:55|488:55|484:58|484:58|468:118,1,93.5,2|0,2:0|2:0,2:0:0:0:
348,75,94255,1,2,1:2:0:0:
405,15,94382,1,0,2:0:0:0:
449,180,94509,6,0,B|476:307|476:307|450:322|434:352,1,187,2|0,1:2|2:0,2:0:0:0:
384,283,94891,2,0,L|338:273,1,46.75,2|0,2:0|2:0,2:0:0:0:
202,376,95018,6,0,P|254:365|270:327,1,93.5,2|0,1:2|2:0,2:0:0:0:
95,238,95272,2,0,L|122:331,1,93.5,8|0,2:0|2:0,2:0:0:0:
292,203,95526,2,0,L|304:110,2,93.5,0|0|0,2:0|2:0|1:2,2:0:0:0:
208,200,95908,6,0,L|145:181,1,46.75,2|0,2:0|2:0,2:0:0:0:
53,25,96035,6,0,P|105:32|135:110,1,140.25,2|0,1:2|2:0,2:0:0:0:
130,115,96289,6,0,P|111:50|46:33,1,140.25,2|0,2:0|2:0,2:0:0:0:
302,16,96543,6,0,P|258:10|219:48,1,93.5,2|0,1:2|2:0,2:0:0:0:
409,197,96797,6,0,B|397:132|397:132|390:125|390:125|378:62,1,140.25,10|0,2:0|2:0,2:0:0:0:
386,56,97052,6,0,B|398:119|398:119|405:126|405:126|417:191,1,140.25,2|0,2:0|2:0,2:0:0:0:
444,337,97306,6,0,P|482:299|464:244,1,93.5,2|0,1:2|2:0,2:0:0:0:
302,110,97560,5,10,2:0:0:0:
370,273,97687,1,8,2:0:0:0:
297,93,97814,5,8,2:0:0:0:
268,329,97942,1,8,2:0:0:0:
141,196,98069,6,0,P|83:186|33:246,1,140.25,0|0,1:2|2:0,2:0:0:0:
360,370,98323,5,12,2:0:0:0:
186,122,98577,5,12,2:0:0:0:
208,384,99086,6,0,B|133:369|133:369|129:363|129:363|41:344,1,153,4|0,1:2|2:0,2:0:0:0:
267,328,99340,2,0,P|262:303|245:286,1,51,2|0,1:2|2:0,2:0:0:0:
161,294,99467,1,8,2:3:0:0:
336,380,99594,2,0,P|391:368|410:271,1,153,2|0,1:2|2:0,2:0:0:0:
463,217,99848,2,0,P|431:185|444:119,1,102,10|0,2:0|2:0,2:0:0:0:
512,0,100103,5,10,1:3:0:0:
369,84,100230,1,4,2:3:0:0:
512,110,100357,5,10,1:3:0:0:
319,11,100484,1,4,2:3:0:0:
311,215,100611,6,0,B|180:175|180:175|164:208|122:230,1,204,2|0,1:2|1:2,2:0:0:0:
59,183,100929,1,2,2:0:0:0:
59,183,100992,2,0,L|44:127,1,51,10|0,1:3|2:0,2:0:0:0:
140,211,101120,2,0,P|154:258|122:302,1,102,4|0,1:3|2:0,2:0:0:0:
16,42,101374,6,0,B|79:52|79:52|99:74|99:74|185:88,1,153,10|0,2:0|2:0,2:0:0:0:
311,215,101628,6,0,P|360:218|393:181,1,102,8|8,1:3|2:3,2:0:0:0:
288,35,101882,6,0,P|260:76|275:123,1,102,4|0,1:3|2:0,2:0:0:0:
450,113,102136,6,0,B|436:71|436:71|433:67|433:67|417:11,1,102,4|0,1:2|2:0,2:0:0:0:
478,259,102391,5,2,1:2:0:0:
512,170,102518,1,8,2:3:0:0:
311,215,102645,2,0,P|329:260|377:269,1,102,2|4,1:2|2:3,2:0:0:0:
224,193,102899,2,0,B|104:224|104:224|100:253|82:279,1,178.5,10|0,2:0|2:0,2:0:0:0:
42,171,103153,6,0,P|31:149|34:120,1,51,10|0,1:3|2:0,2:0:0:0:
5,246,103281,1,6,2:3:0:0:
127,359,103408,5,8,1:3:0:0:
183,295,103535,1,4,2:3:0:0:
287,341,103662,6,0,B|335:351|354:312|354:312|371:269|427:286,1,153,2|0,1:2|2:0,2:0:0:0:
502,334,103916,2,0,L|508:390,1,51,2|0,1:2|2:0,2:0:0:0:
422,290,104043,6,0,B|446:188|446:188|427:175|416:149,1,153,10|0,2:0|2:0,2:0:0:0:
442,72,104297,2,0,P|464:61|489:64,1,51,0|0,1:0|2:0,2:0:0:0:
330,151,104425,6,0,B|269:138|269:138|255:120|255:120|184:105,1,153,10|0,2:0|2:0,2:0:0:0:
45,197,104679,1,8,1:3:0:0:
120,154,104806,1,8,2:0:0:0:
18,38,104933,2,0,P|-12:88|10:135,1,102,8|4,1:3|2:3,2:0:0:0:
165,233,105187,6,0,L|137:405,1,153,6|0,1:2|2:0,2:0:0:0:
129,384,105442,2,0,L|138:331,1,51,2|0,1:2|2:0,2:0:0:0:
260,272,105569,6,0,L|409:241,1,153,10|0,2:3|2:0,2:0:0:0:
405,230,105823,2,0,L|352:243,1,51,6|0,2:3|2:0,2:0:0:0:
348,75,105950,6,0,P|425:72|457:134,1,153,10|0,2:0|2:0,2:0:0:0:
469,133,106204,2,0,P|465:106|452:83,1,51,10|0,1:3|2:0,2:0:0:0:
254,68,106331,6,0,P|176:70|145:9,1,153,6|0,2:3|2:0,2:0:0:0:
133,10,106586,2,0,P|137:37|150:60,1,51,6|0,2:3|2:0,2:0:0:0:
295,146,106713,5,2,1:2:0:0:
233,211,106840,1,0,2:0:0:0:
99,133,106967,1,2,1:2:0:0:
99,133,107031,1,2,2:0:0:0:
99,133,107094,2,0,B|48:143|48:143|42:140|42:140|-9:151,1,102,10|0,2:0|2:0,2:0:0:0:
141,250,107348,2,0,L|158:181,1,51,2|0,2:0|2:0,2:0:0:0:
1,282,107475,6,0,P|44:320|97:310,1,102,10|0,2:0|2:0,2:0:0:0:
172,330,107730,2,0,L|192:380,1,51,10|0,1:3|2:0,2:0:0:0:
141,250,107857,5,8,2:3:0:0:
311,306,107984,1,4,1:3:0:0:
85,316,108111,5,2,2:0:0:0:
346,219,108238,2,0,B|401:188|463:207|483:261|483:261|467:281|458:309,1,204,6|0,1:2|1:2,2:0:0:0:
402,346,108620,2,0,P|418:364|443:371,1,51,10|0,2:3|2:0,2:0:0:0:
358,228,108747,6,0,L|339:127,1,102,0|4,1:2|2:3,2:0:0:0:
451,58,109001,6,0,B|345:39|345:39|336:12|311:-10,1,153,8|0,2:0|2:0,2:0:0:0:
272,80,109255,2,0,B|230:91|230:91|227:96|227:96|141:115,1,102,10|4,1:3|2:3,2:0:0:0:
38,70,109509,5,10,1:3:0:0:
100,144,109636,1,4,2:3:0:0:
1,350,109764,6,0,B|1:308|44:296|44:296|85:285|86:236,1,153,2|0,1:2|2:0,2:0:0:0:
100,144,110018,2,0,L|47:162,1,51,0|0,1:2|2:0,2:0:0:0:
167,268,110145,5,10,2:0:0:0:
251,296,110272,1,0,1:2:0:0:
121,356,110399,5,0,1:0:0:0:
323,233,110526,2,0,P|394:223|433:284,1,153,10|0,2:0|2:0,2:0:0:0:
244,211,110781,5,8,1:3:0:0:
318,359,110908,1,8,2:0:0:0:
225,203,111035,5,8,1:3:0:0:
423,378,111162,1,4,2:3:0:0:
492,194,111289,6,0,B|482:147|482:147|478:146|478:146|461:79,1,102,4|0,1:2|2:0,2:0:0:0:
337,95,111543,2,0,L|404:116,1,51,2|0,1:2|2:0,2:0:0:0:
512,23,111670,1,10,2:3:0:0:
392,99,111797,6,0,B|284:113|284:113|266:93|232:75,1,153,2|0,1:2|2:0,2:0:0:0:
85,107,112052,6,0,P|123:138|171:129,1,102,10|0,2:0|2:0,2:0:0:0:
264,2,112306,5,10,1:3:0:0:
225,203,112433,1,4,2:3:0:0:
173,19,112560,5,10,1:3:0:0:
310,199,112687,1,4,2:3:0:0:
226,361,112814,6,0,B|105:343|105:343|75:307|100:264,1,204,2|0,1:2|1:2,2:0:0:0:
175,214,113132,1,0,2:0:0:0:
175,214,113196,2,0,L|249:197,1,51,10|0,1:3|2:0,2:0:0:0:
94,281,113323,2,0,P|33:259|31:214,1,102,4|0,1:3|2:0,2:0:0:0:
292,305,113577,6,0,B|339:293|339:293|344:294|344:294|396:281,1,102,10|0,2:0|2:0,2:0:0:0:
446,125,113831,2,0,P|405:150|414:224,1,102,8|4,1:3|3:0,2:0:0:0:
476,319,114086,5,4,1:3:0:0:
310,199,114213,1,0,2:0:0:0:
509,61,114340,6,0,P|480:19|423:23,1,102,4|0,1:2|2:0,2:0:0:0:
278,119,114594,1,2,1:2:0:0:
364,86,114721,1,10,2:3:0:0:
229,12,114848,2,0,B|176:3|176:3|172:6|172:6|129:-1,1,102,2|4,1:2|2:3,2:0:0:0:
106,184,115103,2,0,P|175:161|157:73,1,153,10|0,2:0|2:0,2:0:0:0:
74,64,115357,6,0,L|0:91,1,51,10|0,1:3|2:0,2:0:0:0:
95,172,115484,1,4,2:3:0:0:
175,90,115611,5,10,1:3:0:0:
0,0,115738,1,4,2:3:0:0:
3,163,115865,6,0,B|-17:265|-17:265|8:277|30:300,1,153,2|0,1:2|2:0,2:0:0:0:
50,372,116120,2,0,L|0:384,1,51,2|0,1:2|2:0,2:0:0:0:
111,268,116247,6,0,P|160:322|232:311,1,153,10|0,2:0|2:0,2:0:0:0:
285,248,116501,2,0,L|264:176,1,51,2|0,2:0|2:0,2:0:0:0:
299,364,116628,6,0,B|371:375|371:375|378:370|378:370|450:383,1,153,10|0,2:0|2:0,2:0:0:0:
426,197,116882,1,4,2:3:0:0:
372,272,117009,1,8,1:3:0:0:
512,174,117136,6,0,P|513:125|460:92,1,102,8|4,1:3|2:3,2:0:0:0:
294,125,117391,6,0,B|266:89|225:98|225:98|202:138|144:138,1,153,6|0,1:2|2:0,2:0:0:0:
166,124,117645,2,0,P|192:113|218:82,1,51,2|0,1:2|2:0,2:0:0:0:
35,38,117772,6,0,B|49:110|49:110|46:116|46:116|65:209,1,153,10|0,2:3|2:0,2:0:0:0:
51,199,118026,2,0,L|39:150,1,51,6|0,2:3|2:0,2:0:0:0:
50,351,118153,6,0,P|90:295|190:319,1,153,10|0,2:0|2:0,2:0:0:0:
178,288,118408,2,0,P|153:274|122:275,1,51,10|0,1:3|2:0,2:0:0:0:
276,373,118535,6,0,L|437:340,1,153,6|0,2:3|2:0,2:0:0:0:
429,356,118789,2,0,L|369:367,1,51,6|0,2:3|2:0,2:0:0:0:
502,209,118916,5,2,1:2:0:0:
421,252,119043,1,0,1:0:0:0:
509,124,119170,1,2,1:2:0:0:
334,200,119297,2,0,P|327:151|362:116,1,102,10|0,2:0|2:0,2:0:0:0:
502,111,119552,2,0,L|428:93,1,51,2|0,1:2|2:0,2:0:0:0:
243,0,119679,6,0,B|252:44|252:44|257:48|257:48|273:109,1,102,10|0,2:0|2:0,2:0:0:0:
215,156,119933,2,0,L|164:146,1,51,10|0,1:3|2:0,2:0:0:0:
97,96,120060,5,8,2:3:0:0:
190,294,120187,5,6,1:3:0:0:
262,229,120314,1,8,2:0:0:0:
17,352,120442,6,0,B|17:300|70:285|70:285|120:271|122:210,1,187,6|0,1:2|1:2,2:0:0:0:
47,166,120823,1,10,2:3:0:0:
96,95,120950,2,0,P|87:46|45:21,1,102,0|4,1:2|2:3,2:0:0:0:
190,294,121204,6,0,B|260:306|260:306|266:315|266:315|356:333,1,153,8|0,2:0|2:0,2:0:0:0:
402,271,121458,2,0,L|390:221,1,51,10|0,1:3|2:0,2:0:0:0:
472,328,121586,1,4,2:3:0:0:
501,102,121713,5,10,1:3:0:0:
454,173,121840,1,4,2:3:0:0:
338,28,121967,6,0,B|317:169|317:169|288:174|251:210,1,204,2|0,1:2|1:2,2:0:0:0:
390,221,122348,1,10,2:0:0:0:
221,114,122475,5,8,2:0:0:0:
113,199,122603,1,8,2:0:0:0:
238,100,122730,5,10,2:0:0:0:
156,294,122857,1,8,2:0:0:0:
143,72,122984,5,8,1:3:0:0:
263,198,123111,1,8,2:3:0:0:
501,102,123238,5,4,1:3:0:0:
376,135,123365,1,8,2:3:0:0:
512,356,123492,5,4,1:2:0:0:
256,192,132645,12,0,134933,2:0:0:0:
450,42,135187,5,8,2:0:0:0:
435,204,135314,1,8,2:0:0:0:
371,2,135442,5,8,2:0:0:0:
512,176,135569,1,8,2:0:0:0:
296,36,135696,6,0,B|243:36|233:80|233:80|223:126|164:128,1,170,6|0,1:2|2:0,2:0:0:0:
96,158,136077,2,0,L|109:198,1,42.5,8|0,2:0|2:0,2:0:0:0:
55,11,136204,2,0,P|94:22|111:60,1,85,0|0,1:2|2:0,2:0:0:0:
10,257,136458,2,0,B|69:275|69:275|74:272|74:272|131:289,1,127.5,8|0,2:0|2:0,2:0:0:0:
141,302,136713,2,0,B|157:285|157:285|228:272,1,85,2|4,2:0|2:3,2:0:0:0:
361,309,136967,1,10,1:3:0:0:
285,369,137094,1,4,2:3:0:0:
310,210,137221,6,0,B|429:234|429:234|436:259|461:292,1,170,2|2,1:2|2:0,2:0:0:0:
512,195,137603,1,10,2:0:0:0:
414,366,137730,2,0,P|383:354|363:294,1,85,2|0,1:2|2:0,2:0:0:0:
427,147,137984,2,0,B|419:105|419:105|415:103|415:103|405:60,1,85,10|0,2:0|2:0,2:0:0:0:
233,172,138238,2,0,P|262:200|304:202,1,85,0|0,1:2|2:0,2:0:0:0:
321,27,138492,2,0,L|293:125,1,85,0|0,1:2|2:0,2:0:0:0:
159,225,138747,6,0,P|98:297|19:274,1,170,4|2,1:2|2:0,2:0:0:0:
233,172,139128,1,8,2:0:0:0:
299,329,139255,2,0,B|259:323|259:323|253:327|253:327|204:319,1,85,2|0,1:2|2:0,2:0:0:0:
401,218,139509,2,0,B|372:259|372:259|398:379,1,170,10|2,2:0|2:0,2:0:0:0:
512,203,139891,1,4,2:3:0:0:
470,274,140018,1,10,1:3:0:0:
408,131,140145,1,4,2:3:0:0:
299,329,140272,6,0,B|277:317|277:317|166:332,1,127.5,2|0,1:2|2:0,2:0:0:0:
106,384,140526,1,2,2:0:0:0:
204,246,140653,2,0,L|156:235,1,42.5,8|0,2:0|2:0,2:0:0:0:
39,337,140781,2,0,P|-1:301|25:219,1,127.5,2|0,1:2|2:0,2:0:0:0:
88,196,141035,2,0,B|101:159|101:159|98:154|98:154|111:114,1,85,10|0,2:0|2:0,2:0:0:0:
17,1,141289,2,0,P|15:42|44:71,1,85,2|0,1:2|2:0,2:0:0:0:
233,0,141543,1,10,2:0:0:0:
168,61,141670,1,8,2:0:0:0:
303,199,141797,6,0,B|431:218|431:218|463:263,1,170,6|2,1:2|2:0,2:0:0:0:
503,94,142179,1,10,2:3:0:0:
429,59,142306,2,0,P|398:81|404:138,1,85,2|2,1:2|2:0,2:0:0:0:
454,251,142560,5,10,2:0:0:0:
512,189,142687,1,2,2:0:0:0:
499,333,142814,2,0,B|460:341|460:341|458:345|458:345|410:357,1,85,2|6,2:0|2:3,2:0:0:0:
278,384,143069,2,0,L|307:304,1,85,2|10,1:2|2:3,2:0:0:0:
197,178,143323,6,0,P|131:167|89:216,1,127.5,2|0,1:2|2:0,2:0:0:0:
67,281,143577,2,0,L|78:321,1,42.5,2|0,2:0|2:0,2:0:0:0:
3,229,143704,1,10,2:0:0:0:
197,178,143831,2,0,B|205:117|205:117|211:112|211:112|221:54,1,127.5,2|0,1:2|2:0,2:0:0:0:
162,0,144086,6,0,P|115:8|86:60,1,85,10|0,2:0|2:0,2:0:0:0:
296,99,144340,1,10,1:3:0:0:
364,55,144467,1,4,2:3:0:0:
465,173,144594,2,0,L|482:256,1,85,8|4,1:3|2:3,2:0:0:0:
280,333,144848,6,0,P|223:321|201:261,1,127.5,6|0,1:2|2:0,2:0:0:0:
269,212,145103,6,0,L|392:241,1,127.5,2|0,2:0|2:0,2:0:0:0:
512,339,145357,2,0,P|495:365|427:368,1,85,2|0,1:2|2:0,2:0:0:0:
280,333,145611,6,0,B|189:346|189:346|156:384,1,127.5,10|0,2:0|2:0,2:0:0:0:
103,322,145865,1,0,2:0:0:0:
32,363,145992,1,8,2:3:0:0:
51,210,146120,2,0,P|92:210|120:240,1,85,6|0,1:3|2:0,2:0:0:0:
198,106,146374,6,0,P|230:54|292:50,1,127.5,14|0,2:0|2:0,2:0:0:0:
322,128,146628,1,0,2:0:0:0:
322,128,146755,1,8,2:0:0:0:
376,1,146882,2,0,B|384:41|384:41|381:49|381:49|392:84,1,85,0|0,1:2|2:0,2:0:0:0:
259,246,147136,6,0,L|174:222,1,85,14|0,2:0|2:0,2:0:0:0:
254,363,147391,1,0,2:0:0:0:
310,308,147518,1,8,2:0:0:0:
431,375,147645,2,0,P|474:371|506:292,1,127.5,0|0,1:2|2:0,2:0:0:0:
450,244,147899,6,0,P|403:212|421:132,1,127.5,4|0,1:2|2:0,2:0:0:0:
467,95,148153,2,0,L|529:112,1,42.5,2|0,1:2|2:0,2:0:0:0:
437,20,148281,1,10,2:3:0:0:
325,124,148408,2,0,L|296:-2,1,127.5,6|0,1:3|2:0,2:0:0:0:
181,140,148662,2,0,P|208:171|249:173,1,85,10|0,2:0|2:0,2:0:0:0:
216,0,148916,1,2,1:2:0:0:
153,61,149043,1,6,2:3:0:0:
0,0,149170,2,0,B|43:9|43:9|45:15|45:15|98:29,1,85,2|2,1:2|2:0,2:0:0:0:
17,201,149425,6,0,B|-9:116|-9:116|16:76,1,127.5,2|0,1:2|2:0,2:0:0:0:
91,112,149679,2,0,L|84:153,1,42.5,10|0,2:3|2:0,2:0:0:0:
0,277,149806,1,10,2:3:0:0:
139,368,149933,2,0,P|202:355|221:296,1,127.5,2|0,1:2|2:0,2:0:0:0:
174,230,150187,6,0,L|133:218,1,42.5,10|0,2:0|2:0,2:0:0:0:
250,183,150314,1,0,2:0:0:0:
382,329,150442,5,6,1:3:0:0:
311,272,150569,1,10,2:3:0:0:
368,136,150696,2,0,L|347:36,1,85,10|6,1:3|2:3,2:0:0:0:
500,249,150950,6,0,B|444:234|444:234|438:238|438:238|368:217,1,127.5,6|0,1:2|2:0,2:0:0:0:
291,173,151204,2,0,L|227:187,1,42.5,2|0,1:2|2:0,2:0:0:0:
368,136,151331,1,10,2:3:0:0:
201,117,151458,2,0,P|201:55|253:24,1,127.5,6|0,1:3|2:0,2:0:0:0:
174,230,151713,6,0,L|91:211,1,85,10|2,2:0|2:0,2:0:0:0:
139,361,151967,1,6,1:3:0:0:
201,304,152094,1,10,2:3:0:0:
0,190,152221,2,0,B|12:232|12:232|9:238|9:238|21:271,1,85,10|6,1:3|2:3,2:0:0:0:
90,6,152475,6,0,L|64:130,1,127.5,2|0,1:2|2:0,2:0:0:0:
212,113,152730,1,6,1:3:0:0:
161,44,152857,1,10,2:3:0:0:
91,211,152984,2,0,P|132:212|162:181,1,85,6|2,1:3|2:0,2:0:0:0:
285,70,153238,6,0,L|366:94,1,85,10|2,2:0|2:0,2:0:0:0:
511,164,153492,1,2,1:2:0:0:
444,227,153620,1,2,2:0:0:0:
425,32,153747,2,0,L|518:10,1,85,10|4,1:3|2:3,2:0:0:0:
368,174,154001,6,0,B|345:299|345:299|323:305|285:324,1,170,6|6,1:2|1:3,2:0:0:0:
241,213,154340,1,0,0:0:0:0:
241,213,154382,1,10,2:3:0:0:
165,341,154509,2,0,P|196:368|237:364,1,85,6|0,1:3|2:0,2:0:0:0:
84,273,154764,6,0,P|41:267|10:294,1,85,10|0,2:0|2:0,2:0:0:0:
241,213,155018,1,10,1:3:0:0:
169,259,155145,1,4,2:3:0:0:
45,179,155272,6,0,B|32:118|32:118|26:113|26:113|14:54,1,127.5,10|0,1:3|2:0,2:0:0:0:
18,36,155526,2,0,P|78:25|119:70,1,127.5,2|0,1:2|2:0,2:0:0:0:
258,0,155781,1,6,1:3:0:0:
205,61,155908,1,8,2:3:0:0:
296,180,156035,2,0,B|336:188|336:188|340:193|340:193|380:199,1,85,6|0,1:3|2:0,2:0:0:0:
507,37,156289,6,0,B|390:70|390:70|383:98|371:115,1,170,10|0,2:0|1:2,2:0:0:0:
453,245,156670,1,8,2:0:0:0:
486,152,156797,1,8,1:2:0:0:
368,263,156925,1,8,2:0:0:0:
512,376,157052,6,0,B|461:364|461:364|460:360|460:360|383:340,1,127.5,6|0,1:2|2:0,2:0:0:0:
382,356,157306,2,0,P|319:344|269:400,1,127.5,6|0,1:3|2:0,2:0:0:0:
125,370,157560,2,0,P|177:365|201:336,1,85,6|0,1:3|2:0,2:0:0:0:
149,106,157814,6,0,B|170:141|170:141|153:232,1,127.5,10|0,2:0|2:0,2:0:0:0:
101,286,158069,1,8,1:3:0:0:
241,183,158196,1,4,2:3:0:0:
82,160,158323,2,0,B|43:174|43:174|41:179|41:179|-1:193,1,85,10|0,1:3|2:0,2:0:0:0:
183,31,158577,6,0,P|257:44|269:103,1,127.5,14|0,2:0|2:0,2:0:0:0:
322,152,158831,1,0,1:2:0:0:
149,106,158958,1,8,2:0:0:0:
254,266,159086,6,0,L|239:173,1,85,0|0,1:2|2:0,2:0:0:0:
435,358,159340,2,0,B|382:345|382:345|375:349|375:349|308:328,1,127.5,14|0,2:0|2:0,2:0:0:0:
239,367,159594,1,0,1:2:0:0:
148,279,159721,1,8,2:0:0:0:
21,377,159848,2,0,P|73:370|91:336,1,85,0|0,1:2|2:0,2:0:0:0:
0,186,160103,2,0,L|28:266,1,85,14|0,2:0|2:0,2:0:0:0:
124,80,160357,5,8,2:0:0:0:
97,172,160484,1,8,2:0:0:0:
292,88,160611,5,8,2:0:0:0:
204,20,160738,1,8,2:0:0:0:
258,183,160865,5,8,2:0:0:0:
413,148,160992,1,8,2:0:0:0:
412,286,161120,5,8,2:0:0:0:
213,111,161247,1,8,2:0:0:0:
240,346,161374,6,0,L|320:373,1,85,2|0,1:3|2:0,2:0:0:0:
79,369,161628,6,0,B|50:269|50:269|20:265|-5:235,1,153,4|0,1:2|2:0,2:0:0:0:
96,166,161882,2,0,P|109:187|107:212,1,51,2|0,1:2|2:0,2:0:0:0:
22,132,162009,1,8,2:3:0:0:
151,275,162136,6,0,B|200:267|206:228|206:228|214:184|266:183,1,153,2|0,1:2|2:0,2:0:0:0:
317,255,162391,2,0,B|363:268|363:268|366:273|366:273|434:293,1,102,10|0,2:0|2:0,2:0:0:0:
471,112,162645,5,10,1:3:0:0:
413,202,162772,1,4,2:3:0:0:
406,50,162899,5,10,1:3:0:0:
497,215,163026,1,4,2:3:0:0:
304,99,163153,6,0,B|258:119|258:183|258:183|231:124|158:134,1,204,2|0,1:2|1:2,2:0:0:0:
118,195,163471,1,2,2:0:0:0:
118,195,163535,2,0,L|63:189,1,51,10|0,1:3|2:0,2:0:0:0:
307,87,163662,2,0,B|320:129|320:129|327:132|327:132|344:194,1,102,4|0,1:3|2:0,2:0:0:0:
131,328,163916,6,0,P|161:280|260:290,1,153,10|0,2:0|2:0,2:0:0:0:
252,299,164170,2,0,B|263:302|278:311|278:311|351:287,1,102,8|8,1:3|2:3,2:0:0:0:
509,384,164425,1,4,1:3:0:0:
411,350,164552,1,8,2:0:0:0:
497,201,164679,6,0,P|503:162|446:114,1,102,4|0,1:2|2:0,2:0:0:0:
307,87,164933,5,2,1:2:0:0:
340,180,165060,1,8,2:3:0:0:
474,38,165187,2,0,B|429:28|429:28|421:31|421:31|363:17,1,102,2|4,1:2|2:3,2:0:0:0:
231,119,165442,6,0,B|186:111|183:68|183:68|177:27|130:18,1,153,10|0,2:0|2:0,2:0:0:0:
73,75,165696,6,0,L|86:125,1,51,10|0,1:3|2:0,2:0:0:0:
57,210,165823,1,6,2:3:0:0:
0,37,165950,5,8,1:3:0:0:
145,187,166077,1,4,2:3:0:0:
73,324,166204,2,0,P|27:317|1:256,1,102,2|0,1:2|2:0,2:0:0:0:
182,364,166458,2,0,L|133:379,1,51,2|0,1:2|2:0,2:0:0:0:
256,267,166586,6,0,B|296:307|336:294|336:294|350:253|399:243,1,153,10|0,2:0|2:0,2:0:0:0:
445,303,166840,2,0,L|457:356,1,51,0|0,1:0|2:0,2:0:0:0:
320,184,166967,6,0,B|345:91|345:91|373:89|405:71,1,153,10|0,2:0|2:0,2:0:0:0:
362,2,167221,1,8,1:3:0:0:
470,103,167348,1,8,2:0:0:0:
272,50,167475,6,0,B|228:61|228:61|225:67|225:67|162:83,1,102,8|4,1:3|2:3,2:0:0:0:
71,177,167730,6,0,B|93:73|93:73|68:30,1,153,6|0,1:2|2:0,2:0:0:0:
59,36,167984,2,0,L|65:94,1,51,2|0,1:2|2:0,2:0:0:0:
173,306,168111,6,0,B|151:202|151:202|176:159,1,153,10|0,2:3|2:0,2:0:0:0:
185,165,168365,2,0,L|179:223,1,51,6|0,2:3|2:0,2:0:0:0:
356,383,168492,6,0,B|313:373|309:334|309:334|301:290|253:286,1,153,10|0,2:0|2:0,2:0:0:0:
248,294,168747,2,0,P|275:303|296:331,1,51,10|0,1:3|2:0,2:0:0:0:
393,270,168874,6,0,P|455:258|463:164,1,153,6|0,2:3|2:0,2:0:0:0:
479,165,169128,2,0,P|489:190|489:215,1,51,6|0,2:3|2:0,2:0:0:0:
322,223,169255,5,2,1:2:0:0:
255,117,169382,1,0,2:0:0:0:
339,17,169509,1,2,1:2:0:0:
339,17,169573,1,2,2:0:0:0:
339,17,169636,2,0,P|387:19|412:70,1,102,10|0,2:0|2:0,2:0:0:0:
255,30,169891,2,0,L|195:10,1,51,2|0,2:0|2:0,2:0:0:0:
59,113,170018,2,0,B|72:93|72:93|153:72,1,102,10|0,2:0|2:0,2:0:0:0:
265,166,170272,6,0,L|254:116,1,51,10|0,1:2|2:0,2:0:0:0:
122,0,170399,1,10,2:0:0:0:
175,208,170526,5,10,1:2:0:0:
255,30,170653,1,8,2:0:0:0:
322,223,170781,6,0,B|335:266|371:283|410:276|410:276|419:229|467:218,1,187,6|0,1:2|1:2,2:0:0:0:
509,276,171162,2,0,L|496:335,1,51,10|0,2:3|2:0,2:0:0:0:
312,384,171289,6,0,P|277:350|284:292,1,102,0|4,1:2|2:3,2:0:0:0:
389,164,171543,6,0,B|373:96|373:96|376:85|376:85|358:15,1,153,8|0,2:0|2:0,2:0:0:0:
363,0,171797,2,0,P|421:-4|450:42,1,102,10|4,1:3|2:3,2:0:0:0:
284,113,172052,5,10,1:3:0:0:
218,64,172179,1,4,2:3:0:0:
115,190,172306,2,0,P|28:195|-1:132,1,153,2|0,1:2|2:0,2:0:0:0:
52,85,172560,2,0,L|35:19,1,51,0|0,1:2|2:0,2:0:0:0:
0,269,172687,5,10,2:0:0:0:
192,165,172814,2,0,B|240:175|240:175|245:183|245:183|291:197,1,102,2|0,2:0|2:0,2:0:0:0:
467,228,173069,2,0,B|480:257|456:305|401:308|401:308|388:271,1,153,10|0,2:0|2:0,2:0:0:0:
365,200,173323,5,8,1:3:0:0:
320,369,173450,1,8,2:0:0:0:
287,196,173577,5,4,1:3:0:0:
428,384,173704,1,4,2:3:0:0:
251,271,173831,2,0,P|204:278|175:324,1,102,4|0,1:2|2:0,2:0:0:0:
108,363,174086,2,0,L|59:347,1,51,2|0,1:2|2:0,2:0:0:0:
239,363,174213,1,10,2:3:0:0:
105,273,174340,6,0,B|87:167|87:167|109:153|130:121,1,153,2|0,1:2|2:0,2:0:0:0:
83,1,174594,2,0,P|45:33|45:82,1,102,10|0,2:0|2:0,2:0:0:0:
189,187,174848,5,10,1:3:0:0:
146,65,174975,1,4,2:3:0:0:
180,204,175103,5,10,1:3:0:0:
240,27,175230,1,8,2:0:0:0:
325,202,175357,6,0,B|358:264|420:267|460:215|460:215|436:178,1,204,2|0,1:2|1:2,2:0:0:0:
491,121,175675,1,0,2:0:0:0:
491,121,175738,2,0,L|508:47,1,51,10|0,1:3|2:0,2:0:0:0:
348,26,175865,2,0,B|362:73|362:73|361:80|361:80|377:134,1,102,4|0,1:3|2:0,2:0:0:0:
511,278,176120,6,0,P|507:327|468:358,1,102,10|0,2:0|2:0,2:0:0:0:
327,333,176374,6,0,L|392:315,2,68,8|0|0,1:3|1:0|1:0,2:0:0:0:
314,316,176628,5,4,1:3:0:0:
343,211,176755,1,4,2:3:0:0:
247,370,176882,6,0,B|187:353|187:353|173:331|173:331|86:303,1,153,4|0,1:2|2:0,2:0:0:0:
49,361,177136,2,0,L|-22:387,1,51,2|0,1:2|2:0,2:0:0:0:
80,239,177264,1,10,2:3:0:0:
240,382,177391,2,0,L|218:282,1,102,2|4,1:2|2:3,2:0:0:0:
156,111,177645,6,0,B|200:117|205:159|205:159|211:204|258:209,1,153,10|0,2:0|2:0,2:0:0:0:
343,211,177899,2,0,L|391:195,1,51,10|0,1:3|2:0,2:0:0:0:
505,266,178026,1,4,2:3:0:0:
299,132,178153,5,10,1:3:0:0:
416,295,178281,1,8,2:0:0:0:
504,150,178408,6,0,B|466:18|466:18|430:15|399:-3,1,204,2|2,1:2|1:2,2:0:0:0:
405,146,178789,2,0,L|390:194,1,51,10|0,2:0|2:0,2:0:0:0:
243,65,178916,2,0,P|285:21|336:31,1,102,0|2,1:2|2:0,2:0:0:0:
65,36,179170,5,10,2:0:0:0:
163,98,179297,1,0,1:0:0:0:
1,123,179425,5,8,1:3:0:0:
168,8,179552,1,8,2:0:0:0:
28,218,179679,2,0,B|42:262|42:262|40:267|40:267|62:322,1,102,4|0,1:3|2:0,2:0:0:0:
217,208,179933,5,6,1:2:0:0:
102,151,180060,1,8,0:2:0:0:
236,221,180187,5,10,1:2:0:0:
146,347,180314,2,0,B|168:393|217:380|217:380|229:340|287:336,1,153,10|0,2:3|2:0,2:0:0:0:
339,377,180569,1,10,2:0:0:0:
450,191,180696,5,10,2:0:0:0:
492,307,180823,1,0,1:0:0:0:
445,173,180950,5,10,1:3:0:0:
334,295,181077,2,0,B|347:227|347:227|344:219|344:219|362:126,1,153,6|0,2:3|2:0,2:0:0:0:
412,86,181331,1,10,2:0:0:0:
204,100,181458,6,0,P|233:145|286:142,1,102,2|0,1:2|2:0,2:0:0:0:
400,79,181713,2,0,L|377:15,1,51,10|0,1:2|2:0,2:0:0:0:
169,24,181840,6,0,P|111:39|96:134,1,153,10|0,2:0|2:0,2:0:0:0:
143,190,182094,1,10,2:0:0:0:
106,349,182221,6,0,B|94:304|94:304|96:298|96:298|86:250,1,102,10|8,2:0|2:0,2:0:0:0:
214,219,182475,2,0,L|201:282,1,51,10|0,1:3|2:0,2:0:0:0:
289,384,182603,1,8,2:3:0:0:
278,163,182730,5,6,1:3:0:0:
204,363,182857,1,4,2:3:0:0:
378,249,182984,6,0,B|435:251|440:299|440:299|447:349|509:349,1,170,6|0,1:2|1:2,2:0:0:0:
311,293,183365,1,10,2:3:0:0:
450,178,183492,2,0,P|452:130|393:99,1,102,0|4,1:2|2:3,2:0:0:0:
227,89,183747,6,0,B|335:68|335:68|350:23,1,153,8|0,2:0|2:0,2:0:0:0:
427,18,184001,2,0,L|486:38,1,51,10|0,1:3|2:0,2:0:0:0:
348,145,184128,1,4,2:3:0:0:
275,1,184255,5,10,1:3:0:0:
412,99,184382,1,4,2:3:0:0:
173,32,184509,6,0,P|127:28|85:76,1,102,2|8,1:2|2:0,2:0:0:0:
131,142,184700,1,0,2:0:0:0:
131,142,184764,2,0,L|181:158,1,51,0|0,1:2|2:0,2:0:0:0:
5,74,184891,1,10,2:0:0:0:
227,89,185018,5,8,2:3:0:0:
26,158,185145,1,8,2:0:0:0:
242,216,185272,5,10,2:0:0:0:
88,64,185399,1,8,2:0:0:0:
77,345,185526,5,8,2:3:0:0:
146,232,185653,1,8,2:3:0:0:
321,377,185781,5,4,2:3:0:0:
206,296,185908,1,8,2:3:0:0:
334,133,186035,6,0,P|412:153|436:223,1,140.25,6|0,1:2|2:0,2:0:0:0:
214,103,186289,1,0,1:2:0:0:
276,24,186416,2,0,P|321:21|353:54,2,93.5,10|2|0,2:3|1:2|2:0,2:0:0:0:
498,12,186797,6,0,B|484:57|484:57|486:66|486:66|473:102,1,93.5,10|0,2:0|2:0,2:0:0:0:
296,205,187052,2,0,P|296:159|333:132,1,93.5,2|0,1:2|2:0,2:0:0:0:
470,281,187306,1,10,1:3:0:0:
368,373,187433,1,4,2:3:0:0:
231,258,187560,6,0,B|171:274|171:274|167:282|167:282|91:305,1,140.25,6|0,1:2|2:0,2:0:0:0:
37,349,187814,1,0,1:2:0:0:
112,214,187942,2,0,L|127:121,1,93.5,10|2,2:0|1:2,2:0:0:0:
68,71,188196,1,0,2:0:0:0:
223,0,188323,2,0,P|268:1|298:35,1,93.5,10|0,2:0|2:0,2:0:0:0:
262,158,188577,6,0,L|182:186,2,62.3333333333333,2|8|8,1:2|2:0|2:0,2:0:0:0:
278,173,188831,1,2,1:2:0:0:
371,233,188958,1,0,2:0:0:0:
476,34,189086,6,0,B|452:121|452:121|479:138|503:176,1,140.25,6|0,1:2|2:0,2:0:0:0:
453,225,189340,1,0,1:2:0:0:
512,373,189467,2,0,P|507:322|462:298,2,93.5,10|2|0,2:3|1:2|2:0,2:0:0:0:
344,323,189848,2,0,L|374:225,1,93.5,10|0,2:0|2:0,2:0:0:0:
188,319,190103,5,2,1:2:0:0:
268,384,190230,1,8,2:0:0:0:
125,186,190357,5,10,1:2:0:0:
33,251,190484,1,8,2:0:0:0:
255,269,190611,6,0,B|286:243|279:207|279:207|266:138,1,140.25,6|0,1:2|2:0,2:0:0:0:
319,77,190865,1,0,1:2:0:0:
177,0,190992,2,0,P|132:13|120:66,1,93.5,10|2,2:0|1:2,2:0:0:0:
235,61,191247,1,0,2:0:0:0:
385,20,191374,6,0,P|428:36|436:90,1,93.5,14|0,2:0|2:0,2:0:0:0:
366,202,191628,2,0,B|424:217|424:217|435:237|435:237|497:253,1,140.25,2|0,1:2|2:0,2:0:0:0:
503,242,191882,2,0,L|486:145,1,93.5,2|0,1:2|2:0,2:0:0:0:
401,351,192136,6,0,P|359:298|292:305,1,140.25,6|0,1:2|2:0,2:0:0:0:
241,372,192391,1,0,1:2:0:0:
156,264,192518,2,0,L|179:173,2,93.5,10|2|0,2:0|1:2|2:0,2:0:0:0:
111,384,192899,6,0,P|75:355|79:309,1,93.5,10|0,2:0|2:0,2:0:0:0:
246,226,193153,2,0,L|318:202,2,46.75,2|2|2,1:2|2:0|2:0,2:0:0:0:
98,157,193408,2,0,B|82:118|82:118|77:115|77:115|51:62,1,93.5,2|0,1:2|2:0,2:0:0:0:
266,118,193662,6,0,P|329:105|387:173,1,140.25,6|0,1:2|2:0,2:0:0:0:
369,229,193916,1,0,1:2:0:0:
461,118,194043,1,10,2:0:0:0:
507,323,194170,2,0,P|460:326|426:277,1,93.5,2|8,1:2|2:3,2:0:0:0:
276,354,194425,6,0,B|250:337|250:337|139:356,1,140.25,14|0,2:0|2:0,2:0:0:0:
70,384,194679,5,10,1:2:0:0:
0,250,194806,1,8,2:0:0:0:
180,152,194933,5,10,1:2:0:0:
95,261,195060,1,8,2:0:0:0:
0,25,195187,6,0,B|60:38|60:38|69:52|69:52|153:71,1,140.25,6|0,1:2|2:0,2:0:0:0:
196,26,195442,1,0,1:2:0:0:
287,116,195569,1,10,2:0:0:0:
429,0,195696,2,0,P|380:0|346:42,1,93.5,2|0,1:2|2:0,2:0:0:0:
466,196,195950,6,0,L|484:97,1,93.5,14|0,2:0|2:0,2:0:0:0:
321,274,196204,5,8,1:2:0:0:
362,154,196331,1,8,2:0:0:0:
395,324,196458,5,10,1:2:0:0:
287,116,196586,1,10,2:0:0:0:
479,298,196713,5,10,1:2:0:0:
267,204,196840,1,10,2:0:0:0:
182,366,196967,5,10,1:2:0:0:
321,274,197094,1,10,2:0:0:0:
199,88,197221,6,0,P|149:86|116:122,1,102,2|2,1:3|2:0,2:0:0:0:
0,258,197475,6,0,P|33:294|82:292,1,102,10|0,1:2|2:0,2:0:0:0:
287,116,197730,5,14,1:2:0:0:
256,192,197793,12,0,199001,2:0:0:0:
