osu file format v14

[General]
AudioFilename: audio.mp3
AudioLeadIn: 0
PreviewTime: 98959
Countdown: 0
SampleSet: Soft
StackLeniency: 0.5
Mode: 0
LetterboxInBreaks: 0
WidescreenStoryboard: 1

[Editor]
Bookmarks: 697,13662,25865,38069,62475,74679,99086,123492,135696,147899,161628,186035
DistanceSpacing: 1
BeatDivisor: 4
GridSize: 16
TimelineZoom: 2.799999

[Metadata]
Title:Sayonara Waltz
TitleUnicode:さよならワルツ
Artist:la la larks
ArtistUnicode:la la larks
Creator:Elayue
Version:Ayameteurre's Expert
Source:
Tags:japanese rock jrock j-rock bunda Culture Vulture bongo amateurre olibomby AyameMyMommy Pile goth asuka goth_asuka elicz1 some hero some_hero
BeatmapID:3149454
BeatmapSetID:1217160

[Difficulty]
HPDrainRate:5
CircleSize:3.8
OverallDifficulty:8.5
ApproachRate:9.4
SliderMultiplier:1.8
SliderTickRate:1

[Events]
//Background and Video events
0,0,"Konachan.com - 310378 clouds nobody original scenic skyrick9413 stars sunset.jpg",0,0
//Break Periods
//Storyboard Layer 0 (Background)
//Storyboard Layer 1 (Fail)
//Storyboard Layer 2 (Pass)
//Storyboard Layer 3 (Foreground)
//Storyboard Layer 4 (Overlay)
//Storyboard Sound Samples

[TimingPoints]
697,254.237288135593,3,2,1,75,1,0
697,-166.666666666667,3,2,1,75,0,0
1459,254.237288135593,3,2,1,52,1,0
1459,-99.9999999999999,3,2,1,52,0,0
4255,-166.666666666667,3,2,1,52,0,0
4509,-100,3,2,1,52,0,0
7306,-100,3,2,2,52,0,0
7560,-100,3,2,1,52,0,0
10230,-100,3,2,1,38,0,0
10357,-166.666666666667,3,2,1,52,0,0
10611,-100,3,2,1,52,0,0
13662,-166.666666666667,3,2,1,52,0,0
25865,-125,3,2,1,52,0,0
36543,-111.111111111111,3,2,1,52,0,0
38069,-83.3333333333333,3,2,1,78,0,0
39340,-83.3333333333333,3,2,2,78,0,0
39594,-83.3333333333333,3,2,1,78,0,0
42391,-83.3333333333333,3,2,2,78,0,0
42645,-83.3333333333333,3,2,1,78,0,0
43916,-83.3333333333333,3,2,2,78,0,0
44170,-83.3333333333333,3,2,1,78,0,0
48492,-83.3333333333333,3,2,2,78,0,0
48747,-83.3333333333333,3,2,1,78,0,0
49891,-83.3333333333333,3,2,2,78,0,0
50018,-83.3333333333333,3,2,1,78,0,0
50145,-83.3333333333333,3,2,2,78,0,0
50272,-83.3333333333333,3,2,1,78,0,0
51543,-83.3333333333333,3,2,2,78,0,0
51797,-83.3333333333333,3,2,1,78,0,0
54594,-83.3333333333333,3,2,2,78,0,0
54848,-83.3333333333333,3,2,1,78,0,0
56120,-83.3333333333333,3,2,2,78,0,0
56374,-83.3333333333333,3,2,1,78,0,0
59043,-83.3333333333333,3,2,1,40,0,0
59170,-83.3333333333333,3,2,1,60,0,0
59297,-83.3333333333333,3,2,1,78,0,0
60696,-83.3333333333333,3,2,2,78,0,0
60950,-83.3333333333333,3,2,1,78,0,0
62094,-83.3333333333333,3,2,2,78,0,0
62221,-83.3333333333333,3,2,1,78,0,0
62475,-83.3333333333333,3,2,1,52,0,0
62730,-100,3,2,1,52,0,0
74679,-125,3,2,1,52,0,0
97814,-125,3,2,1,44,0,0
97942,-125,3,2,1,52,0,0
98069,-100,3,2,1,52,0,0
99086,-83.3333333333333,3,2,1,78,0,0
100357,-83.3333333333333,3,2,2,78,0,0
100611,-83.3333333333333,3,2,1,78,0,0
101755,-83.3333333333333,3,2,2,78,0,0
101882,-83.3333333333333,3,2,1,78,0,0
103408,-83.3333333333333,3,2,2,78,0,0
103662,-83.3333333333333,3,2,1,78,0,0
104933,-83.3333333333333,3,2,2,78,0,0
105187,-83.3333333333333,3,2,1,78,0,0
108111,-83.3333333333333,3,2,2,78,0,0
108238,-83.3333333333333,3,2,1,78,0,0
109509,-83.3333333333333,3,2,2,78,0,0
109764,-83.3333333333333,3,2,1,78,0,0
111035,-83.3333333333333,3,2,2,78,0,0
111289,-83.3333333333333,3,2,1,78,0,0
112560,-83.3333333333333,3,2,2,78,0,0
112814,-83.3333333333333,3,2,1,78,0,0
115611,-83.3333333333333,3,2,2,78,0,0
115865,-83.3333333333333,3,2,1,78,0,0
117136,-83.3333333333333,3,2,2,78,0,0
117391,-83.3333333333333,3,2,1,78,0,0
120060,-83.3333333333333,3,2,2,78,0,0
120187,-83.3333333333333,3,2,1,78,0,0
121713,-83.3333333333333,3,2,2,78,0,0
121967,-83.3333333333333,3,2,1,78,0,0
122348,-83.3333333333333,3,2,1,30,0,0
122475,-83.3333333333333,3,2,1,40,0,0
122603,-83.3333333333333,3,2,1,50,0,0
122730,-83.3333333333333,3,2,1,64,0,0
122984,-83.3333333333333,3,2,1,78,0,0
123365,-83.3333333333333,3,2,2,78,0,0
123492,-125,3,2,1,62,0,0
134933,-100,3,2,1,62,0,0
135759,-111.111111111111,3,2,1,62,0,0
142942,-111.111111111111,3,2,2,62,0,0
143069,-111.111111111111,3,2,1,62,0,0
143196,-111.111111111111,3,2,2,62,0,0
143323,-111.111111111111,3,2,1,62,0,0
144594,-111.111111111111,3,2,2,62,0,0
144848,-111.111111111111,3,2,1,62,0,0
145611,-142.857142857143,3,2,1,62,0,0
145992,-142.857142857143,3,2,2,62,0,0
146120,-111.111111111111,3,2,2,62,0,0
146374,-111.111111111111,3,2,1,62,0,0
148281,-111.111111111111,3,2,2,62,0,0
148662,-111.111111111111,3,2,1,62,0,0
149679,-111.111111111111,3,2,2,62,0,0
149806,-111.111111111111,3,2,1,62,0,0
150695,-111.111111111111,3,2,2,62,0,0
150950,-111.111111111111,3,2,1,62,0,0
152221,-111.111111111111,3,2,2,62,0,0
152475,-111.111111111111,3,2,1,62,0,0
153746,-111.111111111111,3,2,2,62,0,0
154001,-111.111111111111,3,2,1,62,0,0
155272,-111.111111111111,3,2,2,62,0,0
155526,-111.111111111111,3,2,1,62,0,0
156670,-111.111111111111,3,2,1,30,0,0
156797,-111.111111111111,3,2,1,40,0,0
156925,-111.111111111111,3,2,1,50,0,0
157052,-111.111111111111,3,2,1,62,0,0
160357,-111.111111111111,3,2,1,40,0,0
160611,-111.111111111111,3,2,1,50,0,0
160865,-111.111111111111,3,2,1,60,0,0
161120,-111.111111111111,3,2,1,62,0,0
161374,-111.111111111111,3,2,1,60,0,0
161628,-83.3333333333333,3,2,1,78,0,0
162899,-83.3333333333333,3,2,2,78,0,0
163153,-83.3333333333333,3,2,1,78,0,0
164297,-83.3333333333333,3,2,2,78,0,0
164425,-83.3333333333333,3,2,1,78,0,0
165950,-83.3333333333333,3,2,2,78,0,0
166204,-83.3333333333333,3,2,1,78,0,0
167475,-83.3333333333333,3,2,2,78,0,0
167730,-83.3333333333333,3,2,1,78,0,0
169128,-83.3333333333333,3,2,2,78,0,0
169255,-83.3333333333333,3,2,1,78,0,0
170272,-83.3333333333333,3,2,1,60,0,0
170399,-83.3333333333333,3,2,1,64,0,0
170526,-83.3333333333333,3,2,1,68,0,0
170653,-83.3333333333333,3,2,1,72,0,0
170781,-83.3333333333333,3,2,1,78,0,0
172052,-83.3333333333333,3,2,2,78,0,0
172306,-83.3333333333333,3,2,1,78,0,0
173704,-83.3333333333333,3,2,2,78,0,0
173831,-83.3333333333333,3,2,1,78,0,0
175103,-83.3333333333333,3,2,2,78,0,0
175230,-83.3333333333333,3,2,1,78,0,0
176458,-83.3333333333333,3,2,1,60,0,0
176628,-83.3333333333333,3,2,1,78,0,0
176755,-83.3333333333333,3,2,2,78,0,0
176882,-83.3333333333333,3,2,1,78,0,0
178153,-83.3333333333333,3,2,2,78,0,0
178280,-83.3333333333333,3,2,1,78,0,0
182857,-83.3333333333333,3,2,2,78,0,0
182984,-83.3333333333333,3,2,1,78,0,0
184255,-83.3333333333333,3,2,2,78,0,0
184509,-83.3333333333333,3,2,1,78,0,0
184699,-83.3333333333333,3,2,1,30,0,0
184764,-83.3333333333333,3,2,1,78,0,0
184891,-83.3333333333333,3,2,1,60,0,0
185018,-83.3333333333333,3,2,1,78,0,0
185145,-83.3333333333333,3,2,1,40,0,0
185272,-83.3333333333333,3,2,1,78,0,0
185399,-83.3333333333333,3,2,1,40,0,0
185526,-83.3333333333333,3,2,1,78,0,0
188662,-83.3333333333333,3,2,1,40,0,0
188831,-83.3333333333333,3,2,1,78,0,0
190230,-83.3333333333333,3,2,1,50,0,0
190357,-83.3333333333333,3,2,1,60,0,0
190484,-83.3333333333333,3,2,1,70,0,0
190611,-83.3333333333333,3,2,1,78,0,0
193323,-83.3333333333333,3,2,1,40,0,0
193408,-83.3333333333333,3,2,1,78,0,0
194297,-83.3333333333333,3,2,2,78,0,0
194425,-83.3333333333333,3,2,1,78,0,0
194679,-83.3333333333333,3,2,1,40,0,0
194806,-83.3333333333333,3,2,1,50,0,0
194933,-83.3333333333333,3,2,1,60,0,0
195060,-83.3333333333333,3,2,1,70,0,0
195187,-83.3333333333333,3,2,1,78,0,0
196204,-83.3333333333333,3,2,1,50,0,0
196458,-83.3333333333333,3,2,1,58,0,0
196713,-83.3333333333333,3,2,1,64,0,0
196967,-83.3333333333333,3,2,1,70,0,0
197221,-83.3333333333333,3,2,1,78,0,0

[Colours]
Combo1 : 188,121,255
Combo2 : 183,183,255
Combo3 : 130,186,255

[HitObjects]
53,352,697,6,0,L|62:381,1,26.9999999999999,8|0,2:0|2:0,2:0:0:0:
3,285,951,5,8,2:3:0:0:
46,214,1205,5,4,2:3:0:0:
154,302,1459,6,0,B|219:287|242:330|233:332|256:381|310:364,1,180,6|2,1:2|2:0,2:0:0:0:
477,218,1840,2,0,L|492:147,2,45,0|0|0,2:0|2:0|1:0,2:0:0:0:
423,272,2094,1,0,2:0:0:0:
499,343,2221,6,0,P|434:296|329:286,1,180,10|2,2:0|2:0,2:0:0:0:
336,284,2603,1,8,2:3:0:0:
228,208,2730,2,0,P|285:209|320:172,1,90.0000000000001,2|4,1:2|2:3,2:0:0:0:
503,129,2984,6,0,P|415:132|365:-7,1,225,2|0,1:2|2:0,2:0:0:0:
358,15,3365,2,0,P|381:-5|425:0,1,60.0000000000001,10|0,2:0|1:0,2:0:0:0:
250,125,3747,6,0,B|205:132|180:100|180:85|182:74|155:31|98:51,1,180,10|8,2:0|2:3,2:0:0:0:
102,49,4128,1,0,2:0:0:0:
7,117,4255,6,0,P|43:123|66:166,1,80.9999999999998,4|0,2:3|2:0,2:0:0:0:
148,170,4509,6,0,P|78:174|36:293,1,180,6|2,1:2|2:0,2:0:0:0:
139,376,4891,2,0,L|146:331,2,45,10|0|0,2:3|2:0|2:0,2:0:0:0:
63,338,5145,1,0,2:0:0:0:
214,260,5272,6,0,B|265:240|299:281|297:288|295:295|323:337|376:318,1,180,10|2,2:0|2:0,2:0:0:0:
369,320,5653,1,8,2:3:0:0:
469,208,5781,2,0,P|454:251|478:295,1,90,2|4,1:2|2:3,2:0:0:0:
335,169,6035,6,0,P|430:187|499:94,1,225,2|0,1:2|2:0,2:0:0:0:
494,86,6416,2,0,P|488:52|521:7,1,90,10|0,2:0|1:0,2:0:0:0:
139,38,6797,6,0,B|183:56|194:104|194:104|192:54|231:25,1,180,10|8,2:0|2:3,2:0:0:0:
358,53,7179,1,4,2:3:0:0:
374,46,7306,1,8,2:3:0:0:
360,37,7433,1,4,2:3:0:0:
265,275,7560,6,0,P|267:199|284:96,1,180,6|2,1:2|2:0,2:0:0:0:
79,11,7942,1,10,2:3:0:0:
92,26,8026,2,0,P|105:78|112:163,1,120,0|0,1:0|2:0,2:0:0:0:
273,272,8323,6,0,P|206:267|146:370,1,180,10|2,2:0|2:0,2:0:0:0:
144,350,8704,1,8,2:3:0:0:
30,181,8831,2,0,P|52:215|108:229,1,90,2|4,1:2|2:3,2:0:0:0:
280,368,9086,6,0,B|342:373|372:319|366:301|367:286|407:234|468:259,1,225,2|0,1:2|2:0,2:0:0:0:
463,262,9467,2,0,P|483:290|475:342,1,90,6|0,2:3|1:0,2:0:0:0:
247,97,9848,6,0,P|266:181|271:295,1,180,10|8,2:0|2:3,2:0:0:0:
271,274,10230,1,0,2:0:0:0:
375,229,10357,6,0,P|380:188|390:149,1,80.9999999999998,4|0,2:3|2:0,2:0:0:0:
355,73,10611,6,0,P|413:136|498:120,1,180,6|2,1:2|2:0,2:0:0:0:
280,16,10992,1,10,2:3:0:0:
267,6,11077,2,0,P|202:7|170:56,1,120,0|0,1:2|2:0,2:0:0:0:
89,196,11374,6,0,P|28:178|22:88,1,135,10|0,2:0|2:0,2:0:0:0:
19,105,11628,2,0,P|31:50|34:-1,1,90,2|8,2:0|2:3,2:0:0:0:
193,133,11882,2,0,P|181:188|178:239,1,90,2|4,1:2|2:3,2:0:0:0:
0,384,12136,6,0,P|77:316|223:328,1,225,2|0,1:2|2:0,2:0:0:0:
203,322,12518,2,0,P|170:344|114:337,1,90,10|0,2:3|1:0,2:0:0:0:
283,102,12899,6,0,B|327:84|338:36|338:36|336:86|375:115,2,180,10|8|8,2:0|2:3|2:3,2:0:0:0:
496,327,13662,6,0,P|501:273|509:219,1,108,6|0,1:2|2:0,2:0:0:0:
509,219,14170,1,10,2:3:0:0:
277,351,14425,2,0,P|253:293|290:243,1,108,6|0,2:3|2:0,2:0:0:0:
272,256,14933,1,0,2:0:0:0:
504,338,15187,6,0,P|450:317|333:299,1,162,2|6,1:2|2:3,2:0:0:0:
348,312,15696,1,8,2:3:0:0:
350,325,15823,1,8,2:3:0:0:
352,339,15950,1,4,2:3:0:0:
186,160,16586,5,0,2:0:0:0:
186,160,16713,2,0,P|141:166|63:202,1,108,2|0,1:2|2:0,2:0:0:0:
22,129,17094,2,0,P|21:98|54:73,1,53.9999999999999,0|8,2:0|2:3,2:0:0:0:
165,247,17475,2,0,P|144:296|136:349,2,108,6|0|0,2:3|2:0|2:0,2:0:0:0:
321,148,18238,6,0,P|255:104|177:121,1,162,2|6,1:2|2:3,2:0:0:0:
179,134,18747,1,8,2:3:0:0:
182,146,18874,1,8,2:3:0:0:
186,160,19001,1,4,2:3:0:0:
397,218,19509,5,0,2:0:0:0:
470,47,19764,2,0,P|418:80|431:141,1,108,2|0,1:2|2:0,2:0:0:0:
437,130,20145,2,0,P|465:153|504:149,1,53.9999999999999,0|10,2:0|2:3,2:0:0:0:
338,32,20526,2,0,P|286:27|252:86,1,108,6|0,2:3|2:0,2:0:0:0:
252,66,21035,1,0,2:0:0:0:
122,209,21289,6,0,P|122:128|93:53,1,162,2|6,1:2|2:3,2:0:0:0:
93,66,21797,1,10,2:3:0:0:
95,79,21925,1,8,2:3:0:0:
97,93,22052,1,4,2:3:0:0:
232,297,22687,5,0,2:0:0:0:
232,297,22814,2,0,P|275:309|336:333,1,108,2|0,1:2|2:0,2:0:0:0:
393,283,23196,2,0,P|395:251|370:227,1,53.9999999999999,0|10,2:0|2:3,2:0:0:0:
170,354,23577,2,0,P|119:333|68:318,2,108,6|0|0,2:3|2:0|2:0,2:0:0:0:
223,139,24340,6,0,P|171:140|156:204,1,108,2|0,1:2|2:0,2:0:0:0:
197,251,24721,1,4,2:3:0:0:
197,251,24848,2,0,P|226:242|266:236,1,53.9999999999999,8|0,2:3|2:0,2:0:0:0:
482,70,25103,6,0,L|490:34,1,26.9999999999999,8|0,2:0|2:0,2:0:0:0:
401,112,25357,5,8,2:3:0:0:
441,183,25611,5,4,2:3:0:0:
296,384,25865,6,0,P|334:329|410:331,1,144,6|2,1:2|2:0,2:0:0:0:
487,309,26247,2,0,P|500:261|505:214,1,72,2|0,2:0|1:2,2:0:0:0:
441,183,26501,1,2,2:0:0:0:
314,238,26628,2,0,P|306:183|293:74,1,144,10|2,2:0|2:0,2:0:0:0:
213,198,27136,1,2,1:2:0:0:
456,74,27391,6,0,P|398:70|351:-6,1,144,2|0,1:2|2:0,2:0:0:0:
273,0,27772,1,2,2:0:0:0:
216,54,27899,1,0,1:2:0:0:
216,54,28153,2,0,P|146:31|74:22,2,144,8|0|2,2:0|2:0|1:2,2:0:0:0:
348,210,28916,6,0,P|288:204|234:269,1,144,2|2,1:2|2:0,2:0:0:0:
165,309,29297,2,0,P|172:354|173:385,1,72,0|0,2:0|1:2,2:0:0:0:
173,380,29552,1,2,2:0:0:0:
43,257,29679,2,0,P|33:204|33:104,2,144,10|2|2,2:0|2:0|1:2,2:0:0:0:
278,355,30442,6,0,P|233:302|147:323,1,144,2|0,1:2|2:0,2:0:0:0:
118,243,30823,1,2,2:0:0:0:
175,186,30950,1,0,1:2:0:0:
175,186,31204,2,0,P|187:101|204:35,2,144,8|0|2,2:0|2:0|1:2,2:0:0:0:
465,357,31967,6,0,P|455:318|451:278,1,72,2|0,1:2|2:0,2:0:0:0:
364,307,32221,2,0,P|374:346|378:386,1,72,2|0,2:0|2:0,2:0:0:0:
254,286,32475,2,0,P|282:229|353:220,1,108,2|0,1:2|2:0,2:0:0:0:
330,209,32730,2,0,P|343:158|344:115,1,72,10|0,2:0|2:0,2:0:0:0:
459,55,32984,2,0,P|446:106|445:149,1,72,2|0,2:0|2:0,2:0:0:0:
501,208,33238,1,2,1:2:0:0:
312,25,33492,6,0,P|243:12|185:85,1,144,2|0,1:2|2:0,2:0:0:0:
142,118,33874,1,2,2:0:0:0:
78,71,34001,2,0,P|71:37|74:-9,1,72,2|0,1:2|2:0,2:0:0:0:
23,244,34255,2,0,P|77:222|180:210,1,144,8|0,2:0|2:0,2:0:0:0:
161,209,34764,2,0,P|188:242|181:282,1,72,0|2,1:2|2:0,2:0:0:0:
367,107,35018,6,0,P|375:66|379:27,1,72,2|0,1:2|2:0,2:0:0:0:
426,177,35272,2,0,P|457:204|489:227,1,72,2|0,2:0|2:0,2:0:0:0:
342,194,35526,2,0,P|302:207|266:223,1,72,2|0,1:2|2:0,2:0:0:0:
501,42,35781,6,0,P|475:84|439:96,1,72,10|0,2:0|2:0,2:0:0:0:
213,109,36035,2,0,P|262:110|290:135,1,72,2|0,2:0|2:0,2:0:0:0:
420,327,36289,2,0,P|396:283|404:246,1,72,2|0,1:2|2:0,2:0:0:0:
284,30,36543,6,0,P|357:71|365:146,1,162,2|8,1:2|2:0,2:0:0:0:
501,42,36925,1,8,2:0:0:0:
279,120,37052,1,0,1:2:0:0:
495,377,37306,5,12,2:0:0:0:
495,377,37560,5,12,2:0:0:0:
401,248,37814,5,2,2:0:0:0:
322,285,37942,1,2,2:0:0:0:
151,174,38069,6,0,B|116:100|217:94|135:-18,1,162,4|0,1:2|2:0,2:0:0:0:
157,19,38323,1,2,1:2:0:0:
279,120,38450,1,8,2:3:0:0:
341,68,38577,2,0,P|317:36|251:47,1,108,2|0,1:2|2:0,2:0:0:0:
56,185,38831,2,0,P|123:170|175:166,1,108,10|0,2:0|2:0,2:0:0:0:
432,253,39086,5,10,1:3:0:0:
409,341,39213,1,4,2:3:0:0:
345,274,39340,1,10,1:3:0:0:
392,290,39467,5,4,2:3:0:0:
303,371,39594,2,0,P|250:316|284:187,1,216,2|0,1:2|1:2,2:0:0:0:
413,62,39975,1,10,2:0:0:0:
455,131,40103,2,0,B|479:156|507:153|507:153|477:148|461:122,1,108,0|0,1:2|2:0,2:0:0:0:
334,37,40357,6,0,P|278:39|271:114,1,108,10|0,2:0|2:0,2:0:0:0:
327,270,40611,1,8,1:3:0:0:
369,199,40738,1,0,2:0:0:0:
208,245,40865,2,0,B|105:261|105:261|88:238|56:231,1,162,4|0,1:3|2:0,2:0:0:0:
46,243,41120,6,0,P|9:187|68:97,1,162,4|0,1:2|2:0,2:0:0:0:
45,107,41374,1,2,1:2:0:0:
242,68,41501,1,8,2:3:0:0:
146,9,41628,2,0,P|154:62|162:115,1,108,2|4,1:2|2:3,2:0:0:0:
371,193,41882,2,0,P|386:141|344:103,1,108,10|0,2:0|2:0,2:0:0:0:
154,230,42136,1,10,1:3:0:0:
215,279,42264,1,6,2:3:0:0:
293,258,42391,1,8,1:3:0:0:
234,199,42518,5,4,2:3:0:0:
136,309,42645,2,0,P|82:317|29:327,1,108,2|0,1:2|2:0,2:0:0:0:
67,246,42899,5,2,1:2:0:0:
221,362,43026,2,0,P|275:354|328:344,1,108,10|0,2:0|2:0,2:0:0:0:
401,373,43281,5,0,2:0:0:0:
363,146,43408,2,0,P|287:193|299:268,1,162,10|0,2:0|2:0,2:0:0:0:
292,257,43662,5,8,1:3:0:0:
257,176,43789,1,4,2:3:0:0:
420,274,43916,2,0,B|409:225|439:196|453:210|484:178|468:123,1,162,8|0,1:3|2:0,2:0:0:0:
497,52,44170,6,0,P|435:48|404:89,1,108,6|0,1:2|2:0,2:0:0:0:
369,154,44425,1,2,1:2:0:0:
333,0,44552,6,0,P|298:51|318:99,1,108,10|0,2:3|2:0,2:0:0:0:
375,161,44806,1,6,2:3:0:0:
216,126,44933,6,0,P|243:181|294:188,1,108,10|0,2:0|2:0,2:0:0:0:
381,168,45187,1,10,1:3:0:0:
216,126,45314,6,0,P|149:125|119:163,1,108,6|0,2:3|2:0,2:0:0:0:
41,135,45569,1,6,2:3:0:0:
219,353,45696,6,0,P|253:295|235:250,1,108,2|0,1:2|2:0,2:0:0:0:
284,190,45950,1,2,1:2:0:0:
0,235,46077,6,0,P|32:293|80:300,1,108,10|0,2:0|2:0,2:0:0:0:
114,372,46331,1,2,2:0:0:0:
126,135,46458,6,0,B|109:181|139:216|154:199|181:239|156:288,1,162,10|0,2:0|2:0,2:0:0:0:
158,282,46713,1,10,1:3:0:0:
242,259,46840,1,2,2:0:0:0:
354,376,46967,1,4,1:3:0:0:
270,353,47094,1,8,2:0:0:0:
391,180,47221,6,0,P|454:184|477:287,1,162,6|0,1:2|2:0,2:0:0:0:
486,267,47475,1,0,1:2:0:0:
406,313,47603,1,10,2:3:0:0:
304,153,47730,2,0,P|313:97|324:41,1,108,0|4,1:2|2:3,2:0:0:0:
242,259,47984,2,0,B|202:272|165:237|181:223|145:191|91:216,1,162,8|0,2:0|2:0,2:0:0:0:
98,212,48238,5,10,1:3:0:0:
29,160,48365,1,4,2:3:0:0:
168,65,48492,2,0,P|211:118|191:155,1,108,10|4,1:3|2:3,2:0:0:0:
272,367,48747,6,0,P|290:245|306:147,1,216,2|0,1:2|1:2,2:0:0:0:
482,63,49128,1,10,2:0:0:0:
419,0,49255,2,0,P|376:53|396:90,1,108,0|0,1:2|2:0,2:0:0:0:
508,229,49509,6,0,P|485:184|382:186,1,162,10|0,2:0|2:0,2:0:0:0:
219,115,49764,2,0,P|209:178|251:217,1,108,8|8,1:3|2:3,2:0:0:0:
358,326,50018,1,4,1:3:0:0:
329,243,50145,1,4,2:3:0:0:
150,325,50272,6,0,B|102:300|59:326|77:352|37:377|-16:343,1,162,4|0,1:2|2:0,2:0:0:0:
2,352,50526,1,2,1:2:0:0:
77,281,50653,1,10,2:3:0:0:
216,384,50781,2,0,P|247:351|211:274,1,108,2|0,1:2|2:0,2:0:0:0:
128,111,51035,2,0,P|135:159|142:221,1,108,10|0,2:0|2:0,2:0:0:0:
426,242,51289,5,10,1:3:0:0:
405,155,51416,1,4,2:3:0:0:
338,219,51543,1,10,1:3:0:0:
389,202,51670,5,4,2:3:0:0:
461,347,51797,2,0,P|362:305|256:289,1,216,2|0,1:2|1:2,2:0:0:0:
79,169,52179,1,10,2:0:0:0:
47,242,52306,2,0,P|125:236|150:184,1,108,0|0,1:2|2:0,2:0:0:0:
420,48,52560,6,0,P|411:109|404:162,1,108,10|0,2:0|2:0,2:0:0:0:
256,289,52814,1,8,1:3:0:0:
326,339,52942,1,4,2:3:0:0:
336,257,53069,5,4,1:3:0:0:
247,366,53196,1,8,2:0:0:0:
349,247,53323,6,0,P|426:245|472:308,1,162,4|0,1:2|2:0,2:0:0:0:
468,304,53577,1,2,1:2:0:0:
393,326,53704,1,10,2:3:0:0:
264,198,53831,2,0,P|275:145|285:92,1,108,2|4,1:2|2:3,2:0:0:0:
99,329,54086,2,0,B|88:349|58:354|58:354|86:357|110:332,1,108,10|0,2:0|2:0,2:0:0:0:
291,354,54340,2,0,P|256:284|179:282,1,162,10|0,1:3|2:0,2:0:0:0:
179,282,54594,2,0,P|143:213|186:181,1,108,10|4,1:3|2:3,2:0:0:0:
308,147,54848,6,0,P|371:156|425:164,1,108,2|0,1:2|2:0,2:0:0:0:
377,75,55103,5,2,1:2:0:0:
238,190,55230,2,0,P|224:133|259:84,1,108,10|0,2:0|2:0,2:0:0:0:
297,35,55484,5,2,2:0:0:0:
464,232,55611,2,0,P|492:136|448:86,1,162,10|0,2:0|2:0,2:0:0:0:
458,92,55865,5,8,1:3:0:0:
414,162,55992,1,4,2:3:0:0:
297,35,56120,2,0,P|243:39|189:42,1,108,8|4,1:3|2:3,2:0:0:0:
0,179,56374,6,0,P|58:153|106:172,1,108,6|0,1:2|2:0,2:0:0:0:
59,237,56628,1,2,1:2:0:0:
256,143,56755,6,0,P|254:195|217:234,1,108,10|0,2:3|2:0,2:0:0:0:
177,165,57009,1,6,2:3:0:0:
160,383,57136,6,0,P|115:356|99:306,1,108,10|0,2:0|2:0,2:0:0:0:
139,236,57391,1,10,1:3:0:0:
277,290,57518,6,0,P|231:314|179:302,1,108,6|0,2:3|2:0,2:0:0:0:
139,236,57772,1,6,2:3:0:0:
306,209,57899,6,0,P|350:236|366:287,1,108,2|0,1:2|2:0,2:0:0:0:
277,290,58153,1,2,1:2:0:0:
446,270,58281,6,0,P|444:322|407:361,1,108,10|0,2:0|2:0,2:0:0:0:
277,290,58535,1,2,2:0:0:0:
336,134,58662,6,0,B|318:229|384:198|364:299,1,162,10|0,2:0|2:0,2:0:0:0:
365,287,58916,1,10,1:3:0:0:
389,199,59043,1,8,2:0:0:0:
249,134,59170,1,10,2:0:0:0:
300,212,59297,1,8,2:0:0:0:
502,117,59425,6,0,B|442:142|403:88|430:71|376:15|303:55,1,216,6|0,1:2|1:2,2:0:0:0:
164,129,59806,1,10,2:3:0:0:
107,79,59933,2,0,P|111:10|163:4,1,108,0|4,1:2|2:3,2:0:0:0:
249,134,60187,2,0,P|237:186|229:240,1,108,8|0,2:0|2:0,2:0:0:0:
71,348,60442,5,10,1:3:0:0:
94,260,60569,1,4,2:3:0:0:
158,327,60696,1,10,1:3:0:0:
111,311,60823,5,4,2:3:0:0:
229,240,60950,2,0,P|296:234|343:329,1,162,2|0,1:2|2:0,2:0:0:0:
346,305,61204,1,0,1:2:0:0:
418,242,61331,1,10,2:0:0:0:
481,379,61458,2,0,B|464:291|542:318|509:216,1,162,0|0,1:2|2:0,2:0:0:0:
512,227,61713,2,0,P|450:232|411:127,1,162,10|0,2:0|2:0,2:0:0:0:
402,154,61967,5,8,1:3:0:0:
264,215,62094,1,8,2:3:0:0:
278,66,62221,1,4,1:3:0:0:
316,139,62348,1,0,1:0:0:0:
162,45,62475,5,4,1:2:0:0:
162,45,62730,2,0,P|150:88|149:134,1,90,2|0,2:0|2:0,2:0:0:0:
6,48,62984,2,0,P|33:126|41:214,1,135,0|0,1:2|2:0,2:0:0:0:
38,190,63238,6,0,P|77:227|123:227,1,90,10|0,2:0|2:0,2:0:0:0:
319,305,63492,2,0,P|281:357|216:354,1,135,0|0,2:0|2:0,2:0:0:0:
209,346,63747,6,0,P|199:302|195:257,1,90,2|0,1:2|2:0,2:0:0:0:
291,155,64001,2,0,P|286:88|268:17,1,135,0|0,1:0|2:0,2:0:0:0:
262,14,64255,6,0,P|229:51|177:50,1,90,2|0,2:0|2:0,2:0:0:0:
373,187,64509,2,0,P|432:186|473:267,1,135,0|0,1:0|2:0,2:0:0:0:
479,252,64764,6,0,P|467:307|463:357,1,90,10|0,2:0|2:0,2:0:0:0:
317,280,65018,2,0,B|271:261|236:303|247:309|215:354|156:339,1,180,2|2,2:0|1:2,2:0:0:0:
4,128,65526,6,0,P|79:118|186:83,1,180,0|2,1:0|2:0,2:0:0:0:
178,87,65908,1,0,2:0:0:0:
118,12,66035,2,0,P|70:27|17:33,1,90,2|0,1:2|2:0,2:0:0:0:
180,192,66289,6,0,P|255:202|362:236,1,180,8|2,2:0|1:2,2:0:0:0:
354,232,66670,1,0,2:0:0:0:
294,308,66797,2,0,P|246:292|193:286,1,90,2|0,1:2|2:0,2:0:0:0:
4,128,67052,6,0,P|79:118|186:83,1,180,0|2,1:0|2:0,2:0:0:0:
178,87,67433,1,0,2:0:0:0:
118,12,67560,2,0,P|70:27|17:33,1,90,2|0,1:2|2:0,2:0:0:0:
180,192,67814,6,0,P|255:202|362:236,1,180,10|2,2:0|2:0,2:0:0:0:
442,311,68196,1,2,2:0:0:0:
491,247,68323,1,2,1:2:0:0:
459,173,68450,1,2,2:0:0:0:
510,52,68577,5,4,1:0:0:0:
510,52,68831,2,0,P|462:65|417:68,1,90,2|0,2:0|2:0,2:0:0:0:
293,17,69086,2,0,P|265:59|307:130,1,135,0|0,1:0|2:0,2:0:0:0:
309,138,69340,6,0,P|305:190|291:246,1,90,10|0,2:0|2:0,2:0:0:0:
410,353,69594,2,0,P|415:285|429:219,1,135,0|0,1:0|2:0,2:0:0:0:
436,210,69848,6,0,P|473:245|516:240,1,90,2|0,1:2|2:0,2:0:0:0:
303,320,70103,2,0,P|234:320|195:374,1,135,0|0,1:0|2:0,2:0:0:0:
188,377,70357,2,0,P|133:365|92:366,1,90,2|0,2:0|2:0,2:0:0:0:
0,256,70611,2,0,P|68:254|135:237,1,135,0|0,1:0|2:0,2:0:0:0:
142,231,70865,6,0,P|155:186|129:144,1,90,10|0,2:0|2:0,2:0:0:0:
287,69,71120,2,0,P|227:85|146:0,1,180,2|2,2:0|1:2,2:0:0:0:
357,258,71628,6,0,P|364:169|393:76,1,180,4|2,1:2|2:0,2:0:0:0:
390,82,72009,1,0,2:0:0:0:
464,144,72136,2,0,P|452:188|449:234,1,90,2|0,1:2|2:0,2:0:0:0:
267,383,72391,6,0,P|260:294|231:201,1,180,8|2,2:0|2:0,2:0:0:0:
233,207,72772,1,8,2:0:0:0:
160,269,72899,2,0,P|172:313|175:359,1,90,2|0,1:2|2:0,2:0:0:0:
357,258,73153,6,0,P|364:169|393:76,1,180,0|2,1:0|2:0,2:0:0:0:
390,82,73535,1,8,2:0:0:0:
464,144,73662,2,0,P|452:188|449:234,1,90,2|0,1:2|2:0,2:0:0:0:
276,110,73916,6,0,P|261:62|277:16,1,90,10|0,2:0|2:0,2:0:0:0:
113,130,74170,2,0,P|162:141|193:177,1,90,0|2,2:0|1:2,2:0:0:0:
287,255,74425,1,2,1:2:0:0:
201,348,74552,1,2,2:0:0:0:
187,334,74679,6,0,P|278:339|328:376,1,144,6|2,1:2|2:0,2:0:0:0:
392,336,75060,2,0,P|414:309|412:274,1,72,2|0,2:0|1:2,2:0:0:0:
295,0,75442,2,0,P|306:71|314:142,1,144,10|2,2:0|2:0,2:0:0:0:
314,142,75950,1,2,1:2:0:0:
181,64,76204,6,0,P|123:68|76:144,1,144,2|0,1:2|2:0,2:0:0:0:
0,167,76586,2,0,P|16:198|49:211,1,72,0|0,2:0|1:2,2:0:0:0:
282,322,76967,2,0,P|212:299|140:290,2,144,8|0|2,2:0|2:0|1:2,2:0:0:0:
504,293,77730,6,0,P|444:299|390:234,1,144,2|2,1:2|2:0,2:0:0:0:
315,247,78111,2,0,P|313:211|307:176,1,72,2|0,2:0|1:2,2:0:0:0:
477,216,78365,1,2,2:0:0:0:
477,216,78492,2,0,P|487:163|487:63,2,144,8|2|2,2:0|2:0|1:2,2:0:0:0:
187,141,79255,6,0,P|232:88|318:109,1,144,2|0,1:2|2:0,2:0:0:0:
357,40,79636,2,0,P|380:57|388:99,1,72,0|0,2:0|1:2,2:0:0:0:
163,36,80018,2,0,P|78:24|12:7,2,144,8|0|2,2:0|2:0|1:2,2:0:0:0:
401,265,80781,6,0,P|363:225|263:234,1,144,2|2,1:2|2:0,2:0:0:0:
208,179,81162,2,0,P|197:145|206:110,1,72,0|2,2:0|1:2,2:0:0:0:
25,242,81543,2,0,P|15:316|0:401,2,144,10|2|2,2:0|2:0|1:2,2:0:0:0:
201,326,82306,6,0,B|297:319|253:371|360:354,1,144,2|0,1:2|2:0,2:0:0:0:
419,383,82687,2,0,P|421:347|414:312,1,72,2|2,2:0|1:2,2:0:0:0:
194,335,83069,2,0,P|185:264|160:197,1,144,8|0,2:0|2:0,2:0:0:0:
160,197,83577,1,0,1:2:0:0:
234,143,83704,5,2,2:0:0:0:
234,143,83831,2,0,P|280:142|303:237,2,144,0|2|2,1:2|2:0|1:2,2:0:0:0:
80,38,84594,2,0,P|34:37|11:132,2,144,10|2|2,2:0|2:0|1:2,2:0:0:0:
122,198,85357,6,0,P|129:162|137:127,1,72,6|0,1:2|2:0,2:0:0:0:
268,20,85611,2,0,P|260:55|252:90,1,72,6|0,1:2|2:0,2:0:0:0:
286,233,85865,5,14,2:0:0:0:
351,275,85992,1,8,2:0:0:0:
414,228,86120,2,0,P|416:192|374:156,1,72,6|0,1:2|2:0,2:0:0:0:
256,313,86374,6,0,P|178:325|157:331,1,72,6|0,1:2|2:0,2:0:0:0:
104,255,86628,2,0,P|139:248|175:244,1,72,2|0,1:2|2:0,2:0:0:0:
457,352,86882,6,0,P|512:314|510:238,1,144,6|2,1:2|2:0,2:0:0:0:
465,180,87264,2,0,P|429:173|395:163,1,72,10|0,2:0|1:0,2:0:0:0:
346,101,87518,1,0,2:0:0:0:
374,244,87645,2,0,P|330:285|245:262,1,144,10|2,2:0|2:0,2:0:0:0:
253,270,88153,1,2,1:2:0:0:
25,212,88408,6,0,P|66:156|136:153,1,144,2|0,1:2|2:0,2:0:0:0:
135,152,88789,1,2,2:0:0:0:
222,114,88916,1,0,1:2:0:0:
222,114,89170,2,0,P|231:177|246:275,2,144,8|0|0,2:0|2:0|1:2,2:0:0:0:
512,113,89933,6,0,P|468:58|399:61,1,144,2|0,1:2|2:0,2:0:0:0:
321,34,90314,2,0,P|312:75|329:110,1,72,2|0,2:0|1:2,2:0:0:0:
392,137,90569,1,0,2:0:0:0:
226,33,90696,2,0,P|154:26|85:7,2,144,10|2|2,2:0|2:0|1:2,2:0:0:0:
69,272,91458,6,0,P|16:227|37:141,1,144,2|0,1:2|2:0,2:0:0:0:
89,109,91840,1,2,2:0:0:0:
110,192,91967,1,0,1:2:0:0:
110,192,92221,2,0,P|179:175|251:165,2,144,8|0|2,2:0|2:0|1:2,2:0:0:0:
335,221,92984,6,0,P|345:182|349:142,1,72,2|0,1:2|2:0,2:0:0:0:
436,171,93238,2,0,P|426:210|422:250,1,72,2|0,2:0|2:0,2:0:0:0:
326,332,93492,2,0,P|282:301|230:309,1,108,2|0,1:2|2:0,2:0:0:0:
210,314,93747,2,0,P|205:349|195:384,1,72,10|0,2:0|2:0,2:0:0:0:
139,253,94001,2,0,P|143:217|153:182,1,72,2|0,2:0|2:0,2:0:0:0:
231,159,94255,1,2,1:2:0:0:
34,203,94509,6,0,P|-11:150|1:82,1,144,2|0,1:2|2:0,2:0:0:0:
1,82,94891,1,2,2:0:0:0:
81,43,95018,2,0,P|114:55|150:59,1,72,2|0,1:2|2:0,2:0:0:0:
231,159,95272,2,0,P|285:137|388:125,1,144,8|0,2:0|2:0,2:0:0:0:
369,124,95781,2,0,P|396:157|389:197,1,72,0|2,1:2|2:0,2:0:0:0:
196,343,96035,6,0,P|204:302|208:263,1,72,2|0,1:2|2:0,2:0:0:0:
374,304,96289,2,0,P|339:314|306:328,1,72,2|0,2:0|2:0,2:0:0:0:
252,167,96543,2,0,P|278:190|307:212,1,72,2|0,1:2|2:0,2:0:0:0:
441,365,96797,6,0,P|461:336|463:300,1,72,10|0,2:0|2:0,2:0:0:0:
162,220,97052,2,0,P|177:252|207:271,1,72,2|0,2:0|2:0,2:0:0:0:
427,50,97306,2,0,P|391:47|359:63,1,72,2|0,1:2|2:0,2:0:0:0:
108,161,97560,5,10,2:0:0:0:
108,27,97687,1,8,2:0:0:0:
187,135,97814,1,8,2:0:0:0:
59,94,97942,1,8,2:0:0:0:
187,52,98069,2,0,L|286:71,1,90,0|0,1:2|2:0,2:0:0:0:
480,191,98323,2,0,B|405:194|438:140|349:154,1,135,12|0,2:0|2:0,2:0:0:0:
284,189,98577,1,12,2:0:0:0:
33,336,99086,6,0,B|71:328|95:286|95:286|73:341|116:384,1,162,4|0,1:2|2:0,2:0:0:0:
103,370,99340,1,2,1:2:0:0:
2,241,99467,1,8,2:3:0:0:
91,169,99594,2,0,P|101:132|51:84,1,108,2|0,1:2|2:0,2:0:0:0:
179,322,99848,6,0,P|249:299|307:290,1,108,10|0,2:0|2:0,2:0:0:0:
507,163,100103,5,10,1:3:0:0:
439,224,100230,1,4,2:3:0:0:
425,129,100357,1,10,1:3:0:0:
451,172,100484,5,4,2:3:0:0:
290,297,100611,2,0,P|370:282|431:393,1,216,2|0,1:2|1:2,2:0:0:0:
292,179,100992,1,10,1:3:0:0:
223,237,101120,2,0,B|201:255|166:244|166:244|201:239|225:211,1,108,4|0,1:3|2:0,2:0:0:0:
425,129,101374,6,0,B|374:148|350:102|364:114|337:63|279:85,1,162,10|0,2:0|2:0,2:0:0:0:
275,93,101628,1,8,1:3:0:0:
183,140,101755,1,8,2:3:0:0:
95,93,101882,2,0,P|80:54|119:-4,1,108,4|0,1:3|2:0,2:0:0:0:
292,179,102136,6,0,P|278:258|265:358,1,162,4|0,1:2|2:0,2:0:0:0:
271,349,102391,1,2,1:2:0:0:
374,275,102518,1,8,2:3:0:0:
191,231,102645,2,0,P|136:244|60:256,1,108,2|4,1:2|2:3,2:0:0:0:
340,45,102899,6,0,P|383:88|375:134,1,108,10|0,2:0|2:0,2:0:0:0:
472,290,103153,1,10,1:3:0:0:
424,212,103281,1,6,2:3:0:0:
374,275,103408,1,8,1:3:0:0:
400,349,103535,5,4,2:3:0:0:
512,208,103662,2,0,P|498:146|496:92,1,108,2|0,1:2|2:0,2:0:0:0:
472,290,103916,5,2,1:2:0:0:
271,209,104043,2,0,P|285:271|287:325,1,108,10|0,2:0|2:0,2:0:0:0:
351,151,104297,5,0,2:0:0:0:
196,283,104425,2,0,P|152:270|71:346,1,162,10|0,2:0|2:0,2:0:0:0:
77,350,104679,1,8,1:3:0:0:
0,209,104806,1,8,2:0:0:0:
155,100,104933,1,8,1:3:0:0:
101,189,105060,1,4,2:3:0:0:
0,0,105187,6,0,P|44:42|99:43,1,108,6|0,1:2|2:0,2:0:0:0:
181,10,105442,1,2,1:2:0:0:
331,50,105569,6,0,P|272:67|244:114,1,108,10|0,2:3|2:0,2:0:0:0:
208,190,105823,1,6,2:3:0:0:
105,288,105950,6,0,P|119:228|92:180,1,108,10|0,2:0|2:0,2:0:0:0:
44,112,106204,1,10,1:3:0:0:
316,224,106331,6,0,P|374:235|429:264,1,108,6|0,2:3|2:0,2:0:0:0:
339,316,106586,1,6,2:3:0:0:
287,118,106713,6,0,P|247:162|194:196,1,108,2|0,1:2|2:0,2:0:0:0:
194,88,106967,1,2,1:2:0:0:
395,138,107094,6,0,P|375:81|373:19,1,108,10|0,2:0|2:0,2:0:0:0:
463,67,107348,1,2,2:0:0:0:
295,228,107475,6,0,P|247:229|204:182,1,108,10|0,2:0|2:0,2:0:0:0:
38,190,107730,2,0,P|61:147|123:134,1,108,10|8,1:3|2:3,2:0:0:0:
192,0,107984,2,0,P|216:41|197:101,1,108,4|2,1:3|2:0,2:0:0:0:
150,383,108238,6,0,P|146:318|120:212,1,162,6|0,1:2|2:0,2:0:0:0:
123,214,108492,1,0,1:2:0:0:
330,297,108620,1,10,2:3:0:0:
242,341,108747,2,0,P|248:277|261:235,1,108,0|4,1:2|2:3,2:0:0:0:
485,199,109001,6,0,B|435:216|411:171|426:181|392:132|339:154,1,162,8|0,2:0|2:0,2:0:0:0:
334,165,109255,1,10,1:3:0:0:
260,235,109382,1,4,2:3:0:0:
182,120,109509,2,0,P|165:71|185:22,1,108,10|4,1:3|2:3,2:0:0:0:
469,47,109764,6,0,P|377:60|335:172,1,216,2|0,1:2|1:2,2:0:0:0:
30,208,110145,2,0,P|133:210|176:314,1,216,10|0,2:0|2:0,2:0:0:0:
439,374,110526,6,0,P|367:368|337:264,1,162,10|0,2:0|2:0,2:0:0:0:
336,283,110781,1,8,1:3:0:0:
443,148,110908,1,8,2:0:0:0:
370,111,111035,1,8,1:3:0:0:
453,239,111162,1,4,2:3:0:0:
256,333,111289,6,0,B|211:318|182:349|189:356|159:396|102:373,1,162,4|0,1:2|2:0,2:0:0:0:
100,372,111543,1,2,1:2:0:0:
38,205,111670,1,10,2:3:0:0:
0,314,111797,2,0,P|57:292|121:286,1,108,2|0,1:2|2:0,2:0:0:0:
268,138,112052,6,0,P|222:172|169:165,1,108,10|0,2:0|2:0,2:0:0:0:
5,35,112306,5,10,1:3:0:0:
93,13,112433,1,4,2:3:0:0:
64,101,112560,1,10,1:3:0:0:
56,52,112687,5,4,2:3:0:0:
173,167,112814,2,0,P|247:161|370:245,1,216,2|0,1:2|1:2,2:0:0:0:
497,108,113196,1,10,1:3:0:0:
418,79,113323,2,0,P|411:127|443:175,1,108,4|0,1:3|2:0,2:0:0:0:
367,382,113577,6,0,P|433:320|514:345,1,162,10|0,2:0|2:0,2:0:0:0:
507,336,113831,2,0,P|461:331|428:278,1,108,8|4,1:3|2:3,2:0:0:0:
311,173,114086,2,0,P|329:215|300:270,1,108,4|0,1:3|2:0,2:0:0:0:
14,356,114340,6,0,P|89:329|185:320,1,162,4|0,1:2|2:0,2:0:0:0:
180,327,114594,1,2,1:2:0:0:
246,384,114721,1,10,2:3:0:0:
128,239,114848,2,0,P|81:244|17:264,1,108,2|4,1:2|2:3,2:0:0:0:
249,50,115103,6,0,B|273:33|305:40|305:40|272:45|255:70,1,108,10|0,2:0|2:0,2:0:0:0:
97,154,115357,2,0,P|64:113|97:13,1,162,10|0,1:3|2:0,2:0:0:0:
106,14,115611,2,0,P|156:51|157:103,1,108,10|4,1:3|2:3,2:0:0:0:
308,282,115865,6,0,P|315:224|334:165,1,108,2|0,1:2|2:0,2:0:0:0:
396,239,116120,1,2,1:2:0:0:
216,364,116247,2,0,P|209:306|190:247,1,108,10|0,2:0|2:0,2:0:0:0:
117,329,116501,1,2,2:0:0:0:
329,176,116628,6,0,P|256:181|202:101,1,162,10|0,2:0|2:0,2:0:0:0:
204,104,116882,1,4,2:3:0:0:
124,187,117009,1,8,1:3:0:0:
304,89,117136,2,0,P|323:46|293:-14,1,108,8|4,1:3|2:3,2:0:0:0:
488,252,117391,6,0,P|434:254|381:276,1,108,6|0,1:2|2:0,2:0:0:0:
330,348,117645,1,2,1:2:0:0:
329,194,117772,6,0,P|362:152|407:123,1,108,10|0,2:3|2:0,2:0:0:0:
493,98,118026,1,6,2:3:0:0:
270,52,118153,6,0,P|245:99|237:152,1,108,10|0,2:0|2:0,2:0:0:0:
263,253,118408,1,10,1:3:0:0:
130,176,118535,6,0,P|110:125|107:72,1,108,6|0,2:3|2:0,2:0:0:0:
167,0,118789,1,6,2:3:0:0:
407,123,118916,6,0,P|362:152|329:194,1,108,2|0,1:2|2:0,2:0:0:0:
273,265,119170,1,2,1:2:0:0:
27,250,119297,6,0,P|80:258|127:284,1,108,10|0,2:0|2:0,2:0:0:0:
206,350,119552,1,2,2:0:0:0:
148,106,119679,6,0,P|160:53|167:-19,1,108,10|0,2:0|2:0,2:0:0:0:
355,278,119933,2,0,P|343:331|336:403,1,108,10|8,1:3|2:3,2:0:0:0:
187,237,120187,1,6,1:3:0:0:
329,152,120314,1,8,2:0:0:0:
66,34,120442,6,0,B|128:8|180:54|153:66|201:114|266:83,1,216,6|0,1:2|1:2,2:0:0:0:
485,39,120823,1,10,2:3:0:0:
404,0,120950,2,0,P|390:50|429:109,1,108,0|4,1:2|2:3,2:0:0:0:
512,291,121204,2,0,P|458:295|407:313,1,108,8|0,2:0|2:0,2:0:0:0:
269,202,121458,5,10,1:3:0:0:
330,135,121586,1,4,2:3:0:0:
355,224,121713,1,10,1:3:0:0:
321,188,121840,5,4,2:3:0:0:
170,367,121967,2,0,P|215:305|313:324,1,162,2|0,1:2|2:0,2:0:0:0:
303,318,122221,1,0,1:2:0:0:
182,177,122348,2,0,L|192:95,2,54,10|0|8,2:0|2:0|2:0,2:0:0:0:
117,241,122603,1,8,2:0:0:0:
261,64,122730,5,10,2:0:0:0:
58,0,122857,1,8,2:0:0:0:
96,136,122984,1,8,1:3:0:0:
158,44,123111,1,8,2:3:0:0:
26,90,123238,1,4,1:3:0:0:
26,90,123365,1,8,2:3:0:0:
190,173,123492,6,0,B|244:162|272:200|243:206|266:241|328:235,1,144,6|0,1:2|2:0,2:0:0:0:
361,302,123874,1,0,2:0:0:0:
361,302,124001,2,0,P|396:291|443:281,1,72,0|0,1:0|2:0,2:0:0:0:
414,51,124255,2,0,P|405:120|395:206,2,144,10|0|0,2:0|2:0|1:0,2:0:0:0:
300,224,125018,6,0,P|264:216|233:120,1,144,2|0,1:2|2:0,2:0:0:0:
284,68,125399,1,8,0:0:0:0:
284,68,125526,1,0,1:0:0:0:
213,220,125781,2,0,B|158:209|130:247|160:253|137:288|75:282,1,144,8|0,2:0|2:0,2:0:0:0:
95,282,126289,1,0,1:0:0:0:
375,373,126543,6,0,P|400:322|359:241,1,144,2|0,1:2|2:0,2:0:0:0:
302,289,126925,1,0,2:0:0:0:
302,289,127052,2,0,P|267:278|220:268,1,72,0|0,1:0|2:0,2:0:0:0:
42,196,127306,2,0,P|110:187|154:123,1,144,10|0,2:0|2:0,2:0:0:0:
152,129,127814,1,0,1:0:0:0:
302,289,128069,6,0,P|294:227|279:129,1,144,2|0,1:2|2:0,2:0:0:0:
330,83,128450,1,8,2:0:0:0:
330,83,128577,2,0,P|363:111|357:151,1,72,0|0,1:0|2:0,2:0:0:0:
204,204,128831,2,0,P|91:166|40:157,1,144,8|0,2:0|2:0,2:0:0:0:
4,206,129213,1,0,1:0:0:0:
0,240,129340,1,0,1:0:0:0:
17,270,129467,1,0,1:0:0:0:
126,349,129594,6,0,B|176:362|202:313|175:325|208:283|262:306,1,144,2|0,1:2|2:0,2:0:0:0:
310,353,129975,1,0,2:0:0:0:
310,353,130103,2,0,P|361:371|390:384,1,72,0|0,1:0|2:0,2:0:0:0:
507,221,130357,2,0,P|443:212|384:297,2,144,10|0|0,2:0|2:0|1:0,2:0:0:0:
313,130,131120,6,0,B|260:127|235:157|265:163|242:198|180:192,1,144,2|0,1:2|2:0,2:0:0:0:
194,192,131628,1,0,1:0:0:0:
95,296,131882,2,0,P|102:260|108:225,1,72,8|0,2:0|2:0,2:0:0:0:
69,82,132136,2,0,P|16:116|26:198,1,144,2|0,2:0|1:0,2:0:0:0:
100,302,132518,5,0,2:0:0:0:
100,302,132645,2,0,P|152:296|271:291,1,144,2|0,1:2|2:0,2:0:0:0:
317,251,133026,1,0,2:0:0:0:
317,251,133153,2,0,P|334:203|310:168,1,72,2|0,1:2|2:0,2:0:0:0:
202,45,133408,2,0,B|190:88|211:116|223:101|247:137|224:184,2,144,8|2|0,2:0|2:0|1:0,2:0:0:0:
142,164,134170,6,0,P|95:177|72:162,2,72,2|0|0,1:2|2:0|2:0,2:0:0:0:
277,62,134552,1,8,2:0:0:0:
325,127,134679,2,0,P|346:174|397:181,1,108,0|0,1:0|2:0,2:0:0:0:
415,191,134933,6,0,P|421:123|431:57,1,135,0|0,1:0|2:0,2:0:0:0:
431,57,135187,1,8,2:0:0:0:
356,13,135314,1,8,2:0:0:0:
251,166,135442,1,8,2:0:0:0:
325,127,135569,1,8,2:0:0:0:
209,53,135696,5,6,1:2:0:0:
209,53,135759,2,0,B|167:58|167:58|117:164|117:164|72:174,1,202.5,0|8,2:0|2:0,2:0:0:0:
0,269,136204,2,0,B|41:258|41:258|67:286,1,81.0000000000001,0|0,1:2|2:0,2:0:0:0:
197,378,136458,6,0,B|238:352|238:352|215:237,1,162,8|2,2:0|2:0,2:0:0:0:
215,240,136840,1,4,2:3:0:0:
271,171,136967,1,10,1:3:0:0:
271,171,137094,1,4,2:3:0:0:
376,236,137221,6,0,B|433:216|433:216|451:180|451:180|521:159,1,162,2|2,1:2|2:0,2:0:0:0:
442,50,137603,1,10,2:0:0:0:
381,101,137730,2,0,L|273:83,1,81.0000000000001,2|0,1:2|2:0,2:0:0:0:
130,0,137984,6,0,B|199:38|199:38|168:130,1,162,10|0,2:0|1:2,2:0:0:0:
74,183,138365,2,0,L|65:127,1,40.5,0|0,2:0|2:0,2:0:0:0:
73,133,138492,2,0,L|97:285,1,121.5,0|0,1:2|2:0,2:0:0:0:
48,325,138747,6,0,B|83:280|83:280|191:308,1,162,4|2,1:2|2:0,2:0:0:0:
297,378,139128,1,8,2:0:0:0:
349,318,139255,2,0,L|337:223,1,81.0000000000001,2|0,1:2|2:0,2:0:0:0:
262,112,139509,6,0,B|291:138|291:138|335:131,1,81.0000000000001,10|0,2:0|2:0,2:0:0:0:
454,17,139764,2,0,B|416:29|416:29|401:70,1,81.0000000000001,2|4,2:0|2:3,2:0:0:0:
447,226,140018,2,0,B|455:187|455:187|426:153,1,81.0000000000001,10|4,1:3|2:3,2:0:0:0:
235,23,140272,6,0,B|221:82|221:82|236:115|236:115|218:181,1,162,2|2,1:2|2:0,2:0:0:0:
218,177,140653,1,8,2:0:0:0:
342,291,140781,2,0,B|333:257|333:257|234:282,1,121.5,2|0,1:2|2:0,2:0:0:0:
240,286,141035,6,0,L|223:375,1,81.0000000000001,10|0,2:0|2:0,2:0:0:0:
107,310,141289,2,0,L|90:221,1,81.0000000000001,2|0,1:2|2:0,2:0:0:0:
129,96,141543,1,10,2:0:0:0:
191,190,141670,1,8,2:0:0:0:
56,25,141797,6,0,B|75:69|75:69|204:40,1,162,6|2,1:2|2:0,2:0:0:0:
361,103,142179,1,10,2:3:0:0:
280,146,142306,2,0,B|260:113|260:113|280:63,1,81.0000000000001,2|2,1:2|2:0,2:0:0:0:
441,9,142560,5,10,2:0:0:0:
499,90,142687,1,2,2:0:0:0:
484,178,142814,1,2,2:0:0:0:
418,221,142942,1,6,2:3:0:0:
406,232,143069,2,0,B|391:251|391:251|409:334,1,81.0000000000001,2|10,1:2|2:3,2:0:0:0:
255,384,143323,6,0,L|224:204,1,162,2|2,1:2|2:0,2:0:0:0:
273,56,143704,1,10,2:0:0:0:
332,119,143831,2,0,B|299:145|299:145|248:136,1,81.0000000000001,2|0,1:2|2:0,2:0:0:0:
69,34,144086,6,0,B|1:79|1:79|89:64,1,162,10|10,2:0|1:3,2:0:0:0:
165,38,144467,1,4,2:3:0:0:
165,38,144594,2,0,L|179:128,1,81.0000000000001,8|4,1:3|2:3,2:0:0:0:
72,356,144848,6,0,B|49:319|49:319|64:267,1,81.0000000000001,6|0,1:2|2:0,2:0:0:0:
204,252,145103,2,0,B|183:289|183:289|131:302,1,81.0000000000001,2|0,2:0|2:0,2:0:0:0:
50,174,145357,2,0,B|92:172|92:172|130:211,1,81.0000000000001,2|0,1:2|2:0,2:0:0:0:
257,351,145611,6,0,B|298:336|298:336|336:242|336:242|386:228,1,189,10|8,2:0|2:3,2:0:0:0:
475,295,146120,2,0,B|443:324|443:324|398:313,1,81.0000000000001,6|0,1:3|2:0,2:0:0:0:
246,222,146374,6,0,B|232:165|232:165|249:128|249:128|232:52,1,162,14|0,2:0|2:0,2:0:0:0:
164,5,146755,1,8,2:0:0:0:
323,66,146882,2,0,L|418:48,1,81.0000000000001,0|0,1:2|2:0,2:0:0:0:
508,225,147136,6,0,B|492:172|492:172|378:200,1,162,14|0,2:0|2:0,2:0:0:0:
232,303,147518,1,8,2:0:0:0:
296,189,147645,2,0,L|314:278,1,81.0000000000001,0|0,1:2|2:0,2:0:0:0:
462,384,147899,6,0,L|430:233,1,121.5,4|0,1:2|2:0,2:0:0:0:
436,265,148153,1,2,1:2:0:0:
372,340,148281,1,10,2:3:0:0:
200,224,148408,2,0,B|238:175|238:175|316:193,1,121.5,6|0,1:3|2:0,2:0:0:0:
269,272,148662,6,0,B|199:260|199:260|193:265|193:265|89:248,1,162,10|2,2:0|1:2,2:0:0:0:
40,88,149043,1,6,2:3:0:0:
11,177,149170,2,0,L|110:160,1,81.0000000000001,2|2,1:2|2:0,2:0:0:0:
161,122,149425,1,2,1:2:0:0:
386,195,149679,5,10,2:3:0:0:
428,115,149806,1,10,2:3:0:0:
295,188,149933,2,0,L|317:298,1,81.0000000000001,2|0,1:2|2:0,2:0:0:0:
487,341,150187,2,0,B|475:284|475:284|495:246|495:246|471:155,2,162,10|6|10,2:0|1:3|1:3,2:0:0:0:
317,273,150823,5,6,2:3:0:0:
273,337,150950,2,0,B|251:350|251:350|145:323,1,121.5,6|0,1:2|2:0,2:0:0:0:
158,326,151204,1,2,1:2:0:0:
91,376,151331,1,10,2:3:0:0:
117,242,151458,2,0,L|139:130,1,81.0000000000001,6|0,1:3|2:0,2:0:0:0:
45,24,151713,6,0,B|104:37|104:37|123:75|123:75|208:97,1,162,10|6,2:0|1:3,2:0:0:0:
344,137,152094,1,10,2:3:0:0:
274,192,152221,2,0,B|251:161|251:161|266:105,1,81.0000000000001,10|6,1:3|2:3,2:0:0:0:
313,56,152475,5,2,1:2:0:0:
353,220,152603,2,0,B|338:299,1,81.0000000000001,0|6,2:0|1:3,2:0:0:0:
274,192,152857,5,10,2:3:0:0:
439,167,152984,2,0,L|453:87,1,81.0000000000001,6|2,1:3|2:0,2:0:0:0:
266,201,153238,2,0,B|188:209|188:209|182:214|182:214|78:223,2,162,10|2|10,2:0|1:2|1:3,2:0:0:0:
355,221,153874,1,4,2:3:0:0:
213,127,154001,6,0,B|183:152|183:152|191:212,1,81.0000000000001,6|0,1:2|2:0,2:0:0:0:
280,340,154255,2,0,B|273:301|273:301|217:278,1,81.0000000000001,6|10,1:3|2:3,2:0:0:0:
62,291,154509,2,0,B|98:304|98:304|146:267,1,81.0000000000001,6|0,1:3|2:0,2:0:0:0:
288,76,154764,6,0,B|214:88|214:88|207:93|207:93|98:108,1,162,10|10,2:0|1:3,2:0:0:0:
66,46,155145,1,4,2:3:0:0:
106,182,155272,2,0,B|70:197|70:197|15:171,1,81.0000000000001,10|0,1:3|2:0,2:0:0:0:
216,36,155526,6,0,L|203:120,1,81.0000000000001,2|0,1:2|2:0,2:0:0:0:
338,226,155781,1,6,1:3:0:0:
403,175,155908,1,8,2:3:0:0:
322,235,156035,2,0,L|220:206,1,81.0000000000001,6|0,1:3|2:0,2:0:0:0:
481,371,156289,2,0,B|497:291|497:291|474:258,1,121.5,10|0,2:0|2:0,2:0:0:0:
474,258,156543,2,0,L|496:165,1,81.0000000000001,0|8,1:2|2:0,2:0:0:0:
345,88,156797,1,8,1:2:0:0:
455,56,156925,1,8,2:0:0:0:
402,154,157052,6,0,B|349:141|349:141|328:105|328:105|255:90,1,162,6|6,1:2|1:3,2:0:0:0:
99,54,157433,1,0,2:0:0:0:
192,19,157560,2,0,L|179:103,1,81.0000000000001,6|0,1:3|2:0,2:0:0:0:
146,224,157814,2,0,B|119:197|119:197|33:215|33:215|18:247,2,162,10|8|10,2:0|1:3|1:3,2:0:0:0:
92,282,158450,5,0,2:0:0:0:
221,188,158577,2,0,B|239:224|239:224|220:261,1,81.0000000000001,14|0,2:0|2:0,2:0:0:0:
146,224,158831,5,0,1:2:0:0:
289,312,158958,1,8,2:0:0:0:
172,378,159086,2,0,L|80:359,1,81.0000000000001,0|0,1:2|2:0,2:0:0:0:
289,312,159340,6,0,B|350:326|350:326|367:361|367:361|436:376,1,162,14|0,2:0|1:2,2:0:0:0:
454,195,159721,1,8,2:0:0:0:
512,266,159848,2,0,L|431:285,1,81.0000000000001,0|0,1:2|2:0,2:0:0:0:
286,185,160103,2,0,B|294:143|294:143|278:114|278:114|289:56,1,121.5,14|0,2:0|2:0,2:0:0:0:
286,69,160357,5,8,2:0:0:0:
200,122,160484,1,8,2:0:0:0:
109,102,160611,1,8,2:0:0:0:
66,22,160738,1,8,2:0:0:0:
166,36,160865,5,8,2:0:0:0:
89,192,160992,1,8,2:0:0:0:
66,22,161120,1,8,2:0:0:0:
189,144,161247,1,8,2:0:0:0:
7,115,161374,2,0,L|107:94,1,81.0000000000001,2|0,1:3|2:0,2:0:0:0:
296,292,161628,6,0,P|240:239|159:267,1,162,4|0,1:2|2:0,2:0:0:0:
159,271,161882,1,2,1:2:0:0:
290,131,162009,1,8,2:3:0:0:
166,38,162136,2,0,P|184:110|191:167,1,108,2|0,1:2|2:0,2:0:0:0:
351,359,162391,2,0,P|386:312|371:250,1,108,10|0,2:0|2:0,2:0:0:0:
446,97,162645,5,10,1:3:0:0:
503,168,162772,1,4,2:3:0:0:
419,190,162899,1,10,1:3:0:0:
454,150,163026,5,4,2:3:0:0:
321,46,163153,2,0,P|244:34|204:171,1,216,2|0,1:2|1:2,2:0:0:0:
237,308,163535,1,10,1:3:0:0:
296,248,163662,2,0,B|320:226|350:234|350:234|316:239|298:266,1,108,4|0,1:3|2:0,2:0:0:0:
176,377,163916,6,0,B|127:390|107:352|113:346|88:307|27:331,1,162,10|0,2:0|2:0,2:0:0:0:
23,337,164170,6,0,P|-4:295|26:228,1,108,8|8,1:3|2:3,2:0:0:0:
97,117,164425,1,4,1:3:0:0:
141,218,164552,1,8,2:0:0:0:
7,82,164679,6,0,P|81:90|148:4,1,162,4|0,1:2|2:0,2:0:0:0:
149,25,164933,1,2,1:2:0:0:
326,97,165060,1,8,2:3:0:0:
268,34,165187,2,0,P|236:75|246:127,1,108,2|4,1:2|2:3,2:0:0:0:
149,354,165442,2,0,P|212:327|271:325,1,108,10|0,2:0|2:0,2:0:0:0:
465,196,165696,1,10,1:3:0:0:
417,274,165823,1,6,2:3:0:0:
367,211,165950,1,8,1:3:0:0:
391,136,166077,5,4,2:3:0:0:
505,278,166204,2,0,P|491:340|489:394,1,108,2|0,1:2|2:0,2:0:0:0:
465,196,166458,5,2,1:2:0:0:
262,277,166586,2,0,P|276:215|278:161,1,108,10|0,2:0|2:0,2:0:0:0:
175,11,166840,1,0,2:0:0:0:
321,88,166967,2,0,P|220:88|190:163,1,162,10|0,2:0|2:0,2:0:0:0:
189,141,167221,1,8,1:3:0:0:
97,207,167348,1,8,2:0:0:0:
25,117,167475,2,0,B|1:71|1:71|38:18,1,108,8|4,1:3|2:3,2:0:0:0:
275,277,167730,6,0,P|213:286|152:313,1,108,6|0,1:2|2:0,2:0:0:0:
117,373,167984,1,2,1:2:0:0:
263,179,168111,6,0,P|286:120|293:54,1,108,10|0,2:3|2:0,2:0:0:0:
237,14,168365,1,6,2:3:0:0:
354,215,168492,6,0,P|392:264|446:303,1,108,10|0,2:0|2:0,2:0:0:0:
512,279,168747,1,10,1:3:0:0:
263,179,168874,5,6,2:3:0:0:
185,199,169001,1,0,2:0:0:0:
240,255,169128,1,6,2:3:0:0:
343,18,169255,6,0,P|370:63|362:115,1,108,2|0,1:2|2:0,2:0:0:0:
386,214,169509,1,2,1:2:0:0:
512,62,169636,2,0,P|467:90|451:141,1,108,10|0,2:0|2:0,2:0:0:0:
384,225,169891,1,2,2:0:0:0:
147,375,170018,6,0,P|166:318|237:296,1,108,10|0,2:0|2:0,2:0:0:0:
400,322,170272,2,0,P|340:332|285:282,1,108,10|10,1:2|2:0,2:0:0:0:
234,128,170526,2,0,P|271:173|255:246,1,108,10|8,1:2|2:0,2:0:0:0:
14,241,170781,6,0,P|94:214|196:201,1,162,6|0,1:2|2:0,2:0:0:0:
179,207,171035,1,0,1:2:0:0:
109,300,171162,1,10,2:3:0:0:
16,101,171289,2,0,P|68:114|121:120,1,108,0|4,1:2|2:3,2:0:0:0:
418,9,171543,6,0,P|342:20|331:113,1,162,8|0,2:0|2:0,2:0:0:0:
308,172,171797,2,0,P|364:164|398:119,1,108,10|4,1:3|2:3,2:0:0:0:
512,287,172052,2,0,P|477:241|421:235,1,108,10|4,1:3|2:3,2:0:0:0:
149,13,172306,6,0,P|214:115|217:241,1,216,2|0,1:2|1:2,2:0:0:0:
475,110,172687,2,0,P|419:170|386:306,1,216,10|0,2:0|2:0,2:0:0:0:
266,10,173069,2,0,P|326:80|402:69,1,162,10|0,2:0|2:0,2:0:0:0:
397,67,173323,1,8,1:3:0:0:
501,221,173450,1,8,2:0:0:0:
400,180,173577,1,4,1:3:0:0:
475,110,173704,1,4,2:3:0:0:
386,296,173831,6,0,P|311:283|246:359,1,162,4|0,1:2|2:0,2:0:0:0:
254,351,174086,1,2,1:2:0:0:
81,254,174213,1,10,2:3:0:0:
58,342,174340,2,0,P|109:344|153:305,1,108,2|0,1:2|2:0,2:0:0:0:
270,60,174594,2,0,P|251:118|243:183,1,108,10|0,2:0|2:0,2:0:0:0:
82,32,174848,5,10,1:3:0:0:
139,103,174975,1,4,2:3:0:0:
55,125,175103,1,10,1:3:0:0:
90,85,175230,5,8,2:0:0:0:
223,253,175357,2,0,B|286:278|330:211|305:223|348:156|422:192,1,216,2|0,1:2|1:2,2:0:0:0:
218,373,175738,1,10,1:3:0:0:
148,308,175865,2,0,P|75:299|25:380,1,162,4|0,1:3|2:0,2:0:0:0:
20,377,176120,2,0,P|16:308|-1:258,1,108,10|0,2:0|2:0,2:0:0:0:
101,114,176374,5,8,1:3:0:0:
141,97,176458,1,0,1:0:0:0:
180,114,176543,1,0,1:0:0:0:
207,147,176628,2,0,P|211:216|228:266,1,108,4|4,1:3|2:3,2:0:0:0:
427,371,176882,6,0,P|483:337|461:231,1,162,4|0,1:2|2:0,2:0:0:0:
472,235,177136,1,2,1:2:0:0:
401,60,177264,1,10,2:3:0:0:
506,129,177391,2,0,P|453:136|402:153,1,108,2|4,1:2|2:3,2:0:0:0:
179,319,177645,6,0,B|155:336|123:329|123:329|156:324|173:299,1,108,10|0,2:0|2:0,2:0:0:0:
331,215,177899,2,0,P|364:256|331:356,1,162,10|0,1:3|2:0,2:0:0:0:
323,359,178153,2,0,P|273:322|272:270,1,108,10|8,1:3|2:0,2:0:0:0:
505,128,178408,6,0,P|390:127|303:56,1,216,2|2,1:2|1:2,2:0:0:0:
214,213,178789,1,10,2:0:0:0:
144,160,178916,2,0,P|183:124|235:126,1,108,0|2,1:2|2:0,2:0:0:0:
412,324,179170,6,0,B|361:343|337:297|351:309|324:258|266:280,1,162,10|0,2:0|2:0,2:0:0:0:
261,291,179425,1,8,1:3:0:0:
66,341,179552,1,8,2:0:0:0:
157,367,179679,2,0,P|166:331|129:272,1,108,4|0,1:3|2:0,2:0:0:0:
113,50,179933,5,6,1:2:0:0:
49,129,180060,1,8,2:0:0:0:
12,33,180187,1,10,1:2:0:0:
135,177,180314,6,0,P|195:156|249:146,1,108,10|0,2:3|2:0,2:0:0:0:
366,184,180569,1,10,2:0:0:0:
476,31,180696,2,0,P|474:91|436:124,1,108,10|0,2:0|2:0,2:0:0:0:
364,196,180950,1,10,1:3:0:0:
326,0,181077,2,0,P|306:56|330:101,1,108,6|0,2:3|2:0,2:0:0:0:
362,207,181331,1,10,2:0:0:0:
512,330,181458,6,0,P|463:301|405:300,1,108,2|0,1:2|2:0,2:0:0:0:
331,354,181713,1,10,1:2:0:0:
175,223,181840,6,0,P|224:252|282:253,1,108,10|0,2:0|2:0,2:0:0:0:
362,207,182094,1,10,2:0:0:0:
207,337,182221,6,0,P|131:347|45:392,1,162,10|0,2:0|2:0,2:0:0:0:
25,369,182475,1,10,1:3:0:0:
4,330,182560,1,0,1:0:0:0:
12,287,182645,1,0,1:0:0:0:
38,253,182730,2,0,P|50:195|51:123,1,108,6|4,1:3|2:3,2:0:0:0:
257,0,182984,6,0,P|204:79|97:60,1,216,6|0,1:2|1:2,2:0:0:0:
298,182,183365,1,10,2:3:0:0:
256,261,183492,2,0,P|208:219|210:163,1,108,0|4,1:2|2:3,2:0:0:0:
442,55,183747,6,0,P|418:128|412:219,1,162,8|0,2:0|2:0,2:0:0:0:
437,287,184001,2,0,P|485:245|483:189,1,108,10|4,1:3|2:3,2:0:0:0:
358,0,184255,2,0,P|337:62|324:109,1,108,10|4,1:3|2:3,2:0:0:0:
144,241,184509,6,0,B|139:145|214:196|182:71,1,162,2|0,1:2|2:0,2:0:0:0:
186,92,184764,1,0,1:2:0:0:
264,177,184891,1,10,2:0:0:0:
415,120,185018,2,0,P|351:88|312:125,1,108,8|8,2:3|2:0,2:0:0:0:
144,241,185272,5,10,2:0:0:0:
0,205,185399,1,8,2:0:0:0:
99,98,185526,1,8,2:3:0:0:
111,120,185653,1,8,2:3:0:0:
103,141,185781,2,0,B|60:131|60:131|50:115|50:115|-1:106,1,108,4|8,2:3|2:3,2:0:0:0:
157,234,186035,6,0,P|199:179|181:30,1,216,6|0,1:2|1:2,2:0:0:0:
114,0,186416,1,10,2:3:0:0:
30,15,186543,2,0,P|-3:90|9:112,1,108,2|0,1:2|2:0,2:0:0:0:
74,269,186797,6,0,P|120:233|167:246,1,108,10|0,2:0|2:0,2:0:0:0:
408,201,187052,2,0,B|363:214|328:182|359:166|314:133|252:153,1,162,2|0,1:2|2:0,2:0:0:0:
266,149,187306,2,0,L|256:271,1,108,10|4,1:3|2:3,2:0:0:0:
436,362,187560,6,0,B|418:292|458:255|483:280|518:210|471:147,1,216,6|0,1:2|1:2,2:0:0:0:
397,21,187942,1,10,2:0:0:0:
464,71,188069,2,0,P|418:102|362:92,1,108,2|0,1:2|2:0,2:0:0:0:
140,48,188323,6,0,P|194:42|246:29,1,108,10|0,2:0|2:0,2:0:0:0:
386,194,188577,1,2,1:2:0:0:
370,202,188662,1,0,1:0:0:0:
352,205,188747,1,8,2:0:0:0:
333,202,188831,2,0,P|293:168|240:164,1,108,2|0,1:2|2:0,2:0:0:0:
62,339,189086,6,0,P|41:234|14:106,1,216,6|0,1:2|1:2,2:0:0:0:
205,48,189467,1,10,2:3:0:0:
96,0,189594,2,0,P|110:52|125:131,1,108,2|0,1:2|2:0,2:0:0:0:
0,251,189848,6,0,P|55:204|114:222,1,108,10|0,2:0|2:0,2:0:0:0:
263,302,190103,1,2,1:2:0:0:
310,216,190230,1,8,2:0:0:0:
181,147,190357,1,10,1:2:0:0:
224,221,190484,1,8,2:0:0:0:
386,172,190611,6,0,P|470:166|505:262,1,162,6|0,1:2|2:0,2:0:0:0:
510,225,190865,1,0,1:2:0:0:
475,137,190992,1,10,2:0:0:0:
330,239,191120,2,0,P|279:229|224:221,1,108,2|0,1:2|2:0,2:0:0:0:
66,304,191374,6,0,B|81:211|21:230|41:132,1,162,14|0,2:0|2:0,2:0:0:0:
38,148,191628,1,2,1:2:0:0:
129,179,191755,1,4,2:3:0:0:
214,42,191882,2,0,P|122:39|108:115,1,162,2|0,1:2|2:0,2:0:0:0:
101,93,192136,6,0,P|189:76|328:63,1,216,6|0,1:2|1:2,2:0:0:0:
425,178,192518,1,10,2:0:0:0:
501,49,192645,2,0,P|515:128|496:144,1,108,2|0,1:2|2:0,2:0:0:0:
342,240,192899,6,0,P|328:161|347:145,1,108,10|0,2:0|2:0,2:0:0:0:
512,257,193153,1,2,1:2:0:0:
496,265,193238,1,0,1:0:0:0:
478,268,193323,1,0,1:0:0:0:
459,265,193408,2,0,P|405:256|336:252,1,108,2|0,1:2|2:0,2:0:0:0:
221,115,193662,6,0,B|231:188|183:228|185:180|115:233|132:298,1,216,6|0,1:2|1:2,2:0:0:0:
74,345,194043,1,10,2:0:0:0:
218,280,194170,2,0,P|235:329|204:371,1,108,2|8,1:2|2:3,2:0:0:0:
5,218,194425,6,0,B|49:239|88:209|66:182|120:162|173:194,1,162,14|0,2:0|2:0,2:0:0:0:
152,184,194679,1,10,1:2:0:0:
215,106,194806,1,8,2:0:0:0:
326,231,194933,1,10,1:2:0:0:
251,187,195060,1,8,2:0:0:0:
367,133,195187,6,0,P|428:243|353:337,1,216,6|0,1:2|1:2,2:0:0:0:
229,277,195569,1,10,2:0:0:0:
298,355,195696,2,0,P|307:300|318:238,1,108,2|0,1:2|2:0,2:0:0:0:
195,88,195950,6,0,B|98:70|131:152|22:117,1,162,14|0,2:0|2:0,2:0:0:0:
43,122,196204,1,8,1:2:0:0:
110,66,196331,1,8,2:0:0:0:
192,193,196458,1,10,1:2:0:0:
124,148,196586,1,10,2:0:0:0:
297,37,196713,6,0,P|285:89|278:143,1,108,10|10,1:2|2:0,2:0:0:0:
370,273,196967,1,10,1:2:0:0:
419,198,197094,5,10,2:0:0:0:
286,275,197221,1,2,1:3:0:0:
419,350,197348,1,2,2:0:0:0:
275,267,197475,6,0,B|192:258|216:334|117:307,1,162,10|0,1:2|2:0,2:0:0:0:
64,264,197730,1,14,1:2:0:0:
256,192,197793,12,0,199001,2:0:0:0:
