osu file format v14

[General]
AudioFilename: audio.mp3
AudioLeadIn: 0
PreviewTime: 56527
Countdown: 0
SampleSet: Soft
StackLeniency: 1
Mode: 0
LetterboxInBreaks: 0
WidescreenStoryboard: 1

[Editor]
Bookmarks: 14493,23984,45679,56527,57883,72798,83645,89069,110764,121612,122967,137883,146018,156866,167713,181273,192120,197544,202967,220595
DistanceSpacing: 1.3
BeatDivisor: 4
GridSize: 4
TimelineZoom: 2.4

[Metadata]
Title:Reset
TitleUnicode:Reset
Artist:la la larks
ArtistUnicode:la la larks
Creator:Damnae
Version:la la larks is good food
Source:
Tags:Culture Vulture sfp school food punishment uchimura yumi
BeatmapID:1420887
BeatmapSetID:672128

[Difficulty]
HPDrainRate:5
CircleSize:4
OverallDifficulty:8
ApproachRate:9
SliderMultiplier:1.6
SliderTickRate:1

[Events]
//Background and Video events
0,0,"197919.jpg",0,0
//Break Periods
//Storyboard Layer 0 (Background)
//Storyboard Layer 1 (Fail)
//Storyboard Layer 2 (Pass)
//Storyboard Layer 3 (Foreground)
//Storyboard Sound Samples

[TimingPoints]
2290,338.983050847458,4,2,1,44,1,0
17883,-100,4,2,1,22,0,0
18052,-100,4,2,1,44,0,0
57883,-100,4,2,1,44,0,1
89069,-100,4,2,1,44,0,0
122967,-100,4,2,1,44,0,1
146018,-100,4,2,1,44,0,0
202967,-100,4,2,1,44,0,1
222290,-100,4,2,1,44,0,0

[Colours]
Combo1 : 255,94,55
Combo2 : 173,255,95
Combo3 : 17,254,176
Combo4 : 255,88,100

[HitObjects]
256,192,12967,12,4,14493,1:0:0:0:
340,60,15510,5,2,0:0:0:0:
340,60,15849,5,0,1:0:0:0:
313,184,16018,1,0,1:0:0:0:
209,123,16188,2,0,P|169:129|130:137,1,80,4|0,2:3|1:0,0:0:0:0:
340,60,16527,2,0,P|388:52|434:42,1,80,4|0,2:3|1:0,0:0:0:0:
313,184,16866,2,0,P|325:262|343:339,1,120,8|8,2:0|2:0,0:0:0:0:
333,302,17205,6,0,P|372:308|411:316,1,80,0|0,1:0|1:0,0:0:0:0:
157,221,17544,2,0,P|77:232|0:250,1,160,8|4,2:0|3:2,0:0:0:0:
185,321,18052,1,8,0:0:0:0:
185,321,18137,1,8,0:0:0:0:
185,321,18221,1,8,0:0:0:0:
185,321,18306,1,8,0:0:0:0:
185,321,18391,6,0,P|265:333|343:351,1,160,4|0,1:0|1:0,0:0:0:0:
471,249,18900,2,0,P|431:255|392:263,1,80,8|0,2:2|1:0,0:0:0:0:
225,115,19239,2,2,P|273:107|319:97,1,80,8|2,2:2|1:1,0:1:0:0:
401,185,19578,1,8,2:2:0:0:
141,217,19747,1,2,1:0:0:0:
258,287,19917,6,0,P|264:247|272:208,1,80,8|2,2:2|1:0,0:1:0:0:
124,41,20256,2,0,P|116:89|106:135,1,80,8|2,2:2|1:0,0:1:0:0:
303,100,20595,1,8,0:0:0:0:
141,217,20764,1,8,0:0:0:0:
141,217,20849,1,8,0:0:0:0:
141,217,20934,1,8,0:0:0:0:
303,100,21103,6,0,P|383:112|461:130,1,160,4|0,1:0|1:0,0:0:0:0:
219,202,21612,2,0,P|179:208|140:216,1,80,8|0,2:2|1:0,0:0:0:0:
265,311,21951,2,0,P|313:319|359:329,1,80,8|0,2:2|1:0,0:1:0:0:
450,254,22290,1,8,2:2:0:0:
161,242,22459,6,0,P|81:254|3:272,1,160,2|0,1:0|1:0,0:0:0:0:
182,52,22967,1,12,0:0:0:0:
182,52,23306,1,0,1:0:0:0:
80,72,23476,5,8,0:0:0:0:
80,72,23561,1,8,0:0:0:0:
80,72,23645,1,8,0:0:0:0:
80,72,23730,1,8,0:0:0:0:
80,72,23815,6,0,P|68:152|50:230,1,160,4|0,1:0|1:0,0:0:0:0:
176,164,24323,2,0,P|168:212|158:258,1,80,8|0,2:0|1:0,0:0:0:0:
252,308,24662,1,0,0:0:0:0:
352,252,24832,1,0,0:0:0:0:
443,318,25001,1,8,0:0:0:0:
352,252,25171,6,0,P|364:172|382:94,1,160,0|0,1:0|1:0,0:0:0:0:
176,164,25679,2,0,P|168:212|158:258,1,80,8|0,2:0|1:0,0:0:0:0:
259,120,26018,2,0,P|267:72|277:26,1,80,0|0,2:0|1:0,0:0:0:0:
78,167,26357,1,8,0:0:0:0:
161,242,26527,6,0,P|241:230|319:212,1,160,0|0,1:0|1:0,0:0:0:0:
425,88,27035,2,0,P|386:94|347:103,1,80,8|0,2:0|1:0,0:0:0:0:
251,43,27374,1,0,1:0:0:0:
295,202,27544,1,0,0:0:0:0:
199,142,27713,1,8,0:0:0:0:
345,104,27883,6,0,P|423:116|500:134,1,120,0|0,1:0|2:0,0:0:0:0:
463,124,28222,2,0,P|469:163|477:202,1,80,2|8,0:0|2:0,0:0:0:0:
276,326,28561,2,0,P|288:248|306:171,1,120,0|0,1:0|2:0,0:0:0:0:
296,208,28900,2,0,P|335:202|374:194,1,80,2|8,0:0|2:0,0:0:0:0:
184,251,29239,6,0,P|106:233|26:221,1,160,0|2,1:0|1:2,0:0:0:0:
26,221,29662,1,2,0:0:0:0:
26,221,29747,1,10,0:0:0:0:
109,86,29917,1,0,0:0:0:0:
296,208,30086,2,0,P|335:202|374:194,1,80,0|0,1:0|2:0,0:0:0:0:
416,89,30425,1,8,0:0:0:0:
203,148,30595,6,0,P|185:225|173:305,1,160,0|0,1:0|1:0,0:0:0:0:
63,280,31103,2,0,P|57:241|49:202,1,80,8|0,2:0|2:0,0:0:0:0:
296,208,31442,1,0,1:0:0:0:
178,312,31612,1,0,0:0:0:0:
63,280,31781,1,8,0:0:0:0:
178,312,31951,6,0,P|257:323|335:341,1,160,0|0,1:0|1:0,0:0:0:0:
483,238,32459,2,0,P|444:244|405:253,1,80,8|0,2:0|2:0,0:0:0:0:
249,203,32798,1,0,0:0:0:0:
409,257,32967,1,0,0:0:0:0:
361,126,33137,1,8,0:0:0:0:
249,203,33306,6,0,P|169:214|91:232,1,160,0|0,1:0|1:0,0:0:0:0:
49,82,33815,2,0,P|42:121|34:160,1,80,8|0,2:0|2:0,0:0:0:0:
220,111,34154,2,0,P|180:117|141:125,1,80,0|0,1:0|2:0,0:0:0:0:
178,312,34493,1,8,0:0:0:0:
304,194,34662,6,0,P|384:206|462:224,1,160,4|0,1:0|1:0,0:0:0:0:
396,98,35170,2,0,P|435:104|474:112,1,80,8|0,2:0|1:0,0:0:0:0:
293,76,35509,1,0,0:0:0:0:
193,132,35679,1,0,0:0:0:0:
102,66,35848,1,8,0:0:0:0:
193,132,36018,6,0,P|181:212|163:290,1,160,0|0,1:0|1:0,0:0:0:0:
271,259,36526,2,0,P|319:267|365:277,1,80,8|0,2:0|1:0,0:0:0:0:
111,151,36865,2,0,P|71:157|32:165,1,80,0|0,2:0|1:0,0:0:0:0:
349,273,37204,1,8,0:0:0:0:
163,289,37374,6,0,P|83:301|5:319,1,160,0|0,1:0|1:0,0:0:0:0:
270,288,37882,2,0,P|309:282|348:273,1,80,8|0,2:0|1:0,0:0:0:0:
444,333,38221,1,0,1:0:0:0:
400,174,38391,1,0,0:0:0:0:
496,234,38560,1,8,0:0:0:0:
350,272,38730,6,0,P|272:260|195:242,1,120,0|2,1:0|2:0,0:0:0:0:
231,251,39069,2,0,P|225:212|217:173,1,80,2|8,0:0|2:0,0:0:0:0:
149,20,39408,2,0,P|137:98|119:175,1,120,0|0,1:0|2:0,0:0:0:0:
128,138,39747,2,0,P|89:144|50:152,1,80,2|8,0:0|2:0,0:0:0:0:
188,330,40086,6,0,P|205:253|217:173,1,160,0|2,1:0|1:2,0:0:0:0:
217,173,40509,1,2,0:0:0:0:
217,173,40594,1,10,0:0:0:0:
149,20,40764,1,0,0:0:0:0:
50,152,40933,2,0,P|56:191|64:230,1,80,0|0,1:0|2:0,0:0:0:0:
188,330,41272,1,8,0:0:0:0:
350,272,41442,6,0,P|367:194|379:114,1,160,0|0,1:0|1:0,0:0:0:0:
442,283,41950,2,0,P|448:322|456:361,1,80,8|0,2:0|2:0,0:0:0:0:
270,241,42289,1,0,1:0:0:0:
378,114,42459,1,0,0:0:0:0:
442,283,42628,1,8,0:0:0:0:
270,241,42798,6,0,P|190:229|112:211,1,160,0|0,1:0|1:0,0:0:0:0:
11,114,43306,2,0,P|50:108|90:101,1,80,8|0,2:0|2:0,0:0:0:0:
272,89,43645,1,0,0:0:0:0:
90,101,43814,1,0,0:0:0:0:
272,89,43984,1,8,0:0:0:0:
90,101,44153,6,0,P|102:180|120:258,1,160,4|0,1:0|1:0,0:0:0:0:
331,241,44662,2,0,P|370:249|409:254,1,80,8|0,2:0|2:0,0:0:0:0:
241,166,45001,2,0,P|234:205|226:244,1,80,0|0,1:0|1:0,0:0:0:0:
482,193,45340,1,8,0:0:0:0:
331,241,45510,6,0,P|338:318|404:359,1,160,4|0,1:2|0:0,0:0:0:0:
225,244,46018,2,0,P|189:261|158:287,1,80,10|0,2:2|0:0,0:0:0:0:
29,159,46357,2,0,P|59:184|95:202,1,80,0|2,1:2|0:0,0:0:0:0:
292,155,46696,1,8,0:0:0:0:
188,130,46866,6,0,P|176:210|158:288,1,160,0|2,1:0|1:2,0:0:0:0:
363,252,47374,1,8,0:0:0:0:
236,346,47544,1,0,0:0:0:0:
274,85,47713,2,2,P|291:120|317:151,1,80,2|2,2:2|0:1,0:1:0:0:
67,281,48052,1,10,0:0:0:0:
205,222,48222,6,0,P|285:234|363:252,1,160,0|2,1:0|1:1,0:0:0:0:
266,343,48730,1,8,0:0:0:0:
317,151,48900,2,2,P|347:125|383:107,1,80,0|2,2:2|0:1,0:1:0:0:
110,193,49239,1,0,0:0:0:0:
159,297,49408,1,8,0:2:0:0:
322,294,49578,6,0,P|280:228|204:221,1,160,4|0,1:1|0:0,0:0:0:0:
69,263,50086,2,0,P|104:280|135:306,1,80,10|0,2:2|0:0,0:0:0:0:
265,178,50425,2,0,P|234:203|198:221,1,80,2|2,1:1|0:1,0:0:0:0:
24,172,50764,1,10,0:0:0:0:
281,86,50934,6,0,P|346:127|353:203,1,160,0|0,1:1|0:0,0:0:0:0:
69,263,51442,1,8,0:0:0:0:
69,263,51527,1,2,0:0:0:0:
69,263,51612,1,2,0:0:0:0:
176,164,51781,2,0,P|168:212|158:258,1,80,2|0,1:2|1:0,0:0:0:0:
247,347,52120,2,0,P|255:299|265:253,1,80,10|0,2:0|1:0,0:0:0:0:
428,165,52459,5,0,1:0:0:0:
465,294,52628,1,0,1:0:0:0:
340,253,52798,2,0,P|292:261|246:271,1,80,8|8,1:2|1:2,0:0:0:0:
223,277,53052,1,8,0:0:0:0:
191,283,53137,2,0,P|143:291|97:301,1,80,10|0,2:0|1:0,0:0:0:0:
22,150,53476,1,12,0:0:0:0:
154,33,53645,6,0,P|136:110|124:190,1,160,4|0,1:0|1:0,0:0:0:0:
205,361,54154,2,0,P|196:322|190:282,1,80,8|0,1:3|2:0,0:0:0:0:
40,145,54493,1,10,0:0:0:0:
230,196,54662,1,2,0:1:0:0:
0,231,54832,1,8,0:0:0:0:
230,196,55001,6,0,P|223:273|157:314,1,160,4|0,1:2|0:0,0:0:0:0:
306,137,55510,2,2,P|341:154|372:180,1,80,10|2,2:2|0:1,0:1:0:0:
502,52,55849,2,2,P|471:77|435:95,1,80,2|10,1:1|0:3,0:1:0:0:
435,95,56103,1,8,0:3:0:0:
435,95,56188,1,4,1:3:0:0:
98,68,56357,1,4,2:0:0:0:
177,121,56527,6,0,P|191:216|201:253,1,120,4|0,1:0|0:0,0:0:0:0:
289,162,56866,2,0,P|213:221|186:248,1,120,0|0,1:0|0:0,0:0:0:0:
175,264,57205,1,8,0:0:0:0:
321,314,57374,2,0,P|231:278|194:268,1,120,8|0,1:3|0:0,0:0:0:0:
303,152,57713,6,0,P|380:134|460:122,1,160,4|0,1:0|1:0,0:0:0:0:
363,247,58222,2,0,P|338:278|320:314,1,80,8|8,0:0|0:0,0:0:0:0:
320,314,58476,1,4,0:3:0:0:
320,313,58561,1,4,1:3:0:0:
208,271,58730,1,0,1:0:0:0:
457,226,58900,1,8,0:3:0:0:
320,314,59069,6,0,P|302:237|290:157,1,160,4|0,1:0|1:0,0:0:0:0:
223,23,59578,2,0,P|215:71|205:117,1,80,8|0,2:0|1:0,0:0:0:0:
43,158,59917,2,0,P|122:169|199:187,1,160,0|8,1:0|2:0,0:0:0:0:
320,314,60425,6,0,P|242:332|163:343,1,160,0|2,1:0|2:0,0:0:0:0:
414,331,60934,2,0,P|422:292|429:253,1,80,8|2,2:0|1:2,0:0:0:0:
127,250,61273,1,0,1:0:0:0:
163,343,61442,1,0,1:0:0:0:
228,198,61612,1,8,0:0:0:0:
127,250,61781,6,2,P|61:208|54:132,1,160,4|2,1:2|0:1,0:1:0:0:
191,70,62290,2,2,P|174:105|149:137,1,80,8|2,0:0|0:1,0:1:0:0:
342,109,62628,2,2,P|367:140|384:175,1,80,0|8,1:0|2:2,0:1:0:0:
394,213,62882,1,8,0:0:0:0:
403,252,62967,1,8,0:0:0:0:
409,292,63052,1,8,0:0:0:0:
414,331,63137,6,0,P|336:312|257:301,1,160,0|0,1:0|2:1,0:0:0:0:
228,198,63645,2,0,P|236:158|242:119,1,80,8|0,2:0|1:0,0:0:0:0:
342,109,63984,2,0,P|333:148|327:187,1,80,0|0,2:0|1:0,0:0:0:0:
127,250,64323,1,8,0:2:0:0:
127,250,64408,1,8,0:3:0:0:
127,250,64493,6,2,P|61:208|54:132,1,160,4|2,1:3|0:1,0:1:0:0:
342,109,65001,2,0,P|333:148|327:187,1,80,8|0,2:0|1:0,0:0:0:0:
228,198,65340,2,0,P|236:158|242:119,1,80,0|0,1:0|2:0,0:0:0:0:
431,145,65679,1,8,0:0:0:0:
257,301,65849,6,0,P|177:312|100:330,1,160,4|0,1:0|2:1,0:0:0:0:
101,87,66357,1,8,0:0:0:0:
240,223,66527,1,0,0:0:0:0:
101,87,66696,2,0,P|92:47|86:8,1,80,8|8,2:0|2:3,0:0:0:0:
86,8,66951,1,4,0:3:0:0:
86,8,67035,1,8,0:0:0:0:
36,203,67205,1,0,0:0:0:0:
240,223,67374,6,0,P|248:262|254:301,1,80,8|2,2:0|2:2,0:0:0:0:
154,290,67713,2,0,P|148:251|140:212,1,80,8|0,2:0|2:0,0:0:0:0:
367,48,68052,1,8,1:3:0:0:
269,66,68222,1,8,0:0:0:0:
259,104,68306,1,8,0:0:0:0:
250,143,68391,1,8,0:0:0:0:
244,183,68476,1,8,0:0:0:0:
239,222,68561,6,2,P|318:234|395:252,1,160,4|2,1:0|2:1,0:1:0:0:
339,137,69069,1,8,0:0:0:0:
177,121,69239,2,2,P|98:133|21:151,1,160,2|4,1:0|1:3,0:1:0:0:
254,301,69747,1,8,0:3:0:0:
239,222,69917,6,2,P|251:143|269:66,1,160,4|0,1:3|1:3,0:1:0:0:
396,52,70425,1,8,0:0:0:0:
254,301,70595,2,2,P|176:319|97:331,1,160,4|0,1:3|1:3,0:1:0:0:
20,151,71103,1,8,0:0:0:0:
219,148,71273,6,2,P|177:214|101:221,1,160,4|8,1:0|0:2,0:1:0:0:
100,220,71696,1,8,0:0:0:0:
100,220,71781,2,0,P|108:259|114:298,1,80,8|2,2:0|2:2,0:0:0:0:
14,287,72120,2,0,P|8:248|0:209,1,80,8|0,2:0|2:0,0:0:0:0:
323,184,72459,1,8,0:0:0:0:
114,298,72628,1,0,0:0:0:0:
222,172,72798,6,0,P|214:133|208:94,1,80,8|2,2:0|2:2,0:0:0:0:
207,93,73052,1,8,0:0:0:0:
207,93,73137,2,0,P|246:87|285:79,1,80,8|4,2:0|2:3,0:0:0:0:
98,34,73476,1,8,0:0:0:0:
311,168,73645,1,8,0:0:0:0:
349,158,73729,1,8,0:0:0:0:
388,149,73814,1,8,0:0:0:0:
428,143,73899,1,8,0:0:0:0:
467,138,73984,6,2,P|479:217|497:294,1,160,4|2,1:0|1:1,0:1:0:0:
297,246,74493,2,2,P|305:206|311:167,1,80,8|0,2:0|1:0,0:1:0:0:
403,324,74832,2,0,P|363:330|324:339,1,80,0|0,2:1|2:0,0:0:0:0:
101,371,75171,1,8,0:0:0:0:
201,228,75340,6,2,P|193:151|128:109,1,160,0|2,1:3|0:1,0:1:0:0:
13,169,75849,2,0,P|5:209|-1:248,1,80,8|0,2:0|1:0,0:1:0:0:
101,371,76188,1,0,1:0:0:0:
201,228,76357,1,0,1:0:0:0:
13,169,76527,1,8,0:0:0:0:
201,228,76696,6,2,P|219:305|231:384,1,160,4|2,1:0|1:1,0:1:0:0:
462,307,77205,1,8,0:0:0:0:
298,201,77374,1,0,1:0:0:0:
462,307,77544,2,2,P|455:267|446:228,1,80,8|0,2:0|1:1,0:1:0:0:
201,228,77883,1,8,0:0:0:0:
365,334,78052,1,2,1:1:0:0:
201,228,78222,6,2,P|207:267|216:306,1,80,8|2,2:0|1:1,0:1:0:0:
138,75,78561,1,8,0:0:0:0:
32,239,78730,1,2,1:0:0:0:
138,75,78900,2,2,P|98:81|59:90,1,80,8|0,2:0|1:1,0:1:0:0:
59,336,79239,1,8,0:0:0:0:
165,172,79408,1,2,1:1:0:0:
59,336,79578,6,2,P|98:329|137:320,1,80,8|2,2:0|1:1,0:1:0:0:
243,156,79917,2,2,P|203:162|164:171,1,80,8|0,2:0|1:1,0:1:0:0:
234,243,80256,2,0,P|273:236|312:227,1,80,12|2,2:0|1:1,0:1:0:0:
418,63,80595,2,2,P|378:69|339:78,1,80,8|8,1:2|1:3,0:1:0:0:
164,140,80934,6,2,P|202:149|242:155,1,80,8|8,1:2|1:3,0:1:0:0:
242,155,81188,1,8,0:0:0:0:
242,155,81273,1,8,0:0:0:0:
137,320,81442,2,2,P|98:329|58:335,1,80,8|8,1:2|1:3,0:1:0:0:
59,336,81696,1,8,0:0:0:0:
59,336,81781,1,8,0:0:0:0:
77,213,81951,1,8,0:3:0:0:
116,217,82035,1,8,0:3:0:0:
156,224,82120,1,8,0:0:0:0:
195,232,82205,1,8,0:0:0:0:
234,243,82289,5,8,0:0:0:0:
337,167,82459,1,4,1:3:0:0:
355,289,82629,1,8,2:2:0:0:
394,285,82713,1,8,0:2:0:0:
434,278,82798,1,8,0:0:0:0:
473,270,82883,1,8,0:0:0:0:
512,260,82967,1,8,0:0:0:0:
445,117,83137,1,8,0:0:0:0:
445,117,83222,1,8,0:0:0:0:
445,117,83306,1,8,0:0:0:0:
337,167,83476,6,2,P|257:155|180:136,1,160,4|0,1:0|1:1,0:1:0:0:
13,214,83984,2,2,P|53:220|92:230,1,80,8|2,2:0|1:1,0:1:0:0:
286,67,84323,1,8,0:0:0:0:
162,321,84493,1,0,1:0:0:0:
150,95,84662,1,8,0:0:0:0:
276,258,84832,1,2,1:0:0:0:
150,95,85001,6,0,P|155:55|165:16,1,80,8|2,2:0|1:1,0:1:0:0:
276,258,85340,2,2,P|270:297|260:336,1,80,8|2,2:0|1:1,0:1:0:0:
260,336,85595,1,0,1:0:0:0:
260,336,85679,1,8,0:0:0:0:
384,82,85849,1,0,1:0:0:0:
396,308,86018,1,8,0:3:0:0:
101,104,86188,6,2,P|180:92|257:73,1,160,4|0,1:0|1:1,0:1:0:0:
424,151,86696,2,2,P|384:156|345:166,1,80,8|2,2:0|1:1,0:1:0:0:
152,4,87035,1,8,0:0:0:0:
276,258,87205,1,2,1:0:0:0:
288,32,87374,1,8,0:0:0:0:
148,189,87544,6,0,P|71:182|30:116,1,160,4|0,1:2|0:0,0:0:0:0:
133,298,88052,2,0,P|93:289|54:283,1,80,12|0,2:0|1:0,0:0:0:0:
100,52,88391,1,0,1:0:0:0:
113,50,88475,1,0,1:0:0:0:
126,47,88560,1,8,0:0:0:0:
139,45,88645,1,8,0:0:0:0:
152,43,88729,1,8,0:0:0:0:
165,40,88814,1,8,0:0:0:0:
178,37,88899,1,4,1:0:0:0:
