osu file format v14

[General]
AudioFilename: audio.mp3
AudioLeadIn: 0
PreviewTime: 205241
Countdown: 0
SampleSet: Normal
StackLeniency: 0.5
Mode: 0
LetterboxInBreaks: 0
WidescreenStoryboard: 1

[Editor]
Bookmarks: 85235,158028
DistanceSpacing: 1.3
BeatDivisor: 4
GridSize: 32
TimelineZoom: 3.399999

[Metadata]
Title:Massive Passive
TitleUnicode:Massive Passive
Artist:la la larks
ArtistUnicode:la la larks
Creator:Kalibe
Version:kaliboy's hard
Source:
Tags:rock japanese culture vulture sfp school food punishment yumi uchimura schoolboy komore iljaaz haruto haruto_aizawa black man fixxis collaboration
BeatmapID:2287866
BeatmapSetID:1092295

[Difficulty]
HPDrainRate:5
CircleSize:4
OverallDifficulty:7
ApproachRate:8
SliderMultiplier:1.4
SliderTickRate:1

[Events]
//Background and Video events
0,0,"massive passive.jpg",0,0
//Break Periods
2,150343,155950
//Storyboard Layer 0 (Background)
//Storyboard Layer 1 (Fail)
//Storyboard Layer 2 (Pass)
//Storyboard Layer 3 (Foreground)
//Storyboard Layer 4 (Overlay)
//Storyboard Sound Samples

[TimingPoints]
636,327.868852459016,4,2,1,30,1,0
1947,-133.333333333333,4,2,1,30,0,0
15056,-133.333333333333,4,2,1,30,0,0
15062,-133.333333333333,4,2,1,50,0,0
15957,-133.333333333333,4,2,1,50,0,0
15963,-133.333333333333,4,2,1,5,0,0
16039,-133.333333333333,4,2,1,5,0,0
16045,-133.333333333333,4,2,1,50,0,0
16209,-133.333333333333,4,2,1,20,0,0
16367,-133.333333333333,4,2,1,20,0,0
16373,-133.333333333333,4,2,1,50,0,0
16613,-133.333333333333,4,2,1,50,0,0
16619,-133.333333333333,4,2,1,5,0,0
16695,-133.333333333333,4,2,1,5,0,0
16701,-100,4,1,3,60,0,0
16783,-100,4,1,1,60,0,0
18990,-100,4,1,1,60,0,0
18996,-100,4,1,2,60,0,0
19078,-100,4,1,1,60,0,0
21613,-100,4,1,1,60,0,0
21619,-100,4,1,2,60,0,0
21701,-100,4,1,1,60,0,0
24236,-100,4,1,1,60,0,0
24242,-100,4,1,2,65,0,0
24324,-100,4,1,1,65,0,0
26859,-100,4,1,1,65,0,0
26865,-100,4,1,1,45,0,0
44728,-100,4,1,1,45,0,0
44734,-100,4,1,2,45,0,0
44892,-100,4,1,2,45,0,0
44898,-100,4,1,1,50,0,0
46531,-100,4,1,1,50,0,0
46537,-100,4,1,1,45,0,0
47843,-100,4,1,1,45,0,0
47849,-100,4,1,2,55,0,0
48170,-100,4,1,2,55,0,0
48176,-100,4,1,1,55,0,0
56203,-100,4,1,1,55,0,0
56209,-100,4,1,1,60,0,0
57679,-100,4,1,1,60,0,0
57685,-100,4,1,1,40,0,0
58668,-100,4,1,1,25,0,0
58990,-100,4,1,1,25,0,0
58996,327.868852459016,4,1,3,65,1,0
59077,-100,4,1,1,65,0,0
59159,-100,4,1,3,65,0,0
59323,-100,4,1,1,65,0,0
60143,-100,4,1,2,65,0,0
60470,-100,4,1,1,65,0,0
61618,-100,4,1,2,65,0,0
61700,-100,4,1,1,65,0,0
62766,-100,4,1,2,65,0,0
63094,-100,4,1,1,65,0,0
63831,-100,4,1,3,65,0,0
64241,-100,4,1,2,60,0,0
64405,-100,4,1,2,65,0,0
64732,-100,4,1,1,60,0,0
65716,-100,4,1,3,65,0,0
65881,-100,4,1,1,60,0,0
68012,-100,4,1,1,65,0,0
68175,-100,4,1,3,65,0,0
68340,-100,4,1,1,65,0,0
69159,-100,4,1,2,65,0,0
69487,-100,4,1,3,65,0,0
69569,-100,4,1,1,65,0,0
70635,-100,4,1,2,65,0,0
70962,-100,4,1,1,65,0,0
71945,-100,4,1,3,65,0,0
72110,-100,4,1,2,65,0,0
72192,-100,4,1,1,65,0,0
73258,-100,4,1,2,65,0,0
73585,-100,4,1,1,65,0,0
74568,-100,4,1,3,65,0,0
74733,-100,4,1,1,60,0,0
74896,-100,4,1,3,65,0,0
75061,-100,4,1,1,60,0,0
77519,-100,4,1,3,65,0,0
77684,-100,4,1,1,60,0,0
81290,-100,4,1,3,65,0,0
81455,-100,4,1,1,60,0,0
83914,-100,4,1,2,60,0,0
83995,-100,4,1,1,55,0,0
84897,-100,4,1,1,70,0,0
85225,-100,4,1,3,65,0,0
85307,-100,4,1,1,60,0,0
90471,-100,4,2,1,50,0,0
91454,-100,4,1,1,60,0,0
91618,-100,4,2,1,50,0,0
91945,-100,4,1,1,60,0,0
92110,-100,4,2,1,50,0,0
97191,-100,4,1,1,60,0,0
97356,-100,4,2,1,50,0,0
100963,-100,4,2,1,55,0,0
108504,-100,4,2,1,45,0,0
108832,-100,4,2,1,60,0,0
110060,-100,4,1,1,60,0,0
110142,-100,4,2,1,60,0,0
111127,-100,4,2,2,60,0,0
111455,-117.647058823529,4,2,2,50,0,0
118668,-111.111111111111,4,2,1,55,0,0
119158,-111.111111111111,4,1,1,60,0,0
119323,-100,4,2,2,60,0,0
119486,-100,4,2,1,60,0,0
120307,-100,4,2,1,75,0,0
120470,-100,4,1,1,60,0,0
120635,-100,4,2,1,75,0,0
121291,327.868852459016,4,1,3,70,1,0
121372,-100,4,1,1,70,0,0
122438,-100,4,1,2,70,0,0
122765,-100,4,1,1,70,0,0
123913,-100,4,1,2,70,0,0
123995,-100,4,1,1,70,0,0
125061,-100,4,1,2,70,0,0
125224,-100,4,1,1,70,0,0
126536,-100,4,1,2,65,0,0
126700,-100,4,1,1,70,0,0
127027,-100,4,1,1,65,0,0
127192,-100,4,1,1,70,0,0
127356,-100,4,1,1,65,0,0
127848,-100,4,1,1,70,0,0
128011,-100,4,1,1,65,0,0
128749,-100,4,1,1,70,0,0
128995,-100,4,1,1,65,0,0
131454,-100,4,1,2,65,0,0
131782,-100,4,1,3,70,0,0
131864,-100,4,1,1,70,0,0
132930,-100,4,1,2,70,0,0
133257,-100,4,1,1,70,0,0
134405,-100,4,1,2,70,0,0
134487,-100,4,1,1,70,0,0
135553,-100,4,1,2,70,0,0
135880,-100,4,1,1,70,0,0
137028,-100,4,1,2,70,0,0
137110,-100,4,1,1,65,0,0
137191,-100,4,1,1,70,0,0
137356,-100,4,1,1,65,0,0
139814,-100,4,1,1,70,0,0
139979,-100,4,1,1,65,0,0
141453,-100,4,1,1,70,0,0
141618,-100,4,1,1,65,0,0
142274,-100,4,1,2,65,0,0
142601,-100,4,1,1,65,0,0
144897,-100,4,1,2,65,0,0
145061,-100,4,1,1,65,0,0
146209,-100,4,1,2,65,0,0
146290,-100,4,1,1,70,0,0
147520,-100,4,1,1,45,0,0
150143,-100,4,1,1,40,0,0
156700,-100,4,1,1,55,0,0
158012,-100,4,2,1,60,0,0
163258,-100,4,1,2,65,0,0
163421,-100,4,1,1,65,0,0
164405,-100,4,1,1,55,0,0
164569,-100,4,1,1,60,0,0
165388,-100,4,1,1,55,0,0
165552,-100,4,1,1,60,0,0
165717,-100,4,1,1,55,0,0
166700,-100,4,1,1,50,0,0
167028,-100,4,1,2,55,0,0
167110,-100,4,1,1,55,0,0
167520,-100,4,1,1,60,0,0
167683,-100,4,1,1,55,0,0
167848,-100,4,1,1,60,0,0
168504,-100,4,1,3,65,0,0
168586,-100,4,1,1,65,0,0
171782,-100,4,1,1,55,0,0
171945,-100,4,1,1,65,0,0
173339,-100,4,1,1,55,0,0
173750,-100,4,1,1,65,0,0
174241,-100,4,1,1,55,0,0
174405,-100,4,1,1,65,0,0
174650,-100,4,1,1,55,0,0
174896,-100,4,1,1,65,0,0
176208,-100,4,1,1,55,0,0
176372,-100,4,1,1,65,0,0
177519,-100,4,1,1,55,0,0
177684,-100,4,1,1,65,0,0
178995,-100,4,1,2,65,0,0
179077,-100,4,1,1,65,0,0
182273,-100,4,1,1,55,0,0
182438,-100,4,1,1,65,0,0
184241,-100,4,1,2,65,0,0
184323,-100,4,1,1,65,0,0
186699,-100,4,1,1,55,0,0
186864,-100,4,1,2,70,0,0
187027,-100,4,1,1,70,0,0
187356,-100,4,1,2,70,0,0
187683,-100,4,1,1,70,0,0
189487,-100,4,1,2,75,0,0
189569,-100,4,1,1,75,0,0
192110,-100,4,1,3,65,0,0
192437,-100,4,1,1,55,0,0
193094,-100,4,1,1,60,0,0
193749,-100,4,1,1,65,0,0
193913,-100,4,1,1,70,0,0
194076,-100,4,1,1,75,0,0
194404,-100,4,1,1,80,0,0
194569,-100,4,1,1,85,0,0
194733,-133.333333333333,4,1,2,60,0,0
195388,-133.333333333333,4,1,2,55,0,0
195553,-133.333333333333,4,1,1,55,0,0
197356,-133.333333333333,4,1,1,45,0,0
198011,-133.333333333333,4,1,1,55,0,0
198176,-133.333333333333,4,1,1,50,0,0
199159,-133.333333333333,4,1,1,60,0,0
199322,-133.333333333333,4,1,1,30,0,0
199979,-100,4,1,1,60,0,0
200142,-100,4,1,1,55,0,0
200307,-100,4,1,1,60,0,0
201290,-100,4,1,1,55,0,0
201453,-100,4,1,1,60,0,0
203913,-100,4,1,1,55,0,0
204077,-100,4,1,1,60,0,0
204240,-100,4,1,1,55,0,0
204405,-100,4,1,1,60,0,0
205225,-100,4,1,3,60,0,0
205307,-100,4,1,1,15,0,0
206372,-100,4,1,2,60,0,0
206454,-100,4,1,1,60,0,0
207848,-100,4,1,3,60,0,0
207930,-100,4,1,1,60,0,0
208995,-100,4,1,2,60,0,0
209323,-100,4,1,1,60,0,0
210471,-100,4,1,2,55,0,0
210635,-100,4,1,1,60,0,0
210962,-100,4,1,1,55,0,0
212683,-100,4,1,1,60,0,0
212929,-100,4,1,1,55,0,0
214241,-100,4,1,2,65,0,0
214568,-100,4,1,1,65,0,0
215717,-100,4,1,2,70,0,0
215799,-100,4,1,1,70,0,0
216864,-100,4,1,2,70,0,0
217191,-100,4,1,1,70,0,0
218257,-100,4,1,1,5,0,0
218340,-100,4,1,1,75,0,0
219487,-100,4,1,2,75,0,0
219814,-100,4,1,1,75,0,0
220963,-100,4,1,3,70,0,0
221045,-100,4,1,1,70,0,0
221126,-100,4,1,1,60,0,0
221290,-100,4,1,1,70,0,0
222765,-100,4,1,1,60,0,0
222930,-100,4,1,1,70,0,0
223175,-100,4,1,1,60,0,0
223421,-100,4,1,1,70,0,0
225388,-100,4,1,1,60,0,0
225553,-100,4,1,1,70,0,0
226209,-100,4,1,2,70,0,0
226290,-100,4,1,1,70,0,0
226863,-100,4,1,1,60,0,0
227028,-100,4,1,1,70,0,0
228831,-100,4,1,2,60,0,0
228995,-100,4,1,1,60,0,0
230798,-100,4,1,1,65,0,0
231127,-100,4,1,1,70,0,0
231454,-100,4,1,1,40,0,0
231781,-100,4,1,3,75,0,0
232109,-100,4,1,1,70,0,0
233913,-100,4,1,2,75,0,0
234077,-100,4,1,1,70,0,0
234240,-100,4,1,1,60,0,0
234405,-100,4,1,1,70,0,0
236126,-100,4,1,1,60,0,0
236208,-100,4,1,1,70,0,0
236700,-100,4,1,2,70,0,0
236782,-100,4,1,1,70,0,0
239159,-100,4,1,2,75,0,0
239323,-100,4,1,1,65,0,0
241946,-100,4,1,3,70,0,0
242273,-100,4,1,1,70,0,0
242438,-100,4,1,1,60,0,0
242602,-100,4,1,1,70,0,0
244405,-100,4,1,2,75,0,0
244569,-100,4,1,1,70,0,0
245881,-100,4,1,2,70,0,0
245963,-100,4,1,1,70,0,0
246044,-100,4,1,1,60,0,0
246209,-100,4,1,1,70,0,0
247192,-100,4,1,2,70,0,0
247274,-100,4,1,1,70,0,0
247519,-100,4,1,3,75,0,0
247602,-100,4,1,1,70,0,0
248995,-100,4,1,1,65,0,0
249158,-100,4,1,1,60,0,0
249323,-100,4,1,1,75,0,0
249650,-100,4,1,1,80,0,0
249815,-100,4,1,2,75,0,0
249897,-100,4,1,1,75,0,0
251127,-100,4,1,2,80,0,0
251290,-100,4,1,1,80,0,0
251454,-100,4,1,2,80,0,0
251617,-100,4,1,1,80,0,0
251782,-100,4,1,2,80,0,0
252110,-100,4,1,3,60,0,0
252192,-100,4,1,1,30,0,0
252437,-100,4,1,2,15,0,0

[Colours]
Combo1 : 238,51,79
Combo2 : 111,185,225
Combo3 : 145,157,217
Combo4 : 143,171,157
Combo5 : 201,193,206
Combo6 : 154,209,99
Combo7 : 117,240,179
Combo8 : 217,146,74

[HitObjects]
130,125,636,5,8,1:3:0:0:
130,125,799,1,8,1:3:0:0:
130,125,1947,2,0,B|205:142|205:142|208:145|208:145|282:162,2,157.500006008148,2|2|0,0:0|0:0|0:0,0:0:0:0:
54,185,3258,5,8,1:3:0:0:
54,185,3422,1,8,1:3:0:0:
54,185,4570,2,0,L|83:343,1,157.500006008148,0|0,0:0|0:0,0:0:0:0:
156,375,5226,2,0,P|193:360|232:353,2,78.7500030040742,0|0|0,0:0|0:0|0:0,0:0:0:0:
82,339,5881,5,8,1:3:0:0:
82,339,6045,1,8,1:3:0:0:
82,339,6373,6,0,P|89:287|101:226,1,105.000004005432,2|2,0:0|0:0,0:0:0:0:
9,139,7029,2,0,L|23:206,1,52.5000020027161,2|0,0:0|0:0,0:0:0:0:
19,190,7849,2,0,P|37:155|39:115,2,78.7500030040742,0|0|0,0:0|0:0|0:0,0:0:0:0:
94,249,8504,5,0,1:0:0:0:
94,249,8668,1,0,0:0:0:0:
94,249,8996,6,0,P|137:222|188:225,1,105.000004005432,0|0,0:0|0:0,0:0:0:0:
306,287,9652,2,0,P|280:289|256:281,1,52.5000020027161,0|0,0:0|1:0,0:0:0:0:
256,281,10472,6,0,L|265:359,2,78.7500030040742,2|2|2,0:0|0:0|0:0,0:0:0:0:
180,327,11127,1,0,1:0:0:0:
343,266,11783,1,0,0:0:0:0:
194,195,12439,1,0,1:0:0:0:
261,135,12931,1,0,0:0:0:0:
261,135,13095,2,0,B|253:87|253:87|254:84|254:84|246:31,1,105.000004005432,0|0,0:0|0:0,0:0:0:0:
259,17,13750,5,4,3:2:0:0:
413,191,14406,1,0,0:0:0:0:
413,191,14734,1,2,0:0:0:0:
512,227,15062,6,0,P|412:245|363:334,1,210.000008010865,6|0,1:0|0:0,0:0:0:0:
373,350,16045,2,0,P|381:318|311:291,1,105.000004005432,2|0,1:0|0:0,0:0:0:0:
328,282,16701,6,0,L|421:302,1,70,12|0,1:0|0:0,0:0:0:0:
512,253,17029,2,0,P|474:311|475:380,1,140,0|8,1:0|1:0,0:0:0:0:
432,221,17685,1,2,1:0:0:0:
432,221,17849,1,0,0:0:0:0:
482,92,18013,6,0,P|493:121|490:177,1,70,8|0,0:0|0:0,0:0:0:0:
406,63,18340,1,2,0:0:0:0:
350,180,18504,2,0,P|339:151|342:95,2,70,14|0|14,0:0|0:0|0:0,0:0:0:0:
432,221,18996,6,0,L|421:299,1,70,6|0,0:0|0:0,0:0:0:0:
473,357,19324,1,10,0:0:0:0:
422,290,19488,6,0,L|337:305,1,70,2|0,0:0|1:0,0:0:0:0:
277,264,19816,1,2,0:0:0:0:
202,343,19980,6,0,L|117:328,1,70,8|2,0:0|1:2,0:0:0:0:
57,369,20308,1,0,0:0:0:0:
156,262,20472,6,0,L|71:277,1,70,2|8,0:0|0:0,0:0:0:0:
11,236,20800,1,0,0:0:0:0:
104,187,20963,5,4,0:0:0:0:
33,142,21127,1,8,3:0:0:0:
108,101,21291,2,0,L|116:60,2,35,0|0|2,3:0|3:0|0:0,0:0:0:0:
104,187,21619,6,0,P|160:157|259:156,1,140,6|8,0:0|0:0,0:0:0:0:
307,94,22111,2,0,L|324:10,1,70,2|0,0:0|0:0,0:0:0:0:
381,144,22439,1,0,0:0:0:0:
464,114,22603,2,0,L|477:45,1,70,8|2,0:0|0:2,0:0:0:0:
381,144,22931,5,0,3:0:0:0:
381,144,23095,2,0,B|391:209|391:209|394:212|394:212|406:293,1,140,0|0,0:0|0:0,0:0:0:0:
469,329,23586,1,0,0:0:0:0:
320,372,23750,6,0,P|291:351|257:348,1,70,12|0,0:0|0:0,0:0:0:0:
240,362,24078,1,12,0:0:0:0:
136,308,24242,6,0,P|125:273|223:226,1,140,6|2,0:0|3:1,0:0:0:0:
322,74,24734,2,0,P|282:115|201:95,1,140,10|0,0:0|0:0,0:0:0:0:
366,191,25226,2,0,L|451:211,1,70,2|0,0:0|3:0,0:0:0:0:
507,162,25554,1,6,0:2:0:0:
507,162,25881,6,0,L|525:78,1,70,0|0,0:0|0:0,0:0:0:0:
434,95,26209,2,0,L|426:60,1,35
353,141,26373,2,0,L|360:98,1,35
296,63,26537,1,2,2:0:0:0:
382,216,26865,1,4,0:0:0:0:
510,330,27193,6,0,P|425:294|366:309,1,140,8|0,0:0|0:0,0:0:0:0:
303,259,27685,2,0,L|289:343,1,70,8|0,0:0|0:0,0:0:0:0:
196,243,28013,6,0,L|216:401,1,140,0|0,0:0|0:0,0:0:0:0:
213,381,28504,1,8,0:0:0:0:
291,328,28668,2,0,B|340:338|340:338|311:313,2,70,0|2|8,0:0|0:2|0:0,0:0:0:0:
228,270,29160,2,0,L|238:200,1,70,0|0,0:0|0:0,0:0:0:0:
256,95,29488,5,4,0:0:0:0:
256,95,29652,1,0,0:0:0:0:
256,95,29816,2,0,B|189:106|189:106|186:109|186:109|119:121,1,140,8|0,0:0|0:0,0:0:0:0:
29,114,30308,2,0,P|28:51|97:35,1,140,12|4,0:0|0:3,0:0:0:0:
119,121,30799,6,0,L|105:267,1,140,0|8,0:0|0:0,0:0:0:0:
191,377,31291,2,0,P|192:342|150:310,1,70,2|0,0:2|0:0,0:0:0:0:
100,370,31619,2,0,L|31:361,1,70,8|0,0:0|0:0,0:0:0:0:
278,316,32111,6,0,L|419:288,1,140,6|8,0:0|0:0,0:0:0:0:
507,271,32603,2,0,L|491:355,1,70,2|0,0:0|0:0,0:0:0:0:
443,207,32931,1,8,0:0:0:0:
443,207,33095,1,0,0:0:0:0:
502,144,33258,6,0,P|504:74|444:71,1,140,0|0,0:0|0:0,0:0:0:0:
366,52,33750,2,0,L|379:139,2,70,8|0|0,0:0|0:0|0:0,0:0:0:0:
372,45,34242,1,8,0:0:0:0:
305,4,34406,1,0,0:0:0:0:
250,72,34570,5,0,0:0:0:0:
250,72,34734,2,0,P|175:106|104:85,1,140,2|8,0:2|0:0,0:0:0:0:
45,126,35226,2,0,L|30:35,1,70,2|0,0:2|0:0,0:0:0:0:
120,95,35554,1,12,0:0:0:0:
37,200,35717,2,0,L|50:126,1,70,0|4,0:0|0:3,0:0:0:0:
124,180,36045,6,0,B|149:329,1,140,0|8,0:0|0:0,0:0:0:0:
74,355,36537,2,0,P|140:342|194:384,1,140,2|8,0:0|0:0,0:0:0:0:
328,317,37029,2,0,L|234:330,1,70,0|8,0:0|0:0,0:0:0:0:
258,326,37275,1,0,0:0:0:0:
258,326,37357,6,0,P|303:275|310:200,1,140,4|8,0:0|0:0,0:0:0:0:
377,147,37849,2,0,P|373:95|301:34,1,140,2|8,0:0|0:0,0:0:0:0:
226,28,38340,2,0,L|218:118,2,70,0|4|0,0:0|0:3|0:0,0:0:0:0:
230,111,38996,5,8,0:0:0:0:
162,154,39160,1,0,3:0:0:0:
91,113,39324,2,0,B|55:118|55:118|52:119|52:119|-6:129,1,70,2|8,2:0|0:0,0:0:0:0:
224,215,39652,2,0,B|276:223|276:223|278:225|278:225|347:238,1,105,0|0,0:0|0:0,0:0:0:0:
326,234,39980,6,0,P|345:197|265:165,1,140,2|8,0:0|0:0,0:0:0:0:
107,253,40472,2,0,P|205:226|257:236,1,140,2|8,0:0|0:0,0:0:0:0:
313,279,40963,2,0,L|303:368,1,70,4|0,0:0|0:0,0:0:0:0:
385,356,41291,2,0,L|392:286,1,70,0|0,0:0|0:0,0:0:0:0:
473,231,41619,5,8,0:0:0:0:
409,174,41783,2,0,L|335:191,1,70,2|0,0:0|0:0,0:0:0:0:
321,109,42111,5,8,0:0:0:0:
257,166,42275,2,0,L|183:149,1,70,0|0,0:0|0:0,0:0:0:0:
80,228,42603,6,0,P|103:167|83:81,1,140,2|8,0:0|0:0,0:0:0:0:
99,12,43095,2,0,L|6:40,1,70,2|0,0:2|0:0,0:0:0:0:
90,94,43422,1,8,0:0:0:0:
285,0,43750,1,4,0:3:0:0:
205,20,43914,6,0,L|228:164,1,140,0|8,0:0|0:0,0:0:0:0:
314,141,44406,2,0,L|302:225,1,70,2|0,0:2|0:0,0:0:0:0:
279,369,44734,1,12,0:0:0:0:
279,369,44898,2,0,L|291:285,1,70,12|0,1:3|0:0,0:0:0:0:
431,228,45226,6,0,P|407:253|373:261,1,70,6|0,0:2|0:0,0:0:0:0:
361,255,45554,1,8,0:3:0:0:
449,331,45717,2,0,P|481:343|504:370,1,70,0|0,0:0|0:0,0:0:0:0:
512,266,46045,6,0,L|502:196,1,70,8|0,0:0|0:0,0:0:0:0:
411,123,46373,2,0,L|401:53,1,70,8|6,0:0|0:0,0:0:0:0:
129,146,47193,6,0,L|80:159,2,35,8|8|0,0:3|0:3|0:0,0:0:0:0:
209,197,47521,1,8,0:0:0:0:
296,155,47685,1,0,0:0:0:0:
296,155,47767,1,8,0:0:0:0:
296,155,47849,6,0,B|305:84|305:84|276:65|262:29,2,140,4|8|0,0:1|0:0|0:0,0:0:0:0:
349,225,48668,1,8,0:0:0:0:
434,213,48832,2,0,L|526:203,2,70,0|8|0,3:0|0:0|3:0,0:0:0:0:
433,212,49488,6,0,P|484:259|493:327,2,140,10|0|0,0:0|0:0|0:0,0:0:0:0:
280,157,50308,1,8,0:0:0:0:
357,111,50472,6,0,L|496:82,1,140,2|8,0:0|0:0,0:0:0:0:
505,76,50963,2,0,P|439:32|363:48,1,140,0|8,0:0|0:0,0:0:0:0:
302,15,51455,2,0,L|214:28,2,70,0|8|0,0:0|0:0|0:0,0:0:0:0:
225,34,52111,6,0,P|160:8|92:18,1,140,10|0,0:0|0:0,0:0:0:0:
20,62,52603,1,8,0:0:0:0:
81,123,52767,2,0,L|98:213,1,70,0|8,0:0|0:0,0:0:0:0:
1,251,53095,6,0,B|165:207|110:339|257:312,1,280,4|0,0:0|3:0,0:0:0:0:
422,265,53914,1,8,0:0:0:0:
349,221,54078,2,0,L|336:300,1,70,2|8,0:3|0:0,0:0:0:0:
391,369,54406,5,2,0:0:0:0:
400,367,54570,1,0,0:0:0:0:
483,344,54734,1,8,0:0:0:0:
349,221,55062,6,0,P|352:186|369:156,1,70,0|12,0:0|0:0,0:0:0:0:
430,14,55390,2,0,L|440:98,1,70,14|0,0:0|0:0,0:0:0:0:
368,156,55717,5,14,0:0:0:0:
300,101,55881,2,0,L|217:118,1,70,8|8,3:0|3:0,0:0:0:0:
368,156,56209,5,14,0:0:0:0:
219,126,56373,2,0,L|137:116,1,70,8|8,3:0|3:0,0:0:0:0:
65,180,56701,6,0,P|89:130|75:27,1,140,14|12,0:0|0:0,0:0:0:0:
78,38,57193,1,8,0:3:0:0:
163,8,57357,1,0,0:0:0:0:
245,38,57521,1,8,0:3:0:0:
234,161,57685,6,0,P|253:237|436:73,1,490,6|2,0:2|0:0,0:0:0:0:
452,88,58996,6,0,P|418:94|382:116,1,70,4|0,0:0|0:0,0:0:0:0:
220,7,59323,2,0,B|257:20|277:41|277:41|358:33,1,140,4|2,2:0|2:2,0:0:0:0:
434,3,59815,1,8,0:3:0:0:
352,20,59979,1,8,0:0:0:0:
438,16,60143,6,0,L|421:156,1,140,4|0,0:0|0:0,0:0:0:0:
491,209,60635,1,8,0:0:0:0:
407,242,60799,2,0,L|393:331,2,70,2|8|0,0:0|3:0|3:0,0:0:0:0:
453,379,61291,1,12,0:0:0:0:
453,379,61618,6,0,P|355:354|287:370,1,140,4|4,0:1|2:0,0:0:0:0:
246,303,62110,2,0,L|229:209,1,70,2|4,2:0|3:0,0:0:0:0:
116,373,62438,2,0,L|128:329,1,35,8|8,0:3|0:0,0:0:0:0:
137,334,62602,1,0,0:0:0:0:
65,281,62766,2,0,L|50:206,1,70,4|0,0:0|0:0,0:0:0:0:
83,125,63094,1,0,0:0:0:0:
83,125,63258,2,0,P|41:122|-2:100,1,70,8|2,0:0|0:0,0:0:0:0:
133,197,63586,2,0,P|179:175|231:179,2,105,8|2|0,3:0|2:0|2:0,0:0:0:0:
199,266,64241,5,6,0:0:0:0:
199,266,64405,2,0,P|245:229|351:234,1,140,0|2,0:0|2:0,0:0:0:0:
444,231,64897,1,0,0:0:0:0:
379,289,65061,2,0,P|353:224|364:156,1,140,2|2,0:0|0:0,0:0:0:0:
433,100,65553,2,0,L|516:120,1,70,2|0,0:2|0:0,0:0:0:0:
361,53,65881,2,0,B|356:44|356:44|379:-22,1,70,8|0,0:0|0:0,0:0:0:0:
288,114,66209,2,0,P|236:121|184:131,2,105,0|0|0,0:0|0:0|0:0,0:0:0:0:
431,241,66864,6,0,P|393:196|311:206,1,140,2|8,0:2|0:0,0:0:0:0:
255,261,67356,2,0,L|240:330,1,70,2|0,2:0|0:0,0:0:0:0:
155,214,67684,2,0,L|166:288,1,70,0|8,0:0|0:0,0:0:0:0:
73,380,68012,6,0,L|87:311,1,70,6|0,0:0|0:0,0:0:0:0:
10,183,68340,2,0,B|15:216|15:216|17:219|17:219|22:251,1,70,2|8,0:0|0:0,0:0:0:0:
167,145,68668,2,0,B|162:178|162:178|160:181|160:181|154:213,1,70,2|8,0:3|0:0,0:0:0:0:
82,149,68995,2,0,L|73:99,2,35,0|8|14,0:0|3:0|0:0,0:0:0:0:
241,202,69487,6,0,P|309:203|364:161,1,140,6|4,0:0|2:0,0:0:0:0:
416,89,69979,1,0,1:0:0:0:
348,29,70143,2,0,L|261:47,2,70,2|8|8,2:2|0:3|0:0,0:0:0:0:
486,150,70635,6,0,B|516:107|506:62|506:62|473:24,1,140,4|0,0:0|0:0,0:0:0:0:
359,115,71127,1,8,0:0:0:0:
416,184,71291,2,0,P|479:202|495:280,1,140,2|8,0:0|3:0,0:0:0:0:
414,375,71782,2,0,P|412:342|426:301,1,70,12|0,0:0|0:0,0:0:0:0:
434,309,72110,6,0,P|367:339|294:327,1,140,4|4,0:0|2:0,0:0:0:0:
192,262,72602,2,0,P|216:206|293:234,1,140,2|8,2:0|3:0,0:0:0:0:
359,174,73094,1,8,0:0:0:0:
428,226,73258,6,0,L|453:59,1,140,4|0,0:0|0:0,0:0:0:0:
497,17,73750,1,8,0:0:0:0:
509,26,73914,1,2,0:0:0:0:
448,86,74077,2,0,P|396:86|359:51,2,105,8|0|0,3:0|3:0|0:0,0:0:0:0:
499,152,74733,6,0,L|487:220,1,70,6|0,0:0|0:0,0:0:0:0:
494,231,75061,1,8,0:0:0:0:
512,318,75225,2,0,P|474:263|408:272,1,140,2|0,0:0|0:0,0:0:0:0:
339,328,75717,1,8,0:0:0:0:
264,288,75881,2,0,B|199:303|199:303|198:306|198:306|118:326,1,140,0|2,0:0|0:0,0:0:0:0:
54,278,76373,2,0,P|40:238|51:194,1,70,8|2,0:0|0:2,0:0:0:0:
105,147,76700,2,0,P|149:173|201:172,2,105,0|0|2,0:0|0:0|0:0,0:0:0:0:
35,98,77356,6,0,P|29:63|24:28,1,70,2|0,2:0|0:0,0:0:0:0:
33,21,77684,1,10,0:0:0:0:
112,67,77848,2,0,P|179:81|224:7,1,140,2|0,0:0|0:0,0:0:0:0:
294,86,78340,1,8,0:0:0:0:
367,33,78504,2,0,B|431:45|431:45|436:49|436:49|514:66,1,140,0|2,0:0|0:0,0:0:0:0:
453,162,78995,2,0,P|432:130|438:86,1,70,8|0,0:0|0:0,0:0:0:0:
512,223,79323,2,0,B|514:231|514:231|494:334,2,105,0|2|2,0:0|2:0|0:0,0:0:0:0:
405,271,79979,6,0,B|369:270|349:249|349:249|272:265,1,140,6|8,0:2|0:0,0:0:0:0:
203,213,80471,2,0,L|127:193,1,70,2|0,2:0|0:0,0:0:0:0:
88,277,80799,2,0,L|14:295,1,70,0|8,0:0|0:0,0:0:0:0:
176,384,81127,2,0,L|165:308,1,70,2|0,0:0|0:0,0:0:0:0:
241,183,81455,2,0,L|230:258,1,70,0|8,0:0|0:0,0:0:0:0:
321,344,81782,2,0,L|311:274,1,70,2|0,0:2|0:0,0:0:0:0:
376,216,82110,2,0,P|444:215|471:287,1,140,2|2,0:2|0:2,0:0:0:0:
485,283,82602,5,6,0:0:0:0:
505,194,82766,1,2,0:0:0:0:
447,123,82930,1,8,0:0:0:0:
467,34,83094,2,0,L|548:14,1,70,2|4,0:0|0:3,0:0:0:0:
447,123,83422,1,2,0:0:0:0:
374,78,83586,2,0,B|367:73|367:73|350:-4,1,70,8|2,0:0|0:0,0:0:0:0:
307,139,83914,6,0,L|180:125,1,105,6|8,0:0|0:3,0:0:0:0:
188,126,84241,2,0,L|202:34,1,70,10|8,0:0|0:3,0:0:0:0:
111,175,84569,2,0,L|101:137,2,35,0|0|0,3:0|3:0|0:0,0:0:0:0:
197,252,84897,2,0,L|207:214,2,35,0|0|0,3:0|3:0|0:0,0:0:0:0:
26,357,85225,6,0,P|53:281|116:273,1,140,6|8,0:0|0:0,0:0:0:0:
207,356,85717,2,0,B|257:363|257:363|300:351|300:351|354:359,1,140,2|0,0:0|0:0,0:0:0:0:
443,304,86209,1,8,0:0:0:0:
363,232,86373,6,0,L|319:208,2,35,2|2|2,0:0|0:0|0:0,0:0:0:0:
443,304,86700,1,0,0:0:0:0:
512,190,86864,2,0,P|473:144|398:169,1,140,10|0,0:0|0:0,0:0:0:0:
312,246,87356,1,2,0:0:0:0:
312,246,87520,2,0,L|214:266,1,70,8|0,0:0|3:0,0:0:0:0:
149,323,87848,5,2,2:0:0:0:
74,259,88012,1,2,1:3:0:0:
146,174,88176,1,10,0:0:0:0:
146,174,88340,2,0,B|173:102|130:112|153:28,1,140,2|14,0:0|0:2,0:0:0:0:
247,129,88832,2,0,L|325:150,1,70,14|0,0:2|0:0,0:0:0:0:
448,128,89159,5,4,0:0:0:0:
358,67,89323,2,0,L|330:28,2,35,10|8|10,0:0|0:3|0:0,0:0:0:0:
292,172,89651,2,0,L|244:192,2,35,0|0|8,3:0|3:0|0:0,0:0:0:0:
370,255,89979,1,8,0:3:0:0:
377,260,90061,1,8,0:3:0:0:
380,268,90143,2,2,L|358:314,2,35,2|2|2,2:0|2:0|2:0,2:0:0:0:
490,216,90471,5,4,0:0:0:0:
490,216,90799,2,0,P|435:198|366:155,1,140,8|2,1:0|0:0,0:0:0:0:
291,77,91291,1,8,1:0:0:0:
164,200,91618,6,0,P|132:214|46:157,1,140,12|0,1:3|2:0,0:0:0:0:
164,116,92110,1,8,1:0:0:0:
170,121,92274,2,0,L|253:142,1,70,0|2,3:0|0:0,0:0:0:0:
317,206,92602,2,0,L|288:291,1,70,8|0,1:0|0:0,0:0:0:0:
413,219,92930,1,8,1:0:0:0:
461,281,93094,6,0,B|473:203|420:230|425:129,1,140,2|8,0:0|1:0,0:0:0:0:
375,38,93586,2,0,B|303:68|303:68|317:148,1,140,2|8,1:0|1:0,0:0:0:0:
170,285,94241,1,8,1:0:0:0:
109,344,94405,6,0,P|133:298|127:200,1,140,0|8,1:0|1:0,0:0:0:0:
205,145,94897,2,0,L|278:122,1,70,0|0,3:0|1:0,0:0:0:0:
271,123,95225,1,8,1:0:0:0:
100,43,95553,1,8,1:0:0:0:
99,135,95717,6,0,P|165:146|240:166,1,140,0|8,1:0|1:0,0:0:0:0:
335,109,96209,2,0,P|350:87|349:30,1,70,0|2,0:0|0:0,0:0:0:0:
432,101,96536,1,8,1:0:0:0:
342,158,96700,1,0,1:0:0:0:
393,232,96864,2,0,B|405:279|405:279|385:323|385:323|397:381,1,140,14|0,1:3|0:0,0:0:0:0:
314,267,97356,5,8,1:0:0:0:
260,196,97520,2,0,P|184:186|149:250,1,140,0|8,3:0|1:0,0:0:0:0:
46,300,98012,1,14,1:3:0:0:
112,354,98176,5,8,1:3:0:0:
119,358,98258,1,8,1:3:0:0:
126,363,98340,1,6,1:2:0:0:
256,192,98422,12,0,99651,3:0:0:0:
160,64,100143,5,8,3:0:0:0:
333,120,100471,1,0,3:0:0:0:
198,241,100799,1,8,1:0:0:0:
198,241,100881,1,8,1:0:0:0:
198,241,100963,6,0,B|141:232|120:274|53:264,1,140,6|10,0:0|1:0,0:0:0:0:
147,330,101455,2,0,L|235:350,1,70,0|2,1:0|1:0,0:0:0:0:
336,289,101782,1,8,1:0:0:0:
350,362,101946,1,2,1:3:0:0:
476,364,102110,6,0,P|511:307|441:274,1,140,4|0,0:3|1:0,0:0:0:0:
396,181,102602,2,0,P|403:135|500:129,1,140,8|0,1:0|0:0,0:0:0:0:
396,181,103094,1,8,1:0:0:0:
301,138,103258,2,0,L|228:152,1,70,0|0,0:0|1:0,0:0:0:0:
165,216,103586,6,0,B|98:210|98:210|89:213|89:213|13:206,1,140,4|8,0:0|1:0,0:0:0:0:
26,207,104077,1,0,3:0:0:0:
101,128,104241,1,2,1:2:0:0:
207,139,104405,2,0,L|370:118,2,140,8|4|0,1:0|1:3|3:0,0:0:0:0:
333,98,105225,2,0,P|399:104|418:193,1,140,8|0,1:0|1:0,0:0:0:0:
507,244,105717,1,8,1:0:0:0:
511,250,105881,2,0,L|435:269,1,70,0|0,0:0|1:0,0:0:0:0:
402,383,106209,6,0,B|404:312|349:332|364:235,1,140,2|8,1:0|1:0,0:0:0:0:
285,178,106700,2,0,L|193:158,1,70,2|0,0:0|0:0,0:0:0:0:
282,290,107028,1,8,1:0:0:0:
285,295,107192,2,0,L|234:355,1,70,2|4,1:3|0:3,0:0:0:0:
192,282,107520,5,2,0:0:0:0:
120,199,107684,2,0,P|58:187|16:262,1,140,0|2,1:3|0:0,0:0:0:0:
81,308,108176,5,0,1:0:0:0:
192,282,108340,1,8,1:0:0:0:
257,364,108504,1,4,1:2:0:0:
264,369,108832,5,2,1:0:0:0:
340,290,108995,2,0,L|426:276,1,70,8|8,1:0|1:3,0:0:0:0:
337,213,109323,5,0,3:0:0:0:
253,145,109487,2,0,L|167:131,1,70,8|8,3:0|1:3,0:0:0:0:
301,81,109815,5,2,3:0:0:0:
391,51,109979,1,0,3:0:0:0:
391,51,110061,1,8,3:0:0:0:
391,51,110143,1,6,0:0:0:0:
131,31,110799,6,0,L|37:20,1,70,2|0,1:3|1:0,0:0:0:0:
47,20,111045,1,0,1:0:0:0:
26,15,111127,1,4,1:1:0:0:
259,18,111455,5,2,0:2:0:0:
132,106,111782,1,2,0:2:0:0:
285,84,112110,1,2,0:0:0:0:
358,225,112438,1,2,0:0:0:0:
388,154,112602,1,10,0:3:0:0:
382,147,112766,2,0,P|436:143|460:209,1,119.000002269745,2|2,0:0|0:0,0:0:0:0:
357,318,113422,2,0,L|219:339,1,119.000002269745,2|2,0:0|0:0,0:0:0:0:
67,307,114077,5,2,1:0:0:0:
205,237,114405,1,2,0:0:0:0:
112,119,114733,1,2,0:0:0:0:
50,165,114897,1,2,0:3:0:0:
58,173,115061,2,0,P|48:204|26:309,1,119.000002269745,2|2,0:0|0:0,0:0:0:0:
168,357,115717,1,2,0:0:0:0:
310,297,116045,1,2,0:0:0:0:
416,354,116291,1,2,0:0:0:0:
416,354,116373,2,0,L|500:339,1,59.5000011348725,2|2,0:0|0:0,0:0:0:0:
390,269,116700,6,0,P|341:276|308:211,1,119.000002269745,4|2,0:0|0:0,0:0:0:0:
161,167,117356,1,2,0:0:0:0:
271,58,117684,1,2,0:0:0:0:
278,63,117848,2,0,L|290:123,1,59.5000011348725,2|2,0:3|0:0,0:0:0:0:
171,68,118176,2,0,L|188:-14,1,59.5000011348725,2|2,0:3|0:0,0:0:0:0:
303,121,118668,5,2,0:0:0:0:
391,94,118832,1,0,3:0:0:0:
338,5,118995,2,0,L|412:16,1,62.9999980773926,12|0,1:0|0:0,0:0:0:0:
492,50,119323,6,0,P|501:82|467:123,1,70,6|2,1:0|1:3,0:0:0:0:
386,165,119651,1,8,1:0:0:0:
482,237,119815,6,0,P|451:252|418:244,1,70,2|8,1:0|1:0,0:0:0:0:
313,178,120143,1,8,3:0:0:0:
262,311,120307,6,0,P|246:280|254:247,1,70,10|0,1:0|0:0,0:0:0:0:
386,165,120635,5,6,1:0:0:0:
440,120,120799,1,2,1:0:0:0:
446,46,120963,1,2,1:0:0:0:
388,0,121127,1,2,1:0:0:0:
374,0,121291,6,0,P|357:31|360:73,1,70,6|0,1:0|0:0,0:0:0:0:
271,128,121618,2,0,B|204:137|204:137|187:151|187:151|129:160,1,140,4|2,2:2|0:2,0:0:0:0:
49,139,122110,5,8,0:3:0:0:
127,177,122274,1,8,0:0:0:0:
81,276,122438,2,0,P|117:329|191:317,1,140,4|0,0:0|0:0,0:0:0:0:
284,252,122930,1,8,0:0:0:0:
344,302,123094,2,0,L|322:375,2,70,2|2|2,0:2|0:0|1:2,0:0:0:0:
462,256,123586,1,12,0:0:0:0:
462,256,123913,6,0,B|431:195|431:195|358:211,1,140,4|4,0:0|2:2,0:0:0:0:
282,163,124405,1,2,0:2:0:0:
212,221,124569,1,0,0:0:0:0:
111,189,124733,2,0,L|94:228,2,35,8|8|8,0:0|0:0|0:3,0:0:0:0:
46,110,125061,2,0,P|22:141|32:197,1,70,6|0,0:0|0:0,0:0:0:0:
136,109,125389,1,0,0:0:0:0:
135,103,125553,2,0,L|122:19,1,70,8|0,0:0|0:0,0:0:0:0:
231,114,125881,2,0,B|295:93|277:117|349:88,2,105,2|0|0,0:0|0:0|0:0,0:0:0:0:
231,114,126536,5,6,0:0:0:0:
135,189,126700,2,0,B|194:180|202:238|277:217,1,140,0|2,0:0|0:2,0:0:0:0:
359,280,127192,1,0,0:0:0:0:
366,284,127356,2,0,L|392:357,1,70,0|8,0:0|0:2,0:0:0:0:
487,269,127684,5,2,0:3:0:0:
487,269,127766,1,2,0:3:0:0:
487,269,127848,2,0,P|503:238|491:186,1,70
397,83,128176,2,0,P|424:104|435:156,1,70,8|0,0:0|2:0,0:0:0:0:
344,217,128504,2,0,P|298:220|253:160,2,105,2|0|2,0:0|0:0|0:2,0:0:0:0:
316,124,129159,6,0,P|249:139|172:155,1,140,2|8,0:0|0:0,0:0:0:0:
84,95,129651,2,0,P|50:86|3:69,1,70,2|0,0:0|0:0,0:0:0:0:
78,165,129979,1,0,0:0:0:0:
34,249,130143,1,8,1:0:0:0:
158,170,130307,6,0,P|183:181|303:195,1,140,6|2,0:0|0:0,0:0:0:0:
414,133,130799,1,8,0:0:0:0:
361,64,130963,2,0,P|332:84|325:139,1,70,2|8,0:0|0:0,0:0:0:0:
449,213,131291,2,0,L|489:236,2,35,0|2|14,0:3|3:3|0:0,0:0:0:0:
260,301,131782,6,0,B|213:313|213:313|187:345|187:345|132:360,1,140,6|6,0:0|2:0,0:0:0:0:
71,301,132274,1,2,1:3:0:0:
147,219,132438,2,0,L|227:235,2,70,8|8|8,0:3|0:3|0:0,0:0:0:0:
28,168,132930,6,0,P|90:105|138:134,1,140,6|0,0:0|0:0,0:0:0:0:
224,205,133422,1,8,0:0:0:0:
126,134,133586,2,0,P|164:137|263:86,1,140,2|8,0:0|0:3,0:0:0:0:
393,26,134077,2,0,P|392:58|369:101,1,70,12|0,0:0|0:0,0:0:0:0:
363,92,134405,6,0,P|420:77|445:164,1,140,6|4,0:0|0:0,0:0:0:0:
357,221,134897,2,0,P|287:229|200:249,1,140,0|8,0:0|0:3,0:0:0:0:
143,165,135389,1,8,0:0:0:0:
39,228,135553,6,0,B|74:223|104:247|104:247|108:288|151:311,1,140,6|2,0:0|0:2,0:0:0:0:
226,364,136045,1,8,0:0:0:0:
231,351,136209,1,0,0:0:0:0:
330,303,136372,2,0,P|371:306|399:367,2,105,2|0|2,3:1|3:0|2:0,0:0:0:0:
250,226,137028,6,0,P|258:193|264:147,1,70,6|0,0:0|0:0,0:0:0:0:
263,157,137356,1,8,0:0:0:0:
350,212,137520,2,0,P|399:224|466:162,1,140,2|0,0:0|0:0,0:0:0:0:
502,87,138012,1,8,0:0:0:0:
438,152,138176,2,0,B|365:147|389:109|311:96,1,140,0|2,0:0|0:0,0:0:0:0:
229,22,138668,1,8,0:0:0:0:
311,3,138831,1,2,0:2:0:0:
216,95,138995,2,0,B|168:89|168:89|163:91|163:91|106:84,2,105,2|0|2,1:0|0:0|0:0,0:0:0:0:
300,148,139651,6,0,B|305:174|305:174|305:191|305:191|312:230,1,70,4|0,0:2|0:0,0:0:0:0:
309,217,139979,1,8,0:0:0:0:
221,176,140143,2,0,P|162:171|114:238,1,140,2|0,0:0|2:0,0:0:0:0:
44,287,140635,1,8,0:0:0:0:
127,349,140799,2,0,P|182:343|274:336,1,140,0|2,0:0|0:0,0:0:0:0:
201,266,141290,1,8,0:0:0:0:
274,323,141454,1,2,0:2:0:0:
314,246,141618,2,0,B|313:183|300:204|292:142,2,105,0|2|2,0:0|2:0|2:0,0:0:0:0:
417,307,142274,6,0,B|462:327|499:272|499:272|478:217,1,140,4|10,0:0|0:0,0:0:0:0:
429,139,142766,2,0,P|434:110|451:64,1,70,2|0,0:0|3:0,0:0:0:0:
336,147,143094,2,0,P|316:155|259:167,1,70,2|8,2:0|0:0,0:0:0:0:
389,213,143422,2,0,P|398:232|417:297,1,70,2|2,2:0|0:0,0:0:0:0:
350,345,143750,2,0,L|252:322,1,70,2|8,0:0|0:0,0:0:0:0:
164,259,144077,2,0,L|257:241,1,70,2|0,2:0|3:0,0:0:0:0:
130,348,144405,2,0,P|89:361|35:290,1,140,2|0,0:0|3:0,0:0:0:0:
80,216,144897,5,6,0:0:0:0:
162,176,145061,1,2,0:0:0:0:
227,238,145225,1,10,0:0:0:0:
311,205,145389,2,0,P|330:178|322:131,1,70,6|2,0:0|3:0,0:0:0:0:
227,238,145717,1,0,0:0:0:0:
298,310,145881,2,0,B|329:324|329:324|373:329,1,70,10|8,0:0|0:3,0:0:0:0:
505,278,146209,6,0,P|487:247|419:251,1,105,6|0,0:0|3:0,0:0:0:0:
409,254,146536,2,0,P|425:222|424:172,1,70,8|2,0:0|0:0,0:0:0:0:
322,76,146864,2,0,P|338:108|337:158,1,70,8|0,0:0|3:0,0:0:0:0:
334,153,147110,1,0,0:0:0:0:
334,153,147192,2,0,L|254:175,1,70,8|8,0:0|3:0,0:0:0:0:
134,222,147520,5,6,2:0:0:0:
256,192,147602,12,0,150143,3:0:0:0:
70,57,156700,6,0,P|139:47|161:124,1,140,2|12,2:0|0:3,2:0:0:0:
297,249,157356,2,0,P|316:218|314:173,1,70,4|8,0:3|0:0,2:0:0:0:
371,73,157684,2,0,P|390:104|388:149,1,70,8|2,3:0|0:0,0:0:0:0:
461,194,158012,5,4,0:0:0:0:
461,194,158176,2,0,L|521:182,2,35,2|2|4,0:0|0:0|0:0,0:0:0:0:
394,258,158504,1,0,0:0:0:0:
470,305,158668,2,0,P|485:336|487:371,2,70,4|0|8,0:0|1:0|1:0,0:0:0:0:
394,258,159159,6,0,B|338:272|338:272|323:288|323:288|264:303,1,140,6|2,1:0|1:0,0:0:0:0:
188,254,159651,2,0,L|170:176,1,70,14|0,1:0|1:0,0:0:0:0:
75,333,159979,2,0,L|88:257,1,70,0|0,3:0|3:0,0:0:0:0:
177,381,160307,1,12,1:0:0:0:
177,381,160635,6,0,P|111:353|26:370,1,140,4|4,0:0|3:2,0:0:0:0:
4,283,161127,1,2,0:3:0:0:
49,205,161290,2,0,L|35:131,2,70,4|0|8,3:2|1:0|1:0,0:0:0:0:
137,261,161782,6,0,B|203:248|203:248|207:246|207:246|274:233,1,140,6|2,1:0|1:0,0:0:0:0:
387,312,162274,1,14,1:0:0:0:
315,368,162438,2,0,P|254:367|219:290,1,140,8|0,3:0|3:0,0:0:0:0:
112,275,162930,2,0,P|78:283|44:292,1,70,14|2,1:0|2:0,0:0:0:0:
204,225,163258,6,0,P|222:197|217:144,1,70,4|2,0:0|0:0,0:0:0:0:
161,91,163586,1,10,0:0:0:0:
218,38,163750,1,2,0:3:0:0:
305,86,163913,1,2,0:0:0:0:
323,161,164077,1,2,0:0:0:0:
432,128,164241,2,0,L|505:148,1,70,10|0,0:0|0:0,0:0:0:0:
432,41,164569,6,0,P|410:129|420:257,1,210,2|2,0:0|0:0,0:0:0:0:
422,253,165143,1,2,2:0:0:0:
427,258,165225,2,0,P|485:271|508:283,2,70,2|0|8,0:0|0:0|0:0,0:0:0:0:
352,308,165717,2,0,L|336:376,1,70,2|0,0:3|3:0,0:0:0:0:
250,325,166045,6,0,L|205:335,1,35,2|2,2:0|2:0,0:0:0:0:
207,338,166209,2,0,P|173:328|138:324,1,70,8|2,1:0|2:0,0:0:0:0:
53,350,166536,1,2,0:0:0:0:
73,273,166700,1,4,0:3:0:0:
0,225,166864,1,8,0:0:0:0:
88,153,167028,6,0,B|133:152|165:175|165:175|235:163,1,140,4|4,0:0|1:3,0:0:0:0:
290,106,167520,2,0,B|291:96|291:96|271:28,1,70,12|0,0:2|0:0,0:0:0:0:
350,168,167848,2,0,P|400:177|432:195,1,70,12|8,3:0|0:0,0:0:0:0:
512,88,168176,2,0,L|443:98,1,70,8|8,3:0|3:0,0:0:0:0:
511,193,168504,6,0,P|495:260|488:336,2,140,4|8|0,0:0|0:0|0:0,0:0:0:0:
428,97,169323,2,0,B|433:100|433:100|444:184,1,70,2|8,0:3|0:0,0:0:0:0:
375,219,169651,1,2,2:0:0:0:
300,175,169815,6,0,P|217:182|187:251,1,140,0|8,3:0|0:0,0:0:0:0:
108,263,170307,2,0,B|2:247|2:247|21:261|33:291,1,140,2|0,2:0|0:0,0:0:0:0:
86,358,170799,2,0,P|120:353|155:349,1,70,8|2,0:0|2:0,0:0:0:0:
240,231,171127,6,0,P|230:258|226:312,1,70,2|0,0:3|0:0,0:0:0:0:
300,345,171454,2,0,P|310:318|314:264,1,70,8|2,0:0|0:0,0:0:0:0:
393,233,171782,2,0,L|461:216,1,70,0|2,0:0|0:3,0:0:0:0:
435,311,172110,2,0,L|488:370,1,70,8|2,0:0|0:2,2:0:0:0:
382,382,172438,6,0,P|317:359|247:353,1,140,2|8,0:0|0:0,0:0:0:0:
173,306,172930,1,2,0:3:0:0:
243,252,173094,2,0,B|255:196|255:196|245:177|242:150,2,105,2|2|0,0:3|0:2|0:0,0:0:0:0:
105,367,173750,6,0,P|75:295|90:210,1,140,0|8,0:0|0:0,0:0:0:0:
143,170,174241,1,0,0:0:0:0:
80,104,174405,2,0,P|38:111|-7:58,2,105,0|2|2,0:0|0:2|0:2,0:0:0:0:
166,47,175061,6,0,L|304:65,1,140,2|8,3:3|0:0,0:0:0:0:
395,10,175553,2,0,B|421:45|421:45|402:145,1,140,2|2,0:3|0:2,0:0:0:0:
511,231,176045,2,2,P|509:183|501:152,1,70,8|0,0:0|0:0,1:0:0:0:
426,258,176372,6,0,P|485:262|514:332,1,140,4|8,0:2|0:0,2:0:0:0:
437,379,176864,2,0,B|376:389|368:353|300:364,1,140,2|2,2:2|0:0,0:0:0:0:
212,324,177356,2,0,P|168:334|144:343,1,70,8|0,0:0|0:0,0:0:0:0:
291,262,177684,6,0,P|309:207|297:115,2,140,6|8|0,1:2|0:0|3:0,0:0:0:0:
219,219,178504,1,0,3:0:0:0:
144,323,178668,1,12,0:2:0:0:
144,323,178995,6,0,P|72:335|31:266,1,140,4|8,0:0|0:0,0:0:0:0:
84,215,179487,2,0,L|62:76,1,140,2|2,0:3|0:3,0:0:0:0:
136,23,179979,2,0,P|170:29|204:35,1,70,8|2,0:0|0:2,0:0:0:0:
322,75,180307,5,2,0:0:0:0:
322,75,180471,1,0,0:0:0:0:
322,75,180635,2,0,B|356:69|356:69|360:67|360:67|411:57,1,70,8|0,0:0|0:0,0:0:0:0:
472,127,180963,2,0,P|481:76|500:27,2,105,2|2|2,0:0|0:2|2:0,0:0:0:0:
496,243,181618,6,0,P|442:201|361:218,1,140,4|8,0:0|0:0,0:0:0:0:
286,331,182110,2,0,P|309:278|304:238,1,70,2|0,2:0|0:0,0:0:0:0:
226,151,182438,2,0,L|237:239,1,70,0|8,0:0|0:0,0:0:0:0:
234,233,182766,1,0,0:0:0:0:
164,310,182930,6,0,P|100:336|32:325,1,140,2|8,0:0|0:0,0:0:0:0:
234,220,183586,2,0,B|372:238,1,140,2|8,0:0|0:0,0:0:0:0:
444,182,184077,1,2,0:2:0:0:
441,167,184241,6,0,B|432:100|432:100|433:96|433:96|422:20,1,140,6|8,0:0|1:0,0:0:0:0:
272,82,184733,2,0,P|337:118|406:107,1,140,2|2,0:3|0:3,0:0:0:0:
467,167,185225,2,0,P|481:200|485:235,1,70,8|2,0:0|0:2,0:0:0:0:
426,328,185553,6,0,B|360:318|360:318|354:321|354:321|288:310,1,140,2|8,1:3|0:0,0:0:0:0:
182,366,186045,2,0,P|202:300|202:230,1,140,2|0,0:0|0:0,0:0:0:0:
89,149,186536,2,0,L|101:240,1,70,10|0,0:0|0:0,0:0:0:0:
10,341,186864,6,0,B|14:334|14:334|84:305,2,70,4|2|0,3:1|1:0|3:0,0:0:0:0:
98,218,187356,2,0,B|106:216|106:216|251:260,1,140,12|0,0:0|0:0,0:0:0:0:
313,355,187848,2,0,B|365:343|365:343|367:339|367:339|412:326,1,105,12|0,0:2|0:0,0:0:0:0:
425,335,188176,5,12,0:0:0:0:
386,171,188340,2,0,P|373:203|365:267,1,70,2|0,0:0|0:0,0:0:0:0:
493,366,188668,2,0,P|516:298|492:227,1,140,12|0,0:2|3:0,0:0:0:0:
418,190,189159,2,0,P|365:207|330:202,1,70,12|2,0:2|3:0,0:0:0:0:
247,154,189487,6,0,B|236:146|236:146|216:22,1,140,12|0,0:0|3:0,0:0:0:0:
156,129,189979,2,0,B|143:123|143:123|67:14,1,140,14|2,0:0|0:0,0:0:0:0:
61,162,190471,2,0,B|54:163|54:163|-15:141,1,70,14|2,0:2|0:0,0:0:0:0:
140,245,190799,6,0,B|138:252|138:252|78:287,1,70,12|2,0:2|0:0,0:0:0:0:
73,279,191127,1,2,0:0:0:0:
201,373,191290,2,0,B|208:368|208:368|228:232,1,140,12|0,0:0|0:0,0:0:0:0:
334,362,191782,2,0,B|337:355|337:355|321:282,1,70,8|2,0:0|2:0,0:0:0:0:
460,158,192110,6,0,B|446:226|446:226|448:230|448:230|432:302,1,140,4|8,0:0|0:3,2:0:0:0:
479,357,192602,2,0,L|523:342,2,35
358,260,192930,1,0,0:0:0:0:
358,260,193012,1,0,0:0:0:0:
358,260,193094,2,0,B|351:251|351:251|342:166,1,70,2|2,0:0|0:0,0:0:0:0:
343,93,193422,6,0,L|407:107,1,35,2|0,3:3|0:0,0:0:0:0:
258,162,193586,2,0,B|251:166|251:166|171:156,1,70
110,98,193913,2,0,P|101:68|108:12,1,70,2|2,0:0|0:0,0:0:0:0:
118,22,194159,1,8,0:3:0:0:
118,22,194241,2,0,L|163:26,2,35,8|8|8,0:3|0:3|0:0,0:0:0:0:
29,93,194569,1,8,0:0:0:0:
122,183,194733,6,0,B|237:173|205:120|313:108,1,210.000008010865,4|0,0:0|2:0,0:0:0:0:
385,155,195553,2,0,P|410:199|403:251,2,105.000004005432,2|0|2,2:0|2:0|2:0,0:0:0:0:
313,372,196536,2,0,P|396:294|510:306,1,236.250009012223,2|0,2:0|2:0,0:0:0:0:
497,317,197356,6,0,L|511:205,1,105.000004005432,0|0,3:0|0:3,0:0:0:0:
442,162,197848,2,0,P|416:165|390:171,1,52.5000020027161,0|0,0:3|2:0,0:0:0:0:
504,104,198176,2,0,P|514:79|516:53,1,52.5000020027161,0|8,3:0|0:0,0:0:0:0:
453,1,198504,1,8,0:3:0:0:
392,54,198668,5,0,3:0:0:0:
380,51,198831,1,0,0:0:0:0:
314,9,198995,1,8,0:0:0:0:
239,80,199159,2,0,P|213:75|187:70,1,52.5000020027161,6|2,0:0|2:0,0:0:0:0:
187,70,199979,6,0,L|197:152,1,70,6|0,0:2|0:0,0:0:0:0:
175,272,200307,1,8,0:3:0:0:
105,211,200471,2,0,B|168:180|168:180|233:201,1,140,0|0,0:0|0:0,0:0:0:0:
309,254,200963,2,0,L|395:238,1,70,2|8,0:0|0:0,0:0:0:0:
472,122,201290,6,0,L|460:193,1,70,0|8,0:0|3:0,0:0:0:0:
495,340,201618,2,0,L|507:269,1,70,8|0,3:0|0:0,0:0:0:0:
407,375,201946,2,0,B|362:358|362:358|305:365,1,105,2|0,1:0|0:0,0:0:0:0:
294,375,202274,2,0,L|203:363,1,70,12|0,0:2|2:0,0:0:0:0:
119,259,202602,6,0,B|126:298|126:298|127:300|127:300|138:356,1,70,10|0,0:0|0:0,0:0:0:0:
136,343,202930,1,2,2:0:0:0:
206,279,203094,1,2,0:0:0:0:
22,196,203422,1,2,0:0:0:0:
22,196,203586,1,8,1:0:0:0:
75,124,203750,6,0,P|74:103|42:39,1,70,4|0,0:3|0:0,0:0:0:0:
165,195,204077,2,0,P|158:229|152:263,1,70,4|0,0:3|0:0,0:0:0:0:
253,118,204405,2,0,P|246:84|260:52,1,70,6|2,0:2|2:0,0:0:0:0:
400,205,204733,2,0,P|366:197|323:187,1,70,2|2,2:0|2:0,0:0:0:0:
105,115,205225,5,4,0:0:0:0:
105,115,206372,1,4,0:0:0:0:
256,192,206454,12,8,207520,3:0:0:0:
322,71,207848,5,4,0:0:0:0:
322,71,208995,1,4,0:0:0:0:
160,128,209323,5,0,3:0:0:0:
160,128,209487,2,0,L|86:139,1,70,0|0,3:0|0:0,0:0:0:0:
182,213,209815,2,0,B|175:281|161:254|149:320,2,105,0|2|0,0:0|0:2|0:0,0:0:0:0:
232,319,210471,5,4,0:0:0:0:
239,326,210635,2,0,L|332:313,1,70,0|8,0:0|0:0,0:0:0:0:
378,291,210963,1,2,2:0:0:0:
359,205,211127,1,0,3:0:0:0:
479,164,211290,2,0,B|427:154|427:154|403:130|403:130|341:117,1,140,8|8,0:0|0:3,0:0:0:0:
351,119,211700,1,8,3:0:0:0:
351,119,211782,1,4,0:2:0:0:
211,235,212110,1,8,0:0:0:0:
98,90,212438,2,0,P|71:60|2:79,2,105,2|0|8,2:0|0:0|0:0,0:0:0:0:
28,187,213094,6,0,P|90:168|173:160,1,140,6|8,0:2|0:0,0:0:0:0:
244,115,213586,2,0,P|260:97|261:31,1,70,2|0,0:0|3:0,0:0:0:0:
313,172,213913,2,0,L|367:192,2,35,8|8|8,0:3|0:3|0:3,0:0:0:0:
214,231,214241,6,0,P|213:261|302:296,1,140,4|2,0:0|0:0,0:0:0:0:
384,247,214733,1,8,0:0:0:0:
393,121,214897,6,0,P|350:103|313:173,1,140,2|2,1:2|0:0,0:0:0:0:
384,247,215389,2,0,L|503:235,1,105,12|2,0:0|2:0,0:0:0:0:
505,272,215717,6,0,B|451:257|451:257|434:230|434:230|381:217,1,140,6|4,0:0|2:2,0:0:0:0:
270,125,216372,1,6,2:0:0:0:
203,184,216536,1,10,0:0:0:0:
276,127,216700,1,8,0:0:0:0:
192,69,216864,2,0,P|158:63|91:141,1,140,6|0,0:0|3:0,0:0:0:0:
5,212,217356,1,8,0:0:0:0:
59,294,217520,2,0,L|27:385,2,70,2|10|8,0:0|3:0|3:0,0:0:0:0:
169,266,218012,2,0,B|212:282|212:282|220:292|220:292|267:311,1,105,14|0,0:0|2:0,0:0:0:0:
276,319,218340,6,0,P|336:285|303:231,1,140,2|4,0:0|0:3,0:0:0:0:
214,169,218831,2,0,P|154:135|187:81,1,140,2|8,2:0|0:0,0:0:0:0:
243,163,219323,1,8,0:0:0:0:
164,251,219487,2,0,P|136:271|13:279,1,140,6|0,0:0|3:0,0:0:0:0:
165,244,219979,2,0,P|201:243|296:293,1,140,10|2,0:0|0:0,0:0:0:0:
378,354,220471,2,0,L|412:389,2,35,0|2|14,0:0|3:2|0:0,0:0:0:0:
428,262,220799,5,2,0:3:0:0:
428,262,220881,1,8,0:0:0:0:
428,262,220963,2,0,L|511:245,1,70,4|0,0:0|0:0,0:0:0:0:
477,149,221290,1,8,0:0:0:0:
384,176,221454,2,0,P|352:145|358:35,1,140,2|0,0:2|0:0,0:0:0:0:
430,2,221946,1,8,0:0:0:0:
359,64,222110,6,0,P|301:70|220:86,1,140,2|2,0:2|0:0,0:0:0:0:
124,142,222602,1,10,0:0:0:0:
210,162,222766,1,2,0:2:0:0:
289,249,222930,2,0,B|273:227|273:227|192:244,2,105,2|0|2,0:0|0:0|0:0,0:0:0:0:
206,319,223586,6,0,B|132:308|147:335|65:320,1,140,6|10,0:2|0:0,0:0:0:0:
0,233,224077,2,0,P|63:158|108:183,1,140,2|0,0:0|3:0,0:0:0:0:
178,79,224569,2,0,P|169:108|169:168,1,70,8|2,0:0|0:2,0:0:0:0:
274,224,224897,1,2,0:0:0:0:
248,148,225061,1,2,3:1:0:0:
184,224,225225,2,0,P|150:229|110:241,1,70,8|0,0:0|0:0,0:0:0:0:
19,190,225553,2,0,P|10:148|64:114,2,105,2|2|2,0:3|0:2|0:0,0:0:0:0:
96,249,226209,6,0,B|133:245|164:264|164:264|172:298|216:320,1,140,6|10,0:0|0:0,0:0:0:0:
305,365,226700,2,0,P|338:354|386:346,1,70,2|0,0:0|0:0,0:0:0:0:
494,285,227028,2,0,P|459:278|426:267,1,70,0|8,0:0|0:0,0:0:0:0:
348,160,227356,2,0,P|348:126|391:100,1,70,2|2,0:0|0:3,0:0:0:0:
471,48,227684,2,0,L|490:122,1,70,2|8,3:1|0:0,0:0:0:0:
361,19,228012,2,0,P|331:14|279:-8,1,70,2|2,2:0|0:0,0:0:0:0:
378,119,228340,2,0,B|318:115|310:149|240:136,1,140,8|0,3:0|0:0,0:0:0:0:
155,75,228831,5,6,0:0:0:0:
72,137,228995,2,0,L|12:147,2,35,2|0|2,0:0|0:0|3:1,0:0:0:0:
136,215,229323,2,0,L|215:237,1,70,2|8,0:0|0:0,0:0:0:0:
109,295,229651,1,8,3:0:0:0:
109,295,229733,1,8,3:0:0:0:
109,295,229815,2,0,L|76:370,1,70,8|2,0:0|0:0,0:0:0:0:
210,263,230143,6,0,P|258:221|333:245,1,140,4|8,0:0|3:0,0:0:0:0:
400,306,230635,1,2,0:0:0:0:
473,233,230799,1,8,0:0:0:0:
424,153,230963,1,8,3:0:0:0:
424,153,231045,1,8,3:0:0:0:
424,153,231127,2,0,L|441:105,2,35,10|10|10,0:0|0:3|0:3,0:0:0:0:
303,126,231454,6,0,B|248:135|248:135|216:129|216:129|147:143,2,140,2|14|0,0:2|0:0|0:0,0:0:0:0:
389,67,232274,1,0,0:0:0:0:
479,134,232438,2,0,B|448:156|412:158|412:158|427:193|423:228,1,140,10|0,0:0|0:0,0:0:0:0:
288,342,233094,2,0,B|283:353|283:353|208:338,1,70,10|2,0:0|2:0,0:0:0:0:
147,277,233422,1,0,0:0:0:0:
141,278,233586,2,0,B|91:285|91:285|58:307|58:307|1:318,1,140,12|14,1:2|1:0,0:0:0:0:
61,214,234077,6,0,P|76:197|78:120,1,70,6|0,0:0|0:0,0:0:0:0:
34,66,234405,1,10,0:0:0:0:
78,145,234569,2,0,P|122:152|189:84,1,140,2|0,0:0|0:0,0:0:0:0:
278,37,235061,2,0,L|360:56,1,70,10|2,0:0|0:3,0:0:0:0:
430,121,235389,1,2,3:1:0:0:
437,117,235553,2,0,P|455:93|445:40,2,70,2|8|8,0:2|0:0|0:3,0:0:0:0:
480,206,236045,6,0,L|541:233,2,35,6|0|8,0:0|0:0|0:3,0:0:0:0:
394,287,236372,2,0,L|379:340,2,35,10|0|0,3:1|3:0|3:0,0:0:0:0:
314,212,236700,2,0,B|259:199|242:256|175:236,1,140,6|8,2:1|0:0,0:0:0:0:
96,299,237192,1,2,0:0:0:0:
89,298,237356,2,0,P|64:275|54:225,1,70,2|2,3:1|0:0,0:0:0:0:
135,163,237684,2,0,P|167:173|191:199,1,70,8|0,0:0|0:0,0:0:0:0:
51,160,238012,6,0,B|22:139|22:139|11:81|70:48,1,140,2|10,0:3|0:0,0:0:0:0:
160,21,238504,1,2,0:3:0:0:
311,116,238831,1,12,0:2:0:0:
398,68,238995,5,2,0:0:0:0:
308,124,239159,1,12,0:0:0:0:
209,78,239323,2,0,P|215:123|218:204,1,105,2|0,3:1|3:0,0:0:0:0:
202,186,239651,1,10,0:0:0:0:
103,234,239815,2,0,B|76:227|76:227|55:227|55:227|27:220,2,70,2|0|0,0:0|3:0|0:0,0:0:0:0:
174,305,240307,2,0,B|213:301|213:301|240:305|240:305|288:299,1,105,2|8,0:0|0:0,0:0:0:0:
289,281,240635,6,0,L|358:301,1,70,4|2,0:3|0:3,0:0:0:0:
381,313,240881,1,8,0:3:0:0:
381,313,240963,1,8,0:0:0:0:
464,354,241127,1,0,3:0:0:0:
495,269,241290,2,0,P|511:234|424:198,1,140,2|10,0:0|0:0,0:0:0:0:
510,23,241946,6,0,B|457:34|457:34|442:61|442:61|385:74,1,140,6|10,0:0|0:0,0:0:0:0:
303,39,242438,1,0,0:0:0:0:
224,91,242602,2,0,B|177:77|177:77|124:97|120:147,1,140,4|8,3:0|0:0,0:0:0:0:
34,206,243094,2,0,L|-23:216,2,35,0|8|6,0:0|0:0|0:2,0:0:0:0:
103,384,243586,1,8,0:0:0:0:
184,329,243750,2,0,L|343:354,1,140,8|12,0:0|0:2,0:0:0:0:
476,253,244405,1,12,0:0:0:0:
394,211,244569,6,0,P|381:192|382:118,1,70,6|0,0:2|0:0,0:0:0:0:
431,60,244897,1,8,0:0:0:0:
392,145,245061,2,0,P|360:148|284:67,1,140,2|2,0:2|0:0,0:0:0:0:
195,17,245553,2,0,P|169:2|106:8,1,70,8|2,0:0|0:0,0:0:0:0:
196,111,245881,2,0,P|181:137|187:200,1,70,6|0,0:0|3:0,0:0:0:0:
305,87,246209,2,0,P|352:96|425:36,1,140,8|2,0:0|3:0,0:0:0:0:
396,174,246700,1,8,3:0:0:0:
396,174,246782,1,0,0:0:0:0:
396,174,246864,2,0,L|481:203,1,70,2|2,0:3|0:0,0:0:0:0:
437,322,247192,6,0,B|381:335|381:335|360:381|306:385,2,140,4|14|0,0:0|0:0|3:0,0:0:0:0:
373,203,248012,1,2,0:0:0:0:
294,300,248176,2,0,P|261:303|212:250,1,105,12|0,0:2|0:0,0:0:0:0:
219,240,248504,2,0,B|140:217|140:217|120:251|79:265,1,140,2|10,0:0|0:0,0:0:0:0:
68,142,248995,2,0,P|39:134|-9:112,1,70,2|0,0:0|3:0,0:0:0:0:
126,55,249323,1,14,0:2:0:0:
129,48,249487,2,0,P|154:20|207:19,1,70,2|14,0:0|0:0,0:0:0:0:
332,62,249815,6,0,B|371:58|371:58|401:61|401:61|458:54,1,105,6|8,0:0|0:0,0:0:0:0:
456,50,250143,1,2,0:0:0:0:
363,137,250307,2,0,B|323:140|323:140|294:138|294:138|237:145,1,105,14|8,0:0|0:0,0:0:0:0:
241,155,250635,1,2,0:0:0:0:
312,233,250799,1,2,0:0:0:0:
226,257,250963,5,0,0:0:0:0:
226,257,251045,1,0,0:0:0:0:
226,257,251127,2,0,P|255:229|291:228,1,70,6|8,0:0|0:3,0:0:0:0:
393,296,251454,2,0,L|371:394,1,70,6|8,0:0|0:3,0:0:0:0:
356,372,251700,1,8,0:0:0:0:
346,376,251782,5,6,0:0:0:0:
247,328,251946,1,6,0:0:0:0:
138,364,252110,2,0,B|76:354|60:387|-14:363,1,140,6|0,0:2|2:0,0:0:0:0:
