osu file format v14

[General]
AudioFilename: audio.mp3
AudioLeadIn: 0
PreviewTime: 205241
Countdown: 0
SampleSet: Normal
StackLeniency: 0.3
Mode: 0
LetterboxInBreaks: 0
WidescreenStoryboard: 0

[Editor]
Bookmarks: 85244,150159,222618
DistanceSpacing: 0.9
BeatDivisor: 4
GridSize: 32
TimelineZoom: 3.399999

[Metadata]
Title:Massive Passive
TitleUnicode:Massive Passive
Artist:la la larks
ArtistUnicode:la la larks
Creator:Kalibe
Version:existence
Source:
Tags:rock japanese culture vulture sfp school food punishment yumi uchimura schoolboy komore iljaaz haruto haruto_aizawa black man fixxis collaboration
BeatmapID:2283327
BeatmapSetID:1092295

[Difficulty]
HPDrainRate:7
CircleSize:4
OverallDifficulty:8.3
ApproachRate:9.3
SliderMultiplier:1.6
SliderTickRate:1

[Events]
//Background and Video events
0,0,"massive passive.jpg",0,0
//Break Periods
//Storyboard Layer 0 (Background)
//Storyboard Layer 1 (Fail)
//Storyboard Layer 2 (Pass)
//Storyboard Layer 3 (Foreground)
//Storyboard Layer 4 (Overlay)
//Storyboard Sound Samples

[TimingPoints]
636,327.868852459016,4,2,1,30,1,0
636,-200,4,2,1,30,0,0
15062,-100,4,2,1,50,0,0
15717,-133.333333333333,4,2,1,50,0,0
15963,-133.333333333333,4,2,1,5,0,0
16045,-52.6315789473684,4,2,1,50,0,0
16209,-52.6315789473684,4,2,1,20,0,0
16373,-399.999999999997,4,2,1,50,0,0
16619,-399.999999999997,4,2,1,5,0,0
16701,-90.9090909090909,4,1,3,60,0,0
16783,-90.9090909090909,4,1,1,60,0,0
18504,-66.6666666666667,4,1,1,60,0,0
18832,-55.5555555555556,4,1,1,60,0,0
18996,-76.9230769230769,4,1,2,60,0,0
19078,-76.9230769230769,4,1,1,60,0,0
19324,-90.9090909090909,4,1,1,60,0,0
20635,-76.9230769230769,4,1,1,60,0,0
21127,-142.857142857143,4,1,1,60,0,0
21455,-111.111111111111,4,1,1,60,0,0
21619,-76.9230769230769,4,1,2,60,0,0
21701,-76.9230769230769,4,1,1,60,0,0
21947,-90.9090909090909,4,1,1,60,0,0
23750,-76.9230769230769,4,1,1,60,0,0
24078,-66.6666666666667,4,1,1,60,0,0
24242,-71.4285714285714,4,1,2,65,0,0
24324,-71.4285714285714,4,1,1,65,0,0
24570,-90.9090909090909,4,1,1,65,0,0
26865,-200,4,1,1,45,0,0
30308,-83.3333333333333,4,1,1,45,0,0
30635,-133.333333333333,4,1,1,45,0,0
30963,-200,4,1,1,45,0,0
35554,-125,4,1,1,45,0,0
36209,-200,4,1,1,45,0,0
40963,-100,4,1,1,45,0,0
41619,-200,4,1,1,45,0,0
44734,-200,4,1,2,45,0,0
44898,-100,4,1,1,50,0,0
46537,-153.846153846153,4,1,1,45,0,0
47849,-100,4,1,2,55,0,0
48176,-100,4,1,1,55,0,0
56209,-90.9090909090909,4,1,1,60,0,0
56701,-83.3333333333333,4,1,1,60,0,0
57685,-83.3333333333333,4,1,1,40,0,0
58668,-83.3333333333333,4,1,1,25,0,0
58996,327.868852459016,4,1,3,65,1,0
58996,-100,4,1,3,65,0,0
59077,-100,4,1,1,65,0,0
59323,-142.857142857143,4,1,1,65,0,0
60143,-142.857142857143,4,1,2,65,0,0
60471,-142.857142857143,4,1,1,65,0,0
61618,-100,4,1,2,65,0,0
61700,-100,4,1,1,65,0,0
62110,-142.857142857143,4,1,1,65,0,0
62766,-142.857142857143,4,1,2,65,0,0
62848,-142.857142857143,4,1,1,65,0,0
63914,-333.333333333334,4,1,1,65,0,0
64241,-100,4,1,2,60,0,0
64323,-100,4,1,1,60,0,0
68012,-71.4285714285714,4,1,1,65,0,0
68995,-133.333333333333,4,1,1,65,0,0
69159,-55.5555555555556,4,1,2,65,0,0
69241,-55.5555555555556,4,1,1,65,0,0
69487,-100,4,1,3,65,0,0
69569,-100,4,1,1,65,0,0
69815,-142.857142857143,4,1,1,65,0,0
70635,-142.857142857143,4,1,2,65,0,0
70717,-142.857142857143,4,1,1,65,0,0
72110,-100,4,1,2,65,0,0
72192,-100,4,1,1,65,0,0
72602,-142.857142857143,4,1,1,65,0,0
73258,-142.857142857143,4,1,2,65,0,0
73340,-142.857142857143,4,1,1,65,0,0
74405,-66.6666666666667,4,1,2,65,0,0
74487,-66.6666666666667,4,1,1,65,0,0
74733,-100,4,1,1,60,0,0
83914,-100,4,1,2,60,0,0
83995,-100,4,1,1,55,0,0
84897,-100,4,1,1,70,0,0
85225,-76.9230769230769,4,1,3,65,0,0
85307,-76.9230769230769,4,1,1,60,0,0
90471,-125,4,2,1,50,0,0
94405,-166.666666666667,4,2,1,50,0,0
95553,-125,4,2,1,50,0,0
100963,-111.111111111111,4,2,1,55,0,0
106045,-76.9230769230769,4,2,1,55,0,0
106209,-111.111111111111,4,2,1,55,0,0
108504,-249.999999999999,4,2,1,45,0,0
108832,-111.111111111111,4,2,1,60,0,0
111127,-76.9230769230769,4,2,2,60,0,0
111209,-76.9230769230769,4,2,1,60,0,0
111373,-76.9230769230769,4,2,1,5,0,0
111455,-76.9230769230769,4,2,2,50,0,0
113094,-333.333333333333,4,2,2,50,0,0
118668,-200,4,2,1,55,0,0
118995,-76.9230769230769,4,2,1,55,0,0
119323,-83.3333333333333,4,2,2,60,0,0
119487,-83.3333333333333,4,2,1,60,0,0
120307,-55.5555555555556,4,2,1,75,0,0
120655,-55.5555555555556,4,2,1,5,0,0
120799,-55.5555555555556,4,2,1,75,0,0
120819,-55.5555555555556,4,2,1,5,0,0
120963,-55.5555555555556,4,2,1,75,0,0
120983,-55.5555555555556,4,2,1,5,0,0
121127,-55.5555555555556,4,2,1,75,0,0
121147,-55.5555555555556,4,2,1,5,0,0
121291,327.868852459016,4,1,1,70,1,0
121291,-90.9090909090909,4,1,3,70,0,0
121372,-90.9090909090909,4,1,1,70,0,0
121946,-125,4,1,1,70,0,0
122438,-125,4,1,2,70,0,0
122520,-125,4,1,1,70,0,0
123831,-90.9090909090909,4,1,1,70,0,0
123913,-90.9090909090909,4,1,2,70,0,0
123995,-90.9090909090909,4,1,1,70,0,0
124405,-125,4,1,1,70,0,0
125061,-125,4,1,2,70,0,0
125143,-125,4,1,1,70,0,0
126536,-90.9090909090909,4,1,2,65,0,0
126618,-90.9090909090909,4,1,1,65,0,0
129159,-76.9230769230769,4,1,1,65,0,0
129487,-90.9090909090909,4,1,1,65,0,0
130307,-71.4285714285714,4,1,1,65,0,0
131454,-52.6315789473684,4,1,2,65,0,0
131536,-52.6315789473684,4,1,1,65,0,0
131782,-90.9090909090909,4,1,3,70,0,0
131864,-90.9090909090909,4,1,1,70,0,0
132438,-125,4,1,1,70,0,0
132930,-125,4,1,2,70,0,0
133012,-125,4,1,1,70,0,0
134405,-90.9090909090909,4,1,2,70,0,0
134487,-90.9090909090909,4,1,1,70,0,0
134733,-125,4,1,1,70,0,0
135553,-125,4,1,2,70,0,0
135635,-125,4,1,1,70,0,0
136372,-90.9090909090909,4,1,1,70,0,0
137028,-90.9090909090909,4,1,2,70,0,0
137110,-90.9090909090909,4,1,1,65,0,0
138340,-142.857142857143,4,1,1,65,0,0
138668,-90.9090909090909,4,1,1,65,0,0
140963,-142.857142857143,4,1,1,65,0,0
141290,-90.9090909090909,4,1,1,65,0,0
141864,-80,4,1,1,65,0,0
142110,-71.4285714285714,4,1,1,65,0,0
142274,-90.9090909090909,4,1,2,65,0,0
142438,-90.9090909090909,4,1,1,65,0,0
143586,-142.857142857143,4,1,1,65,0,0
143913,-90.9090909090909,4,1,1,65,0,0
144897,-90.9090909090909,4,1,2,65,0,0
145061,-90.9090909090909,4,1,1,65,0,0
146209,-90.9090909090909,4,1,2,65,0,0
146290,-90.9090909090909,4,1,1,70,0,0
147520,-90.9090909090909,4,1,1,45,0,0
150143,-200,4,1,1,40,0,0
153586,-100,4,1,1,45,0,0
154077,-125,4,1,1,45,0,0
155389,-166.666666666667,4,1,1,50,0,0
156536,-100,4,1,1,55,0,0
158012,-71.4285714285714,4,2,1,60,0,0
162930,-99.9999999999999,4,2,1,60,0,0
163258,-166.666666666667,4,1,2,65,0,0
163340,-166.666666666667,4,1,1,65,0,0
163586,-153.846153846154,4,1,1,65,0,0
163913,-142.857142857143,4,1,1,65,0,0
164241,-86.9565217391304,4,1,1,65,0,0
164569,-66.6666666666667,4,1,1,60,0,0
165061,-133.333333333333,4,1,1,60,0,0
165225,-66.6666666666667,4,1,1,60,0,0
165717,-100,4,1,1,55,0,0
166700,-133.333333333333,4,1,1,50,0,0
167028,-76.9230769230769,4,1,2,55,0,0
167110,-76.9230769230769,4,1,1,55,0,0
167520,-117.647058823529,4,1,1,60,0,0
168504,-76.9230769230769,4,1,3,65,0,0
168586,-76.9230769230769,4,1,1,65,0,0
168831,-90.9090909090909,4,1,1,65,0,0
176045,-66.6666666666667,4,1,1,65,0,0
176372,-76.9230769230769,4,1,1,65,0,0
176700,-90.9090909090909,4,1,1,65,0,0
177192,-76.9230769230769,4,1,1,65,0,0
177684,-90.9090909090909,4,1,1,65,0,0
178995,-90.9090909090909,4,1,2,65,0,0
179077,-90.9090909090909,4,1,1,65,0,0
183586,-83.3333333333333,4,1,1,65,0,0
184241,-76.9230769230769,4,1,2,65,0,0
184323,-76.9230769230769,4,1,1,65,0,0
184569,-90.9090909090909,4,1,1,65,0,0
186045,-80,4,1,1,65,0,0
186536,-68.9655172413793,4,1,1,65,0,0
186864,-68.9655172413793,4,1,2,70,0,0
186946,-142.857142857143,4,1,1,70,0,0
187356,-66.6666666666667,4,1,2,70,0,0
187684,-133.333333333333,4,1,1,70,0,0
187848,-62.5,4,1,1,70,0,0
188094,-76.9230769230769,4,1,1,70,0,0
189487,-76.9230769230769,4,1,2,75,0,0
189569,-76.9230769230769,4,1,1,75,0,0
189979,-66.6666666666667,4,1,1,75,0,0
190799,-133.333333333333,4,1,1,75,0,0
191290,-60.6060606060606,4,1,1,75,0,0
191700,-66.6666666666667,4,1,1,75,0,0
192110,-66.6666666666667,4,1,3,65,0,0
192274,-100,4,1,1,55,0,0
193094,-100,4,1,1,60,0,0
193586,-100,4,1,1,65,0,0
193913,-100,4,1,1,70,0,0
194077,-100,4,1,1,75,0,0
194405,-100,4,1,1,80,0,0
194569,-100,4,1,1,85,0,0
194733,-100,4,1,2,60,0,0
194815,-100,4,1,1,60,0,0
197356,-100,4,1,1,45,0,0
198176,-100,4,1,1,50,0,0
199159,-66.6666666666667,4,1,1,60,0,0
199241,-66.6666666666667,4,1,1,5,0,0
199323,-83.3333333333333,4,1,1,30,0,0
199405,-83.3333333333333,4,1,2,35,0,0
199651,-83.3333333333333,4,1,1,45,0,0
199897,-83.3333333333333,4,1,1,15,0,0
199979,-100,4,1,1,60,0,0
205225,-83.3333333333333,4,1,3,60,0,0
205307,-100,4,1,1,15,0,0
206127,-100,4,1,1,10,0,0
206209,-100,4,1,1,40,0,0
206372,-125,4,1,2,60,0,0
206454,-100,4,1,1,15,0,0
207520,-100,4,1,1,60,0,0
207848,-83.3333333333333,4,1,3,60,0,0
207930,-83.3333333333333,4,1,1,15,0,0
208831,-83.3333333333333,4,1,1,10,0,0
208995,-125,4,1,2,60,0,0
209077,-83.3333333333333,4,1,1,60,0,0
210225,-83.3333333333333,4,1,1,5,0,0
210471,-105.263157894737,4,1,2,55,0,0
210553,-105.263157894737,4,1,1,55,0,0
214241,-105.263157894737,4,1,2,65,0,0
214569,-105.263157894737,4,1,1,65,0,0
215717,-100,4,1,2,70,0,0
215799,-100,4,1,1,70,0,0
216864,-100,4,1,2,70,0,0
216946,-100,4,1,1,70,0,0
218012,-250,4,1,1,70,0,0
218258,-250,4,1,1,5,0,0
218340,-100,4,1,1,75,0,0
219487,-100,4,1,2,75,0,0
219569,-100,4,1,1,75,0,0
220635,-133.333333333333,4,1,1,75,0,0
220963,-66.6666666666667,4,1,3,70,0,0
221045,-76.9230769230769,4,1,1,70,0,0
221290,-86.9565217391304,4,1,1,70,0,0
223258,-117.647058823529,4,1,1,70,0,0
223586,-86.9565217391304,4,1,1,70,0,0
226209,-76.9230769230769,4,1,2,70,0,0
226290,-86.9565217391304,4,1,1,70,0,0
228831,-74.0740740740741,4,1,2,60,0,0
228913,-74.0740740740741,4,1,1,60,0,0
230799,-74.0740740740741,4,1,1,65,0,0
231127,-74.0740740740741,4,1,1,70,0,0
231454,-222.222222222221,4,1,1,40,0,0
231700,-222.222222222221,4,1,1,5,0,0
231782,-58.8235294117647,4,1,3,75,0,0
232028,-76.9230769230769,4,1,1,30,0,0
232110,-76.9230769230769,4,1,1,70,0,0
233586,-71.4285714285714,4,1,1,70,0,0
233913,-62.5,4,1,2,75,0,0
233995,-62.5,4,1,1,70,0,0
234077,-71.4285714285714,4,1,1,70,0,0
234569,-100,4,1,1,70,0,0
234733,-71.4285714285714,4,1,1,70,0,0
235061,-100,4,1,1,70,0,0
235389,-71.4285714285714,4,1,1,70,0,0
236700,-66.6666666666667,4,1,2,70,0,0
236782,-76.9230769230769,4,1,1,70,0,0
238831,-66.6666666666667,4,1,1,70,0,0
239159,-55.5555555555556,4,1,2,75,0,0
239241,-55.5555555555556,4,1,1,75,0,0
239323,-76.9230769230769,4,1,1,65,0,0
241673,-76.9230769230769,4,1,1,5,0,0
241728,-76.9230769230769,4,1,1,65,0,0
241782,-76.9230769230769,4,1,1,5,0,0
241837,-76.9230769230769,4,1,1,65,0,0
241892,-76.9230769230769,4,1,1,5,0,0
241946,-76.9230769230769,4,1,3,70,0,0
242110,-62.5,4,1,1,70,0,0
242520,-71.4285714285714,4,1,1,70,0,0
244077,-62.5,4,1,1,70,0,0
244405,-52.6315789473684,4,1,2,75,0,0
244487,-52.6315789473684,4,1,1,75,0,0
244569,-62.5,4,1,1,70,0,0
244733,-71.4285714285714,4,1,1,70,0,0
245881,-71.4285714285714,4,1,2,70,0,0
245963,-71.4285714285714,4,1,1,70,0,0
247192,-133.333333333333,4,1,2,70,0,0
247274,-71.4285714285714,4,1,1,70,0,0
247520,-58.8235294117647,4,1,3,75,0,0
247602,-66.6666666666667,4,1,1,70,0,0
248995,-62.5,4,1,1,65,0,0
249241,-62.5,4,1,1,5,0,0
249323,-58.8235294117647,4,1,1,75,0,0
249651,-50,4,1,1,80,0,0
249815,-58.8235294117647,4,1,2,75,0,0
249897,-58.8235294117647,4,1,1,75,0,0
251127,-55.5555555555556,4,1,2,80,0,0
251209,-55.5555555555556,4,1,1,80,0,0
251454,-55.5555555555556,4,1,2,80,0,0
251536,-55.5555555555556,4,1,1,80,0,0
251782,-50,4,1,2,80,0,0
251946,-50,4,1,2,80,0,0
252110,-100,4,1,3,60,0,0
252192,-100,4,1,1,30,0,0
252438,-100,4,1,2,15,0,0

[Colours]
Combo1 : 238,51,79
Combo2 : 111,185,225
Combo3 : 145,157,217
Combo4 : 143,171,157
Combo5 : 201,193,206
Combo6 : 154,209,99
Combo7 : 117,240,179
Combo8 : 217,146,74

[HitObjects]
27,21,636,38,0,L|18:66,1,40,8|8,1:3|1:3,0:0:0:0:
82,233,963,5,2,0:0:0:0:
320,147,1619,1,0,0:0:0:0:
74,266,1947,102,0,L|157:246,1,80,2|0,0:0|0:0,0:0:0:0:
240,188,2439,2,0,P|258:206|260:234,1,40,2|0,0:0|0:0,0:0:0:0:
316,347,2767,2,0,P|330:331|333:300,1,40,0|2,0:0|0:3,0:0:0:0:
512,178,3258,6,0,L|456:190,1,40,8|8,1:3|1:3,0:0:0:0:
301,139,3586,101,2,0:3:0:0:
369,211,3750,2,0,B|392:175|368:181|401:127,2,80,2|0|0,0:0|0:0|0:0,0:0:0:0:
479,65,4898,1,0,0:0:0:0:
391,20,5062,2,0,L|339:30,1,40,2|2,0:0|0:3,0:0:0:0:
176,135,5472,1,2,0:0:0:0:
176,135,5554,2,0,L|131:125,1,40,2|0,0:0|3:0,0:0:0:0:
249,61,5881,6,0,B|253:80|253:80|258:91|258:91|260:108,1,40,8|8,1:3|1:3,0:0:0:0:
298,274,6209,101,2,0:3:0:0:
422,175,6373,1,2,0:0:0:0:
414,181,6701,1,0,0:0:0:0:
424,183,7029,1,0,0:0:0:0:
360,347,7193,5,2,0:0:0:0:
211,273,7521,1,2,0:3:0:0:
55,333,7849,2,0,P|25:330|-10:303,2,60,2|0|0,0:0|0:0|0:0,0:0:0:0:
133,233,8504,102,0,L|40:258,1,80,0|2,1:0|0:3,0:0:0:0:
214,136,8996,2,0,L|201:187,1,40,0|2,0:0|0:0,0:0:0:0:
309,235,9324,2,0,L|356:261,1,40,0|2,0:0|0:3,0:0:0:0:
344,254,9652,1,0,0:0:0:0:
248,378,9816,5,0,1:0:0:0:
188,156,10144,1,2,0:3:0:0:
320,71,10472,2,0,L|367:62,1,40,0|2,0:0|0:0,0:0:0:0:
359,63,10717,1,2,0:0:0:0:
359,63,10799,1,2,0:3:0:0:
441,110,10963,1,0,0:0:0:0:
281,161,11127,102,0,P|242:150|196:148,1,80,0|2,1:0|0:3,0:0:0:0:
100,231,11619,2,0,P|152:219|192:221,1,80,2|0,0:0|0:0,0:0:0:0:
33,168,12111,2,0,P|21:184|12:210,1,40,2|0,0:3|0:0,0:0:0:0:
176,329,12439,5,0,1:0:0:0:
262,265,12603,2,0,L|254:223,1,40,0|2,0:0|0:3,0:0:0:0:
262,231,12931,2,0,B|293:237|293:237|308:244|308:244|346:253,2,80,0|2|0,0:0|0:0|0:0,0:0:0:0:
138,157,13750,101,4,3:2:0:0:
143,151,14078,1,2,0:3:0:0:
206,114,14242,1,0,0:0:0:0:
249,51,14406,1,2,0:0:0:0:
314,94,14570,1,0,0:0:0:0:
389,102,14734,1,2,0:3:0:0:
68,201,14980,21,2,1:3:0:0:
62,206,15062,2,0,B|96:213|129:199|145:171|145:171|211:188|217:263|161:287,1,240,6|0,1:0|0:0,0:0:0:0:
440,290,15717,54,0,L|326:279,1,90.0000034332277
288,384,16045,6,0,B|235:349|243:287|309:273|332:321,1,151.999995941162,2|0,0:1|0:0,0:0:0:0:
401,37,16373,6,0,L|406:73,1,30,2|0,0:0|0:0,0:0:0:0:
426,231,16701,22,0,P|420:191|457:138,1,88.000002685547,12|0,1:0|0:0,0:0:0:0:
461,145,16947,2,0,L|506:156,1,44.0000013427735,0|0,1:0|1:0,0:0:0:0:
291,70,17193,1,0,1:0:0:0:
464,62,17357,6,0,B|422:44|378:78|378:78|375:126|327:146,1,176.000005371094,8|2,1:0|1:0,0:0:0:0:
203,255,17849,1,0,0:0:0:0:
189,41,18013,102,0,B|208:78|208:78|181:143,1,88.000002685547,8|0,0:0|0:0,0:0:0:0:
88,178,18258,1,0,0:0:0:0:
94,181,18340,2,0,L|156:192,1,44.0000013427735,2|0,0:0|2:0,0:0:0:0:
355,247,18504,6,0,B|374:229|374:229|271:247,1,120.000004577637,14|0,0:0|0:0,0:0:0:0:
281,245,18832,70,0,L|352:255,1,71.9999978027344,14|0,0:0|0:0,0:0:0:0:
512,103,18996,22,0,B|529:167|529:167|490:221|433:182,1,155.999992858887,6|0,0:0|2:0,0:0:0:0:
447,187,19324,1,10,0:0:0:0:
281,30,19488,2,0,P|280:54|290:91,1,44.0000013427735,2|0,0:0|0:0,0:0:0:0:
345,145,19652,5,0,1:0:0:0:
190,214,19816,2,0,P|182:240|177:265,2,44.0000013427735,2|0|8,0:0|0:0|0:0,0:0:0:0:
68,82,20144,2,0,P|124:107|164:102,1,88.000002685547,2|0,1:2|0:0,0:0:0:0:
0,237,20472,101,2,0:0:0:0:
149,105,20635,2,0,B|141:90|141:90|83:118|83:118|108:203,1,155.999992858887,8|0,0:0|2:0,0:0:0:0:
124,262,20963,1,4,0:0:0:0:
325,183,21127,5,8,3:0:0:0:
325,183,21209,1,8,0:1:0:0:
325,183,21291,2,0,L|357:175,1,27.9999991455078,0|0,3:0|3:0,0:0:0:0:
477,99,21455,70,0,L|512:105,1,35.9999989013672,2|0,0:0|3:0,0:0:0:0:
449,29,21619,22,0,B|462:66|462:66|420:126|420:126|443:181,1,155.999992858887,6|0,0:0|2:0,0:0:0:0:
442,176,21947,1,8,0:0:0:0:
314,352,22111,2,0,L|326:294,1,44.0000013427735,2|0,0:0|2:0,0:0:0:0:
379,243,22275,5,0,0:0:0:0:
410,355,22439,1,0,0:0:0:0:
260,219,22603,101,8,0:0:0:0:
185,364,22767,2,0,B|201:322|201:322|185:276,1,88.000002685547,2|0,0:2|3:0,0:0:0:0:
105,129,23095,1,0,0:0:0:0:
44,215,23258,2,0,B|106:200|106:200|134:156|134:156|193:143,1,176.000005371094,10|0,0:0|0:0,0:0:0:0:
395,23,23750,6,0,P|412:39|417:86,1,51.999997619629,12|0,0:0|2:0,0:0:0:0:
338,196,23914,1,0,0:0:0:0:
392,279,24078,102,0,P|409:263|414:203,1,60.0000022888184,12|0,0:0|2:0,0:0:0:0:
329,114,24242,2,0,B|375:127|375:127|389:137|389:137|443:152,1,111.999996582031,6|0,0:0|3:0,0:0:0:0:
512,174,24488,1,8,3:0:0:0:
512,174,24570,1,2,3:1:0:0:
338,196,24734,6,0,P|317:199|285:217,1,44.0000013427735,10|0,0:0|0:0,0:0:0:0:
174,280,24898,1,8,0:0:0:0:
174,280,24980,2,0,P|216:273|260:302,1,88.000002685547,8|0,0:0|0:0,0:0:0:0:
264,305,25226,1,2,0:0:0:0:
430,154,25390,102,0,L|417:232,1,44.0000013427735,0|8,3:0|3:0,0:0:0:0:
288,128,25554,1,6,0:2:0:0:
490,245,25717,21,10,0:0:0:0:
448,220,25799,1,0,0:0:0:0:
400,210,25881,1,0,0:0:0:0:
354,227,25963,1,0,0:0:0:0:
322,263,26045,1,0,0:0:0:0:
306,308,26127,1,0,0:0:0:0:
278,347,26209,1,0,0:0:0:0:
232,362,26291,1,0,0:0:0:0:
183,357,26373,1,0,0:0:0:0:
149,321,26455,1,0,0:0:0:0:
121,245,26537,6,2,L|131:216,4,22.0000006713867,2|2|2|2|2,2:0|2:0|2:0|2:0|2:0,2:0:0:0:
367,158,26865,37,4,0:0:0:0:
463,44,27193,2,0,L|471:84,1,40,8|0,0:0|0:0,0:0:0:0:
470,83,27521,1,0,0:0:0:0:
300,106,27685,6,0,L|281:186,1,80,8|0,0:0|0:0,0:0:0:0:
276,160,28340,2,0,L|285:117,1,40,0|8,0:0|0:0,0:0:0:0:
355,249,28668,2,0,L|397:265,1,40,0|2,0:0|0:2,0:0:0:0:
246,337,28996,2,0,L|158:359,1,80,8|0,0:0|0:0,0:0:0:0:
87,360,29406,5,0,0:0:0:0:
81,363,29488,1,4,0:0:0:0:
160,369,29652,1,0,0:0:0:0:
191,250,29816,1,8,0:0:0:0:
402,282,29980,5,2,0:2:0:0:
402,282,30308,2,0,B|436:290|469:300|469:300|461:280|421:272,1,95.9999970703126,12|2,0:0|0:3,0:0:0:0:
247,175,30635,70,0,P|198:170|158:232,1,120.000004577637,4|0,0:3|0:0,0:0:0:0:
52,321,31127,1,8,0:0:0:0:
0,271,31291,2,0,L|48:281,1,40,2|0,0:2|0:0,0:0:0:0:
171,352,31619,2,0,L|262:339,1,80,8|0,0:0|3:0,0:0:0:0:
327,325,32029,21,0,0:0:0:0:
329,319,32111,1,6,0:0:0:0:
344,243,32275,1,2,0:2:0:0:
420,296,32439,1,8,0:0:0:0:
212,256,32603,85,2,0:0:0:0:
328,84,32931,2,0,L|338:130,1,40,8|0,0:0|0:0,0:0:0:0:
238,65,33258,2,0,L|150:50,1,80
253,30,33750,1,8,0:0:0:0:
350,104,33914,2,0,L|435:93,1,80,0|8,0:0|0:0,0:0:0:0:
362,313,34570,1,0,0:0:0:0:
376,235,34734,6,0,L|367:286,1,40,2|0,0:2|0:0,0:0:0:0:
234,349,35062,1,8,0:0:0:0:
221,270,35226,2,0,L|227:314,1,40,2|0,0:2|0:0,0:0:0:0:
16,275,35554,6,0,B|73:286|73:286|83:295|83:295|147:308,2,128,12|4|0,0:0|0:3|0:0,0:0:0:0:
98,384,36373,1,8,0:0:0:0:
234,349,36537,6,0,L|225:302,1,40,2|0,0:0|2:0,0:0:0:0:
443,177,36865,2,0,L|431:247,1,60,8|0,0:0|2:0,0:0:0:0:
447,274,37193,1,8,0:0:0:0:
468,244,37275,1,8,0:0:0:0:
459,208,37357,1,4,0:0:0:0:
262,209,37685,85,8,0:0:0:0:
144,245,37849,1,2,0:0:0:0:
31,301,38176,86,0,L|77:310,1,40,8|0,0:0|0:0,0:0:0:0:
183,182,38504,2,0,L|160:266,1,80,4|0,0:3|0:0,0:0:0:0:
72,145,38996,2,0,L|118:138,1,40,8|0,0:0|3:0,0:0:0:0:
177,261,39324,1,2,2:0:0:0:
218,198,39488,2,0,L|207:238,1,40,8|0,0:0|0:0,0:0:0:0:
218,198,39816,1,0,0:0:0:0:
178,333,39980,102,0,P|211:355|254:346,1,80,2|8,0:0|0:0,0:0:0:0:
320,224,40472,2,0,P|353:202|396:211,1,80,2|8,0:0|0:0,0:0:0:0:
419,342,40963,6,0,B|455:293|420:246|420:246|457:287|519:271|560:218|500:141|444:184,1,320,4|8,0:0|0:0,0:0:0:0:
358,292,41783,1,2,0:0:0:0:
83,189,42111,101,8,0:0:0:0:
184,294,42275,2,0,L|192:240,1,40
197,253,42603,6,0,L|104:267,1,80,2|8,0:0|0:0,0:0:0:0:
307,168,43095,2,0,L|385:181,2,80,2|8|4,0:2|0:0|0:3,0:0:0:0:
209,129,43914,102,0,L|218:183,1,40,0|2,0:0|0:2,0:0:0:0:
330,255,44242,1,8,0:0:0:0:
330,255,44406,2,0,L|313:304,1,40,2|0,0:2|0:0,0:0:0:0:
280,376,44734,5,12,0:0:0:0:
373,340,44898,2,0,B|348:350|348:350|306:338|306:338|292:318|292:318|250:305|250:305|219:316,1,160,12|6,1:3|0:2,0:0:0:0:
35,187,45554,101,8,0:3:0:0:
129,226,45717,1,0,0:0:0:0:
132,233,45799,1,0,0:0:0:0:
135,240,45881,1,0,0:0:0:0:
240,183,46045,5,8,0:0:0:0:
356,150,46209,1,0,0:0:0:0:
512,160,46373,5,8,0:0:0:0:
384,51,46537,2,0,P|289:22|204:69,1,181.999991668702,6|0,0:0|2:0,0:0:0:0:
210,29,47193,5,8,0:3:0:0:
177,64,47275,1,8,0:3:0:0:
182,109,47357,1,8,0:3:0:0:
223,150,47439,1,8,0:3:0:0:
315,173,47521,54,0,L|367:163,1,51.999997619629,8|0,0:0|0:0,0:0:0:0:
366,163,47767,1,8,0:0:0:0:
366,163,47849,1,4,0:1:0:0:
260,350,48176,6,0,P|220:365|128:295,1,160,8|0,0:0|0:0,0:0:0:0:
50,184,48668,2,0,P|24:220|30:269,1,80,8|0,0:0|3:0,0:0:0:0:
151,141,48996,2,0,P|180:134|238:117,1,80,8|0,0:0|3:0,0:0:0:0:
486,280,49406,1,2,1:2:0:0:
486,280,49488,6,0,B|439:270|439:270|422:251|422:251|369:241,1,120,10|0,0:0|2:0,0:0:0:0:
359,238,49816,1,0,0:0:0:0:
253,267,49980,1,8,0:0:0:0:
150,222,50144,1,0,0:0:0:0:
313,152,50308,5,8,0:0:0:0:
313,152,50472,2,0,P|253:141|212:200,1,120,2|0,0:0|2:0,0:0:0:0:
150,222,50799,2,0,L|65:235,1,80,8|0,0:0|0:0,0:0:0:0:
70,234,51045,1,0,0:0:0:0:
70,234,51127,1,0,0:0:0:0:
184,200,51291,1,8,0:0:0:0:
287,264,51455,1,0,0:0:0:0:
397,239,51619,1,8,0:0:0:0:
461,276,51783,1,0,0:0:0:0:
497,186,52111,102,0,P|458:182|420:219,1,80,10|0,0:0|2:0,0:0:0:0:
297,303,52439,1,0,0:0:0:0:
370,362,52603,1,8,0:0:0:0:
310,218,52767,1,0,0:0:0:0:
202,330,52931,1,8,0:0:0:0:
230,172,53095,6,0,B|243:227|243:227|282:245|282:245|299:309,2,160,4|8|0,0:0|0:0|0:0,0:0:0:0:
335,52,53914,1,8,0:0:0:0:
234,92,54078,1,2,0:3:0:0:
150,34,54242,1,8,0:0:0:0:
234,92,54406,5,2,0:0:0:0:
128,192,54570,1,0,0:0:0:0:
144,337,54734,1,8,0:0:0:0:
144,337,55062,101,0,0:0:0:0:
224,224,55226,21,12,0:0:0:0:
0,160,55390,1,14,0:0:0:0:
280,28,55635,53,8,1:3:0:0:
280,28,55717,2,0,P|316:21|359:63,1,80,14|8,0:0|3:0,0:0:0:0:
403,233,56045,6,0,P|414:217|416:195,1,40,8|0,3:0|2:0,0:0:0:0:
262,105,56209,2,0,P|226:98|175:144,1,88.000002685547,14|8,0:0|3:0,0:0:0:0:
122,311,56537,54,0,P|113:296|108:268,1,44.0000013427735,8|0,3:0|2:0,0:0:0:0:
308,186,56701,2,0,P|344:179|397:230,1,95.9999970703126,14|8,0:0|3:0,0:0:0:0:
431,283,56947,1,8,3:0:0:0:
431,283,57029,101,12,0:0:0:0:
313,364,57193,1,8,0:3:0:0:
231,304,57357,1,0,0:0:0:0:
139,350,57521,1,8,0:3:0:0:
8,291,57685,2,0,B|43:377|125:398|201:362|297:282|256:171|213:133|204:97|152:77|32:166|164:259|209:224,1,575.999982421876,6|0,0:2|2:0,0:0:0:0:
254,40,58832,2,0,L|261:10,2,23.9999992675781,2|2|2,0:0|0:2|0:0,0:0:0:0:
172,52,58996,22,0,B|257:34|245:99|354:70,1,160,4|4,0:0|2:0,0:0:0:0:
148,30,59487,85,0,1:0:0:0:
347,98,59651,2,0,P|375:96|403:85,1,55.9999982910157,2|8,2:2|0:3,0:0:0:0:
412,72,59897,21,8,0:0:0:0:
365,49,59979,1,8,0:0:0:0:
303,60,60061,1,8,0:0:0:0:
265,126,60143,1,4,0:0:0:0:
400,86,60471,85,0,0:0:0:0:
181,135,60635,1,8,0:0:0:0:
384,195,60799,21,2,0:0:0:0:
160,256,60963,85,8,3:0:0:0:
296,298,61127,1,0,3:0:0:0:
36,360,61291,21,12,0:0:0:0:
28,353,61618,86,0,B|70:347|70:347|94:335|94:335|197:324,1,160,4|4,0:1|2:0,0:0:0:0:
341,172,62110,2,0,L|406:188,1,55.9999982910157,2|4,2:0|3:0,0:0:0:0:
473,213,62356,1,0,0:0:0:0:
473,213,62438,21,8,0:3:0:0:
427,220,62520,1,8,0:0:0:0:
355,230,62602,5,8,0:0:0:0:
334,234,62684,1,8,0:0:0:0:
256,248,62766,101,4,0:0:0:0:
235,141,63094,85,0,0:0:0:0:
395,185,63258,1,8,0:0:0:0:
158,206,63422,21,2,0:0:0:0:
415,309,63586,85,8,3:0:0:0:
219,355,63750,1,0,3:0:0:0:
27,295,63914,2,0,L|66:300,1,35.9999989013672,12|0,0:0|2:0,0:0:0:0:
154,295,64241,6,0,B|64:279|86:332|-4:308,1,160,6|8,0:0|0:0,0:0:0:0:
203,175,64733,2,0,L|187:68,1,80,2|0,2:0|0:0,0:0:0:0:
97,201,65061,2,0,L|23:215,2,40,2|0|8,0:0|0:0|0:0,0:0:0:0:
246,264,65389,1,2,0:0:0:0:
382,130,65553,70,0,B|326:159|326:159|342:222,1,120,2|0,0:2|2:0,0:0:0:0:
329,225,65881,2,0,L|420:246,1,80,8|0,0:0|0:0,0:0:0:0:
298,48,66209,1,0,0:0:0:0:
405,148,66373,2,0,P|415:130|423:90,2,40,2|0|8,0:2|0:0|0:0,0:0:0:0:
246,264,66700,1,0,0:0:0:0:
495,323,66864,38,0,P|461:276|402:301,1,120,2|0,0:2|2:0,0:0:0:0:
393,308,67192,1,8,0:0:0:0:
254,355,67356,2,0,B|165:371,1,80,2|0,2:0|0:0,0:0:0:0:
175,369,67684,1,0,0:0:0:0:
311,247,67848,70,0,L|260:234,1,40,8|0,0:0|2:0,0:0:0:0:
181,138,68012,22,0,B|259:157|259:157|281:180|292:221|261:254,1,167.999994873047,6|0,0:0|2:0,0:0:0:0:
418,136,68340,2,0,L|345:153,1,55.9999982910157,2|0,0:0|2:0,0:0:0:0:
172,238,68504,21,8,0:0:0:0:
319,317,68668,1,2,0:3:0:0:
156,363,68832,53,8,0:0:0:0:
156,363,68914,1,8,0:0:0:0:
156,363,68995,2,0,L|198:372,1,30.0000011444092
421,353,69159,70,0,B|469:352|477:288|400:233|309:327,1,215.999993408203,12|0,0:0|2:0,0:0:0:0:
134,378,69487,70,0,B|81:366|81:366|62:320|62:320|-6:302,1,160,6|4,0:0|2:0,0:0:0:0:
165,384,69979,21,0,1:0:0:0:
342,281,70143,2,0,P|368:270|409:269,1,55.9999982910157,2|8,2:2|0:3,0:0:0:0:
410,271,70389,85,8,0:0:0:0:
371,305,70471,1,8,0:0:0:0:
315,308,70553,1,8,0:0:0:0:
263,263,70635,1,4,0:0:0:0:
101,155,70963,21,0,0:0:0:0:
239,111,71127,1,8,0:0:0:0:
125,82,71291,85,2,0:0:0:0:
307,157,71455,21,8,3:0:0:0:
457,211,71618,2,0,L|452:173,1,27.9999991455078,8|0,3:0|3:0,0:0:0:0:
421,31,71782,86,0,B|457:36|457:36|468:42|468:42|504:47,1,83.9999974365235,12|0,0:0|2:0,0:0:0:0:
505,41,72110,22,0,B|444:54|444:54|427:91|427:91|363:107,1,160,4|4,0:0|2:0,0:0:0:0:
159,191,72602,2,0,L|175:115,1,55.9999982910157,2|4,2:0|0:3,0:0:0:0:
171,137,72848,1,0,0:0:0:0:
171,137,72930,85,8,3:0:0:0:
203,158,73012,1,8,0:3:0:0:
261,148,73094,1,8,0:0:0:0:
313,162,73176,1,8,0:0:0:0:
375,218,73258,21,4,0:0:0:0:
400,143,73586,85,0,0:0:0:0:
227,234,73750,1,8,0:0:0:0:
453,204,73914,21,2,0:0:0:0:
261,148,74077,85,8,3:0:0:0:
326,302,74241,2,0,L|331:274,1,27.9999991455078,8|0,3:0|3:0,0:0:0:0:
304,76,74405,38,0,B|328:73|378:59|378:59|436:104|388:163,1,180.000006866455,12|0,0:0|2:0,0:0:0:0:
228,221,74733,86,0,B|147:227|161:284|74:268,1,160,6|8,0:0|0:0,0:0:0:0:
211,126,75225,2,0,L|115:104,1,80,2|0,0:0|2:0,0:0:0:0:
339,266,75553,1,0,0:0:0:0:
253,368,75717,2,0,B|268:332|268:332|255:285,1,80,8|0,0:0|0:0,0:0:0:0:
96,233,76045,69,2,2:0:0:0:
166,330,76209,2,0,L|146:373,2,40,2|0|8,0:0|2:0|0:0,0:0:0:0:
316,187,76536,1,2,0:2:0:0:
462,287,76700,1,0,0:0:0:0:
462,287,76782,2,0,L|357:301,1,80
309,346,77028,37,10,0:0:0:0:
239,187,77192,1,2,0:0:0:0:
365,42,77356,2,0,B|358:92|358:92|353:100|353:100|343:170,1,120,2|0,2:0|2:0,0:0:0:0:
356,175,77684,1,10,0:0:0:0:
512,184,77848,70,0,B|479:173|437:200|437:200|420:247|363:253,1,160,2|0,0:0|0:0,0:0:0:0:
174,105,78340,2,0,L|274:126,1,80,8|0,0:0|0:0,0:0:0:0:
266,122,78586,1,2,2:0:0:0:
276,126,78668,1,0,0:0:0:0:
80,157,78832,37,2,0:0:0:0:
192,280,78995,2,0,B|207:244|207:244|192:191,1,80,8|0,0:0|0:0,0:0:0:0:
377,9,79323,2,0,L|387:97,1,80
456,126,79569,1,2,2:0:0:0:
463,125,79651,2,0,L|404:110,1,40,10|0,0:0|2:0,0:0:0:0:
324,178,79815,2,0,L|274:195,1,40,2|0,0:0|2:0,0:0:0:0:
130,108,79979,70,0,B|163:52|163:52|232:83,1,120,6|0,0:2|0:0,0:0:0:0:
229,79,80307,1,8,0:0:0:0:
90,199,80471,2,0,L|1:221,1,80,2|0,2:0|0:0,0:0:0:0:
137,110,80799,37,0,0:0:0:0:
214,260,80963,1,8,0:0:0:0:
388,168,81127,2,0,B|421:163|466:151|466:151|506:197|503:257,1,160,2|0,0:0|0:0,0:0:0:0:
379,326,81618,1,8,0:0:0:0:
465,342,81782,70,0,P|435:320|386:325,1,80,2|0,0:2|0:0,0:0:0:0:
128,210,82110,2,0,P|158:188|207:193,1,80,2|8,0:2|0:0,0:0:0:0:
318,244,82438,2,0,L|252:261,1,40,2|0,0:2|2:0,0:0:0:0:
103,348,82602,37,6,0:0:0:0:
202,302,82766,69,2,0:0:0:0:
323,167,82930,21,8,0:0:0:0:
474,91,83094,21,2,0:0:0:0:
491,170,83258,21,4,0:3:0:0:
373,118,83422,1,2,0:0:0:0:
268,253,83586,5,8,0:0:0:0:
155,304,83750,1,2,0:0:0:0:
19,207,83914,38,0,L|112:224,1,80,6|2,0:0|0:2,0:0:0:0:
177,225,84159,1,8,0:3:0:0:
183,228,84241,1,10,0:0:0:0:
39,342,84405,2,0,L|108:326,1,40,8|8,0:3|0:3,0:0:0:0:
178,236,84569,21,0,3:0:0:0:
206,220,84651,1,0,3:0:0:0:
227,241,84733,1,0,3:0:0:0:
217,257,84815,1,0,3:0:0:0:
195,227,84897,1,10,0:3:0:0:
215,177,84979,1,10,0:3:0:0:
257,142,85061,1,10,0:3:0:0:
294,93,85143,1,10,0:3:0:0:
259,30,85225,86,0,B|203:23|203:23|187:12|187:12|93:1,1,155.999992858887,6|0,0:0|0:0,0:0:0:0:
93,1,85553,1,8,0:0:0:0:
264,168,85717,6,0,B|246:200|253:229|253:229|210:186|259:137,1,155.999992858887,2|0,0:0|2:0,0:0:0:0:
349,108,86045,2,0,B|394:102|394:102|402:96|402:96|450:90,1,103.999995239258,0|8,0:0|0:0,0:0:0:0:
385,220,86291,101,0,0:0:0:0:
385,220,86373,2,0,L|322:208,1,51.999997619629,2|2,0:0|0:0,0:0:0:0:
263,247,86536,1,2,0:0:0:0:
420,321,86700,1,0,0:0:0:0:
172,245,86864,6,0,B|217:243|239:270|239:270|259:312|323:321,1,155.999992858887,10|0,0:0|2:0,0:0:0:0:
316,313,87192,1,0,0:0:0:0:
496,162,87356,1,2,0:0:0:0:
480,159,87438,1,2,0:2:0:0:
465,170,87520,1,8,0:0:0:0:
356,231,87684,1,0,3:0:0:0:
494,253,87848,102,0,P|470:250|436:229,1,51.999997619629,2|0,2:0|0:0,0:0:0:0:
326,152,88012,2,0,P|300:155|277:167,1,51.999997619629,2|0,0:2|0:0,0:0:0:0:
133,249,88176,1,8,0:0:0:0:
275,244,88340,6,0,B|218:235|218:235|179:241|179:241|101:230,1,155.999992858887,2|0,0:0|2:0,0:0:0:0:
10,241,88668,102,0,L|25:173,1,51.999997619629,14|0,0:2|0:0,0:0:0:0:
231,22,88832,2,0,B|156:39|156:39|101:84|149:117,1,155.999992858887,14|0,0:2|0:0,0:0:0:0:
157,114,89159,1,4,0:0:0:0:
355,288,89323,6,0,B|358:268|358:268|358:249|358:249|366:213,1,51.999997619629,10|8,0:0|0:3,0:0:0:0:
446,154,89487,101,10,0:0:0:0:
413,127,89569,1,0,3:0:0:0:
370,130,89651,1,0,3:0:0:0:
339,161,89733,1,0,3:0:0:0:
294,196,89815,21,8,0:0:0:0:
246,206,89897,1,8,0:3:0:0:
188,184,89979,1,8,0:3:0:0:
154,149,90061,1,8,0:3:0:0:
140,73,90143,6,2,L|150:42,4,25.9999988098145,2|2|2|2|2,2:0|2:0|2:0|2:0|2:0,2:0:0:0:
0,280,90471,37,4,0:0:0:0:
14,288,90799,2,0,L|87:275,1,64,8|2,1:0|3:0,0:0:0:0:
159,316,91127,5,2,0:0:0:0:
65,185,91291,2,0,B|119:192|119:192|139:201|139:201|197:208,1,128,8|12,1:0|1:3,0:0:0:0:
401,237,91782,102,0,B|337:233|337:233|411:259,1,128,0|8,3:0|1:0,0:0:0:0:
494,168,92274,2,0,L|517:243,1,64,0|2,3:0|0:0,0:0:0:0:
385,83,92602,2,0,L|317:99,1,64,8|0,1:0|0:0,0:0:0:0:
235,171,92930,1,8,1:0:0:0:
421,248,93094,5,2,0:0:0:0:
346,216,93258,101,2,0:0:0:0:
173,255,93422,21,8,1:0:0:0:
82,381,93586,5,2,1:0:0:0:
186,333,93750,1,0,1:0:0:0:
154,157,93914,69,8,1:0:0:0:
160,156,94241,1,8,1:0:0:0:
53,48,94405,6,0,P|41:76|33:157,1,95.9999970703126,0|8,1:0|1:0,0:0:0:0:
216,249,94897,2,0,P|228:221|236:140,1,95.9999970703126,0|8,1:0|1:0,0:0:0:0:
143,187,95389,1,0,0:0:0:0:
326,232,95553,101,8,1:0:0:0:
377,342,95717,2,0,P|300:333|276:273,1,128,0|8,1:0|1:0,0:0:0:0:
510,168,96209,2,0,L|490:247,1,64,0|2,0:0|0:0,0:0:0:0:
375,124,96536,2,0,L|454:104,1,64,8|0,1:0|0:0,0:0:0:0:
386,262,96864,2,0,L|334:198,1,64,14|0,1:3|3:0,0:0:0:0:
427,190,97356,5,8,1:0:0:0:
303,139,97520,1,0,3:0:0:0:
242,188,97684,38,0,P|221:192|201:196,1,32,0|0,1:0|0:0,0:0:0:0:
146,232,97848,2,0,P|124:231|105:226,1,32,8|0,1:0|0:0,0:0:0:0:
40,250,98012,2,0,P|23:223|15:188,1,64,14|0,1:3|0:0,0:0:0:0:
21,166,98258,1,0,1:0:0:0:
62,130,98340,1,6,1:2:0:0:
256,192,98422,12,0,99651,3:0:0:0:
224,7,99815,22,0,L|218:25,1,16,8|0,3:0|1:0,0:0:0:0:
284,67,100143,6,0,L|291:89,1,16,8|0,3:0|1:0,0:0:0:0:
226,216,100471,5,0,3:0:0:0:
248,372,100799,21,8,1:0:0:0:
248,372,100881,1,8,1:0:0:0:
248,372,100963,2,0,B|266:329|266:329|230:290|230:290|249:240,1,143.999995605469,6|10,0:0|1:0,0:0:0:0:
419,108,101455,2,0,L|432:197,1,71.9999978027344,0|2,1:0|0:0,0:0:0:0:
512,237,101782,1,8,1:0:0:0:
329,176,101946,69,2,1:3:0:0:
436,115,102110,2,0,B|363:121|363:92|293:97,1,143.999995605469,4|0,0:3|1:0,0:0:0:0:
123,0,102602,2,0,B|151:15|194:30|194:30|164:57|171:99,1,143.999995605469,8|0,1:0|0:0,0:0:0:0:
42,174,103094,1,8,1:0:0:0:
27,96,103258,2,0,P|37:134|42:182,1,71.9999978027344
124,325,103586,38,0,P|56:317|85:242,1,143.999995605469,4|8,0:0|1:0,0:0:0:0:
185,172,104077,2,0,L|273:198,1,71.9999978027344,0|0,1:0|3:0,0:0:0:0:
363,287,104405,1,8,1:0:0:0:
236,224,104569,69,2,0:0:0:0:
126,301,104733,2,0,B|170:295|170:295|201:306|201:306|285:297,1,143.999995605469,4|0,1:3|3:0,0:0:0:0:
437,178,105225,2,0,B|364:192|364:192|323:167|335:123,1,143.999995605469,8|0,1:0|1:0,0:0:0:0:
259,3,105717,2,0,L|240:86,1,71.9999978027344,8|0,1:0|0:0,0:0:0:0:
477,60,106045,70,0,L|544:73,2,51.999997619629,0|0|2,1:0|1:0|1:0,1:0:0:0:
230,58,106536,85,8,1:0:0:0:
155,184,106700,2,0,P|122:179|84:135,1,71.9999978027344,2|0,0:0|0:0,0:0:0:0:
290,130,107028,69,8,1:0:0:0:
335,246,107192,2,0,P|330:279|286:317,1,71.9999978027344,2|4,1:3|0:3,0:0:0:0:
369,168,107520,37,2,0:0:0:0:
447,114,107684,2,0,P|480:119|518:163,1,71.9999978027344,0|8,1:3|1:0,0:0:0:0:
290,130,108012,69,2,0:0:0:0:
206,107,108176,1,0,1:0:0:0:
0,228,108340,37,8,1:0:0:0:
54,106,108504,2,0,L|44:143,1,32,4|2,1:2|1:2,0:0:0:0:
75,211,108750,5,2,1:2:0:0:
86,217,108832,1,2,1:0:0:0:
161,227,108995,1,8,1:0:0:0:
232,189,109159,1,8,1:3:0:0:
333,162,109323,1,0,3:0:0:0:
416,226,109487,1,8,3:0:0:0:
276,377,109651,53,8,1:3:0:0:
227,264,109815,1,2,3:0:0:0:
125,332,109979,1,0,3:0:0:0:
476,285,110143,5,6,0:0:0:0:
476,285,110799,53,0,1:0:0:0:
446,252,110881,1,0,1:0:0:0:
477,229,110963,1,0,1:0:0:0:
512,266,111045,1,0,1:0:0:0:
473,293,111127,6,0,B|382:274|408:339|311:313,1,155.999992858887,4|0,1:1|0:0,0:0:0:0:
406,348,111455,37,4,1:2:0:0:
343,304,111782,1,2,0:0:0:0:
266,281,112110,1,2,0:0:0:0:
188,294,112438,37,2,0:0:0:0:
321,341,112602,1,2,0:3:0:0:
440,265,112766,1,2,0:0:0:0:
95,172,113094,70,0,L|41:182,2,47.9999985351563,2|2|2,0:0|0:0|0:0,0:0:0:0:
127,210,114077,37,2,1:0:0:0:
244,267,114405,69,2,0:0:0:0:
251,266,114569,1,0,0:0:0:0:
403,196,114897,37,2,0:3:0:0:
511,224,115061,1,2,0:0:0:0:
512,14,115389,69,2,0:0:0:0:
433,9,115717,1,2,0:0:0:0:
362,42,116045,1,2,0:0:0:0:
279,159,116291,37,2,0:0:0:0:
282,164,116373,1,2,0:0:0:0:
160,192,116536,1,2,0:0:0:0:
32,128,116700,1,4,0:0:0:0:
250,247,117028,69,2,0:0:0:0:
173,226,117356,1,2,0:0:0:0:
106,265,117684,37,2,0:0:0:0:
246,228,117848,1,2,0:3:0:0:
336,341,118012,1,2,0:0:0:0:
323,197,118176,1,2,0:3:0:0:
434,104,118340,1,2,0:0:0:0:
408,27,118668,70,0,L|401:79,1,40,2|0,0:0|3:0,0:0:0:0:
43,193,118995,38,0,B|55:184|55:184|90:190|90:190|122:253|188:234,1,155.999992858887,12|0,1:0|0:0,0:0:0:0:
167,159,119323,101,6,1:0:0:0:
27,206,119487,1,2,1:3:0:0:
224,103,119651,53,8,1:0:0:0:
270,223,119815,53,2,1:0:0:0:
448,287,119979,1,8,1:0:0:0:
188,319,120143,54,0,L|275:307,1,47.9999985351563,8|0,3:0|1:0,0:0:0:0:
351,268,120307,1,10,1:0:0:0:
351,268,120389,2,0,B|378:326|378:326|377:357|338:381|294:354,1,143.999995605469,8|2,1:3|1:2,0:0:0:0:
210,295,120635,54,0,L|214:276,1,17.9999994506836,6|0,1:0|0:0,0:0:0:0:
303,185,120799,6,0,L|299:161,1,17.9999994506836,2|0,1:0|0:0,0:0:0:0:
231,108,120963,6,0,L|235:84,1,17.9999994506836,2|0,1:0|0:0,0:0:0:0:
286,38,121127,6,0,L|282:14,1,17.9999994506836,2|0,1:0|0:0,0:0:0:0:
68,58,121291,70,0,B|116:71|176:25|176:25|145:54|155:94,1,176.000005371094,6|4,1:0|2:2,0:0:0:0:
22,145,121782,1,0,1:0:0:0:
331,181,121946,22,0,L|242:194,1,64,2|8,0:2|0:3,0:0:0:0:
258,171,122192,85,8,0:0:0:0:
238,216,122274,1,8,0:0:0:0:
258,269,122356,1,8,0:0:0:0:
241,338,122438,1,4,0:0:0:0:
210,354,122766,21,0,0:0:0:0:
321,323,122930,1,8,0:0:0:0:
401,240,123094,1,2,0:2:0:0:
210,354,123258,85,2,0:0:0:0:
160,192,123422,1,2,1:2:0:0:
0,128,123586,1,12,0:0:0:0:
292,243,123831,21,2,0:2:0:0:
292,243,123913,2,0,B|307:230|307:230|368:243|368:243|386:302|444:298,1,176.000005371094,4|4,0:0|2:2,0:0:0:0:
250,86,124405,2,0,L|234:151,1,64,2|0,0:2|1:0,0:0:0:0:
453,285,124733,5,8,0:0:0:0:
421,292,124815,1,8,0:0:0:0:
355,274,124897,101,8,0:3:0:0:
323,278,124979,1,8,0:3:0:0:
254,257,125061,85,6,0:0:0:0:
231,272,125389,21,0,0:0:0:0:
105,298,125553,1,8,0:0:0:0:
21,216,125717,1,0,0:0:0:0:
105,298,125881,85,2,0:0:0:0:
58,119,126045,1,2,1:2:0:0:
218,23,126209,1,12,0:0:0:0:
302,373,126454,5,0,0:0:0:0:
302,373,126536,2,0,B|287:319|287:319|233:284|233:284|213:221,1,176.000005371094,6|8,0:0|0:0,0:0:0:0:
446,95,127028,2,0,B|483:120|483:120|330:146,1,176.000005371094,2|0,0:2|0:0,0:0:0:0:
134,200,127520,69,8,0:0:0:0:
22,71,127684,2,0,B|93:-14|194:86|113:114,1,176.000005371094,2|0,0:2|0:0,0:0:0:0:
0,306,128176,2,0,B|6:274|6:274|2:251|2:251|13:201,1,88.000002685547,8|0,0:0|2:0,0:0:0:0:
50,150,128422,1,2,2:0:0:0:
58,154,128504,1,2,0:0:0:0:
223,224,128668,1,2,0:0:0:0:
352,96,128831,1,8,0:0:0:0:
238,140,128995,37,2,0:2:0:0:
345,265,129159,2,0,B|260:253|292:319|188:299,1,155.999992858887,2|0,0:0|2:0,0:0:0:0:
186,295,129487,1,8,0:0:0:0:
398,184,129651,69,2,0:0:0:0:
451,327,129815,1,0,0:0:0:0:
488,227,129979,37,2,0:2:0:0:
339,288,130143,1,8,0:0:0:0:
199,201,130307,2,0,P|147:166|18:186,1,167.999994873047,6|0,0:0|2:0,0:0:0:0:
19,199,130635,2,0,P|44:195|102:160,1,55.9999982910157,2|0,0:0|0:0,0:0:0:0:
232,111,130799,1,8,0:0:0:0:
139,4,130963,6,0,P|187:-6|233:74,1,111.999996582031,2|8,0:0|0:0,0:0:0:0:
232,111,131209,1,2,0:3:0:0:
232,111,131291,2,0,L|304:103,1,55.9999982910157,0|2,0:3|3:3,0:0:0:0:
493,191,131454,6,0,B|464:169|409:183|397:215|397:215|386:243|325:291|272:221,1,227.999993911743,14|0,0:0|2:0,0:0:0:0:
56,161,131782,70,0,B|25:181|25:181|104:223|168:156,1,176.000005371094,6|6,0:0|2:0,0:0:0:0:
145,279,132274,21,2,1:3:0:0:
330,213,132438,2,0,P|357:212|394:245,1,64,8|8,0:3|0:3,0:0:0:0:
407,248,132684,1,8,0:0:0:0:
359,274,132766,1,8,0:0:0:0:
297,263,132848,1,8,0:0:0:0:
238,215,132930,1,6,0:0:0:0:
172,55,133258,85,0,0:0:0:0:
44,96,133422,1,8,0:0:0:0:
208,175,133586,21,2,0:0:0:0:
142,284,133750,85,8,3:0:0:0:
343,352,133913,1,8,0:3:0:0:
348,354,133995,1,8,3:3:0:0:
353,356,134077,1,12,0:0:0:0:
318,42,134405,22,0,B|279:8|237:31|237:31|194:89|131:72,1,176.000005371094,6|4,0:0|0:0,0:0:0:0:
310,168,134897,1,0,0:0:0:0:
70,133,135061,86,0,L|137:153,1,64,2|8,0:2|0:3,0:0:0:0:
95,170,135307,1,8,0:0:0:0:
65,213,135389,1,8,0:0:0:0:
68,276,135471,1,8,0:0:0:0:
127,329,135553,21,6,0:0:0:0:
352,384,135881,85,2,0:2:0:0:
480,320,136045,1,8,0:0:0:0:
416,224,136209,1,0,0:0:0:0:
192,96,136372,21,2,3:1:0:0:
96,192,136536,2,0,L|17:212,2,44.0000013427735,0|0|12,0:0|3:0|0:0,0:0:0:0:
192,256,136864,1,2,2:0:0:0:
426,146,137028,102,0,B|391:132|351:170|351:170|354:222|297:248,1,176.000005371094,6|8,0:0|0:0,0:0:0:0:
179,349,137520,1,2,0:0:0:0:
169,275,137684,1,0,0:0:0:0:
342,163,137848,69,0,0:0:0:0:
422,294,138012,2,0,P|389:324|331:312,1,88.000002685547,8|0,0:0|0:0,0:0:0:0:
221,212,138340,38,0,L|232:168,1,27.9999991455078,2|0,0:0|2:0,0:0:0:0:
240,108,138504,2,0,L|237:67,1,27.9999991455078,2|0,0:0|2:0,0:0:0:0:
320,192,138668,69,8,0:0:0:0:
67,86,138831,2,0,B|110:90|110:90|116:93|116:93|159:97,1,88.000002685547,2|2,2:0|1:0,0:0:0:0:
162,104,139077,1,0,0:0:0:0:
162,104,139159,2,0,L|152:156,1,44.0000013427735
256,288,139323,37,10,0:0:0:0:
320,96,139487,1,2,0:0:0:0:
168,178,139651,70,0,B|117:186|117:186|95:212|95:212|27:227,1,132.00000402832,4|0,0:2|2:0,0:0:0:0:
32,226,139979,1,8,0:0:0:0:
241,62,140143,2,0,B|235:34|235:34|289:78|289:78|262:168,1,176.000005371094,2|0,0:0|2:0,0:0:0:0:
240,226,140553,1,2,2:0:0:0:
236,238,140635,1,8,0:0:0:0:
485,148,140799,37,0,0:0:0:0:
369,258,140963,2,0,L|379:214,1,27.9999991455078,2|0,0:0|2:0,0:0:0:0:
385,163,141127,2,0,L|390:190,1,27.9999991455078,2|0,0:0|2:0,0:0:0:0:
500,274,141290,1,8,0:0:0:0:
284,353,141536,69,2,2:0:0:0:
284,353,141618,2,0,B|246:356|246:356|233:360|233:360|160:368,1,88.000002685547
166,364,141864,2,0,L|108:370,1,50,2|8,2:0|0:0,0:0:0:0:
261,177,142110,2,0,L|194:165,1,55.9999982910157,2|8,2:0|0:0,0:0:0:0:
183,162,142274,37,4,0:0:0:0:
104,147,142438,1,0,0:0:0:0:
261,177,142602,69,10,0:0:0:0:
121,228,142766,1,2,0:0:0:0:
283,282,142930,37,0,3:0:0:0:
381,354,143094,2,0,P|422:354|457:316,1,88.000002685547,2|8,2:0|0:0,0:0:0:0:
501,150,143422,69,2,2:0:0:0:
501,150,143504,1,2,0:2:0:0:
501,150,143586,2,0,L|461:140,1,27.9999991455078,2|0,0:0|2:0,0:0:0:0:
403,111,143750,2,0,L|360:118,1,27.9999991455078,2|0,0:0|2:0,0:0:0:0:
263,203,143913,37,8,0:0:0:0:
402,281,144077,2,0,B|430:280|430:280|371:256,1,88.000002685547,2|0,2:0|3:0,0:0:0:0:
192,158,144405,69,2,0:0:0:0:
74,333,144569,2,0,P|121:340|159:310,1,88.000002685547,10|0,1:0|3:0,0:0:0:0:
197,253,144815,1,8,0:0:0:0:
202,246,144897,37,6,0:0:0:0:
287,206,145061,69,2,0:0:0:0:
430,233,145225,21,10,0:0:0:0:
512,383,145389,21,6,0:0:0:0:
425,350,145553,21,2,3:0:0:0:
512,288,145717,1,0,0:0:0:0:
288,192,145881,5,10,0:0:0:0:
448,160,146045,1,8,0:3:0:0:
224,0,146209,38,0,L|340:24,1,88.000002685547,6|8,0:0|0:3,0:0:0:0:
398,63,146454,1,0,3:0:0:0:
398,63,146536,1,8,0:0:0:0:
348,199,146700,22,0,L|273:216,1,44.0000013427735,2|8,0:0|1:3,0:0:0:0:
152,274,146864,1,8,0:0:0:0:
215,233,146946,1,8,0:3:0:0:
283,236,147028,1,0,3:0:0:0:
328,278,147110,1,0,3:0:0:0:
354,322,147192,1,8,0:0:0:0:
391,354,147274,1,8,3:0:0:0:
436,367,147356,1,8,3:0:0:0:
471,356,147438,1,0,3:0:0:0:
481,341,147520,69,6,2:0:0:0:
256,192,147602,12,0,150143,3:0:0:0:
195,138,150471,101,2,0:0:0:0:
282,36,150635,2,0,L|271:123,1,80,0|8,2:0|0:3,2:0:0:0:
277,120,151290,1,0,0:0:0:0:
155,208,151454,6,0,P|171:208|205:221,1,40,0|2,3:0|2:0,0:0:0:0:
284,266,151782,1,4,1:3:0:0:
409,229,151946,102,0,P|418:247|418:277,1,40,0|0,2:0|3:0,0:0:0:0:
329,366,152274,1,4,0:3:0:0:
493,337,152438,5,0,0:0:0:0:
485,336,152520,1,0,0:0:0:0:
453,345,152602,1,0,0:0:0:0:
441,342,152684,1,0,0:0:0:0:
407,350,152766,102,0,B|371:356|371:356|359:362|359:362|318:368,1,80,4|8,2:2|0:3,0:0:0:0:
455,252,153258,2,0,L|465:202,1,40,2|0,2:3|3:0,2:0:0:0:
479,25,153586,6,0,B|532:17|532:17|481:38,1,80,8|0,0:3|3:0,0:0:0:0:
366,91,153913,2,0,L|264:109,1,80,8|0,0:3|3:0,0:0:0:0:
288,105,154241,1,0,3:0:0:0:
424,241,154405,101,0,0:0:0:0:
345,249,154569,2,0,L|408:266,1,64,2|0,2:3|3:0,2:0:0:0:
233,179,154897,2,0,B|159:152|176:198|81:163,1,128,4|0,1:3|1:3,0:0:0:0:
90,166,155307,1,0,0:0:0:0:
69,143,155389,1,2,0:0:0:0:
417,15,155717,6,0,B|450:8|450:8|487:13|487:13|524:7,1,95.9999970703126,0|0,0:0|3:0,0:0:0:0:
334,83,156209,2,0,L|279:77,1,47.9999985351563,8|0,0:3|3:0,0:0:0:0:
178,11,156536,85,6,0:0:0:0:
334,83,156700,2,0,B|247:103|247:103|213:141|258:186,1,160,2|12,2:0|0:3,2:0:0:0:
137,250,157192,1,2,0:0:0:0:
137,250,157274,1,8,0:3:0:0:
137,250,157356,2,0,L|37:232,1,80,4|8,0:3|0:0,2:0:0:0:
94,215,157602,53,8,0:0:0:0:
135,207,157684,1,8,3:0:0:0:
180,232,157766,1,8,0:3:0:0:
189,288,157848,1,2,0:0:0:0:
170,329,157930,1,8,0:0:0:0:
127,352,158012,1,4,0:0:0:0:
306,251,158176,85,2,0:0:0:0:
319,244,158258,1,2,0:0:0:0:
333,237,158340,1,4,0:0:0:0:
228,166,158504,1,0,0:0:0:0:
404,143,158668,37,4,0:0:0:0:
183,227,158831,1,0,1:0:0:0:
224,194,158913,1,8,1:3:0:0:
276,193,158995,1,8,1:0:0:0:
321,220,159077,1,8,1:0:0:0:
364,289,159159,70,0,B|403:336|477:306|477:306|450:348|403:336,1,167.999994873047,6|0,1:0|0:0,0:0:0:0:
321,220,159487,2,0,P|345:210|393:216,1,55.9999982910157,2|0,1:0|0:0,0:0:0:0:
477,306,159651,37,14,1:0:0:0:
435,122,159815,1,0,1:0:0:0:
253,272,159979,69,0,3:0:0:0:
340,118,160143,1,0,3:0:0:0:
340,118,160225,1,8,3:0:0:0:
340,118,160307,2,0,B|401:108|401:108|388:144|388:144|390:158|390:158|383:171|383:171|370:227,1,167.999994873047,12|0,1:0|0:0,0:0:0:0:
356,305,160635,37,4,0:0:0:0:
172,193,160799,1,2,0:0:0:0:
158,197,160881,1,2,0:0:0:0:
143,201,160963,1,4,3:2:0:0:
265,130,161127,1,2,0:3:0:0:
59,144,161290,69,4,3:2:0:0:
203,299,161454,1,0,1:0:0:0:
234,268,161536,1,8,1:3:0:0:
235,223,161618,1,8,1:0:0:0:
204,179,161700,1,8,1:0:0:0:
265,130,161782,38,0,B|276:176|230:204|230:204|186:231|211:294,1,167.999994873047,6|0,1:0|0:0,0:0:0:0:
260,369,162110,2,0,P|274:345|274:303,1,55.9999982910157,2|0,1:0|0:0,0:0:0:0:
204,179,162274,1,14,1:0:0:0:
171,286,162438,69,8,3:0:0:0:
293,122,162602,1,8,1:3:0:0:
125,163,162766,37,0,3:0:0:0:
125,163,162848,1,0,3:0:0:0:
125,163,162930,2,0,L|218:181,1,80,14|2,1:0|2:0,0:0:0:0:
275,215,163176,1,2,2:0:0:0:
286,224,163258,101,4,0:0:0:0:
354,74,163422,2,0,L|357:105,1,23.9999992675781,2|0,0:0|2:0,0:0:0:0:
274,296,163586,22,0,L|281:261,1,25.9999988098145,10|0,0:0|2:0,0:0:0:0:
202,271,163750,2,0,L|207:245,1,25.9999988098145,2|0,0:3|2:0,0:0:0:0:
138,129,163913,86,0,L|146:165,1,27.9999991455078,2|0,0:0|2:0,0:0:0:0:
66,154,164077,2,0,L|71:183,1,27.9999991455078,2|0,0:0|2:0,0:0:0:0:
0,323,164241,6,2,B|35:325|35:325|67:315|67:315|70:316|70:316|102:322|102:322|146:312,1,138.000002632141,10|0,0:0|2:0,1:0:0:0:
276,242,164569,6,0,B|321:212|364:251|364:251|371:313|423:330,1,180.000006866455,2|0,0:0|2:0,0:0:0:0:
471,251,164897,1,8,0:0:0:0:
247,363,165061,54,0,L|255:320,1,30.0000011444092,2|2,0:0|2:0,0:0:0:0:
208,159,165225,54,0,B|163:129|120:168|120:168|113:230|61:247,1,180.000006866455,2|0,0:0|2:0,0:0:0:0:
13,168,165553,1,8,0:0:0:0:
254,3,165717,102,0,B|262:29|262:29|249:59|249:59|256:85,1,80,2|0,0:3|3:0,0:0:0:0:
411,219,166045,85,2,2:0:0:0:
356,192,166127,1,2,2:0:0:0:
302,204,166209,1,8,1:0:0:0:
280,226,166290,1,2,2:0:0:0:
248,249,166372,1,2,2:0:0:0:
205,254,166454,1,2,2:0:0:0:
184,239,166536,1,2,0:0:0:0:
93,162,166700,2,0,L|160:153,1,60.0000022888184,4|8,0:3|0:0,0:0:0:0:
486,140,167028,6,0,B|541:105|510:50|510:50|437:18|437:18|454:79,1,207.999990478516,4|4,0:0|1:3,0:0:0:0:
497,146,167520,2,0,B|451:138|451:138|433:119|433:119|362:108,1,136.000002593994,12|12,0:2|3:0,0:0:0:0:
99,17,168012,5,8,0:0:0:0:
164,46,168094,1,8,0:0:0:0:
171,104,168176,1,8,3:0:0:0:
138,143,168258,1,8,3:0:0:0:
92,145,168340,1,8,3:0:0:0:
74,124,168422,1,8,3:0:0:0:
90,117,168504,22,0,B|126:111|158:144|158:144|172:201|229:206,1,155.999992858887,4|0,0:0|2:0,0:0:0:0:
241,130,168831,1,8,0:0:0:0:
34,293,168995,70,0,L|147:272,1,88.000002685547,2|0,0:2|0:0,0:0:0:0:
212,210,169241,1,8,0:3:0:0:
212,210,169323,2,0,L|198:269,1,44.0000013427735,2|0,0:3|2:0,0:0:0:0:
96,193,169487,1,8,0:0:0:0:
304,235,169651,37,2,2:0:0:0:
89,376,169815,2,0,P|127:322|196:341,1,132.00000402832,0|0,3:0|2:0,0:0:0:0:
193,346,170143,1,8,0:0:0:0:
476,321,170307,70,0,B|429:289|389:319|389:319|374:364|310:382,1,176.000005371094,2|0,2:0|0:0,0:0:0:0:
331,374,170717,1,8,0:3:0:0:
331,374,170799,1,8,0:0:0:0:
477,291,170963,1,2,2:0:0:0:
348,77,171127,38,0,P|355:100|361:182,1,88.000002685547,2|0,0:3|0:0,0:0:0:0:
306,294,171454,1,8,0:0:0:0:
269,159,171618,70,2,B|358:163|325:239|450:209,1,176.000005371094,2|2,0:0|0:3,0:0:0:0:
254,54,172110,2,0,L|151:67,1,88.000002685547,8|2,0:0|0:2,2:0:0:0:
166,65,172356,1,0,0:0:0:0:
166,65,172438,53,2,0:0:0:0:
254,54,172602,1,2,0:3:0:0:
352,96,172766,53,8,0:0:0:0:
288,224,172930,1,2,0:3:0:0:
448,320,173094,53,2,0:3:0:0:
384,160,173258,1,0,0:0:0:0:
128,224,173422,69,8,0:0:0:0:
383,272,173668,101,8,0:0:0:0:
383,272,173750,2,0,P|418:294|480:308,1,88.000002685547,0|2,0:0|2:0,0:0:0:0:
254,142,174077,2,0,B|210:180|154:166|154:166|170:250,1,176.000005371094,8|0,0:0|0:0,0:0:0:0:
254,142,174569,1,2,0:2:0:0:
98,96,174733,38,0,P|66:126|70:179,1,88.000002685547,8|2,0:0|0:2,0:0:0:0:
206,309,175061,2,0,L|305:332,1,88.000002685547,2|2,3:3|0:0,0:0:0:0:
379,344,175307,69,0,0:0:0:0:
388,348,175389,2,0,P|386:305|354:276,1,88.000002685547,8|2,0:0|0:3,0:0:0:0:
181,176,175717,2,0,L|82:199,1,88.000002685547,0|2,1:0|0:2,0:0:0:0:
383,27,176045,6,2,B|390:9|413:0|413:0|304:37|378:116,1,180.000006866455,8|0,0:0|2:0,1:0:0:0:
484,152,176372,38,0,B|408:137|425:202|324:178,1,155.999992858887,4|0,0:2|2:0,2:0:0:0:
322,173,176700,1,8,0:0:0:0:
397,372,176864,2,0,B|415:330|415:330|392:273,1,88.000002685547,2|0,2:2|0:0,0:0:0:0:
308,263,177110,53,2,2:0:0:0:
295,263,177192,2,0,L|220:272,1,51.999997619629,2|0,0:0|0:0,0:0:0:0:
84,176,177356,38,0,B|53:194|22:203|22:203|-3:250|21:296,1,155.999992858887,8|0,0:0|0:0,0:0:0:0:
98,348,177684,69,6,1:2:0:0:
192,256,177848,1,2,0:0:0:0:
224,96,178012,1,8,0:0:0:0:
260,187,178176,37,2,0:2:0:0:
356,283,178340,1,0,3:0:0:0:
484,315,178504,1,0,3:0:0:0:
224,384,178668,85,12,0:2:0:0:
224,384,178995,102,0,P|251:347|234:296,1,88.000002685547,4|2,0:0|2:0,0:0:0:0:
77,222,179323,1,8,0:0:0:0:
66,301,179487,38,0,B|31:330|31:330|186:310,1,176.000005371094,2|2,0:3|0:3,0:0:0:0:
349,219,179979,2,0,B|342:205|342:205|436:229,1,88.000002685547,8|2,0:0|0:2,0:0:0:0:
493,250,180225,1,2,2:0:0:0:
493,250,180307,70,0,L|387:267,1,88.000002685547,2|0,0:0|0:0,0:0:0:0:
186,186,180635,2,0,P|160:141|189:92,1,88.000002685547,8|0,0:0|0:0,0:0:0:0:
352,0,180963,2,0,P|378:45|349:94,1,88.000002685547,2|0,0:0|0:0,0:0:0:0:
440,126,181209,2,0,L|362:110,1,44.0000013427735,2|8,0:2|0:0,0:0:0:0:
288,256,181454,1,2,2:0:0:0:
82,179,181618,38,0,B|133:193|133:193|217:164|175:80,1,176.000005371094,4|8,0:0|0:0,0:0:0:0:
350,205,182110,2,0,B|400:190|433:234|433:234|418:276|458:310,1,176.000005371094,2|0,2:0|0:0,0:0:0:0:
246,364,182602,2,0,L|151:383,1,88.000002685547,8|0,0:0|0:0,0:0:0:0:
84,357,182848,1,0,0:0:0:0:
77,354,182930,70,0,P|74:312|114:275,1,88.000002685547,2|2,0:0|0:2,0:0:0:0:
225,64,183258,2,0,B|233:90|233:90|228:121|228:121|238:158,1,88.000002685547,8|2,0:0|0:2,0:0:0:0:
448,320,183586,38,0,P|451:278|407:240,1,95.9999970703126,2|2,0:0|0:2,0:0:0:0:
225,64,183914,2,0,B|217:90|217:90|222:121|222:121|207:162,1,95.9999970703126,8|2,0:0|0:2,0:0:0:0:
193,236,184159,1,8,0:0:0:0:
193,236,184241,2,0,P|213:170|222:247,1,207.999990478516,6|8,0:0|1:0,0:0:0:0:
225,64,184733,69,2,0:3:0:0:
353,154,184897,1,0,3:0:0:0:
193,236,185061,1,2,0:3:0:0:
426,203,185225,38,0,B|374:196|393:179|331:169,1,88.000002685547,8|2,0:0|0:2,0:0:0:0:
266,155,185471,1,2,2:0:0:0:
258,152,185553,1,2,1:3:0:0:
394,93,185717,1,0,0:0:0:0:
269,264,185881,5,8,0:0:0:0:
146,77,186045,2,0,B|75:-3|-47:60|25:103,1,200,2|0,0:0|0:0,0:0:0:0:
374,174,186536,70,0,B|448:151|492:209|492:209|478:231|475:259,1,174.000005310059,10|0,0:0|2:0,0:0:0:0:
449,341,186864,69,4,3:1:0:0:
247,247,187028,2,0,L|236:303,1,55.9999982910157,2|0,1:0|3:0,0:0:0:0:
260,336,187274,1,0,0:0:0:0:
260,336,187356,38,0,B|250:277|250:277|301:237|301:237|286:171,1,180.000006866455,12|0,0:0|2:0,0:0:0:0:
296,162,187684,70,0,L|247:175,1,30.0000011444092
0,270,187848,38,0,B|19:252|19:252|71:264|71:264|92:340|158:334,1,192,12|0,0:2|0:0,0:0:0:0:
167,250,188176,101,12,0:0:0:0:
167,250,188258,1,2,0:3:0:0:
167,250,188340,2,0,L|231:240,1,51.999997619629,2|0,0:0|2:0,0:0:0:0:
331,293,188504,37,0,0:0:0:0:
108,115,188668,2,0,B|153:97|153:97|203:151,1,103.999995239258,12|0,0:2|0:0,0:0:0:0:
201,129,188913,2,0,L|264:140,1,51.999997619629,2|0,0:0|3:0,0:0:0:0:
502,210,189159,69,12,0:2:0:0:
468,359,189323,1,2,3:0:0:0:
501,117,189487,86,0,P|451:113|418:153,1,103.999995239258,12|0,0:0|0:0,0:0:0:0:
335,195,189733,1,2,1:3:0:0:
335,195,189815,1,0,3:0:0:0:
512,119,189979,38,0,P|485:84|343:95,1,180.000006866455,14|0,0:0|0:0,0:0:0:0:
353,71,190307,2,0,P|326:87|312:129,1,60.0000022888184,2|0,0:0|0:0,0:0:0:0:
256,256,190471,21,14,0:2:0:0:
128,288,190635,1,2,0:0:0:0:
340,378,190799,69,12,0:2:0:0:
340,378,190963,2,0,L|337:332,1,30.0000011444092,2|0,0:0|2:0,0:0:0:0:
336,270,191127,2,0,L|339:217,1,30.0000011444092,2|0,0:0|2:0,0:0:0:0:
352,73,191290,85,12,0:0:0:0:
451,229,191454,2,0,P|384:214|353:273,1,132.00000125885,2|0,2:0|0:0,0:0:0:0:
297,353,191700,38,0,L|238:366,1,60.0000022888184,2|8,1:2|0:0,0:0:0:0:
458,236,191946,1,2,2:0:0:0:
227,368,192110,102,0,P|179:339|198:267,1,120.000004577637,4|0,0:0|3:0,2:0:0:0:
140,218,192356,1,8,0:3:0:0:
176,249,192438,1,8,0:3:0:0:
223,250,192520,1,8,0:3:0:0:
262,223,192602,2,0,L|279:167,1,40,2|0,0:0|0:0,0:0:0:0:
322,76,192766,53,0,0:0:0:0:
337,72,192848,1,0,0:0:0:0:
383,82,192930,1,2,0:0:0:0:
411,120,193012,1,0,0:0:0:0:
415,167,193094,1,2,0:0:0:0:
395,210,193176,1,0,0:0:0:0:
418,252,193258,1,2,0:0:0:0:
464,261,193340,1,0,0:0:0:0:
483,251,193422,2,0,L|429:238,1,40,2|0,3:3|0:0,0:0:0:0:
305,174,193586,69,2,0:0:0:0:
260,156,193668,1,0,0:0:0:0:
212,164,193750,1,0,0:0:0:0:
180,199,193831,1,0,0:0:0:0:
165,244,193913,5,2,0:0:0:0:
188,227,193995,1,0,0:0:0:0:
194,192,194077,1,2,0:0:0:0:
161,165,194159,1,8,0:3:0:0:
113,175,194241,1,8,0:3:0:0:
89,217,194323,1,8,0:3:0:0:
110,271,194405,1,8,0:0:0:0:
171,290,194487,1,8,0:0:0:0:
232,261,194569,1,8,0:0:0:0:
264,199,194651,1,8,0:0:0:0:
238,124,194733,1,4,0:0:0:0:
26,10,197356,37,0,3:0:0:0:
151,0,197684,5,0,0:3:0:0:
176,90,197848,1,0,0:3:0:0:
256,160,198176,69,0,0:0:0:0:
377,227,198340,1,0,0:0:0:0:
143,308,198504,6,0,L|76:326,1,40,0|8,0:0|0:0,0:0:0:0:
86,295,198668,1,0,3:0:0:0:
210,258,198831,1,0,0:0:0:0:
321,317,198995,1,8,0:0:0:0:
474,239,199159,1,6,0:0:0:0:
468,234,199323,22,2,B|403:82|201:174|246:313|363:328|391:228|348:220,1,335.999989746094,2|0,2:0|2:0,1:0:0:0:
359,256,199979,22,0,B|295:265|280:210|204:219,1,160,6|8,0:2|0:3,0:0:0:0:
103,77,200471,2,0,L|211:61,1,80,0|8,0:0|0:0,0:0:0:0:
182,65,200799,1,0,0:0:0:0:
285,135,200963,1,2,0:0:0:0:
488,81,201127,2,0,B|450:68|419:100|419:100|413:145|357:174,1,160,8|8,0:0|3:0,0:0:0:0:
232,297,201618,2,0,B|245:259|245:259|238:210,1,80,8|0,3:0|0:0,0:0:0:0:
96,160,201946,1,2,1:0:0:0:
96,160,202028,2,0,L|6:143,1,80,2|0,2:0|0:0,0:0:0:0:
4,140,202274,2,0,P|-4:104|50:62,1,80,12|0,0:2|2:0,0:0:0:0:
182,27,202602,85,10,0:0:0:0:
228,212,202766,1,0,0:0:0:0:
352,160,202930,21,2,2:0:0:0:
228,212,203094,2,0,P|214:232|212:266,1,40,2|0,0:0|2:0,0:0:0:0:
55,129,203422,2,0,P|44:167|71:217,1,80,2|8,0:0|1:0,0:0:0:0:
64,352,203750,86,0,P|114:359|119:293,1,120,4|0,0:3|2:0,0:0:0:0:
225,245,204077,2,0,P|275:238|280:304,1,120,4|0,0:3|2:0,0:0:0:0:
287,295,204405,22,0,B|367:316,1,80,6|2,0:2|2:0,0:0:0:0:
441,334,204651,1,2,2:0:0:0:
431,307,204733,1,2,2:0:0:0:
388,291,204815,1,2,2:0:0:0:
338,304,204897,1,2,2:0:0:0:
283,281,204979,1,0,2:0:0:0:
269,234,205061,1,2,2:0:0:0:
312,206,205143,1,2,2:0:0:0:
335,232,205225,102,0,B|299:266|237:281|172:264|170:184|132:137|4:243|61:343|146:359|192:333|223:276|236:201|170:149,1,527.999983886719,4|0,0:0|2:0,0:0:0:0:
107,118,206209,21,8,0:0:0:0:
89,123,206290,1,8,0:0:0:0:
80,134,206372,2,0,B|93:57|190:26|273:53|290:133|290:133|282:180|226:213|168:182|172:141,1,448,12|8,0:0|3:0,0:0:0:0:
113,343,207848,102,0,B|178:449|311:348|279:220|151:188|55:348|-38:229|-10:66|122:56|208:112|163:182,1,575.999982421876,4|0,0:0|2:0,0:0:0:0:
172,150,208995,6,0,B|161:200|161:200|163:209|163:209|149:279,1,128,4|0,0:0|3:0,0:0:0:0:
144,370,209487,69,0,0:0:0:0:
175,313,209651,1,0,0:0:0:0:
111,281,209815,1,0,0:0:0:0:
79,345,209979,1,0,0:0:0:0:
162,197,210143,38,0,L|175:136,1,47.9999985351563,12|0,0:0|2:0,0:0:0:0:
495,301,210471,54,0,B|451:309|451:309|430:323|430:323|372:334,1,113.999996955872,4|0,0:0|2:0,0:0:0:0:
366,333,210799,1,8,0:0:0:0:
236,214,210963,2,0,P|198:206|148:193,1,75.9999979705811,2|0,2:0|3:0,0:0:0:0:
329,227,211290,37,8,0:0:0:0:
179,299,211454,1,2,2:0:0:0:
34,180,211618,1,8,0:3:0:0:
34,180,211700,1,8,0:3:0:0:
34,180,211782,2,0,L|49:285,1,75.9999979705811,4|2,0:2|0:0,0:0:0:0:
205,136,212110,2,0,B|286:109|286:109|259:32,1,151.999995941162,8|2,0:0|2:0,0:0:0:0:
205,136,212602,1,8,0:0:0:0:
366,235,212766,69,4,3:0:0:0:
118,179,212930,1,8,0:0:0:0:
118,179,213012,1,8,0:0:0:0:
118,179,213094,2,0,B|200:170|190:243|282:217,1,151.999995941162,6|8,0:2|0:0,0:0:0:0:
128,320,213586,2,0,L|112:380,2,37.9999989852906,2|2|0,0:0|2:0|3:0,0:0:0:0:
471,216,213913,37,8,0:3:0:0:
427,201,213995,1,8,0:3:0:0:
382,211,214077,1,8,0:3:0:0:
351,245,214159,1,0,3:0:0:0:
348,290,214241,1,4,0:0:0:0:
373,291,214569,5,2,0:0:0:0:
422,90,214733,1,8,0:0:0:0:
270,12,214897,102,0,L|283:113,1,75.9999979705811,2|0,1:2|0:0,0:0:0:0:
310,158,215143,1,8,0:3:0:0:
279,88,215225,1,2,0:0:0:0:
297,30,215307,1,8,3:0:0:0:
332,8,215389,1,12,0:0:0:0:
455,161,215553,2,0,L|481:169,2,18.9999994926453,2|0|2,2:0|2:0|2:0,2:0:0:0:
429,233,215717,6,0,B|441:187|441:187|486:152|486:152|497:90,1,160,6|4,0:0|2:2,0:0:0:0:
333,265,216209,2,0,L|340:317,1,40,2|2,0:0|2:0,0:0:0:0:
372,325,216372,1,6,2:0:0:0:
200,184,216536,85,10,0:0:0:0:
155,175,216618,1,8,0:0:0:0:
92,209,216700,37,8,0:0:0:0:
64,220,216782,1,8,0:0:0:0:
0,193,216864,101,6,0:0:0:0:
448,128,217192,85,0,3:0:0:0:
327,66,217356,1,8,0:0:0:0:
256,0,217520,37,2,0:0:0:0:
160,96,217684,101,10,3:0:0:0:
0,194,217848,1,8,3:0:0:0:
0,194,217930,1,8,3:0:0:0:
0,194,218012,2,0,L|6:245,1,48,14|0,0:0|2:0,0:0:0:0:
19,355,218340,86,0,B|66:366|66:366|142:333|100:271,1,160,2|4,0:0|0:3,0:0:0:0:
276,175,218831,2,0,L|291:268,1,80,2|0,2:0|1:0,0:0:0:0:
260,285,219077,1,8,0:3:0:0:
260,285,219159,101,8,0:0:0:0:
272,237,219241,101,8,0:0:0:0:
287,171,219323,37,8,0:0:0:0:
303,100,219405,5,8,0:0:0:0:
323,23,219487,5,6,0:0:0:0:
298,15,219815,1,0,3:0:0:0:
157,197,219979,85,10,0:0:0:0:
224,64,220143,1,2,0:3:0:0:
430,256,220307,5,2,0:0:0:0:
381,86,220471,1,0,0:0:0:0:
381,86,220553,1,0,0:0:0:0:
381,86,220635,2,0,L|390:124,1,30.0000011444092,14|0,0:0|2:0,0:0:0:0:
321,151,220799,2,0,L|313:195,1,30.0000011444092,2|8,0:3|1:3,0:0:0:0:
506,288,220963,6,0,P|469:276|333:334,1,180.000006866455,4|0,0:0|1:0,0:0:0:0:
289,380,221290,1,8,0:0:0:0:
512,294,221454,2,0,P|459:310|377:192,1,184.000003509522,2|0,0:2|0:0,0:0:0:0:
191,78,221946,1,8,0:0:0:0:
380,46,222110,54,0,P|335:30|276:92,1,138.000002632141,2|0,0:2|2:0,0:0:0:0:
192,160,222438,2,0,B|150:171|150:171|144:176|144:176|99:189,1,92.0000017547608,2|8,0:0|0:0,0:0:0:0:
113,193,222848,53,8,0:3:0:0:
113,193,222930,2,0,L|220:210,1,92.0000017547608,2|0,0:0|0:0,0:0:0:0:
386,340,223258,2,0,P|394:322|396:294,1,34.0000006484985,10|0,0:0|2:0,0:0:0:0:
466,281,223422,2,0,P|467:260|457:233,1,34.0000006484985,2|0,0:0|2:0,0:0:0:0:
500,97,223586,54,0,B|456:70|424:110|424:110|399:175,1,138.000002632141,6|0,0:2|2:0,0:0:0:0:
400,180,223913,1,10,0:0:0:0:
288,321,224077,2,0,B|182:340|182:340|158:252,1,184.000003509522,2|0,0:0|3:0,0:0:0:0:
66,64,224569,2,0,L|42:161,1,92.0000017547608,8|2,0:0|0:2,0:0:0:0:
49,236,224815,1,2,2:0:0:0:
49,236,224897,53,2,0:0:0:0:
246,174,225061,1,2,3:1:0:0:
49,236,225225,2,0,B|129:224|114:285|208:263,1,138.000002632141,8|0,0:0|2:0,0:0:0:0:
285,296,225553,54,0,L|298:367,1,46.0000008773804,2|8,0:3|0:3,0:0:0:0:
416,160,225799,1,2,0:2:0:0:
416,160,225881,2,0,L|516:137,1,92.0000017547608,8|2,0:0|0:0,0:0:0:0:
202,291,226209,54,0,B|145:276|145:276|128:237|128:237|64:218,1,155.999992858887,6|0,0:0|2:0,0:0:0:0:
52,218,226536,1,10,0:0:0:0:
272,20,226700,2,0,B|298:74|254:111|254:111|215:148|253:206,1,184.000003509522,2|0,0:0|0:0,0:0:0:0:
417,298,227192,53,8,0:0:0:0:
346,135,227356,2,0,L|325:206,2,46.0000008773804,2|2|2,0:0|2:2|0:3,0:0:0:0:
162,236,227684,2,0,P|118:249|55:257,1,92.0000017547608,2|8,3:1|0:0,0:0:0:0:
253,59,228012,53,2,2:0:0:0:
256,62,228094,1,2,2:0:0:0:
258,65,228176,1,2,0:0:0:0:
384,128,228340,1,8,3:0:0:0:
512,64,228504,54,0,P|476:35|427:44,1,92.0000017547608,8|0,0:0|0:0,0:0:0:0:
391,135,228750,1,8,0:3:0:0:
391,135,228831,2,0,B|339:141|339:141|336:145|336:145|268:153,1,108.000000411987,6|2,0:0|0:0,0:0:0:0:
24,155,229159,85,2,3:1:0:0:
53,141,229241,1,0,3:0:0:0:
85,143,229323,1,2,0:0:0:0:
106,167,229405,1,0,3:0:0:0:
98,209,229487,5,8,0:0:0:0:
118,246,229569,1,8,3:0:0:0:
158,261,229651,1,8,3:0:0:0:
194,237,229733,1,8,3:0:0:0:
198,183,229815,37,8,0:0:0:0:
154,150,229897,1,8,0:3:0:0:
104,170,229979,1,2,0:0:0:0:
81,219,230061,1,8,0:3:0:0:
137,286,230143,37,4,0:0:0:0:
144,290,230225,1,8,3:0:0:0:
150,293,230307,2,0,L|250:278,1,54.0000002059937,2|0,0:0|3:0,0:0:0:0:
357,132,230471,5,8,3:0:0:0:
370,122,230553,1,0,3:0:0:0:
385,118,230635,2,0,L|461:138,1,54.0000002059937,2|0,0:0|0:0,0:0:0:0:
512,197,230799,37,8,3:0:0:0:
464,161,230881,1,8,3:0:0:0:
404,167,230963,1,8,3:0:0:0:
366,213,231045,1,8,3:0:0:0:
328,284,231127,21,10,0:0:0:0:
301,289,231209,1,10,0:3:0:0:
219,293,231290,5,10,0:3:0:0:
193,298,231372,1,2,0:3:0:0:
109,284,231454,54,0,L|56:276,1,53.9999983520508,2|0,0:2|2:0,0:0:0:0:
210,308,231782,54,0,B|236:298|236:298|283:314|283:314|310:356|310:356|355:368|355:368|396:354,1,204.000003890991,14|0,0:0|0:0,0:0:0:0:
404,347,232110,1,0,0:0:0:0:
344,145,232274,1,0,0:0:0:0:
503,154,232438,102,0,B|424:130|424:130|365:144|346:203|380:228,1,207.999990478516,10|0,0:0|0:0,0:0:0:0:
503,154,232930,1,0,0:0:0:0:
313,19,233094,2,0,P|265:20|239:64,1,103.999995239258,10|2,0:0|2:0,0:0:0:0:
256,139,233340,1,0,0:0:0:0:
263,147,233422,1,0,0:0:0:0:
426,303,233586,6,0,P|401:318|357:323,1,55.9999982910157,12|0,1:2|2:0,0:0:0:0:
216,246,233750,1,4,3:3:0:0:
371,242,233913,102,0,P|346:227|300:223,1,64,14|0,1:0|2:0,0:0:0:0:
187,333,234077,2,0,B|161:365|161:365|72:378|72:378|11:336,1,167.999994873047,6|0,0:0|2:0,0:0:0:0:
109,282,234405,69,10,0:0:0:0:
240,90,234569,2,0,B|237:107|237:107|237:118|237:118|232:141,1,40,2|2,0:0|2:0,0:0:0:0:
281,213,234733,37,0,3:0:0:0:
148,167,234897,1,0,0:0:0:0:
379,130,235061,70,0,P|386:148|388:171,1,40,10|0,0:0|2:0,0:0:0:0:
415,242,235225,2,0,P|421:227|422:202,1,40,2|0,0:3|2:0,0:0:0:0:
466,51,235389,37,2,3:1:0:0:
218,140,235553,2,0,B|204:152|204:152|304:169,1,111.999996582031,2|8,0:2|0:0,0:0:0:0:
499,290,235881,1,8,0:3:0:0:
486,247,235963,1,8,0:0:0:0:
444,230,236045,1,6,0:0:0:0:
304,84,236209,69,8,0:3:0:0:
284,124,236290,1,8,0:0:0:0:
325,95,236372,1,10,3:1:0:0:
318,44,236454,1,0,3:0:0:0:
275,16,236536,1,0,3:0:0:0:
230,38,236618,1,0,3:0:0:0:
183,104,236700,54,0,B|154:141|187:177|187:177|203:190|203:190|238:237|197:272,1,180.000006866455,6|0,2:1|2:0,0:0:0:0:
192,288,237028,1,8,0:0:0:0:
480,192,237192,1,2,0:0:0:0:
300,220,237356,53,2,3:1:0:0:
416,256,237520,1,2,0:0:0:0:
224,128,237684,54,0,P|175:125|125:153,1,103.999995239258,8|0,0:0|0:0,0:0:0:0:
54,213,237930,1,2,0:2:0:0:
45,221,238012,1,2,0:3:0:0:
178,288,238176,54,0,B|182:269|182:269|181:253|181:253|189:221,1,51.999997619629,2|0,0:0|2:0,0:0:0:0:
207,110,238340,53,10,0:0:0:0:
162,284,238504,1,2,0:3:0:0:
69,164,238668,53,2,0:0:0:0:
69,164,238831,2,0,B|93:159|93:159|106:153|106:153|146:146,1,60.0000022888184,12|0,0:2|0:0,0:0:0:0:
332,107,238995,53,2,0:0:0:0:
332,107,239159,2,0,B|308:103|308:103|290:95|290:95|252:89,1,71.9999978027344,12|0,0:0|0:0,0:0:0:0:
0,64,239323,53,2,3:1:0:0:
40,40,239405,1,0,3:1:0:0:
86,49,239487,1,8,0:3:0:0:
119,83,239569,1,0,3:0:0:0:
115,130,239651,1,10,0:0:0:0:
19,305,239815,54,0,P|6:251|58:215,1,103.999995239258,2|0,0:0|3:0,0:0:0:0:
123,136,240061,1,8,0:0:0:0:
123,136,240143,2,0,L|136:196,1,51.999997619629
280,259,240307,54,0,B|325:264|325:264|330:268|330:268|392:277,1,103.999995239258,2|0,0:0|3:0,0:0:0:0:
358,132,240553,1,8,0:0:0:0:
356,142,240635,2,0,L|346:196,1,51.999997619629,4|0,0:3|2:0,0:0:0:0:
321,346,240799,53,2,0:3:0:0:
319,356,240881,1,8,0:3:0:0:
317,366,240963,1,8,0:0:0:0:
351,333,241045,1,0,3:0:0:0:
337,288,241127,1,0,3:0:0:0:
294,268,241209,1,8,3:0:0:0:
205,323,241290,54,0,B|190:355|203:343|187:379,3,51.999997619629,2|2|2|2,0:0|0:2|0:2|0:2,0:0:0:0:
131,247,241618,38,0,P|111:234|79:234,1,34.6666650797527,10|0,0:0|2:0,0:0:0:0:
80,215,241728,6,0,P|59:217|34:231,1,34.6666650797527,2|0,0:0|2:0,0:0:0:0:
30,217,241837,102,0,P|11:225|-13:248,1,34.6666650797527,10|0,0:0|2:0,0:0:0:0:
54,316,241946,69,6,0:0:0:0:
223,251,242110,1,2,0:3:0:0:
54,316,242274,2,0,B|76:300|76:300|134:311|134:311|136:354|167:383|214:377,1,192,10|0,0:0|0:0,0:0:0:0:
312,313,242602,37,4,3:0:0:0:
281,142,242766,1,2,0:3:0:0:
476,96,242930,6,0,B|386:81|386:81|421:107,1,111.999996582031,8|0,0:0|0:0,0:0:0:0:
491,199,243176,1,8,0:0:0:0:
491,199,243258,2,0,B|414:210|414:210|406:217|406:217|313:232,1,167.999994873047,6|0,0:2|2:0,0:0:0:0:
115,164,243586,102,0,B|134:168|134:168|148:176|148:176|191:185,1,55.9999982910157,8|0,0:0|2:0,0:0:0:0:
248,29,243750,2,0,B|252:48|252:48|260:62|260:62|269:105,1,55.9999982910157,8|0,0:0|2:0,0:0:0:0:
247,159,243913,5,2,0:0:0:0:
82,45,244077,2,0,P|112:46|156:85,1,64,12|0,0:2|0:0,0:0:0:0:
247,159,244241,101,2,0:0:0:0:
416,256,244405,2,0,P|452:254|492:209,1,75.9999979705811,12|0,0:0|0:0,0:0:0:0:
482,230,244569,6,0,P|433:225|401:315,1,128,6|0,0:2|0:0,0:0:0:0:
320,352,244815,1,2,0:0:0:0:
320,352,244897,2,0,L|246:367,1,55.9999982910157,8|0,0:0|2:0,0:0:0:0:
69,263,245061,101,2,0:2:0:0:
61,254,245143,2,0,B|108:261|108:261|116:265|116:265|191:277,1,111.999996582031,8|0,0:0|0:0,0:0:0:0:
193,292,245389,2,0,L|206:217,1,55.9999982910157,2|0,0:0|2:0,0:0:0:0:
265,70,245553,5,8,0:0:0:0:
318,267,245717,1,2,0:0:0:0:
265,70,245881,102,0,B|322:50|322:50|388:88|362:174,1,167.999994873047,6|0,0:0|2:0,0:0:0:0:
217,245,246209,2,0,B|176:218|176:218|195:145,1,111.999996582031,8|0,0:0|0:0,0:0:0:0:
204,147,246454,2,0,L|126:160,1,55.9999982910157,8|2,0:0|3:0,0:0:0:0:
0,245,246618,5,8,3:0:0:0:
44,222,246700,1,8,3:0:0:0:
89,244,246782,1,8,3:0:0:0:
104,292,246864,2,0,P|126:309|164:311,1,55.9999982910157,2|0,0:3|0:0,0:0:0:0:
288,192,247028,2,0,P|314:179|353:179,1,55.9999982910157,2|0,0:0|0:0,0:0:0:0:
338,295,247192,54,0,L|432:307,1,90.0000034332277,4|0,0:0|2:0,0:0:0:0:
499,283,247520,38,0,B|452:268|452:268|398:288|398:288|372:336|372:336|312:359|312:359|265:336,1,272.000005187988,14|0,0:0|3:0,0:0:0:0:
507,265,248012,69,2,0:0:0:0:
224,165,248176,2,0,B|124:146|156:225|11:159,1,180.000006866455,12|0,0:2|0:0,0:0:0:0:
241,156,248504,38,0,B|258:135|258:135|151:156,1,120.000004577637,2|2,0:0|0:2,0:0:0:0:
44,199,248750,1,2,2:0:0:0:
44,199,248831,2,0,P|71:208|117:209,1,60.0000022888184,10|0,0:0|0:0,0:0:0:0:
326,201,248995,70,0,B|362:237|425:220|425:220|374:253|389:327,1,192,2|0,0:0|0:0,0:0:0:0:
452,133,249323,38,0,B|431:139|431:139|410:139|410:139|386:144,1,68.0000012969971,14|0,0:2|0:0,0:0:0:0:
470,296,249487,1,2,0:0:0:0:
163,141,249651,6,0,B|184:146|184:146|205:146|205:146|242:155,1,80,14|0,0:0|0:0,0:0:0:0:
96,320,249815,2,0,B|150:313|150:313|180:318|180:318|243:309,1,136.000002593994,6|0,0:0|0:0,0:0:0:0:
259,307,250061,1,8,0:0:0:0:
307,297,250143,1,2,0:0:0:0:
51,129,250307,102,0,B|14:130|-12:115|-12:115|4:145|58:145,1,136.000002593994,14|8,0:0|3:0,0:0:0:0:
162,191,250553,1,8,0:0:0:0:
162,191,250635,2,0,L|245:182,1,68.0000012969971,2|0,0:0|0:0,0:0:0:0:
409,111,250799,5,10,0:0:0:0:
253,32,250963,101,8,0:3:0:0:
305,16,251045,1,8,0:0:0:0:
357,39,251127,2,0,P|379:64|372:113,1,71.9999978027344,6|0,0:0|0:0,0:0:0:0:
155,295,251290,1,8,0:3:0:0:
139,243,251372,1,8,0:0:0:0:
162,191,251454,2,0,P|187:169|236:176,1,71.9999978027344,6|0,0:0|0:0,0:0:0:0:
512,256,251618,1,8,0:3:0:0:
471,292,251700,1,8,0:0:0:0:
414,293,251782,2,0,P|383:279|369:226,1,80,6|0,0:0|2:0,0:0:0:0:
253,32,251946,6,0,P|218:49|205:86,1,80,6|0,0:0|2:0,0:0:0:0:
125,118,252110,54,0,B|186:112|186:112|199:116|199:116|290:107,1,160,6|0,0:2|2:0,0:0:0:0:
