osu file format v14

[General]
AudioFilename: audio.mp3
AudioLeadIn: 0
PreviewTime: 66344
Countdown: 0
SampleSet: Normal
StackLeniency: 0.7
Mode: 0
LetterboxInBreaks: 0
WidescreenStoryboard: 0

[Editor]
Bookmarks: 7145,53172,55289,66584
DistanceSpacing: 1.1
BeatDivisor: 4
GridSize: 4
TimelineZoom: 2.3

[Metadata]
Title:begging m3
TitleUnicode:begging m3
Artist:kyubae
ArtistUnicode:♡kyubae♡
Creator:SLM
Version:Second Beat
Source:
Tags:me Florrie Experiments nightcore short cut
BeatmapID:1168441
BeatmapSetID:551369

[Difficulty]
HPDrainRate:6
CircleSize:4
OverallDifficulty:8
ApproachRate:9
SliderMultiplier:1.8
SliderTickRate:1

[Events]
//Background and Video events
0,0,"ye2.jpg",0,0
//Break Periods
//Storyboard Layer 0 (Background)
//Storyboard Layer 1 (Fail)
//Storyboard Layer 2 (Pass)
//Storyboard Layer 3 (Foreground)
//Storyboard Sound Samples

[TimingPoints]
63,355.239786856128,4,2,1,40,1,0
63,-166.666666666667,4,2,1,40,0,0
5746,-166.666666666667,4,1,1,40,0,0
6457,-166.666666666667,4,1,1,50,0,0
6634,-166.666666666667,4,1,1,55,0,0
6812,-166.666666666667,4,1,1,60,0,0
7167,-125,4,1,1,70,0,1
8055,-76.9230769230769,4,1,1,70,0,1
8766,-125,4,1,1,70,0,1
25107,-76.9230769230769,4,1,1,70,0,1
25817,-125,4,1,1,70,0,1
29903,-166.666666666667,4,1,1,50,0,0
31315,352.941176470588,4,2,1,60,1,0
31315,-200,4,2,1,60,0,0
32726,-125,4,1,1,60,0,0
34138,-166.666666666667,4,1,1,60,0,0
35550,-125,4,1,1,60,0,0
36962,-153.846153846154,4,1,1,60,0,0
38373,-125,4,1,1,60,0,0
40314,-100,4,1,1,60,0,0
41197,-125,4,1,1,60,0,0
42609,-133.333333333333,4,1,1,60,0,0
44020,-125,4,1,1,60,0,0
45432,-166.666666666667,4,1,1,60,0,0
46844,-125,4,1,1,60,0,0
51609,-83.3333333333333,4,1,1,60,0,0
52491,-125,4,1,1,60,0,0
54609,-149.253731343284,4,1,1,60,0,0
55314,-100,4,1,1,60,0,0
56020,-83.3333333333333,4,1,1,60,0,0
56726,-100,4,1,1,60,0,0
57432,-71.4285714285714,4,1,1,60,0,0
58138,-100,4,1,1,60,0,0
63609,-111.111111111111,4,1,1,60,0,0
65197,-200,4,2,1,60,0,0
66609,-125,4,1,1,70,0,1
67844,-76.9230769230769,4,1,1,70,0,1
68197,-125,4,1,1,70,0,1
84785,-76.9230769230769,4,1,1,70,0,1
85138,-125,4,1,1,70,0,1
89197,-166.666666666667,4,1,1,50,0,0

[Colours]
Combo1 : 255,191,0
Combo2 : 10,214,10
Combo3 : 11,114,240

[HitObjects]
352,180,1128,6,0,L|332:129,1,53.9999983520508,2|0,0:0|0:0,0:0:0:0:
179,130,1483,2,0,L|159:180,1,53.9999983520508,2|0,0:0|0:0,0:0:0:0:
256,85,1839,1,2,0:0:0:0:
255,173,2016,2,0,L|255:281,2,107.999996704102,2|2|0,0:0|0:0|0:0,0:0:0:0:
256,85,2904,1,0,0:0:0:0:
333,42,3082,1,0,0:0:0:0:
350,41,3437,1,0,0:0:0:0:
352,180,3615,6,0,L|332:129,1,53.9999983520508,2|2,0:0|0:0,0:0:0:0:
255,281,4148,2,0,L|255:171,1,107.999996704102,2|2,0:0|0:0,0:0:0:0:
336,276,4858,2,0,P|254:364|173:274,1,269.999991760254,2|0,0:0|0:0,0:0:0:0:
255,281,5924,5,0,0:0:0:0:
172,232,6102,1,0,0:0:0:0:
255,185,6279,1,0,0:0:0:0:
255,89,6457,5,0,0:0:0:0:
421,183,6634,1,0,0:0:0:0:
255,281,6812,1,0,0:0:0:0:
338,136,6990,1,0,0:0:0:0:
421,279,7167,5,6,0:0:0:0:
255,89,7345,1,0,0:0:0:0:
89,283,7523,2,0,L|5:296,2,72,8|2|0,0:0|0:0|0:0,0:0:0:0:
438,278,8055,5,2,0:0:0:0:
272,88,8233,1,8,0:0:0:0:
106,282,8411,2,0,P|40:286|46:242,1,116.999994644165,0|2,0:0|0:0,0:0:0:0:
338,328,8766,5,0,0:0:0:0:
255,89,8943,1,8,0:0:0:0:
172,330,9121,1,2,0:0:0:0:
374,174,9299,1,0,0:0:0:0:
133,174,9476,1,2,0:0:0:0:
338,328,9654,1,8,0:0:0:0:
355,327,10009,5,2,0:0:0:0:
272,88,10187,1,0,0:0:0:0:
189,329,10364,2,0,L|105:342,2,72,8|2|0,0:0|0:0|0:0,0:0:0:0:
355,135,10897,5,2,0:0:0:0:
338,136,11075,1,8,0:0:0:0:
89,187,11253,1,0,0:0:0:0:
106,186,11430,1,2,0:0:0:0:
355,231,11608,1,0,0:0:0:0:
338,232,11785,1,8,0:0:0:0:
438,182,11963,1,2,0:0:0:0:
128,110,12318,5,2,0:0:0:0:
338,136,12496,1,8,0:0:0:0:
172,232,12674,1,8,0:0:0:0:
349,58,12851,5,6,0:0:0:0:
266,297,13029,1,0,0:0:0:0:
100,107,13206,2,0,L|19:105,2,72,8|2|0,0:0|0:0|0:0,0:0:0:0:
349,248,13739,6,0,L|430:250,1,72,2|8,0:0|0:0,0:0:0:0:
183,60,14094,2,0,L|254:61,1,72,2|2,0:0|0:0,0:0:0:0:
100,203,14450,5,0,0:0:0:0:
341,120,14627,1,8,0:0:0:0:
205,304,14805,1,2,0:0:0:0:
182,60,14983,1,0,0:0:0:0:
349,248,15160,1,2,0:0:0:0:
89,187,15338,1,8,0:0:0:0:
255,208,15515,1,2,0:0:0:0:
349,58,15693,5,2,0:0:0:0:
266,297,15871,1,0,0:0:0:0:
100,107,16048,2,0,L|19:105,2,72,8|2|0,0:0|0:0|0:0,0:0:0:0:
349,248,16581,6,0,L|430:250,1,72,2|8,0:0|0:0,0:0:0:0:
183,60,16936,2,0,L|254:61,2,72,0|2|0,0:0|0:0|0:0,0:0:0:0:
180,238,17469,5,8,0:0:0:0:
204,146,17647,1,2,0:0:0:0:
271,213,17824,1,0,0:0:0:0:
111,172,18002,1,2,0:0:0:0:
296,127,18180,1,8,0:0:0:0:
247,306,18357,1,8,0:0:0:0:
183,60,18535,5,6,0:0:0:0:
349,248,18713,1,0,0:0:0:0:
100,299,18890,2,0,L|5:322,2,72,8|2|0,0:0|0:0|0:0,0:0:0:0:
349,58,19423,6,0,L|418:41,1,72,2|8,0:0|0:0,0:0:0:0:
100,203,19778,2,0,L|5:226,1,72,2|2,0:0|0:0,0:0:0:0:
329,215,20134,5,0,0:0:0:0:
188,77,20311,1,8,0:0:0:0:
147,273,20489,1,2,0:0:0:0:
258,131,20666,1,0,0:0:0:0:
266,297,20844,1,2,0:0:0:0:
173,159,21022,1,8,0:0:0:0:
338,232,21199,1,2,0:0:0:0:
183,60,21377,5,2,0:0:0:0:
349,248,21555,1,0,0:0:0:0:
106,297,21732,2,0,L|11:320,2,72,8|2|0,0:0|0:0|0:0,0:0:0:0:
349,58,22265,6,0,L|418:41,1,72,2|8,0:0|0:0,0:0:0:0:
100,203,22620,2,0,L|5:226,1,72,0|2,0:0|0:0,0:0:0:0:
350,334,22975,5,0,0:0:0:0:
327,134,23153,1,8,0:0:0:0:
266,297,23331,1,2,0:0:0:0:
333,165,23508,1,0,0:0:0:0:
162,232,23686,1,2,0:0:0:0:
349,248,23864,1,8,0:0:0:0:
172,318,24041,1,8,0:0:0:0:
421,279,24219,5,6,0:0:0:0:
255,89,24396,1,0,0:0:0:0:
89,283,24574,2,0,L|5:296,2,72,8|2|0,0:0|0:0|0:0,0:0:0:0:
438,278,25107,5,2,0:0:0:0:
272,88,25285,1,8,0:0:0:0:
106,282,25462,2,0,P|40:286|46:242,1,116.999994644165,2|2,0:0|0:0,0:0:0:0:
358,291,25817,5,0,0:0:0:0:
275,52,25995,1,8,0:0:0:0:
192,293,26173,1,2,0:0:0:0:
394,137,26350,1,0,0:0:0:0:
153,137,26528,1,2,0:0:0:0:
358,291,26705,1,8,0:0:0:0:
260,148,26883,1,2,0:0:0:0:
355,327,27061,5,2,0:0:0:0:
273,112,27238,1,0,0:0:0:0:
189,329,27416,2,0,L|105:342,2,72,8|2|0,0:0|0:0|0:0,0:0:0:0:
365,302,27949,5,2,0:0:0:0:
290,111,28126,1,8,0:0:0:0:
206,326,28304,2,0,L|135:337,1,72,0|2,0:0|0:0,0:0:0:0:
300,238,28659,5,0,0:0:0:0:
386,170,28837,1,8,0:0:0:0:
203,183,29015,1,2,0:0:0:0:
290,111,29192,5,0,0:0:0:0:
120,264,29370,1,8,1:2:0:0:
300,238,29547,1,8,0:0:0:0:
108,134,29725,1,8,0:0:0:0:
225,282,29903,6,0,L|273:316,1,53.9999983520508,2|0,0:0|2:0,0:0:0:0:
409,324,30258,2,0,L|364:292,1,53.9999983520508,2|0,0:0|2:0,0:0:0:0:
388,80,30613,2,0,L|436:114,1,53.9999983520508,2|0,0:0|2:0,0:0:0:0:
470,238,30968,2,0,L|426:207,1,53.9999983520508,2|0,0:0|2:0,0:0:0:0:
327,147,31315,5,2,1:1:0:0:
195,165,31844,1,0,0:0:0:0:
102,179,32020,6,0,L|56:187,3,45
334,203,32726,6,0,L|274:137,1,72,6|0,0:0|0:0,0:0:0:0:
135,92,33079,1,8,0:0:0:0:
349,47,33256,1,2,0:0:0:0:
199,236,33432,1,0,0:0:0:0:
229,28,33609,1,2,0:0:0:0:
334,203,33785,1,8,0:0:0:0:
203,149,33962,1,2,0:0:0:0:
385,128,34138,5,2,0:0:0:0:
186,150,34315,1,0,0:0:0:0:
381,215,34491,1,8,0:0:0:0:
182,237,34668,1,2,0:0:0:0:
402,127,34844,2,0,L|474:116,1,53.9999983520508,0|2,0:0|0:0,0:0:0:0:
165,238,35197,2,0,L|111:246,1,53.9999983520508,8|6,0:0|0:0,0:0:0:0:
292,82,35550,6,0,P|255:102|234:128,1,72,2|0,0:0|0:0,0:0:0:0:
258,292,35903,1,8,0:0:0:0:
451,224,36079,1,2,0:0:0:0:
341,136,36256,1,0,0:0:0:0:
341,136,36432,1,2,0:0:0:0:
265,277,36609,1,8,0:0:0:0:
445,238,36785,1,2,1:2:0:0:
272,262,36962,5,2,0:0:0:0:
163,272,37138,2,0,L|97:280,2,58.4999973220826,0|8|2,0:0|0:0|0:0,0:0:0:0:
272,262,37667,1,0,0:0:0:0:
272,262,37844,1,6,0:0:0:0:
167,137,38020,1,8,0:0:0:0:
167,137,38197,1,8,0:0:0:0:
367,280,38373,5,6,0:0:0:0:
301,67,38550,1,0,0:0:0:0:
279,247,38726,1,8,0:0:0:0:
167,137,38903,1,2,0:0:0:0:
85,252,39079,2,0,P|50:265|0:262,1,72,0|2,0:0|0:0,0:0:0:0:
200,324,39432,1,8,0:0:0:0:
31,180,39609,6,0,P|18:145|21:95,1,72,2|2,0:0|0:0,0:0:0:0:
256,61,39962,2,0,P|269:96|266:146,1,72,0|8,0:0|0:0,0:0:0:0:
100,130,40314,2,0,P|150:75|182:152,1,180,2|2,0:0|0:0,0:0:0:0:
110,150,40844,1,8,0:0:0:0:
269,130,41020,1,2,0:0:0:0:
52,219,41197,6,0,P|35:250|31:285,1,72,2|0,0:0|0:0,0:0:0:0:
264,309,41550,1,8,0:0:0:0:
186,145,41726,1,2,0:0:0:0:
113,274,41903,1,0,0:0:0:0:
318,241,42079,1,2,0:0:0:0:
269,105,42256,1,8,0:0:0:0:
269,105,42432,1,2,1:2:0:0:
175,218,42609,5,2,0:0:0:0:
195,280,42785,2,0,P|191:247|175:218,1,67.5000025749208,0|8,0:0|0:0,0:0:0:0:
278,329,43138,1,2,0:0:0:0:
113,274,43314,1,8,0:0:0:0:
288,319,43491,1,2,0:0:0:0:
107,363,43667,1,8,0:0:0:0:
271,229,43844,1,2,0:0:0:0:
481,321,44020,6,0,L|392:277,1,72,6|0,0:0|0:0,0:0:0:0:
254,232,44373,1,8,0:0:0:0:
450,159,44550,1,2,0:0:0:0:
284,313,44726,1,0,0:0:0:0:
370,123,44903,1,2,0:0:0:0:
363,349,45079,1,8,0:0:0:0:
290,154,45256,1,2,0:0:0:0:
479,240,45432,5,2,0:0:0:0:
269,231,45609,1,0,0:0:0:0:
467,158,45785,1,8,0:0:0:0:
273,155,45962,1,2,0:0:0:0:
462,256,46138,2,0,P|450:284|442:320,1,53.9999983520508,0|2,0:0|0:0,0:0:0:0:
273,155,46491,2,0,P|285:127|293:91,1,53.9999983520508,8|6,0:0|0:0,0:0:0:0:
257,321,46844,6,0,P|219:332|159:325,1,72,2|0,0:0|0:0,0:0:0:0:
100,191,47197,1,8,0:0:0:0:
290,139,47373,1,2,0:0:0:0:
280,318,47550,2,0,P|248:334|213:341,1,72,0|2,0:0|0:0,0:0:0:0:
115,195,47903,1,8,0:0:0:0:
275,148,48079,1,2,1:2:0:0:
174,261,48256,5,2,0:0:0:0:
115,195,48432,1,0,0:0:0:0:
106,185,48609,1,8,0:0:0:0:
97,175,48785,1,2,0:0:0:0:
210,152,48962,1,0,0:0:0:0:
197,140,49138,1,2,0:0:0:0:
61,284,49314,1,8,0:0:0:0:
73,295,49490,1,8,0:0:0:0:
122,61,49667,5,6,0:0:0:0:
174,261,49844,1,0,0:0:0:0:
226,87,50020,1,8,0:0:0:0:
318,215,50197,1,2,0:0:0:0:
364,96,50373,1,0,0:0:0:0:
364,96,50550,1,2,0:0:0:0:
456,156,50726,1,8,0:0:0:0:
358,284,50903,6,0,P|306:297|262:282,1,72,2|2,0:0|0:0,0:0:0:0:
294,84,51256,2,0,P|347:88|383:110,1,72,0|8,0:0|0:0,0:0:0:0:
318,215,51609,2,0,B|291:225|220:179|220:179|304:150|328:170,1,215.999993408203,2|2,0:0|0:0,0:0:0:0:
354,289,52138,1,8,0:0:0:0:
220,179,52314,1,6,0:0:0:0:
127,329,52491,6,0,L|123:248,1,72,2|0,0:0|0:0,0:0:0:0:
157,75,52844,1,8,0:0:0:0:
193,187,53020,1,2,0:0:0:0:
252,289,53197,1,0,0:0:0:0:
289,180,53373,1,2,0:0:0:0:
336,73,53550,1,8,0:0:0:0:
371,189,53726,1,2,1:2:0:0:
399,49,53903,5,2,0:0:0:0:
442,190,54079,1,2,1:2:0:0:
442,55,54256,1,2,0:0:0:0:
455,187,54432,1,2,1:2:0:0:
480,83,54609,6,0,B|501:94|501:94|518:162|455:187|455:187|445:162|460:141,1,180.899991443024,2|0,0:0|0:0,0:0:0:0:
502,254,55314,6,0,P|453:270|398:248,1,90,6|0,0:0|0:0,0:0:0:0:
234,78,55667,2,0,P|280:66|338:84,1,90,8|2,0:0|0:0,0:0:0:0:
247,228,56020,2,0,P|248:163|307:236,1,215.999993408203,0|8,0:0|0:0,0:0:0:0:
282,195,56550,1,2,0:0:0:0:
330,309,56726,6,0,P|286:320|243:312,1,90,2|0,0:0|0:0,0:0:0:0:
97,358,57079,1,8,0:0:0:0:
75,196,57256,1,2,0:0:0:0:
247,228,57432,2,0,P|296:235|297:158,1,125.999996154785,0|2,0:0|0:0,0:0:0:0:
155,281,57785,1,8,0:0:0:0:
189,121,57962,1,6,0:0:0:0:
243,312,58138,6,0,P|286:320|330:309,1,90,2|0,0:0|0:0,0:0:0:0:
164,201,58491,2,0,P|202:223|246:227,1,90,8|2,0:0|0:0,0:0:0:0:
120,67,58844,2,0,P|148:101|188:120,1,90,0|2,0:0|0:0,0:0:0:0:
355,61,59197,1,8,0:0:0:0:
387,222,59373,6,0,P|431:218|470:196,2,90,0|2|0,0:0|0:0|0:0,0:0:0:0:
369,309,59903,1,8,0:0:0:0:
298,250,60079,1,2,0:0:0:0:
213,301,60256,1,0,0:0:0:0:
303,163,60432,1,2,0:0:0:0:
448,288,60609,1,8,0:0:0:0:
298,250,60785,1,8,0:0:0:0:
138,341,60962,5,6,0:0:0:0:
217,150,61138,1,0,0:0:0:0:
276,350,61314,1,8,0:0:0:0:
118,218,61491,1,2,0:0:0:0:
298,250,61667,2,0,P|342:246|380:223,1,90,0|2,0:0|0:0,0:0:0:0:
398,121,62020,1,8,0:0:0:0:
398,121,62197,1,2,0:0:0:0:
320,51,62373,6,0,P|275:54|237:77,1,90,2|0,0:0|0:0,0:0:0:0:
202,248,62726,1,8,0:0:0:0:
380,223,62903,1,2,0:0:0:0:
323,65,63079,2,0,P|278:60|236:76,1,90,0|2,0:0|0:0,0:0:0:0:
363,211,63432,1,8,0:0:0:0:
192,229,63609,2,0,L|83:246,1,80.9999975280763,2|2,0:0|0:0,0:0:0:0:
133,139,63962,5,0,0:0:0:0:
260,303,64138,1,8,0:0:0:0:
340,112,64314,1,2,0:0:0:0:
192,229,64491,1,0,0:0:0:0:
305,215,64667,1,2,0:0:0:0:
235,122,64844,1,8,0:0:0:0:
340,112,65020,1,0,0:0:0:0:
448,168,65373,5,2,0:0:0:0:
426,175,65726,1,2,0:0:0:0:
347,201,65903,2,0,L|297:217,1,45
223,162,66256,1,0,0:0:0:0:
278,301,66432,1,2,0:0:0:0:
113,280,66609,5,6,0:0:0:0:
257,89,66785,1,0,0:0:0:0:
413,282,66962,2,0,L|505:298,2,72,8|2|0,0:0|0:0|0:0,0:0:0:0:
96,279,67491,5,2,0:0:0:0:
240,88,67667,1,8,0:0:0:0:
396,281,67844,2,0,P|462:285|456:241,1,116.999994644165,2|2,0:0|0:0,0:0:0:0:
174,328,68197,5,0,0:0:0:0:
257,89,68373,1,8,0:0:0:0:
340,330,68550,1,2,0:0:0:0:
138,174,68726,1,0,0:0:0:0:
379,174,68903,1,2,0:0:0:0:
174,328,69079,1,8,0:0:0:0:
157,327,69432,5,2,0:0:0:0:
240,88,69609,1,0,0:0:0:0:
323,329,69785,2,0,L|415:345,2,72,8|2|0,0:0|0:0|0:0,0:0:0:0:
157,231,70314,5,2,0:0:0:0:
174,232,70491,1,8,0:0:0:0:
423,187,70667,1,0,0:0:0:0:
406,186,70844,1,2,0:0:0:0:
157,135,71020,1,0,0:0:0:0:
174,136,71197,1,8,0:0:0:0:
74,182,71373,1,2,0:0:0:0:
381,277,71726,5,2,0:0:0:0:
174,232,71903,1,8,0:0:0:0:
347,151,72079,1,8,0:0:0:0:
163,326,72256,5,6,0:0:0:0:
246,87,72432,1,0,0:0:0:0:
412,277,72609,2,0,L|498:280,2,72,8|2|0,0:0|0:0|0:0,0:0:0:0:
163,248,73138,6,0,L|78:250,1,72,2|8,0:0|0:0,0:0:0:0:
330,60,73491,2,0,L|402:59,1,72,2|2,0:0|0:0,0:0:0:0:
412,203,73844,5,0,0:0:0:0:
171,120,74020,1,8,0:0:0:0:
307,304,74197,1,2,0:0:0:0:
330,60,74373,1,0,0:0:0:0:
163,248,74550,1,2,0:0:0:0:
423,187,74726,1,8,0:0:0:0:
242,172,74903,1,2,0:0:0:0:
163,326,75079,5,2,0:0:0:0:
237,87,75256,1,0,0:0:0:0:
412,277,75432,2,0,L|493:279,2,72,8|2|0,0:0|0:0|0:0,0:0:0:0:
163,248,75962,6,0,L|82:250,1,72,2|8,0:0|0:0,0:0:0:0:
329,60,76314,2,0,L|401:59,2,72,0|2|0,0:0|0:0|0:0,0:0:0:0:
240,213,76844,5,8,0:0:0:0:
307,146,77020,1,2,0:0:0:0:
331,238,77197,1,0,0:0:0:0:
215,127,77373,1,2,0:0:0:0:
400,172,77550,1,8,0:0:0:0:
264,306,77726,1,8,0:0:0:0:
329,60,77903,5,6,0:0:0:0:
412,299,78079,1,0,0:0:0:0:
163,248,78256,2,0,L|93:231,2,72,8|2|0,0:0|0:0|0:0,0:0:0:0:
412,203,78785,6,0,L|482:220,1,72,2|8,0:0|0:0,0:0:0:0:
175,58,79138,2,0,L|105:41,1,72,2|2,0:0|0:0,0:0:0:0:
356,142,79491,5,0,0:0:0:0:
197,232,79667,1,8,0:0:0:0:
258,52,79844,1,2,0:0:0:0:
279,210,80020,1,0,0:0:0:0:
147,172,80197,1,2,0:0:0:0:
307,135,80373,1,8,0:0:0:0:
257,286,80550,1,2,0:0:0:0:
329,60,80726,5,2,0:0:0:0:
406,297,80903,1,0,0:0:0:0:
163,248,81079,2,0,L|93:231,2,72,8|2|0,0:0|0:0|0:0,0:0:0:0:
411,202,81609,6,0,L|481:219,1,72,2|8,0:0|0:0,0:0:0:0:
175,58,81962,2,0,L|106:42,1,72,0|2,0:0|0:0,0:0:0:0:
340,256,82314,5,0,0:0:0:0:
246,105,82491,1,8,0:0:0:0:
218,251,82667,1,2,0:0:0:0:
329,71,82844,1,0,0:0:0:0:
167,144,83020,1,2,0:0:0:0:
329,273,83197,1,8,0:0:0:0:
246,105,83373,1,8,0:0:0:0:
91,279,83550,5,6,0:0:0:0:
257,89,83726,1,0,0:0:0:0:
423,283,83903,2,0,L|512:298,2,72,8|2|0,0:0|0:0|0:0,0:0:0:0:
74,278,84432,5,2,0:0:0:0:
240,88,84609,1,8,0:0:0:0:
406,282,84785,2,0,P|472:286|466:242,1,116.999994644165,2|2,0:0|0:0,0:0:0:0:
154,291,85138,5,0,0:0:0:0:
237,52,85314,1,8,0:0:0:0:
320,293,85491,1,2,0:0:0:0:
118,137,85667,1,0,0:0:0:0:
359,137,85844,1,2,0:0:0:0:
154,291,86020,1,8,0:0:0:0:
252,148,86197,1,2,0:0:0:0:
157,327,86373,5,2,0:0:0:0:
239,112,86550,1,0,0:0:0:0:
323,329,86726,2,0,L|410:342,2,72,8|2|0,0:0|0:0|0:0,0:0:0:0:
147,302,87256,5,2,0:0:0:0:
222,111,87432,1,8,0:0:0:0:
306,326,87609,2,0,L|376:337,1,72,0|2,0:0|0:0,0:0:0:0:
212,238,87962,5,0,0:0:0:0:
126,170,88138,1,8,0:0:0:0:
309,183,88314,1,2,0:0:0:0:
222,111,88491,5,0,0:0:0:0:
392,264,88667,1,8,1:2:0:0:
212,238,88844,1,8,0:0:0:0:
404,134,89020,1,8,0:0:0:0:
287,282,89197,6,0,L|236:318,1,53.9999983520508,2|0,0:0|2:0,0:0:0:0:
103,324,89550,2,0,L|151:290,1,53.9999983520508,2|0,0:0|2:0,0:0:0:0:
124,80,89903,2,0,L|76:114,1,53.9999983520508,2|0,0:0|2:0,0:0:0:0:
42,238,90256,2,0,L|93:205,1,53.9999983520508,2|0,0:0|2:0,0:0:0:0:
191,153,90609,5,2,0:0:0:0:
