osu file format v14

[General]
AudioFilename: audio.mp3
AudioLeadIn: 0
PreviewTime: 42765
Countdown: 0
SampleSet: Normal
StackLeniency: 0.7
Mode: 3
LetterboxInBreaks: 0
SpecialStyle: 0
WidescreenStoryboard: 0

[Editor]
DistanceSpacing: 0.8
BeatDivisor: 8
GridSize: 32
TimelineZoom: 2.599999

[Metadata]
Title:i know
TitleUnicode:i know
Artist:kyoto flowers
ArtistUnicode:kyoto flowers
Creator:Vent
Version:old
Source:
Tags:
BeatmapID:1398220
BeatmapSetID:660306

[Difficulty]
HPDrainRate:10
CircleSize:4
OverallDifficulty:10
ApproachRate:5
SliderMultiplier:1.4
SliderTickRate:1

[Events]
//Background and Video events
0,0,"19092738_1759258144090875_1584865569996357141_o.png",0,0
//Break Periods
//Storyboard Layer 0 (Background)
//Storyboard Layer 1 (Fail)
//Storyboard Layer 2 (Pass)
//Storyboard Layer 3 (Foreground)
//Storyboard Sound Samples

[TimingPoints]
120,333.333333333333,4,1,0,100,1,0

[HitObjects]
64,192,120,5,0,0:0:0:0:
320,192,120,1,0,0:0:0:0:
192,192,286,1,0,0:0:0:0:
448,192,453,1,0,0:0:0:0:
320,192,453,1,0,0:0:0:0:
192,192,620,1,0,0:0:0:0:
448,192,703,1,0,0:0:0:0:
64,192,786,1,0,0:0:0:0:
320,192,870,1,0,0:0:0:0:
192,192,953,1,0,0:0:0:0:
448,192,1120,1,0,0:0:0:0:
64,192,1120,1,0,0:0:0:0:
320,192,1286,1,0,0:0:0:0:
192,192,1453,1,0,0:0:0:0:
64,192,1453,1,0,0:0:0:0:
320,192,1620,1,0,0:0:0:0:
192,192,1786,1,0,0:0:0:0:
448,192,1786,1,0,0:0:0:0:
64,192,1953,1,0,0:0:0:0:
192,192,2036,1,0,0:0:0:0:
320,192,2119,1,0,0:0:0:0:
64,192,2203,1,0,0:0:0:0:
448,192,2286,1,0,0:0:0:0:
320,192,2453,1,0,0:0:0:0:
192,192,2453,1,0,0:0:0:0:
64,192,2619,1,0,0:0:0:0:
320,192,2786,1,0,0:0:0:0:
448,192,2786,1,0,0:0:0:0:
64,192,2953,1,0,0:0:0:0:
192,192,3119,1,0,0:0:0:0:
320,192,3119,1,0,0:0:0:0:
448,192,3286,1,0,0:0:0:0:
320,192,3369,1,0,0:0:0:0:
64,192,3453,1,0,0:0:0:0:
192,192,3536,1,0,0:0:0:0:
320,192,3619,1,0,0:0:0:0:
192,192,3786,1,0,0:0:0:0:
448,192,3786,1,0,0:0:0:0:
64,192,3953,1,0,0:0:0:0:
192,192,4119,1,0,0:0:0:0:
320,192,4119,1,0,0:0:0:0:
448,192,4286,1,0,0:0:0:0:
64,192,4453,1,0,0:0:0:0:
320,192,4453,1,0,0:0:0:0:
448,192,4619,1,0,0:0:0:0:
320,192,4703,1,0,0:0:0:0:
64,192,4786,1,0,0:0:0:0:
192,192,4869,1,0,0:0:0:0:
448,192,4953,1,0,0:0:0:0:
64,192,5119,1,0,0:0:0:0:
320,192,5119,1,0,0:0:0:0:
192,192,5286,1,0,0:0:0:0:
320,192,5453,1,0,0:0:0:0:
448,192,5453,1,0,0:0:0:0:
64,192,5619,1,0,0:0:0:0:
192,192,5786,1,0,0:0:0:0:
448,192,5786,1,0,0:0:0:0:
320,192,5953,1,0,0:0:0:0:
64,192,6036,1,0,0:0:0:0:
448,192,6119,1,0,0:0:0:0:
192,192,6203,1,0,0:0:0:0:
64,192,6286,1,0,0:0:0:0:
448,192,6453,1,0,0:0:0:0:
192,192,6453,1,0,0:0:0:0:
320,192,6619,1,0,0:0:0:0:
64,192,6786,1,0,0:0:0:0:
448,192,6786,1,0,0:0:0:0:
192,192,6953,1,0,0:0:0:0:
64,192,7119,1,0,0:0:0:0:
320,192,7119,1,0,0:0:0:0:
448,192,7286,1,0,0:0:0:0:
320,192,7369,1,0,0:0:0:0:
192,192,7453,1,0,0:0:0:0:
64,192,7536,1,0,0:0:0:0:
320,192,7619,1,0,0:0:0:0:
64,192,7786,1,0,0:0:0:0:
192,192,7786,1,0,0:0:0:0:
448,192,7953,1,0,0:0:0:0:
320,192,8119,1,0,0:0:0:0:
192,192,8119,1,0,0:0:0:0:
64,192,8286,1,0,0:0:0:0:
320,192,8453,1,0,0:0:0:0:
448,192,8453,1,0,0:0:0:0:
64,192,8619,1,0,0:0:0:0:
320,192,8703,1,0,0:0:0:0:
192,192,8786,1,0,0:0:0:0:
448,192,8869,1,0,0:0:0:0:
64,192,8953,1,0,0:0:0:0:
192,192,9119,1,0,0:0:0:0:
320,192,9119,1,0,0:0:0:0:
448,192,9286,1,0,0:0:0:0:
320,192,9453,1,0,0:0:0:0:
64,192,9453,1,0,0:0:0:0:
192,192,9619,1,0,0:0:0:0:
448,192,9786,1,0,0:0:0:0:
320,192,9786,1,0,0:0:0:0:
192,192,9953,1,0,0:0:0:0:
448,192,10036,1,0,0:0:0:0:
320,192,10119,1,0,0:0:0:0:
192,192,10203,1,0,0:0:0:0:
64,192,10286,1,0,0:0:0:0:
192,192,10453,1,0,0:0:0:0:
320,192,10453,1,0,0:0:0:0:
448,192,10619,1,0,0:0:0:0:
192,192,10786,1,0,0:0:0:0:
64,192,10786,1,0,0:0:0:0:
448,192,10953,1,0,0:0:0:0:
192,192,11119,1,0,0:0:0:0:
320,192,11119,1,0,0:0:0:0:
64,192,11286,1,0,0:0:0:0:
192,192,11369,1,0,0:0:0:0:
448,192,11453,1,0,0:0:0:0:
64,192,11536,1,0,0:0:0:0:
320,192,11619,1,0,0:0:0:0:
448,192,11786,1,0,0:0:0:0:
192,192,11786,1,0,0:0:0:0:
64,192,11953,1,0,0:0:0:0:
320,192,12119,1,0,0:0:0:0:
192,192,12119,1,0,0:0:0:0:
448,192,12286,1,0,0:0:0:0:
64,192,12453,1,0,0:0:0:0:
192,192,12453,1,0,0:0:0:0:
320,192,12619,1,0,0:0:0:0:
448,192,12703,1,0,0:0:0:0:
192,192,12786,1,0,0:0:0:0:
64,192,12869,1,0,0:0:0:0:
320,192,12953,1,0,0:0:0:0:
192,192,13119,1,0,0:0:0:0:
448,192,13119,1,0,0:0:0:0:
320,192,13286,1,0,0:0:0:0:
64,192,13453,1,0,0:0:0:0:
192,192,13453,1,0,0:0:0:0:
448,192,13619,1,0,0:0:0:0:
320,192,13786,1,0,0:0:0:0:
192,192,13786,1,0,0:0:0:0:
64,192,13953,1,0,0:0:0:0:
192,192,14036,1,0,0:0:0:0:
448,192,14119,1,0,0:0:0:0:
320,192,14203,1,0,0:0:0:0:
64,192,14286,1,0,0:0:0:0:
448,192,14453,1,0,0:0:0:0:
320,192,14453,1,0,0:0:0:0:
192,192,14619,1,0,0:0:0:0:
64,192,14786,1,0,0:0:0:0:
320,192,14786,1,0,0:0:0:0:
192,192,14953,1,0,0:0:0:0:
448,192,15119,1,0,0:0:0:0:
320,192,15119,1,0,0:0:0:0:
64,192,15286,1,0,0:0:0:0:
448,192,15369,1,0,0:0:0:0:
192,192,15453,1,0,0:0:0:0:
320,192,15536,1,0,0:0:0:0:
448,192,15619,1,0,0:0:0:0:
64,192,15786,1,0,0:0:0:0:
192,192,15786,1,0,0:0:0:0:
448,192,15953,1,0,0:0:0:0:
320,192,16119,1,0,0:0:0:0:
192,192,16119,1,0,0:0:0:0:
64,192,16286,1,0,0:0:0:0:
320,192,16453,1,0,0:0:0:0:
448,192,16453,1,0,0:0:0:0:
64,192,16619,1,0,0:0:0:0:
448,192,16703,1,0,0:0:0:0:
320,192,16786,1,0,0:0:0:0:
192,192,16869,1,0,0:0:0:0:
448,192,16953,1,0,0:0:0:0:
64,192,17119,1,0,0:0:0:0:
320,192,17119,1,0,0:0:0:0:
192,192,17286,1,0,0:0:0:0:
320,192,17453,1,0,0:0:0:0:
448,192,17453,1,0,0:0:0:0:
64,192,17619,1,0,0:0:0:0:
192,192,17786,1,0,0:0:0:0:
320,192,17786,1,0,0:0:0:0:
64,192,17953,1,0,0:0:0:0:
448,192,18036,1,0,0:0:0:0:
320,192,18119,1,0,0:0:0:0:
192,192,18203,1,0,0:0:0:0:
64,192,18286,1,0,0:0:0:0:
448,192,18453,1,0,0:0:0:0:
192,192,18453,1,0,0:0:0:0:
64,192,18619,1,0,0:0:0:0:
192,192,18786,1,0,0:0:0:0:
320,192,18786,1,0,0:0:0:0:
448,192,18953,1,0,0:0:0:0:
64,192,19119,1,0,0:0:0:0:
320,192,19119,1,0,0:0:0:0:
192,192,19286,1,0,0:0:0:0:
448,192,19369,1,0,0:0:0:0:
320,192,19453,1,0,0:0:0:0:
64,192,19536,1,0,0:0:0:0:
192,192,19619,1,0,0:0:0:0:
320,192,19786,1,0,0:0:0:0:
448,192,19786,1,0,0:0:0:0:
192,192,19953,1,0,0:0:0:0:
64,192,20119,1,0,0:0:0:0:
320,192,20119,1,0,0:0:0:0:
448,192,20286,1,0,0:0:0:0:
64,192,20453,1,0,0:0:0:0:
192,192,20453,1,0,0:0:0:0:
448,192,20619,1,0,0:0:0:0:
64,192,20703,1,0,0:0:0:0:
192,192,20786,1,0,0:0:0:0:
320,192,20869,1,0,0:0:0:0:
448,192,20953,1,0,0:0:0:0:
64,192,21119,1,0,0:0:0:0:
192,192,21119,1,0,0:0:0:0:
320,192,21286,1,0,0:0:0:0:
448,192,21453,128,0,22119:0:0:0:0:
64,192,21453,128,0,21619:0:0:0:0:
192,192,21786,128,0,21953:0:0:0:0:
192,192,22119,1,0,0:0:0:0:
64,192,22119,128,0,22286:0:0:0:0:
320,192,22119,1,0,0:0:0:0:
192,192,22453,128,0,22619:0:0:0:0:
320,192,22453,128,0,23453:0:0:0:0:
64,192,22619,128,0,22786:0:0:0:0:
448,192,22953,128,0,23119:0:0:0:0:
192,192,23119,128,0,23453:0:0:0:0:
64,192,23453,128,0,23619:0:0:0:0:
448,192,23453,1,0,0:0:0:0:
320,192,23786,1,0,0:0:0:0:
448,192,23953,128,0,24119:0:0:0:0:
64,192,24119,128,0,24786:0:0:0:0:
320,192,24286,128,0,24453:0:0:0:0:
192,192,24619,128,0,24786:0:0:0:0:
320,192,24786,128,0,24953:0:0:0:0:
448,192,24786,1,0,0:0:0:0:
192,192,25092,1,0,0:0:0:0:
448,192,25119,128,0,26119:0:0:0:0:
64,192,25286,128,0,25453:0:0:0:0:
192,192,25578,1,0,0:0:0:0:
320,192,25744,128,0,25911:0:0:0:0:
64,192,26119,128,0,26286:0:0:0:0:
448,192,26453,1,0,0:0:0:0:
192,192,26619,128,0,26786:0:0:0:0:
320,192,26786,128,0,27453:0:0:0:0:
448,192,26953,128,0,27286:0:0:0:0:
64,192,27286,128,0,27453:0:0:0:0:
192,192,27453,1,0,0:0:0:0:
448,192,27453,1,0,0:0:0:0:
192,192,27619,128,0,27786:0:0:0:0:
64,192,27786,128,0,28786:0:0:0:0:
320,192,27953,128,0,28119:0:0:0:0:
192,192,28286,128,0,28453:0:0:0:0:
448,192,28619,128,0,28786:0:0:0:0:
192,192,28786,1,0,0:0:0:0:
320,192,28786,1,0,0:0:0:0:
448,192,28953,128,0,29119:0:0:0:0:
192,192,29119,128,0,29286:0:0:0:0:
320,192,29286,128,0,29453:0:0:0:0:
192,192,29453,128,0,30119:0:0:0:0:
448,192,29453,128,0,29619:0:0:0:0:
64,192,29619,128,0,29786:0:0:0:0:
320,192,29786,128,0,29953:0:0:0:0:
64,192,30119,1,0,0:0:0:0:
448,192,30119,1,0,0:0:0:0:
320,192,30119,1,0,0:0:0:0:
64,192,30286,128,0,30453:0:0:0:0:
320,192,30453,128,0,30619:0:0:0:0:
448,192,30536,128,0,32119:0:0:0:0:
64,192,30619,128,0,30786:0:0:0:0:
192,192,30786,128,0,30953:0:0:0:0:
320,192,31119,1,0,0:0:0:0:
64,192,31453,1,0,0:0:0:0:
192,192,31453,1,0,0:0:0:0:
320,192,31453,1,0,0:0:0:0:
192,192,31619,128,0,31731:0:0:0:0:
64,192,31731,128,0,31953:0:0:0:0:
320,192,31953,128,0,32119:0:0:0:0:
192,192,32119,1,0,0:0:0:0:
64,192,32119,1,0,0:0:0:0:
320,192,32286,1,0,0:0:0:0:
192,192,32369,1,0,0:0:0:0:
448,192,32453,1,0,0:0:0:0:
64,192,32619,1,0,0:0:0:0:
192,192,32619,1,0,0:0:0:0:
320,192,32786,1,0,0:0:0:0:
448,192,32786,1,0,0:0:0:0:
192,192,32786,1,0,0:0:0:0:
64,192,32786,1,0,0:0:0:0:
320,192,32953,1,0,0:0:0:0:
192,192,33119,1,0,0:0:0:0:
64,192,33119,1,0,0:0:0:0:
448,192,33119,1,0,0:0:0:0:
320,192,33286,1,0,0:0:0:0:
192,192,33453,1,0,0:0:0:0:
64,192,33619,1,0,0:0:0:0:
192,192,33661,1,0,0:0:0:0:
320,192,33703,1,0,0:0:0:0:
448,192,33744,1,0,0:0:0:0:
64,192,33786,1,0,0:0:0:0:
192,192,33786,1,0,0:0:0:0:
64,192,34119,1,0,0:0:0:0:
192,192,34119,1,0,0:0:0:0:
320,192,34119,1,0,0:0:0:0:
448,192,34119,1,0,0:0:0:0:
448,192,34369,1,0,0:0:0:0:
64,192,34453,1,0,0:0:0:0:
320,192,34619,1,0,0:0:0:0:
64,192,34786,1,0,0:0:0:0:
192,192,34786,1,0,0:0:0:0:
320,192,34786,1,0,0:0:0:0:
192,192,34953,1,0,0:0:0:0:
64,192,35119,1,0,0:0:0:0:
64,192,35286,1,0,0:0:0:0:
320,192,35286,1,0,0:0:0:0:
448,192,35286,1,0,0:0:0:0:
64,192,35453,1,0,0:0:0:0:
192,192,35453,1,0,0:0:0:0:
320,192,35453,1,0,0:0:0:0:
448,192,35453,1,0,0:0:0:0:
192,192,35619,1,0,0:0:0:0:
320,192,35703,1,0,0:0:0:0:
64,192,35786,1,0,0:0:0:0:
448,192,35786,1,0,0:0:0:0:
192,192,35953,1,0,0:0:0:0:
320,192,36119,1,0,0:0:0:0:
448,192,36119,1,0,0:0:0:0:
320,192,36286,1,0,0:0:0:0:
64,192,36286,1,0,0:0:0:0:
192,192,36328,1,0,0:0:0:0:
448,192,36369,1,0,0:0:0:0:
320,192,36411,1,0,0:0:0:0:
192,192,36453,1,0,0:0:0:0:
64,192,36453,1,0,0:0:0:0:
192,192,36619,1,0,0:0:0:0:
64,192,36619,1,0,0:0:0:0:
192,192,36786,1,0,0:0:0:0:
320,192,36786,1,0,0:0:0:0:
448,192,36786,1,0,0:0:0:0:
64,192,36786,1,0,0:0:0:0:
448,192,36953,1,0,0:0:0:0:
64,192,37036,1,0,0:0:0:0:
192,192,37119,1,0,0:0:0:0:
320,192,37119,1,0,0:0:0:0:
448,192,37286,1,0,0:0:0:0:
64,192,37453,1,0,0:0:0:0:
320,192,37453,1,0,0:0:0:0:
192,192,37453,1,0,0:0:0:0:
448,192,37619,1,0,0:0:0:0:
320,192,37703,1,0,0:0:0:0:
64,192,37786,1,0,0:0:0:0:
192,192,37786,1,0,0:0:0:0:
448,192,37953,1,0,0:0:0:0:
64,192,37953,1,0,0:0:0:0:
64,192,38119,1,0,0:0:0:0:
192,192,38119,1,0,0:0:0:0:
448,192,38119,1,0,0:0:0:0:
320,192,38119,1,0,0:0:0:0:
192,192,38286,1,0,0:0:0:0:
320,192,38453,1,0,0:0:0:0:
448,192,38453,1,0,0:0:0:0:
192,192,38453,1,0,0:0:0:0:
64,192,38619,1,0,0:0:0:0:
320,192,38786,1,0,0:0:0:0:
448,192,38786,1,0,0:0:0:0:
192,192,38869,1,0,0:0:0:0:
64,192,38911,1,0,0:0:0:0:
448,192,38953,1,0,0:0:0:0:
320,192,38994,1,0,0:0:0:0:
192,192,39036,1,0,0:0:0:0:
64,192,39078,1,0,0:0:0:0:
320,192,39119,1,0,0:0:0:0:
448,192,39119,1,0,0:0:0:0:
192,192,39286,1,0,0:0:0:0:
192,192,39453,1,0,0:0:0:0:
448,192,39453,1,0,0:0:0:0:
320,192,39453,1,0,0:0:0:0:
64,192,39453,1,0,0:0:0:0:
64,192,39619,1,0,0:0:0:0:
448,192,39703,1,0,0:0:0:0:
192,192,39786,1,0,0:0:0:0:
64,192,39953,1,0,0:0:0:0:
192,192,40119,1,0,0:0:0:0:
320,192,40119,1,0,0:0:0:0:
448,192,40119,1,0,0:0:0:0:
448,192,40286,1,0,0:0:0:0:
192,192,40453,1,0,0:0:0:0:
64,192,40619,1,0,0:0:0:0:
192,192,40619,1,0,0:0:0:0:
64,192,40786,1,0,0:0:0:0:
192,192,40786,1,0,0:0:0:0:
448,192,40786,1,0,0:0:0:0:
320,192,40786,1,0,0:0:0:0:
320,192,40953,1,0,0:0:0:0:
448,192,41036,1,0,0:0:0:0:
320,192,41119,1,0,0:0:0:0:
64,192,41119,1,0,0:0:0:0:
192,192,41119,1,0,0:0:0:0:
64,192,41286,1,0,0:0:0:0:
320,192,41453,1,0,0:0:0:0:
448,192,41619,1,0,0:0:0:0:
320,192,41661,1,0,0:0:0:0:
64,192,41703,1,0,0:0:0:0:
192,192,41744,1,0,0:0:0:0:
320,192,41786,1,0,0:0:0:0:
448,192,41786,1,0,0:0:0:0:
320,192,41953,1,0,0:0:0:0:
448,192,41953,1,0,0:0:0:0:
192,192,42119,128,0,42786:0:0:0:0:
64,192,42119,1,0,0:0:0:0:
320,192,42119,1,0,0:0:0:0:
448,192,42119,1,0,0:0:0:0:
64,192,42786,128,0,42953:0:0:0:0:
320,192,42786,128,0,42953:0:0:0:0:
448,192,42786,128,0,42953:0:0:0:0:
320,192,43119,1,0,0:0:0:0:
192,192,43119,1,0,0:0:0:0:
64,192,43286,1,0,0:0:0:0:
448,192,43286,1,0,0:0:0:0:
192,192,43286,1,0,0:0:0:0:
192,192,43453,1,0,0:0:0:0:
448,192,43453,1,0,0:0:0:0:
320,192,43453,1,0,0:0:0:0:
64,192,43453,1,0,0:0:0:0:
320,192,43619,1,0,0:0:0:0:
448,192,43786,128,0,43953:0:0:0:0:
320,192,43786,128,0,43953:0:0:0:0:
192,192,43786,128,0,43953:0:0:0:0:
64,192,43786,128,0,43953:0:0:0:0:
320,192,44453,5,0,0:0:0:0:
448,192,44536,1,0,0:0:0:0:
320,192,44619,1,0,0:0:0:0:
448,192,44703,1,0,0:0:0:0:
320,192,44786,1,0,0:0:0:0:
192,192,44786,1,0,0:0:0:0:
64,192,44786,1,0,0:0:0:0:
448,192,45119,1,0,0:0:0:0:
320,192,45286,1,0,0:0:0:0:
64,192,45453,128,0,45619:0:0:0:0:
192,192,45453,128,0,45619:0:0:0:0:
320,192,45453,128,0,45619:0:0:0:0:
448,192,45453,128,0,45619:0:0:0:0:
64,192,45786,1,0,0:0:0:0:
192,192,45786,1,0,0:0:0:0:
192,192,45953,1,0,0:0:0:0:
320,192,45953,1,0,0:0:0:0:
448,192,45953,1,0,0:0:0:0:
64,192,46119,1,0,0:0:0:0:
192,192,46119,1,0,0:0:0:0:
320,192,46119,1,0,0:0:0:0:
448,192,46119,1,0,0:0:0:0:
64,192,46453,128,0,46619:0:0:0:0:
192,192,46453,128,0,46619:0:0:0:0:
320,192,46453,128,0,46619:0:0:0:0:
448,192,46453,128,0,46619:0:0:0:0:
64,192,46786,1,0,0:0:0:0:
320,192,46786,1,0,0:0:0:0:
192,192,47119,128,0,47328:0:0:0:0:
64,192,47119,1,0,0:0:0:0:
320,192,47119,1,0,0:0:0:0:
448,192,47119,1,0,0:0:0:0:
448,192,47328,128,0,48119:0:0:0:0:
320,192,47453,1,0,0:0:0:0:
192,192,47453,1,0,0:0:0:0:
64,192,47453,1,0,0:0:0:0:
320,192,48119,128,0,48286:0:0:0:0:
192,192,48119,128,0,48286:0:0:0:0:
64,192,48119,128,0,48286:0:0:0:0:
448,192,48453,1,0,0:0:0:0:
320,192,48453,1,0,0:0:0:0:
64,192,48619,1,0,0:0:0:0:
192,192,48619,1,0,0:0:0:0:
320,192,48619,1,0,0:0:0:0:
64,192,48786,1,0,0:0:0:0:
192,192,48786,1,0,0:0:0:0:
320,192,48786,1,0,0:0:0:0:
448,192,48786,1,0,0:0:0:0:
64,192,48953,1,0,0:0:0:0:
64,192,49119,128,0,49286:0:0:0:0:
192,192,49119,128,0,49286:0:0:0:0:
320,192,49119,128,0,49286:0:0:0:0:
448,192,49119,128,0,49286:0:0:0:0:
448,192,49453,1,0,0:0:0:0:
448,192,49536,1,0,0:0:0:0:
320,192,49619,1,0,0:0:0:0:
320,192,49703,1,0,0:0:0:0:
192,192,49786,1,0,0:0:0:0:
64,192,49953,1,0,0:0:0:0:
64,192,50119,1,0,0:0:0:0:
192,192,50119,1,0,0:0:0:0:
320,192,50119,1,0,0:0:0:0:
448,192,50119,1,0,0:0:0:0:
192,192,50453,128,0,50619:0:0:0:0:
320,192,50619,128,0,50786:0:0:0:0:
64,192,50786,128,0,50953:0:0:0:0:
192,192,50786,128,0,50953:0:0:0:0:
448,192,50786,128,0,50953:0:0:0:0:
320,192,50953,1,0,0:0:0:0:
192,192,51036,1,0,0:0:0:0:
320,192,51119,1,0,0:0:0:0:
448,192,51119,1,0,0:0:0:0:
192,192,51286,1,0,0:0:0:0:
448,192,51286,1,0,0:0:0:0:
64,192,51286,1,0,0:0:0:0:
64,192,51453,1,0,0:0:0:0:
192,192,51453,1,0,0:0:0:0:
448,192,51453,1,0,0:0:0:0:
320,192,51453,1,0,0:0:0:0:
320,192,51619,1,0,0:0:0:0:
320,192,51786,128,0,51953:0:0:0:0:
448,192,51786,128,0,51953:0:0:0:0:
192,192,51786,128,0,51953:0:0:0:0:
64,192,51953,1,0,0:0:0:0:
192,192,52119,1,0,0:0:0:0:
320,192,52119,1,0,0:0:0:0:
448,192,52286,1,0,0:0:0:0:
320,192,52328,1,0,0:0:0:0:
192,192,52369,1,0,0:0:0:0:
64,192,52411,1,0,0:0:0:0:
320,192,52453,1,0,0:0:0:0:
448,192,52453,1,0,0:0:0:0:
192,192,52453,1,0,0:0:0:0:
320,192,52786,1,0,0:0:0:0:
448,192,52786,1,0,0:0:0:0:
64,192,52786,1,0,0:0:0:0:
192,192,52786,128,0,53119:0:0:0:0:
448,192,53036,1,0,0:0:0:0:
64,192,53119,128,0,53453:0:0:0:0:
320,192,53286,1,0,0:0:0:0:
192,192,53453,128,0,53619:0:0:0:0:
320,192,53453,128,0,53619:0:0:0:0:
448,192,53453,128,0,53619:0:0:0:0:
64,192,53786,1,0,0:0:0:0:
192,192,53786,1,0,0:0:0:0:
320,192,53953,1,0,0:0:0:0:
448,192,53953,1,0,0:0:0:0:
64,192,53953,1,0,0:0:0:0:
64,192,54119,1,0,0:0:0:0:
192,192,54119,1,0,0:0:0:0:
320,192,54119,1,0,0:0:0:0:
448,192,54119,1,0,0:0:0:0:
192,192,54286,1,0,0:0:0:0:
64,192,54453,128,0,54619:0:0:0:0:
448,192,54453,128,0,54619:0:0:0:0:
192,192,54453,128,0,54619:0:0:0:0:
320,192,54453,128,0,54619:0:0:0:0:
320,192,54786,1,0,0:0:0:0:
64,192,55119,1,0,0:0:0:0:
320,192,55203,1,0,0:0:0:0:
64,192,55286,1,0,0:0:0:0:
320,192,55369,1,0,0:0:0:0:
64,192,55453,1,0,0:0:0:0:
448,192,55453,1,0,0:0:0:0:
192,192,55453,1,0,0:0:0:0:
64,192,55786,1,0,0:0:0:0:
192,192,55953,1,0,0:0:0:0:
64,192,56119,128,0,56286:0:0:0:0:
192,192,56119,128,0,56286:0:0:0:0:
320,192,56119,128,0,56286:0:0:0:0:
448,192,56119,128,0,56286:0:0:0:0:
320,192,56453,1,0,0:0:0:0:
448,192,56453,1,0,0:0:0:0:
64,192,56619,1,0,0:0:0:0:
192,192,56619,1,0,0:0:0:0:
320,192,56619,1,0,0:0:0:0:
64,192,56786,1,0,0:0:0:0:
192,192,56786,1,0,0:0:0:0:
320,192,56786,1,0,0:0:0:0:
448,192,56786,1,0,0:0:0:0:
320,192,57119,128,0,57286:0:0:0:0:
192,192,57119,128,0,57286:0:0:0:0:
64,192,57119,128,0,57286:0:0:0:0:
448,192,57119,128,0,57286:0:0:0:0:
192,192,57453,1,0,0:0:0:0:
448,192,57453,1,0,0:0:0:0:
64,192,57786,1,0,0:0:0:0:
192,192,57786,1,0,0:0:0:0:
320,192,57786,1,0,0:0:0:0:
448,192,57786,128,0,57994:0:0:0:0:
320,192,57994,128,0,58786:0:0:0:0:
64,192,58119,1,0,0:0:0:0:
192,192,58119,1,0,0:0:0:0:
448,192,58119,1,0,0:0:0:0:
64,192,58786,128,0,58953:0:0:0:0:
192,192,58786,128,0,58953:0:0:0:0:
448,192,58786,128,0,58953:0:0:0:0:
320,192,59119,1,0,0:0:0:0:
448,192,59119,1,0,0:0:0:0:
64,192,59286,1,0,0:0:0:0:
192,192,59286,1,0,0:0:0:0:
448,192,59286,1,0,0:0:0:0:
64,192,59453,1,0,0:0:0:0:
192,192,59453,1,0,0:0:0:0:
320,192,59453,1,0,0:0:0:0:
448,192,59453,1,0,0:0:0:0:
320,192,59619,1,0,0:0:0:0:
64,192,59786,128,0,59953:0:0:0:0:
192,192,59786,128,0,59953:0:0:0:0:
320,192,59786,128,0,59953:0:0:0:0:
448,192,59786,128,0,59953:0:0:0:0:
320,192,60119,1,0,0:0:0:0:
192,192,60203,1,0,0:0:0:0:
320,192,60286,1,0,0:0:0:0:
192,192,60369,1,0,0:0:0:0:
320,192,60453,1,0,0:0:0:0:
320,192,60619,1,0,0:0:0:0:
64,192,60786,1,0,0:0:0:0:
192,192,60786,1,0,0:0:0:0:
448,192,60786,1,0,0:0:0:0:
320,192,60786,1,0,0:0:0:0:
64,192,60953,1,0,0:0:0:0:
192,192,61036,1,0,0:0:0:0:
64,192,61119,1,0,0:0:0:0:
64,192,61244,1,0,0:0:0:0:
64,192,61453,128,0,61619:0:0:0:0:
192,192,61453,128,0,61619:0:0:0:0:
320,192,61453,128,0,61619:0:0:0:0:
448,192,61453,128,0,61619:0:0:0:0:
448,192,61703,1,0,0:0:0:0:
320,192,61786,1,0,0:0:0:0:
64,192,61953,1,0,0:0:0:0:
192,192,61953,1,0,0:0:0:0:
448,192,61953,1,0,0:0:0:0:
64,192,62119,1,0,0:0:0:0:
192,192,62119,1,0,0:0:0:0:
320,192,62119,1,0,0:0:0:0:
448,192,62119,1,0,0:0:0:0:
320,192,62286,1,0,0:0:0:0:
64,192,62453,128,0,62619:0:0:0:0:
192,192,62453,128,0,62619:0:0:0:0:
320,192,62453,128,0,62619:0:0:0:0:
448,192,62453,128,0,62619:0:0:0:0:
64,192,62786,1,0,0:0:0:0:
448,192,62953,1,0,0:0:0:0:
320,192,62994,1,0,0:0:0:0:
192,192,63036,1,0,0:0:0:0:
64,192,63078,1,0,0:0:0:0:
192,192,63119,1,0,0:0:0:0:
320,192,63119,1,0,0:0:0:0:
448,192,63119,128,0,63328:0:0:0:0:
320,192,63328,128,0,64119:0:0:0:0:
64,192,63453,1,0,0:0:0:0:
192,192,63453,1,0,0:0:0:0:
448,192,63453,1,0,0:0:0:0:
448,192,63703,1,0,0:0:0:0:
64,192,63953,1,0,0:0:0:0:
448,192,64119,128,0,64786:0:0:0:0:
192,192,64119,128,0,64286:0:0:0:0:
320,192,64286,128,0,64453:0:0:0:0:
64,192,64453,1,0,0:0:0:0:
192,192,64453,128,0,64619:0:0:0:0:
320,192,64619,1,0,0:0:0:0:
64,192,64786,1,0,0:0:0:0:
448,192,65119,128,0,66119:0:0:0:0:
64,192,65119,1,0,0:0:0:0:
320,192,65453,128,0,65619:0:0:0:0:
64,192,65453,1,0,0:0:0:0:
64,192,65786,1,0,0:0:0:0:
64,192,65953,128,0,66119:0:0:0:0:
192,192,66119,1,0,0:0:0:0:
192,192,66453,1,0,0:0:0:0:
448,192,66453,128,0,66619:0:0:0:0:
320,192,66619,128,0,66786:0:0:0:0:
64,192,66786,128,0,67453:0:0:0:0:
192,192,66786,128,0,66953:0:0:0:0:
448,192,66786,1,0,0:0:0:0:
320,192,66953,128,0,67453:0:0:0:0:
448,192,67119,1,0,0:0:0:0:
448,192,67453,1,0,0:0:0:0:
64,192,67786,128,0,68786:0:0:0:0:
192,192,67786,1,0,0:0:0:0:
320,192,68119,128,0,68453:0:0:0:0:
192,192,68119,1,0,0:0:0:0:
448,192,68453,1,0,0:0:0:0:
192,192,68619,128,0,68786:0:0:0:0:
320,192,68786,1,0,0:0:0:0:
448,192,69119,128,0,69453:0:0:0:0:
192,192,69453,128,0,69619:0:0:0:0:
320,192,69453,128,0,70119:0:0:0:0:
64,192,69619,128,0,69703:0:0:0:0:
192,192,69786,128,0,69953:0:0:0:0:
448,192,69786,1,0,0:0:0:0:
448,192,70119,1,0,0:0:0:0:
320,192,70453,128,0,71453:0:0:0:0:
448,192,70453,1,0,0:0:0:0:
64,192,70786,128,0,70953:0:0:0:0:
192,192,70786,1,0,0:0:0:0:
192,192,71119,1,0,0:0:0:0:
448,192,71286,128,0,71453:0:0:0:0:
192,192,71453,1,0,0:0:0:0:
448,192,71786,128,0,71953:0:0:0:0:
192,192,71786,1,0,0:0:0:0:
64,192,71953,128,0,72119:0:0:0:0:
192,192,72119,128,0,72786:0:0:0:0:
320,192,72119,128,0,72619:0:0:0:0:
448,192,72119,1,0,0:0:0:0:
448,192,72453,1,0,0:0:0:0:
448,192,72786,1,0,0:0:0:0:
448,192,73119,1,0,0:0:0:0:
192,192,73119,128,0,74786:0:0:0:0:
448,192,73453,1,0,0:0:0:0:
64,192,73453,128,0,73953:0:0:0:0:
448,192,73786,1,0,0:0:0:0:
320,192,73953,128,0,74286:0:0:0:0:
448,192,74119,1,0,0:0:0:0:
64,192,74286,1,0,0:0:0:0:
448,192,74453,1,0,0:0:0:0:
64,192,74453,1,0,0:0:0:0:
64,192,74619,1,0,0:0:0:0:
320,192,74786,128,0,75453:0:0:0:0:
448,192,74786,128,0,74953:0:0:0:0:
192,192,74953,128,0,75064:0:0:0:0:
64,192,75119,1,0,0:0:0:0:
448,192,75119,128,0,75286:0:0:0:0:
64,192,75453,1,0,0:0:0:0:
192,192,75453,1,0,0:0:0:0:
448,192,75453,1,0,0:0:0:0:
320,192,75786,128,0,77453:0:0:0:0:
448,192,75786,1,0,0:0:0:0:
448,192,76119,1,0,0:0:0:0:
64,192,76119,128,0,76286:0:0:0:0:
448,192,76453,1,0,0:0:0:0:
192,192,76619,128,0,76786:0:0:0:0:
64,192,76786,1,0,0:0:0:0:
448,192,76786,1,0,0:0:0:0:
448,192,77119,1,0,0:0:0:0:
64,192,77119,128,0,77286:0:0:0:0:
192,192,77286,128,0,77453:0:0:0:0:
448,192,77453,128,0,78119:0:0:0:0:
64,192,77453,128,0,78119:0:0:0:0:
192,192,77786,1,0,0:0:0:0:
320,192,77953,1,0,0:0:0:0:
192,192,78119,1,0,0:0:0:0:
320,192,78119,1,0,0:0:0:0:
192,192,78286,1,0,0:0:0:0:
448,192,78453,1,0,0:0:0:0:
64,192,78453,128,0,80119:0:0:0:0:
192,192,78619,1,0,0:0:0:0:
320,192,78786,128,0,79286:0:0:0:0:
448,192,78786,1,0,0:0:0:0:
192,192,78953,1,0,0:0:0:0:
448,192,79119,1,0,0:0:0:0:
192,192,79286,1,0,0:0:0:0:
448,192,79286,128,0,79786:0:0:0:0:
192,192,79453,1,0,0:0:0:0:
320,192,79453,1,0,0:0:0:0:
320,192,79619,1,0,0:0:0:0:
192,192,79786,1,0,0:0:0:0:
320,192,79786,128,0,80119:0:0:0:0:
448,192,79953,1,0,0:0:0:0:
448,192,80119,128,0,80786:0:0:0:0:
192,192,80119,128,0,80286:0:0:0:0:
320,192,80286,1,0,0:0:0:0:
64,192,80286,128,0,80453:0:0:0:0:
192,192,80453,1,0,0:0:0:0:
320,192,80453,128,0,80619:0:0:0:0:
64,192,80619,1,0,0:0:0:0:
64,192,80786,1,0,0:0:0:0:
192,192,80786,1,0,0:0:0:0:
320,192,80786,1,0,0:0:0:0:
320,192,80953,1,0,0:0:0:0:
448,192,81119,128,0,82786:0:0:0:0:
64,192,81119,1,0,0:0:0:0:
320,192,81286,1,0,0:0:0:0:
192,192,81453,128,0,81619:0:0:0:0:
64,192,81453,1,0,0:0:0:0:
320,192,81619,1,0,0:0:0:0:
64,192,81786,1,0,0:0:0:0:
320,192,81953,1,0,0:0:0:0:
64,192,81953,128,0,82119:0:0:0:0:
192,192,82119,1,0,0:0:0:0:
320,192,82119,1,0,0:0:0:0:
64,192,82286,1,0,0:0:0:0:
320,192,82453,128,0,82619:0:0:0:0:
192,192,82453,1,0,0:0:0:0:
192,192,82619,128,0,82786:0:0:0:0:
64,192,82619,1,0,0:0:0:0:
320,192,82786,128,0,83286:0:0:0:0:
64,192,82786,128,0,83786:0:0:0:0:
448,192,82953,1,0,0:0:0:0:
192,192,83119,1,0,0:0:0:0:
448,192,83286,1,0,0:0:0:0:
192,192,83453,1,0,0:0:0:0:
320,192,83453,1,0,0:0:0:0:
448,192,83453,1,0,0:0:0:0:
192,192,83619,1,0,0:0:0:0:
192,192,83786,128,0,85453:0:0:0:0:
320,192,83786,1,0,0:0:0:0:
64,192,83953,1,0,0:0:0:0:
320,192,84119,1,0,0:0:0:0:
448,192,84119,128,0,84619:0:0:0:0:
64,192,84286,1,0,0:0:0:0:
320,192,84453,1,0,0:0:0:0:
64,192,84619,1,0,0:0:0:0:
320,192,84619,128,0,84786:0:0:0:0:
448,192,84786,128,0,84953:0:0:0:0:
320,192,84953,128,0,85119:0:0:0:0:
64,192,85119,128,0,85286:0:0:0:0:
320,192,85286,128,0,85453:0:0:0:0:
448,192,85453,128,0,85619:0:0:0:0:
64,192,85453,1,0,0:0:0:0:
192,192,85619,1,0,0:0:0:0:
64,192,85786,128,0,85953:0:0:0:0:
320,192,85786,1,0,0:0:0:0:
192,192,85953,1,0,0:0:0:0:
448,192,85953,1,0,0:0:0:0:
320,192,86119,128,0,86286:0:0:0:0:
64,192,86119,1,0,0:0:0:0:
192,192,86119,1,0,0:0:0:0:
448,192,86119,1,0,0:0:0:0:
448,192,86286,1,0,0:0:0:0:
320,192,86453,1,0,0:0:0:0:
192,192,86453,128,0,86619:0:0:0:0:
448,192,86619,128,0,86786:0:0:0:0:
64,192,86619,1,0,0:0:0:0:
320,192,86619,1,0,0:0:0:0:
192,192,86786,1,0,0:0:0:0:
448,192,86953,1,0,0:0:0:0:
64,192,86953,128,0,87119:0:0:0:0:
192,192,87119,128,0,87453:0:0:0:0:
320,192,87119,1,0,0:0:0:0:
448,192,87286,1,0,0:0:0:0:
64,192,87453,1,0,0:0:0:0:
320,192,87453,1,0,0:0:0:0:
448,192,87453,1,0,0:0:0:0:
64,192,87619,1,0,0:0:0:0:
320,192,87786,1,0,0:0:0:0:
448,192,87953,128,0,88119:0:0:0:0:
192,192,87953,1,0,0:0:0:0:
64,192,88119,1,0,0:0:0:0:
192,192,88119,1,0,0:0:0:0:
320,192,88286,128,0,88453:0:0:0:0:
448,192,88286,1,0,0:0:0:0:
192,192,88453,1,0,0:0:0:0:
192,192,88619,128,0,88786:0:0:0:0:
64,192,88619,1,0,0:0:0:0:
448,192,88619,1,0,0:0:0:0:
448,192,88786,128,0,88953:0:0:0:0:
320,192,88786,1,0,0:0:0:0:
64,192,88953,1,0,0:0:0:0:
320,192,89078,1,0,0:0:0:0:
192,192,89119,1,0,0:0:0:0:
448,192,89119,1,0,0:0:0:0:
64,192,89286,128,0,89453:0:0:0:0:
320,192,89286,1,0,0:0:0:0:
192,192,89453,1,0,0:0:0:0:
320,192,89453,1,0,0:0:0:0:
448,192,89578,1,0,0:0:0:0:
64,192,89619,1,0,0:0:0:0:
192,192,89786,128,0,89953:0:0:0:0:
320,192,89786,1,0,0:0:0:0:
448,192,89953,1,0,0:0:0:0:
64,192,90119,128,0,90286:0:0:0:0:
320,192,90119,1,0,0:0:0:0:
192,192,90119,1,0,0:0:0:0:
448,192,90119,1,0,0:0:0:0:
192,192,90286,1,0,0:0:0:0:
448,192,90453,1,0,0:0:0:0:
64,192,90619,1,0,0:0:0:0:
320,192,90619,128,0,90786:0:0:0:0:
192,192,90786,1,0,0:0:0:0:
448,192,90786,1,0,0:0:0:0:
64,192,90953,128,0,91286:0:0:0:0:
192,192,90953,1,0,0:0:0:0:
448,192,91119,1,0,0:0:0:0:
320,192,91286,1,0,0:0:0:0:
192,192,91286,128,0,91453:0:0:0:0:
320,192,91453,1,0,0:0:0:0:
448,192,91453,1,0,0:0:0:0:
64,192,91453,1,0,0:0:0:0:
448,192,91619,128,0,91786:0:0:0:0:
192,192,91619,1,0,0:0:0:0:
320,192,91786,1,0,0:0:0:0:
64,192,91786,1,0,0:0:0:0:
192,192,91953,128,0,92119:0:0:0:0:
448,192,91953,1,0,0:0:0:0:
64,192,91953,1,0,0:0:0:0:
320,192,92119,1,0,0:0:0:0:
64,192,92286,128,0,92453:0:0:0:0:
448,192,92286,1,0,0:0:0:0:
192,192,92453,1,0,0:0:0:0:
320,192,92453,1,0,0:0:0:0:
320,192,92619,128,0,92786:0:0:0:0:
448,192,92619,1,0,0:0:0:0:
64,192,92786,1,0,0:0:0:0:
192,192,92786,1,0,0:0:0:0:
448,192,92786,1,0,0:0:0:0:
64,192,92953,128,0,93119:0:0:0:0:
192,192,92953,1,0,0:0:0:0:
320,192,93119,128,0,93286:0:0:0:0:
448,192,93119,1,0,0:0:0:0:
192,192,93286,128,0,93453:0:0:0:0:
64,192,93286,1,0,0:0:0:0:
448,192,93453,128,0,93619:0:0:0:0:
320,192,93453,1,0,0:0:0:0:
64,192,93453,1,0,0:0:0:0:
320,192,93619,128,0,93786:0:0:0:0:
192,192,93619,1,0,0:0:0:0:
192,192,93786,128,0,93953:0:0:0:0:
448,192,93786,1,0,0:0:0:0:
64,192,93953,1,0,0:0:0:0:
320,192,93953,1,0,0:0:0:0:
448,192,93953,1,0,0:0:0:0:
64,192,94119,1,0,0:0:0:0:
192,192,94119,1,0,0:0:0:0:
448,192,94119,1,0,0:0:0:0:
320,192,94119,1,0,0:0:0:0:
192,192,94286,128,0,94453:0:0:0:0:
64,192,94286,1,0,0:0:0:0:
448,192,94286,1,0,0:0:0:0:
320,192,94369,1,0,0:0:0:0:
64,192,94453,1,0,0:0:0:0:
448,192,94453,128,0,94619:0:0:0:0:
320,192,94619,128,0,94786:0:0:0:0:
192,192,94619,1,0,0:0:0:0:
192,192,94786,128,0,94953:0:0:0:0:
64,192,94786,1,0,0:0:0:0:
448,192,94953,1,0,0:0:0:0:
64,192,94953,1,0,0:0:0:0:
320,192,94994,1,0,0:0:0:0:
192,192,95036,1,0,0:0:0:0:
64,192,95078,1,0,0:0:0:0:
192,192,95119,1,0,0:0:0:0:
320,192,95119,1,0,0:0:0:0:
192,192,95286,1,0,0:0:0:0:
64,192,95286,1,0,0:0:0:0:
192,192,95453,1,0,0:0:0:0:
64,192,95453,1,0,0:0:0:0:
320,192,95453,1,0,0:0:0:0:
448,192,95619,1,0,0:0:0:0:
64,192,95703,1,0,0:0:0:0:
448,192,95786,1,0,0:0:0:0:
320,192,95786,1,0,0:0:0:0:
320,192,95953,1,0,0:0:0:0:
448,192,95953,1,0,0:0:0:0:
192,192,96036,1,0,0:0:0:0:
64,192,96036,1,0,0:0:0:0:
448,192,96119,1,0,0:0:0:0:
320,192,96119,128,0,96286:0:0:0:0:
192,192,96286,1,0,0:0:0:0:
64,192,96453,128,0,96786:0:0:0:0:
448,192,96453,1,0,0:0:0:0:
192,192,96619,1,0,0:0:0:0:
192,192,96786,1,0,0:0:0:0:
320,192,96786,1,0,0:0:0:0:
448,192,96786,1,0,0:0:0:0:
64,192,96953,1,0,0:0:0:0:
320,192,97078,1,0,0:0:0:0:
192,192,97119,1,0,0:0:0:0:
448,192,97119,1,0,0:0:0:0:
64,192,97286,128,0,97453:0:0:0:0:
320,192,97286,1,0,0:0:0:0:
192,192,97286,1,0,0:0:0:0:
448,192,97453,1,0,0:0:0:0:
192,192,97619,128,0,97786:0:0:0:0:
320,192,97619,1,0,0:0:0:0:
320,192,97786,128,0,97994:0:0:0:0:
64,192,97786,1,0,0:0:0:0:
448,192,97786,1,0,0:0:0:0:
192,192,97953,1,0,0:0:0:0:
192,192,98119,128,0,98328:0:0:0:0:
64,192,98119,1,0,0:0:0:0:
320,192,98119,1,0,0:0:0:0:
448,192,98119,1,0,0:0:0:0:
448,192,98286,1,0,0:0:0:0:
64,192,98453,1,0,0:0:0:0:
448,192,98619,128,0,98786:0:0:0:0:
320,192,98619,1,0,0:0:0:0:
64,192,98786,1,0,0:0:0:0:
192,192,98786,1,0,0:0:0:0:
320,192,98953,128,0,99119:0:0:0:0:
192,192,98953,1,0,0:0:0:0:
448,192,99119,1,0,0:0:0:0:
192,192,99244,1,0,0:0:0:0:
64,192,99286,1,0,0:0:0:0:
192,192,99411,128,0,99619:0:0:0:0:
64,192,99453,1,0,0:0:0:0:
320,192,99453,1,0,0:0:0:0:
448,192,99453,1,0,0:0:0:0:
320,192,99619,1,0,0:0:0:0:
64,192,99786,128,0,99953:0:0:0:0:
448,192,99786,1,0,0:0:0:0:
320,192,99953,128,0,100119:0:0:0:0:
192,192,99953,1,0,0:0:0:0:
448,192,99953,1,0,0:0:0:0:
448,192,100119,128,0,100286:0:0:0:0:
64,192,100119,1,0,0:0:0:0:
192,192,100286,128,0,100453:0:0:0:0:
320,192,100286,1,0,0:0:0:0:
448,192,100453,128,0,100578:0:0:0:0:
64,192,100453,1,0,0:0:0:0:
320,192,100578,128,0,100786:0:0:0:0:
64,192,100619,128,0,100786:0:0:0:0:
192,192,100619,1,0,0:0:0:0:
192,192,100786,128,0,101119:0:0:0:0:
448,192,100786,1,0,0:0:0:0:
320,192,100911,128,0,101119:0:0:0:0:
448,192,100953,1,0,0:0:0:0:
448,192,101119,128,0,101244:0:0:0:0:
64,192,101119,1,0,0:0:0:0:
192,192,101244,128,0,101369:0:0:0:0:
320,192,101286,1,0,0:0:0:0:
64,192,101453,128,0,101619:0:0:0:0:
448,192,101453,1,0,0:0:0:0:
320,192,101453,1,0,0:0:0:0:
192,192,101619,128,0,101786:0:0:0:0:
448,192,101619,1,0,0:0:0:0:
448,192,101786,128,0,101953:0:0:0:0:
320,192,101786,1,0,0:0:0:0:
64,192,101953,1,0,0:0:0:0:
192,192,101994,1,0,0:0:0:0:
64,192,102119,1,0,0:0:0:0:
192,192,102119,1,0,0:0:0:0:
320,192,102119,1,0,0:0:0:0:
448,192,102119,1,0,0:0:0:0:
320,192,102244,128,0,102411:0:0:0:0:
64,192,102286,1,0,0:0:0:0:
192,192,102411,128,0,102578:0:0:0:0:
448,192,102453,1,0,0:0:0:0:
64,192,102578,128,0,102786:0:0:0:0:
320,192,102619,1,0,0:0:0:0:
448,192,102619,1,0,0:0:0:0:
448,192,102786,128,0,102953:0:0:0:0:
192,192,102786,1,0,0:0:0:0:
192,192,102953,128,0,103119:0:0:0:0:
320,192,102953,1,0,0:0:0:0:
448,192,103119,128,0,103286:0:0:0:0:
64,192,103119,1,0,0:0:0:0:
320,192,103119,1,0,0:0:0:0:
64,192,103286,128,0,103453:0:0:0:0:
192,192,103286,1,0,0:0:0:0:
192,192,103453,1,0,0:0:0:0:
448,192,103453,1,0,0:0:0:0:
320,192,103453,128,0,103619:0:0:0:0:
192,192,103619,128,0,103786:0:0:0:0:
64,192,103619,1,0,0:0:0:0:
448,192,103786,128,0,103953:0:0:0:0:
320,192,103786,1,0,0:0:0:0:
64,192,103953,128,0,104119:0:0:0:0:
192,192,103953,1,0,0:0:0:0:
448,192,104119,1,0,0:0:0:0:
320,192,104119,1,0,0:0:0:0:
192,192,104119,128,0,104286:0:0:0:0:
320,192,104286,128,0,104411:0:0:0:0:
448,192,104286,1,0,0:0:0:0:
64,192,104411,128,0,104619:0:0:0:0:
192,192,104453,1,0,0:0:0:0:
320,192,104619,128,0,104786:0:0:0:0:
448,192,104619,1,0,0:0:0:0:
192,192,104786,128,0,104953:0:0:0:0:
64,192,104786,1,0,0:0:0:0:
448,192,104786,1,0,0:0:0:0:
320,192,104953,1,0,0:0:0:0:
64,192,104953,1,0,0:0:0:0:
192,192,105036,1,0,0:0:0:0:
448,192,105078,128,0,105244:0:0:0:0:
320,192,105119,1,0,0:0:0:0:
64,192,105119,1,0,0:0:0:0:
192,192,105286,1,0,0:0:0:0:
64,192,105369,128,0,105786:0:0:0:0:
192,192,105453,1,0,0:0:0:0:
448,192,105453,1,0,0:0:0:0:
448,192,105619,1,0,0:0:0:0:
320,192,105661,1,0,0:0:0:0:
192,192,105703,1,0,0:0:0:0:
448,192,105744,1,0,0:0:0:0:
192,192,105786,1,0,0:0:0:0:
320,192,105786,1,0,0:0:0:0:
448,192,105953,1,0,0:0:0:0:
320,192,105953,1,0,0:0:0:0:
192,192,105953,1,0,0:0:0:0:
64,192,106119,1,0,0:0:0:0:
192,192,106119,1,0,0:0:0:0:
320,192,106119,1,0,0:0:0:0:
448,192,106119,1,0,0:0:0:0:
64,192,106786,128,0,106953:0:0:0:0:
192,192,106786,128,0,106953:0:0:0:0:
320,192,106786,128,0,106953:0:0:0:0:
448,192,106786,128,0,106953:0:0:0:0:
320,192,107119,128,0,107286:0:0:0:0:
64,192,107286,1,0,0:0:0:0:
448,192,107286,1,0,0:0:0:0:
64,192,107453,1,0,0:0:0:0:
192,192,107453,1,0,0:0:0:0:
320,192,107453,1,0,0:0:0:0:
448,192,107453,1,0,0:0:0:0:
192,192,107619,1,0,0:0:0:0:
64,192,107786,128,0,107953:0:0:0:0:
192,192,107786,128,0,107953:0:0:0:0:
320,192,107786,128,0,107953:0:0:0:0:
448,192,107786,128,0,107953:0:0:0:0:
64,192,108453,1,0,0:0:0:0:
192,192,108536,1,0,0:0:0:0:
64,192,108619,1,0,0:0:0:0:
192,192,108703,1,0,0:0:0:0:
64,192,108786,1,0,0:0:0:0:
320,192,108786,1,0,0:0:0:0:
448,192,108786,1,0,0:0:0:0:
448,192,109119,1,0,0:0:0:0:
320,192,109286,1,0,0:0:0:0:
448,192,109453,128,0,109619:0:0:0:0:
320,192,109453,128,0,109619:0:0:0:0:
192,192,109453,128,0,109619:0:0:0:0:
64,192,109453,128,0,109619:0:0:0:0:
64,192,109786,1,0,0:0:0:0:
320,192,109786,1,0,0:0:0:0:
192,192,109953,128,0,110119:0:0:0:0:
320,192,109953,128,0,110119:0:0:0:0:
448,192,109953,128,0,110119:0:0:0:0:
64,192,110119,1,0,0:0:0:0:
64,192,110453,128,0,110619:0:0:0:0:
192,192,110453,128,0,110619:0:0:0:0:
320,192,110453,128,0,110619:0:0:0:0:
448,192,110453,128,0,110619:0:0:0:0:
448,192,110786,1,0,0:0:0:0:
64,192,110786,1,0,0:0:0:0:
448,192,111119,1,0,0:0:0:0:
320,192,111119,1,0,0:0:0:0:
64,192,111119,1,0,0:0:0:0:
192,192,111119,128,0,111286:0:0:0:0:
320,192,111286,128,0,112119:0:0:0:0:
64,192,111453,1,0,0:0:0:0:
192,192,111453,1,0,0:0:0:0:
448,192,111453,1,0,0:0:0:0:
64,192,112119,128,0,112286:0:0:0:0:
192,192,112119,128,0,112286:0:0:0:0:
448,192,112119,128,0,112286:0:0:0:0:
320,192,112453,1,0,0:0:0:0:
448,192,112453,1,0,0:0:0:0:
64,192,112619,128,0,112786:0:0:0:0:
192,192,112619,128,0,112786:0:0:0:0:
320,192,112619,128,0,112786:0:0:0:0:
448,192,112786,1,0,0:0:0:0:
64,192,112953,1,0,0:0:0:0:
64,192,113119,128,0,113286:0:0:0:0:
192,192,113119,128,0,113286:0:0:0:0:
320,192,113119,128,0,113286:0:0:0:0:
448,192,113119,128,0,113286:0:0:0:0:
448,192,113453,1,0,0:0:0:0:
448,192,113536,1,0,0:0:0:0:
320,192,113619,1,0,0:0:0:0:
320,192,113703,1,0,0:0:0:0:
192,192,113786,1,0,0:0:0:0:
64,192,113953,1,0,0:0:0:0:
448,192,114119,1,0,0:0:0:0:
320,192,114119,1,0,0:0:0:0:
192,192,114119,1,0,0:0:0:0:
64,192,114119,1,0,0:0:0:0:
192,192,114453,128,0,114619:0:0:0:0:
320,192,114619,128,0,114786:0:0:0:0:
192,192,114786,128,0,114953:0:0:0:0:
64,192,114786,128,0,114953:0:0:0:0:
448,192,114786,128,0,114953:0:0:0:0:
320,192,114953,1,0,0:0:0:0:
448,192,115036,1,0,0:0:0:0:
64,192,115119,1,0,0:0:0:0:
192,192,115119,1,0,0:0:0:0:
64,192,115286,128,0,115453:0:0:0:0:
320,192,115286,128,0,115453:0:0:0:0:
448,192,115286,128,0,115453:0:0:0:0:
192,192,115453,1,0,0:0:0:0:
320,192,115619,1,0,0:0:0:0:
320,192,115786,128,0,115953:0:0:0:0:
192,192,115786,128,0,115953:0:0:0:0:
64,192,115786,128,0,115953:0:0:0:0:
448,192,115953,1,0,0:0:0:0:
64,192,116119,1,0,0:0:0:0:
192,192,116119,1,0,0:0:0:0:
64,192,116286,1,0,0:0:0:0:
192,192,116328,1,0,0:0:0:0:
320,192,116369,1,0,0:0:0:0:
448,192,116411,1,0,0:0:0:0:
320,192,116453,1,0,0:0:0:0:
192,192,116453,1,0,0:0:0:0:
64,192,116453,128,0,116619:0:0:0:0:
448,192,116619,128,0,117453:0:0:0:0:
64,192,116786,1,0,0:0:0:0:
192,192,116786,1,0,0:0:0:0:
320,192,116786,1,0,0:0:0:0:
320,192,117036,1,0,0:0:0:0:
64,192,117286,1,0,0:0:0:0:
320,192,117453,128,0,117619:0:0:0:0:
192,192,117453,128,0,117619:0:0:0:0:
64,192,117453,128,0,117619:0:0:0:0:
448,192,117786,1,0,0:0:0:0:
320,192,117786,128,0,117953:0:0:0:0:
192,192,117953,128,0,118119:0:0:0:0:
64,192,117953,128,0,118119:0:0:0:0:
448,192,117953,128,0,118119:0:0:0:0:
320,192,118119,1,0,0:0:0:0:
64,192,118286,1,0,0:0:0:0:
64,192,118453,128,0,118619:0:0:0:0:
192,192,118453,128,0,118619:0:0:0:0:
320,192,118453,128,0,118619:0:0:0:0:
448,192,118453,128,0,118619:0:0:0:0:
192,192,119119,1,0,0:0:0:0:
320,192,119203,1,0,0:0:0:0:
192,192,119286,1,0,0:0:0:0:
320,192,119369,1,0,0:0:0:0:
64,192,119453,1,0,0:0:0:0:
192,192,119453,1,0,0:0:0:0:
448,192,119453,1,0,0:0:0:0:
448,192,119786,1,0,0:0:0:0:
192,192,119953,1,0,0:0:0:0:
64,192,120119,128,0,120286:0:0:0:0:
192,192,120119,128,0,120286:0:0:0:0:
320,192,120119,128,0,120286:0:0:0:0:
448,192,120119,128,0,120286:0:0:0:0:
320,192,120453,1,0,0:0:0:0:
448,192,120453,1,0,0:0:0:0:
64,192,120619,128,0,120786:0:0:0:0:
320,192,120619,128,0,120786:0:0:0:0:
192,192,120619,128,0,120786:0:0:0:0:
448,192,120786,1,0,0:0:0:0:
448,192,121119,128,0,121286:0:0:0:0:
320,192,121119,128,0,121286:0:0:0:0:
192,192,121119,128,0,121286:0:0:0:0:
64,192,121119,128,0,121286:0:0:0:0:
64,192,121453,1,0,0:0:0:0:
192,192,121453,1,0,0:0:0:0:
192,192,121786,128,0,121953:0:0:0:0:
320,192,121786,1,0,0:0:0:0:
448,192,121786,1,0,0:0:0:0:
64,192,121953,128,0,122786:0:0:0:0:
192,192,122119,1,0,0:0:0:0:
320,192,122119,1,0,0:0:0:0:
448,192,122119,1,0,0:0:0:0:
192,192,122786,128,0,122953:0:0:0:0:
320,192,122786,128,0,122953:0:0:0:0:
448,192,122786,128,0,122953:0:0:0:0:
192,192,123119,1,0,0:0:0:0:
320,192,123119,1,0,0:0:0:0:
64,192,123286,128,0,123453:0:0:0:0:
448,192,123286,128,0,123453:0:0:0:0:
192,192,123453,1,0,0:0:0:0:
320,192,123453,1,0,0:0:0:0:
320,192,123619,1,0,0:0:0:0:
64,192,123786,128,0,123953:0:0:0:0:
192,192,123786,128,0,123953:0:0:0:0:
320,192,123786,128,0,123953:0:0:0:0:
448,192,123786,128,0,123953:0:0:0:0:
448,192,124119,1,0,0:0:0:0:
192,192,124203,1,0,0:0:0:0:
448,192,124286,1,0,0:0:0:0:
192,192,124369,1,0,0:0:0:0:
448,192,124453,1,0,0:0:0:0:
448,192,124619,1,0,0:0:0:0:
64,192,124786,1,0,0:0:0:0:
192,192,124786,1,0,0:0:0:0:
448,192,124786,1,0,0:0:0:0:
320,192,124786,1,0,0:0:0:0:
64,192,124953,1,0,0:0:0:0:
320,192,125036,1,0,0:0:0:0:
64,192,125119,1,0,0:0:0:0:
64,192,125286,1,0,0:0:0:0:
192,192,125453,128,0,125786:0:0:0:0:
64,192,125453,128,0,125786:0:0:0:0:
448,192,125619,1,0,0:0:0:0:
320,192,125703,1,0,0:0:0:0:
448,192,125786,1,0,0:0:0:0:
192,192,125953,128,0,126119:0:0:0:0:
320,192,125953,128,0,126119:0:0:0:0:
64,192,126119,1,0,0:0:0:0:
448,192,126119,1,0,0:0:0:0:
64,192,126286,1,0,0:0:0:0:
448,192,126453,128,0,126786:0:0:0:0:
320,192,126453,128,0,126786:0:0:0:0:
192,192,126619,1,0,0:0:0:0:
64,192,126786,1,0,0:0:0:0:
192,192,126786,1,0,0:0:0:0:
64,192,126953,1,0,0:0:0:0:
192,192,126994,1,0,0:0:0:0:
448,192,127036,1,0,0:0:0:0:
320,192,127078,1,0,0:0:0:0:
192,192,127119,1,0,0:0:0:0:
448,192,127119,1,0,0:0:0:0:
64,192,127119,128,0,127286:0:0:0:0:
192,192,127286,128,0,128119:0:0:0:0:
64,192,127453,1,0,0:0:0:0:
448,192,127453,1,0,0:0:0:0:
320,192,127453,1,0,0:0:0:0:
448,192,127703,1,0,0:0:0:0:
64,192,127953,1,0,0:0:0:0:
448,192,128119,128,0,128786:0:0:0:0:
320,192,128119,1,0,0:0:0:0:
64,192,128119,1,0,0:0:0:0:
192,192,128286,1,0,0:0:0:0:
64,192,128453,1,0,0:0:0:0:
192,192,128619,1,0,0:0:0:0:
320,192,128619,1,0,0:0:0:0:
64,192,128786,1,0,0:0:0:0:
192,192,128786,1,0,0:0:0:0:
320,192,128786,1,0,0:0:0:0:
64,192,129119,128,0,130119:0:0:0:0:
192,192,129119,1,0,0:0:0:0:
320,192,129119,1,0,0:0:0:0:
448,192,129119,1,0,0:0:0:0:
192,192,129453,1,0,0:0:0:0:
448,192,129786,1,0,0:0:0:0:
192,192,130119,1,0,0:0:0:0:
320,192,130119,1,0,0:0:0:0:
448,192,130119,1,0,0:0:0:0:
64,192,130453,1,0,0:0:0:0:
320,192,130786,128,0,131453:0:0:0:0:
448,192,130786,1,0,0:0:0:0:
192,192,130786,1,0,0:0:0:0:
64,192,130786,1,0,0:0:0:0:
448,192,131119,1,0,0:0:0:0:
64,192,131286,1,0,0:0:0:0:
192,192,131286,1,0,0:0:0:0:
64,192,131453,1,0,0:0:0:0:
192,192,131453,1,0,0:0:0:0:
448,192,131453,1,0,0:0:0:0:
192,192,131786,128,0,132786:0:0:0:0:
64,192,131786,1,0,0:0:0:0:
320,192,131786,1,0,0:0:0:0:
448,192,131786,1,0,0:0:0:0:
448,192,132119,1,0,0:0:0:0:
64,192,132453,1,0,0:0:0:0:
320,192,132453,1,0,0:0:0:0:
448,192,132619,1,0,0:0:0:0:
64,192,132786,1,0,0:0:0:0:
320,192,132786,1,0,0:0:0:0:
448,192,132786,1,0,0:0:0:0:
320,192,133119,1,0,0:0:0:0:
448,192,133453,128,0,134119:0:0:0:0:
64,192,133453,1,0,0:0:0:0:
192,192,133453,1,0,0:0:0:0:
320,192,133453,1,0,0:0:0:0:
64,192,133786,1,0,0:0:0:0:
320,192,133953,1,0,0:0:0:0:
192,192,133953,1,0,0:0:0:0:
64,192,134119,1,0,0:0:0:0:
192,192,134119,1,0,0:0:0:0:
320,192,134119,1,0,0:0:0:0:
192,192,134453,128,0,135453:0:0:0:0:
64,192,134453,1,0,0:0:0:0:
320,192,134453,1,0,0:0:0:0:
448,192,134453,1,0,0:0:0:0:
64,192,134786,1,0,0:0:0:0:
448,192,135119,1,0,0:0:0:0:
64,192,135453,1,0,0:0:0:0:
320,192,135453,1,0,0:0:0:0:
448,192,135453,1,0,0:0:0:0:
192,192,135786,1,0,0:0:0:0:
64,192,136119,128,0,136786:0:0:0:0:
320,192,136119,1,0,0:0:0:0:
192,192,136119,1,0,0:0:0:0:
448,192,136119,1,0,0:0:0:0:
320,192,136453,1,0,0:0:0:0:
192,192,136619,1,0,0:0:0:0:
448,192,136619,1,0,0:0:0:0:
192,192,136786,1,0,0:0:0:0:
320,192,136786,1,0,0:0:0:0:
448,192,136786,1,0,0:0:0:0:
448,192,137119,128,0,138786:0:0:0:0:
320,192,137119,1,0,0:0:0:0:
192,192,137119,1,0,0:0:0:0:
64,192,137119,1,0,0:0:0:0:
320,192,137453,1,0,0:0:0:0:
64,192,137786,1,0,0:0:0:0:
192,192,137786,1,0,0:0:0:0:
320,192,138119,1,0,0:0:0:0:
192,192,138119,1,0,0:0:0:0:
64,192,138119,1,0,0:0:0:0:
64,192,138453,1,0,0:0:0:0:
320,192,138786,1,0,0:0:0:0:
64,192,138786,1,0,0:0:0:0:
192,192,138786,128,0,139453:0:0:0:0:
320,192,139119,1,0,0:0:0:0:
448,192,139286,1,0,0:0:0:0:
64,192,139286,1,0,0:0:0:0:
64,192,139453,1,0,0:0:0:0:
320,192,139453,1,0,0:0:0:0:
448,192,139453,1,0,0:0:0:0:
64,192,139786,128,0,140786:0:0:0:0:
192,192,139786,1,0,0:0:0:0:
448,192,139786,1,0,0:0:0:0:
320,192,139786,1,0,0:0:0:0:
192,192,140119,1,0,0:0:0:0:
448,192,140453,1,0,0:0:0:0:
192,192,140786,1,0,0:0:0:0:
320,192,140786,1,0,0:0:0:0:
448,192,140786,1,0,0:0:0:0:
320,192,141119,1,0,0:0:0:0:
448,192,141453,128,0,142119:0:0:0:0:
320,192,141453,1,0,0:0:0:0:
192,192,141453,1,0,0:0:0:0:
64,192,141453,1,0,0:0:0:0:
192,192,141786,1,0,0:0:0:0:
320,192,141953,1,0,0:0:0:0:
64,192,141953,1,0,0:0:0:0:
64,192,142119,1,0,0:0:0:0:
192,192,142119,1,0,0:0:0:0:
320,192,142119,1,0,0:0:0:0:
192,192,142286,1,0,0:0:0:0:
320,192,142453,128,0,143453:0:0:0:0:
448,192,142453,1,0,0:0:0:0:
192,192,142453,1,0,0:0:0:0:
64,192,142453,1,0,0:0:0:0:
448,192,142619,1,0,0:0:0:0:
64,192,142786,1,0,0:0:0:0:
192,192,142786,1,0,0:0:0:0:
64,192,142953,1,0,0:0:0:0:
192,192,143119,1,0,0:0:0:0:
448,192,143119,1,0,0:0:0:0:
448,192,143286,1,0,0:0:0:0:
64,192,143453,1,0,0:0:0:0:
192,192,143453,1,0,0:0:0:0:
448,192,143453,1,0,0:0:0:0:
64,192,143619,1,0,0:0:0:0:
192,192,143786,1,0,0:0:0:0:
448,192,143786,1,0,0:0:0:0:
320,192,143953,1,0,0:0:0:0:
192,192,144119,128,0,144786:0:0:0:0:
64,192,144119,1,0,0:0:0:0:
320,192,144119,1,0,0:0:0:0:
448,192,144119,1,0,0:0:0:0:
448,192,144286,1,0,0:0:0:0:
64,192,144453,1,0,0:0:0:0:
320,192,144453,1,0,0:0:0:0:
320,192,144619,1,0,0:0:0:0:
448,192,144619,1,0,0:0:0:0:
64,192,144786,1,0,0:0:0:0:
320,192,144786,1,0,0:0:0:0:
448,192,144786,1,0,0:0:0:0:
64,192,144953,1,0,0:0:0:0:
448,192,145119,128,0,146119:0:0:0:0:
320,192,145119,1,0,0:0:0:0:
192,192,145119,1,0,0:0:0:0:
64,192,145119,1,0,0:0:0:0:
192,192,145286,1,0,0:0:0:0:
320,192,145453,1,0,0:0:0:0:
64,192,145453,1,0,0:0:0:0:
192,192,145619,1,0,0:0:0:0:
64,192,145786,1,0,0:0:0:0:
192,192,145786,1,0,0:0:0:0:
320,192,145953,1,0,0:0:0:0:
64,192,146119,1,0,0:0:0:0:
192,192,146119,1,0,0:0:0:0:
320,192,146119,1,0,0:0:0:0:
448,192,146286,1,0,0:0:0:0:
64,192,146453,1,0,0:0:0:0:
192,192,146453,1,0,0:0:0:0:
320,192,146619,1,0,0:0:0:0:
64,192,146786,128,0,147453:0:0:0:0:
192,192,146786,1,0,0:0:0:0:
320,192,146786,1,0,0:0:0:0:
448,192,146786,1,0,0:0:0:0:
192,192,146953,1,0,0:0:0:0:
320,192,147036,1,0,0:0:0:0:
448,192,147119,1,0,0:0:0:0:
320,192,147286,1,0,0:0:0:0:
448,192,147286,1,0,0:0:0:0:
192,192,147453,1,0,0:0:0:0:
448,192,147453,1,0,0:0:0:0:
320,192,147453,1,0,0:0:0:0:
192,192,147619,1,0,0:0:0:0:
448,192,147786,128,0,148786:0:0:0:0:
64,192,147786,1,0,0:0:0:0:
192,192,147786,1,0,0:0:0:0:
320,192,147786,1,0,0:0:0:0:
64,192,147953,1,0,0:0:0:0:
192,192,148119,1,0,0:0:0:0:
320,192,148119,1,0,0:0:0:0:
64,192,148286,1,0,0:0:0:0:
192,192,148328,1,0,0:0:0:0:
320,192,148369,1,0,0:0:0:0:
64,192,148411,1,0,0:0:0:0:
192,192,148453,1,0,0:0:0:0:
320,192,148453,1,0,0:0:0:0:
64,192,148619,1,0,0:0:0:0:
64,192,148786,1,0,0:0:0:0:
192,192,148786,1,0,0:0:0:0:
320,192,148786,1,0,0:0:0:0:
