osu file format v14

[General]
AudioFilename: Cygnus.mp3
AudioLeadIn: 0
PreviewTime: 57057
Countdown: 0
SampleSet: Normal
StackLeniency: 0.4
Mode: 1
LetterboxInBreaks: 0
WidescreenStoryboard: 1

[Editor]
Bookmarks: 11841
DistanceSpacing: 0.5
BeatDivisor: 2
GridSize: 32
TimelineZoom: 1

[Metadata]
Title:Cygnus
TitleUnicode:Cygnus
Artist:Kurubukko
ArtistUnicode:くるぶっこ
Creator:MMd-
Version:Oni
Source:
Tags:drum & bass
BeatmapID:1331179
BeatmapSetID:630590

[Difficulty]
HPDrainRate:6
CircleSize:5
OverallDifficulty:6
ApproachRate:9
SliderMultiplier:1.6
SliderTickRate:1

[Events]
//Background and Video events
0,0,"becd431393934bb50c29ed60100292d0.jpg",0,0
//Break Periods
//Storyboard Layer 0 (Background)
//Storyboard Layer 1 (Fail)
//Storyboard Layer 2 (Pass)
//Storyboard Layer 3 (Foreground)
//Storyboard Layer 4 (Overlay)
//Storyboard Sound Samples

[TimingPoints]
11889,337.078651685393,4,1,0,70,1,0
34978,-133.333333333333,4,1,1,70,0,0
35315,-100,4,1,1,70,0,0
42900,-125,4,1,1,70,0,0
44248,-166.666666666667,4,1,1,70,0,0
53686,-133.333333333333,4,1,1,70,0,0
57057,-100,4,1,1,70,0,0
57394,-83.3333333333333,4,1,1,70,0,0
57731,-100,4,1,1,70,0,1
90091,-90.9090909090909,4,1,1,70,0,1
100540,-76.9230769230769,4,1,1,70,0,1
100877,-100,4,1,1,70,0,0

[Colours]
Combo1 : 255,192,0
Combo2 : 0,202,0
Combo3 : 18,124,255
Combo4 : 242,24,57

[HitObjects]
256,188,11888,5,4,0:0:0:0:
256,188,12057,1,0,0:0:0:0:
256,188,12226,1,8,0:0:0:0:
256,188,12394,1,0,0:0:0:0:
256,192,12563,1,8,0:0:0:0:
256,188,12731,1,0,0:0:0:0:
256,188,13068,1,8,0:0:0:0:
256,188,13405,1,0,0:0:0:0:
256,188,13574,1,8,0:0:0:0:
256,188,13911,1,0,0:0:0:0:
256,188,13995,1,0,0:0:0:0:
256,188,14080,1,0,0:0:0:0:
256,188,14248,1,0,0:0:0:0:
256,188,14417,1,8,0:0:0:0:
256,188,14585,1,0,0:0:0:0:
256,188,14922,1,8,0:0:0:0:
256,188,15091,1,0,0:0:0:0:
256,188,15259,1,0,0:0:0:0:
256,188,15428,1,0,0:0:0:0:
256,188,15765,1,8,0:0:0:0:
256,188,16102,1,0,0:0:0:0:
256,188,16271,1,8,0:0:0:0:
256,188,16608,1,0,0:0:0:0:
256,188,16692,1,0,0:0:0:0:
256,188,16860,1,0,0:0:0:0:
256,188,16945,1,8,0:0:0:0:
256,188,17197,1,0,0:0:0:0:
256,188,17282,1,0,0:0:0:0:
256,188,17450,1,0,0:0:0:0:
256,188,17619,1,8,0:0:0:0:
256,188,17787,1,0,0:0:0:0:
256,188,17956,1,8,0:0:0:0:
256,188,18124,1,0,0:0:0:0:
256,188,18293,1,0,0:0:0:0:
256,188,18462,1,8,0:0:0:0:
256,188,18799,1,0,0:0:0:0:
256,188,18967,1,8,0:0:0:0:
256,188,19304,1,0,0:0:0:0:
256,188,19388,1,0,0:0:0:0:
256,188,19473,1,0,0:0:0:0:
256,188,19641,1,0,0:0:0:0:
256,188,19810,1,8,0:0:0:0:
256,188,19978,1,0,0:0:0:0:
256,188,20315,1,8,0:0:0:0:
256,188,20484,1,0,0:0:0:0:
256,188,20821,1,12,0:0:0:0:
256,188,20990,1,0,0:0:0:0:
256,188,21158,1,12,0:0:0:0:
256,188,21495,1,0,0:0:0:0:
256,188,21664,1,8,0:0:0:0:
256,188,22001,1,8,0:0:0:0:
256,188,22085,1,0,0:0:0:0:
256,188,22169,1,0,0:0:0:0:
256,188,22254,1,0,0:0:0:0:
256,188,22338,1,8,0:0:0:0:
256,188,22506,1,0,0:0:0:0:
256,188,22675,1,4,0:0:0:0:
256,188,22844,1,0,0:0:0:0:
256,188,23012,1,8,0:0:0:0:
256,188,23181,1,0,0:0:0:0:
252,192,23349,1,8,0:0:0:0:
256,188,23518,1,0,0:0:0:0:
256,188,23855,1,8,0:0:0:0:
256,188,24192,1,0,0:0:0:0:
256,188,24360,1,8,0:0:0:0:
256,188,24697,1,0,0:0:0:0:
256,188,24782,1,0,0:0:0:0:
256,188,24866,1,0,0:0:0:0:
256,188,25035,1,0,0:0:0:0:
256,188,25203,1,8,0:0:0:0:
256,188,25372,1,0,0:0:0:0:
256,188,25709,1,8,0:0:0:0:
256,188,25877,1,0,0:0:0:0:
256,188,26046,1,0,0:0:0:0:
256,188,26214,1,0,0:0:0:0:
256,188,26551,1,8,0:0:0:0:
256,188,26888,1,0,0:0:0:0:
256,188,27057,1,8,0:0:0:0:
256,188,27394,1,0,0:0:0:0:
256,188,27478,1,0,0:0:0:0:
256,188,27647,1,0,0:0:0:0:
256,188,27731,1,8,0:0:0:0:
256,192,27900,1,0,0:0:0:0:
256,188,27984,1,0,0:0:0:0:
256,188,28068,1,0,0:0:0:0:
256,188,28237,1,0,0:0:0:0:
256,188,28405,1,8,0:0:0:0:
256,188,28574,1,0,0:0:0:0:
256,188,28742,1,0,0:0:0:0:
256,188,29080,1,8,0:0:0:0:
256,188,29248,1,0,0:0:0:0:
256,188,29417,1,0,0:0:0:0:
256,192,29585,1,0,0:0:0:0:
256,188,29754,1,8,0:0:0:0:
256,188,30091,1,0,0:0:0:0:
256,188,30259,1,0,0:0:0:0:
256,188,30428,1,8,0:0:0:0:
256,188,30596,1,0,0:0:0:0:
256,188,30765,1,0,0:0:0:0:
256,188,30849,1,0,0:0:0:0:
256,188,30933,1,8,0:0:0:0:
256,188,31018,1,0,0:0:0:0:
256,188,31102,1,0,0:0:0:0:
256,188,31186,1,0,0:0:0:0:
256,188,31271,1,8,0:0:0:0:
256,188,31355,1,0,0:0:0:0:
256,188,31439,1,0,0:0:0:0:
256,188,31523,1,0,0:0:0:0:
256,188,31608,1,8,0:0:0:0:
256,188,31692,1,0,0:0:0:0:
256,188,31776,1,0,0:0:0:0:
256,188,31860,1,0,0:0:0:0:
256,188,31945,1,8,0:0:0:0:
256,188,32113,1,8,0:0:0:0:
256,192,32282,1,0,0:0:0:0:
256,188,32366,1,8,0:0:0:0:
256,192,32535,1,0,0:0:0:0:
256,188,32619,1,8,0:0:0:0:
256,192,32787,1,0,0:0:0:0:
256,188,32872,1,8,0:0:0:0:
256,188,33040,1,0,0:0:0:0:
256,188,33124,1,8,0:0:0:0:
256,192,33293,1,8,0:0:0:0:
256,188,33462,1,4,0:0:0:0:
256,192,33967,1,12,0:0:0:0:
256,188,34473,1,12,0:0:0:0:
256,188,34978,2,0,L|256:128,1,60.0000022888184
256,188,35315,1,0,0:0:0:0:
256,188,35484,1,8,0:0:0:0:
256,188,35653,1,0,0:0:0:0:
256,188,35821,1,12,0:0:0:0:
256,188,36158,1,12,0:0:0:0:
256,188,36664,1,12,0:0:0:0:
256,188,37169,1,4,0:0:0:0:
256,188,37506,2,0,L|256:320,1,106.666666666667
256,188,37844,2,4,L|256:96,1,80
256,188,38181,1,8,0:0:0:0:
256,188,38293,1,0,0:0:0:0:
256,188,38405,1,0,0:0:0:0:
256,188,38518,1,8,0:0:0:0:
256,188,38630,1,0,0:0:0:0:
256,188,38742,1,0,0:0:0:0:
256,188,38855,1,12,0:0:0:0:
256,188,39360,1,4,0:0:0:0:
256,188,39866,1,8,0:0:0:0:
256,188,40540,1,12,0:0:0:0:
256,188,41046,1,12,0:0:0:0:
256,188,41551,1,8,0:0:0:0:
256,188,41720,1,0,0:0:0:0:
256,188,41888,1,0,0:0:0:0:
256,188,42057,1,8,0:0:0:0:
256,188,42226,1,0,0:0:0:0:
256,188,42394,1,0,0:0:0:0:
256,188,42563,1,12,0:0:0:0:
256,188,42900,1,0,0:0:0:0:
256,188,44248,1,4,0:0:0:0:
256,188,44754,1,0,0:0:0:0:
256,188,44922,1,8,0:0:0:0:
256,188,45259,1,0,0:0:0:0:
256,188,45428,1,8,0:0:0:0:
256,188,45933,1,0,0:0:0:0:
256,188,46271,1,8,0:0:0:0:
256,188,46439,1,0,0:0:0:0:
256,188,46776,1,0,0:0:0:0:
256,188,46860,1,0,0:0:0:0:
256,188,46945,1,0,0:0:0:0:
256,188,47113,1,8,0:0:0:0:
256,188,47450,1,0,0:0:0:0:
256,188,47787,1,0,0:0:0:0:
256,188,48124,1,8,0:0:0:0:
256,188,48462,1,0,0:0:0:0:
256,188,48546,1,0,0:0:0:0:
256,188,48630,1,8,0:0:0:0:
256,188,48799,1,0,0:0:0:0:
256,188,48967,1,8,0:0:0:0:
256,188,49136,1,0,0:0:0:0:
256,188,49304,1,8,0:0:0:0:
256,188,49473,1,0,0:0:0:0:
256,188,49641,1,0,0:0:0:0:
256,188,49978,1,8,0:0:0:0:
256,188,50147,1,0,0:0:0:0:
256,188,50484,1,0,0:0:0:0:
256,188,50653,1,8,0:0:0:0:
256,188,50821,1,0,0:0:0:0:
256,188,50990,1,0,0:0:0:0:
256,188,51327,1,8,0:0:0:0:
256,192,51495,1,0,0:0:0:0:
256,188,51832,1,0,0:0:0:0:
256,188,52001,1,8,0:0:0:0:
256,188,52169,1,0,0:0:0:0:
256,188,52338,1,8,0:0:0:0:
256,188,52506,1,0,0:0:0:0:
256,188,52675,1,8,0:0:0:0:
256,188,52844,1,0,0:0:0:0:
256,188,53012,1,8,0:0:0:0:
256,188,53181,1,0,0:0:0:0:
256,188,53349,1,8,0:0:0:0:
256,188,53518,1,0,0:0:0:0:
256,188,53686,1,0,0:0:0:0:
256,188,53771,1,0,0:0:0:0:
256,188,53855,1,0,0:0:0:0:
256,188,53939,1,0,0:0:0:0:
256,188,54023,1,0,0:0:0:0:
256,188,54108,1,0,0:0:0:0:
256,188,54192,1,0,0:0:0:0:
256,188,54276,1,0,0:0:0:0:
256,188,54360,1,8,0:0:0:0:
256,188,54445,1,8,0:0:0:0:
256,188,54529,1,8,0:0:0:0:
256,188,54613,1,8,0:0:0:0:
256,188,54697,1,8,0:0:0:0:
256,188,54782,1,8,0:0:0:0:
256,188,54866,1,8,0:0:0:0:
256,188,54950,1,8,0:0:0:0:
256,188,55035,1,0,0:0:0:0:
256,188,57057,1,8,0:0:0:0:
256,188,57226,1,0,0:0:0:0:
256,188,57394,1,12,0:0:0:0:
256,188,57731,1,4,0:0:0:0:
256,188,58068,1,8,0:0:0:0:
256,188,58237,1,0,0:0:0:0:
256,188,58574,1,0,0:0:0:0:
256,188,58742,1,8,0:0:0:0:
256,188,59080,1,8,0:0:0:0:
256,188,59248,1,0,0:0:0:0:
256,188,59417,1,8,0:0:0:0:
256,188,59585,1,0,0:0:0:0:
256,188,59669,1,0,0:0:0:0:
256,188,59754,1,0,0:0:0:0:
256,188,59922,1,0,0:0:0:0:
256,188,60091,1,8,0:0:0:0:
256,188,60344,1,0,0:0:0:0:
256,188,60428,1,0,0:0:0:0:
256,188,60765,1,8,0:0:0:0:
256,188,60933,1,0,0:0:0:0:
256,188,61271,1,0,0:0:0:0:
256,188,61439,1,8,0:0:0:0:
256,188,61608,1,0,0:0:0:0:
256,188,61945,1,0,0:0:0:0:
256,188,62113,1,8,0:0:0:0:
256,188,62450,1,8,0:0:0:0:
256,188,62619,1,0,0:0:0:0:
256,188,62787,1,8,0:0:0:0:
256,188,62956,1,0,0:0:0:0:
256,188,63040,1,0,0:0:0:0:
256,188,63124,1,0,0:0:0:0:
256,188,63293,1,0,0:0:0:0:
256,188,63462,1,8,0:0:0:0:
256,188,63630,1,0,0:0:0:0:
256,188,63799,1,8,0:0:0:0:
256,188,63967,1,0,0:0:0:0:
256,188,64136,1,0,0:0:0:0:
256,188,64304,1,8,0:0:0:0:
256,188,64641,1,0,0:0:0:0:
256,188,64810,1,8,0:0:0:0:
256,188,64978,1,0,0:0:0:0:
256,188,65063,1,0,0:0:0:0:
256,188,65147,1,0,0:0:0:0:
256,188,65315,1,0,0:0:0:0:
256,188,65484,1,8,0:0:0:0:
256,188,65821,1,0,0:0:0:0:
256,188,65990,1,0,0:0:0:0:
256,188,66158,1,8,0:0:0:0:
256,188,66327,1,0,0:0:0:0:
256,188,66411,1,0,0:0:0:0:
256,188,66495,1,0,0:0:0:0:
256,188,66664,1,0,0:0:0:0:
256,188,66832,1,8,0:0:0:0:
256,188,67001,1,0,0:0:0:0:
256,188,67169,1,0,0:0:0:0:
256,188,67254,1,0,0:0:0:0:
256,188,67338,1,0,0:0:0:0:
256,188,67506,1,8,0:0:0:0:
256,188,67675,1,0,0:0:0:0:
256,188,67844,1,0,0:0:0:0:
256,188,68012,1,0,0:0:0:0:
256,188,68181,1,8,0:0:0:0:
256,188,68349,1,0,0:0:0:0:
256,188,68433,1,0,0:0:0:0:
256,188,68518,1,0,0:0:0:0:
256,188,68686,1,0,0:0:0:0:
256,188,68855,1,8,0:0:0:0:
256,188,69023,1,0,0:0:0:0:
256,188,69108,1,0,0:0:0:0:
256,188,69192,1,0,0:0:0:0:
256,188,69360,1,0,0:0:0:0:
256,188,69529,1,8,0:0:0:0:
256,188,69697,1,0,0:0:0:0:
256,188,69866,1,0,0:0:0:0:
256,188,70035,1,0,0:0:0:0:
256,188,70203,1,8,0:0:0:0:
256,188,70372,1,0,0:0:0:0:
256,188,70456,1,0,0:0:0:0:
256,188,70540,1,8,0:0:0:0:
256,188,70709,1,0,0:0:0:0:
256,188,70877,1,8,0:0:0:0:
256,188,71046,1,0,0:0:0:0:
256,188,71214,1,0,0:0:0:0:
256,188,71383,1,0,0:0:0:0:
256,188,71551,1,8,0:0:0:0:
256,188,71636,1,0,0:0:0:0:
256,188,71720,1,0,0:0:0:0:
256,188,71888,1,0,0:0:0:0:
256,188,72057,1,0,0:0:0:0:
256,188,72226,1,8,0:0:0:0:
256,188,72394,1,0,0:0:0:0:
256,188,72478,1,0,0:0:0:0:
256,188,72563,1,0,0:0:0:0:
256,188,72731,1,0,0:0:0:0:
256,188,72900,1,8,0:0:0:0:
256,188,72984,1,0,0:0:0:0:
256,188,73068,1,0,0:0:0:0:
256,188,73153,1,0,0:0:0:0:
256,188,73237,1,0,0:0:0:0:
256,188,73405,1,0,0:0:0:0:
256,188,73574,1,8,0:0:0:0:
256,188,73827,1,0,0:0:0:0:
256,188,73911,1,0,0:0:0:0:
256,188,74080,1,0,0:0:0:0:
256,188,74248,1,8,0:0:0:0:
256,188,74417,1,0,0:0:0:0:
256,188,74585,1,0,0:0:0:0:
256,188,74754,1,0,0:0:0:0:
256,188,74922,1,8,0:0:0:0:
256,188,75091,1,0,0:0:0:0:
256,188,75428,1,0,0:0:0:0:
256,188,75596,1,8,0:0:0:0:
256,188,75765,1,0,0:0:0:0:
256,188,76102,1,0,0:0:0:0:
256,188,76186,1,0,0:0:0:0:
256,188,76271,1,8,0:0:0:0:
256,188,76439,1,0,0:0:0:0:
256,188,76608,1,8,0:0:0:0:
256,188,76776,1,0,0:0:0:0:
256,188,76945,1,8,0:0:0:0:
256,188,77113,1,0,0:0:0:0:
256,188,77282,1,8,0:0:0:0:
256,188,77450,1,0,0:0:0:0:
256,188,77619,1,8,0:0:0:0:
256,188,77787,1,0,0:0:0:0:
256,188,77956,1,0,0:0:0:0:
256,188,78040,1,0,0:0:0:0:
256,188,78124,1,8,0:0:0:0:
256,188,78209,1,0,0:0:0:0:
256,188,78293,1,8,0:0:0:0:
256,192,78462,1,0,0:0:0:0:
256,188,78630,1,8,0:0:0:0:
256,192,78714,1,0,0:0:0:0:
256,188,78799,1,0,0:0:0:0:
256,188,78883,1,0,0:0:0:0:
256,192,78967,1,8,0:0:0:0:
256,188,79136,1,0,0:0:0:0:
256,188,79220,1,0,0:0:0:0:
256,188,79304,1,8,0:0:0:0:
256,188,79473,1,0,0:0:0:0:
256,188,79641,1,8,0:0:0:0:
256,188,79810,1,0,0:0:0:0:
256,188,79978,1,0,0:0:0:0:
256,188,80147,1,0,0:0:0:0:
256,188,80315,1,8,0:0:0:0:
256,188,80484,1,0,0:0:0:0:
256,188,80568,1,0,0:0:0:0:
256,188,80653,1,0,0:0:0:0:
256,188,80821,1,0,0:0:0:0:
256,188,80990,1,8,0:0:0:0:
256,188,81158,1,0,0:0:0:0:
256,188,81242,1,0,0:0:0:0:
256,188,81327,1,0,0:0:0:0:
256,188,81495,1,0,0:0:0:0:
256,188,81664,1,8,0:0:0:0:
256,188,81748,1,0,0:0:0:0:
256,188,81832,1,0,0:0:0:0:
256,188,82001,1,8,0:0:0:0:
256,188,82169,1,0,0:0:0:0:
256,188,82338,1,8,0:0:0:0:
256,188,82506,1,0,0:0:0:0:
256,188,82591,1,0,0:0:0:0:
256,188,82675,1,0,0:0:0:0:
256,188,82844,1,0,0:0:0:0:
256,188,83012,1,8,0:0:0:0:
256,188,83181,1,0,0:0:0:0:
256,188,83349,1,0,0:0:0:0:
256,188,83433,1,0,0:0:0:0:
256,188,83518,1,0,0:0:0:0:
256,188,83686,1,8,0:0:0:0:
256,188,83855,1,0,0:0:0:0:
256,188,84023,1,8,0:0:0:0:
256,188,84108,1,0,0:0:0:0:
256,188,84192,1,0,0:0:0:0:
256,188,84360,1,8,0:0:0:0:
256,188,84529,1,0,0:0:0:0:
256,188,84613,1,0,0:0:0:0:
256,188,84697,1,0,0:0:0:0:
256,188,84866,1,0,0:0:0:0:
256,188,85035,1,8,0:0:0:0:
256,188,85203,1,0,0:0:0:0:
256,188,85372,1,0,0:0:0:0:
256,188,85540,1,0,0:0:0:0:
256,188,85624,1,0,0:0:0:0:
256,188,85709,1,8,0:0:0:0:
256,188,85877,1,0,0:0:0:0:
256,188,86046,1,8,0:0:0:0:
256,188,86214,1,0,0:0:0:0:
256,188,86383,1,8,0:0:0:0:
256,188,86551,1,0,0:0:0:0:
256,188,86636,1,0,0:0:0:0:
256,188,86720,1,0,0:0:0:0:
256,188,86888,1,0,0:0:0:0:
256,188,87057,1,8,0:0:0:0:
256,188,87226,1,0,0:0:0:0:
256,188,87394,1,0,0:0:0:0:
256,188,87731,1,8,0:0:0:0:
256,188,88068,1,0,0:0:0:0:
256,188,88405,1,8,0:0:0:0:
256,188,88742,1,0,0:0:0:0:
256,188,88911,1,8,0:0:0:0:
256,188,88995,1,0,0:0:0:0:
256,188,89080,1,0,0:0:0:0:
256,188,89164,1,0,0:0:0:0:
256,188,89248,1,0,0:0:0:0:
256,188,89332,1,0,0:0:0:0:
256,188,89417,1,8,0:0:0:0:
256,188,89501,1,0,0:0:0:0:
256,188,89585,1,8,0:0:0:0:
256,188,89754,1,0,0:0:0:0:
256,188,89922,1,8,0:0:0:0:
256,188,90091,1,0,0:0:0:0:
256,188,90259,1,0,0:0:0:0:
256,188,90428,1,8,0:0:0:0:
256,188,90596,1,0,0:0:0:0:
256,188,90765,1,0,0:0:0:0:
256,188,90933,1,0,0:0:0:0:
256,188,91102,1,8,0:0:0:0:
256,188,91271,1,0,0:0:0:0:
256,188,91439,1,0,0:0:0:0:
256,188,91608,1,0,0:0:0:0:
256,188,91776,1,8,0:0:0:0:
256,188,91945,1,0,0:0:0:0:
256,188,92113,1,0,0:0:0:0:
256,188,92282,1,0,0:0:0:0:
256,188,92450,1,8,0:0:0:0:
256,188,92619,1,0,0:0:0:0:
256,188,92703,1,0,0:0:0:0:
256,188,92787,1,0,0:0:0:0:
256,188,92956,1,0,0:0:0:0:
256,188,93124,1,8,0:0:0:0:
256,188,93293,1,0,0:0:0:0:
256,188,93462,1,0,0:0:0:0:
256,188,93630,1,0,0:0:0:0:
256,188,93799,1,8,0:0:0:0:
256,188,93967,1,0,0:0:0:0:
256,188,94136,1,0,0:0:0:0:
256,188,94304,1,0,0:0:0:0:
256,188,94473,1,8,0:0:0:0:
256,188,94641,1,0,0:0:0:0:
256,188,94810,1,8,0:0:0:0:
256,188,94978,1,0,0:0:0:0:
256,188,95147,1,8,0:0:0:0:
256,188,95315,1,0,0:0:0:0:
256,188,95400,1,0,0:0:0:0:
256,188,95484,1,8,0:0:0:0:
256,188,95653,1,0,0:0:0:0:
256,188,95821,1,8,0:0:0:0:
256,188,95990,1,0,0:0:0:0:
256,188,96158,1,8,0:0:0:0:
256,188,96327,1,0,0:0:0:0:
256,188,96495,1,8,0:0:0:0:
256,188,96664,1,0,0:0:0:0:
256,188,96832,1,8,0:0:0:0:
256,188,97001,1,0,0:0:0:0:
256,188,97169,1,8,0:0:0:0:
256,188,97254,1,0,0:0:0:0:
256,188,97338,1,0,0:0:0:0:
256,188,97506,1,8,0:0:0:0:
256,188,97591,1,0,0:0:0:0:
256,188,97675,1,0,0:0:0:0:
256,188,97844,1,8,0:0:0:0:
256,192,97928,1,0,0:0:0:0:
256,188,98012,1,0,0:0:0:0:
256,188,98181,1,8,0:0:0:0:
256,188,98265,1,0,0:0:0:0:
256,188,98349,1,0,0:0:0:0:
256,188,98433,1,0,0:0:0:0:
256,188,98518,1,8,0:0:0:0:
256,188,98686,1,0,0:0:0:0:
256,192,98771,1,0,0:0:0:0:
256,188,98855,1,8,0:0:0:0:
256,192,98939,1,0,0:0:0:0:
256,192,99023,1,0,0:0:0:0:
256,192,99108,1,0,0:0:0:0:
256,188,99192,1,8,0:0:0:0:
256,188,99276,1,0,0:0:0:0:
256,188,99360,1,0,0:0:0:0:
256,192,99529,1,0,0:0:0:0:
256,188,99613,1,0,0:0:0:0:
256,188,99697,1,8,0:0:0:0:
256,188,99866,1,0,0:0:0:0:
256,188,99950,1,8,0:0:0:0:
256,188,100035,1,0,0:0:0:0:
256,188,100119,1,0,0:0:0:0:
256,188,100203,1,8,0:0:0:0:
256,188,100540,1,12,0:0:0:0:
256,188,100877,1,0,0:0:0:0:
