osu file format v14

[General]
AudioFilename: audio.mp3
AudioLeadIn: 0
PreviewTime: 56362
Countdown: 0
SampleSet: Soft
StackLeniency: 0.7
Mode: 0
LetterboxInBreaks: 0
WidescreenStoryboard: 1

[Editor]
Bookmarks: 4469,13301,22134,29862,30966,39799,48631,56359,57463,66296
DistanceSpacing: 1
BeatDivisor: 4
GridSize: 32
TimelineZoom: 1.199999

[Metadata]
Title:boss (ceo)
TitleUnicode:boss (ceo)
Artist:kurtains
ArtistUnicode:kurtains
Creator:Azinlen
Version:vanchanical's hard
Source:
Tags:daycore vanchanical hyperpop slowsilver03 english hiphop hip hop hip-hop rap pop
BeatmapID:2927038
BeatmapSetID:1414274

[Difficulty]
HPDrainRate:4
CircleSize:4
OverallDifficulty:6
ApproachRate:7.5
SliderMultiplier:2
SliderTickRate:1

[Events]
//Background and Video events
0,0,"bg.jpg",0,0
//Break Periods
//Storyboard Layer 0 (Background)
//Storyboard Layer 1 (Fail)
//Storyboard Layer 2 (Pass)
//Storyboard Layer 3 (Foreground)
//Storyboard Layer 4 (Overlay)
//Storyboard Sound Samples

[TimingPoints]
53,552.028705492686,4,2,1,50,1,0
53,-100,4,2,1,50,0,0

[Colours]
Combo1 : 204,230,209
Combo2 : 191,255,206
Combo3 : 205,255,174
Combo4 : 214,228,194

[HitObjects]
0,269,53,2,0,L|153:250,1,150,0|0,3:2|0:0,0:0:0:0:
183,213,605,1,8,0:0:0:0:
237,297,881,2,0,P|316:352|372:330,1,150,0|0,3:0|0:0,0:0:0:0:
410,338,1433,1,2,0:0:0:0:
449,246,1709,2,0,L|448:185,1,50,10|0,0:0|0:0,0:0:0:0:
410,163,1985,1,0,0:0:0:0:
315,130,2261,6,0,L|207:140,1,100,0|0,3:0|0:0,0:0:0:0:
176,170,2675,2,0,L|68:160,1,100,0|0,3:0|0:0,0:0:0:0:
35,132,3089,1,2,3:2:0:0:
24,127,3641,5,2,0:0:0:0:
82,45,3917,2,0,L|150:46,1,50,2|2,0:0|0:0,0:0:0:0:
161,86,4193,2,0,L|229:85,1,50,2|0,0:0|0:0,0:0:0:0:
250,115,4469,2,0,B|310:162|373:110|341:62|429:62,1,200,2|8,3:2|0:0,0:0:0:0:
421,62,5297,1,2,0:0:0:0:
485,138,5573,1,2,0:0:0:0:
485,138,5711,1,2,0:0:0:0:
485,138,5849,2,0,L|475:207,1,50,2|0,0:0|0:0,0:0:0:0:
446,226,6125,5,10,0:0:0:0:
346,229,6401,1,2,0:0:0:0:
297,316,6677,2,0,B|242:307|242:307|217:323|217:323|102:303,1,200,2|10,3:2|3:2,0:0:0:0:
104,303,7505,1,2,3:2:0:0:
163,223,7781,2,0,P|182:166|157:128,1,100,2|0,0:0|3:0,0:0:0:0:
72,107,8333,1,10,0:2:0:0:
72,107,8609,1,2,0:2:0:0:
126,23,8885,6,0,B|162:21|162:21|166:18|166:18|185:28|185:28|187:23|187:23|324:18,1,200,2|8,3:2|0:0,0:0:0:0:
345,123,9713,1,2,0:2:0:0:
345,123,9851,1,2,0:2:0:0:
345,123,9989,2,0,L|407:122,1,50,2|2,0:2|0:0,0:0:0:0:
437,96,10265,1,2,0:0:0:0:
483,184,10541,6,0,P|486:208|476:231,1,50,10|2,0:0|0:0,0:0:0:0:
426,239,10817,2,0,P|406:254|381:256,1,50,2|2,0:0|0:0,0:0:0:0:
29,318,12197,5,2,0:0:0:0:
29,318,12335,1,2,0:0:0:0:
29,318,12473,2,0,L|85:314,1,50,2|2,0:0|0:0,0:0:0:0:
111,276,12749,2,0,L|167:280,1,50,2|2,1:2|1:2,0:0:0:0:
199,311,13025,1,2,1:2:0:0:
281,253,13301,6,0,P|300:192|261:141,1,100,2|2,3:2|0:0,0:0:0:0:
205,102,13853,1,10,0:0:0:0:
272,28,14129,2,0,L|327:26,1,50,2|8,3:2|0:0,0:0:0:0:
359,58,14405,1,2,0:0:0:0:
465,48,14681,5,2,0:0:0:0:
465,48,14819,1,2,0:0:0:0:
465,48,14957,2,0,L|459:107,1,50,2|2,0:0|0:0,0:0:0:0:
487,139,15233,2,0,L|481:198,1,50,2|0,0:0|0:0,0:0:0:0:
456,231,15509,6,0,P|407:251|343:213,1,100,2|2,3:2|0:2,0:0:0:0:
336,195,15923,2,0,P|287:175|223:213,1,100,0|0,3:0|0:0,0:0:0:0:
209,224,16337,2,0,L|213:286,1,50,2|8,3:2|0:0,0:0:0:0:
191,319,16613,1,2,0:0:0:0:
110,377,16889,1,2,0:0:0:0:
25,323,17165,2,0,L|29:260,1,50,10|0,0:0|3:0,0:0:0:0:
64,238,17441,2,0,L|60:175,1,50,2|8,0:0|0:0,0:0:0:0:
39,142,17717,6,0,P|97:156|145:125,1,100,2|2,3:2|0:0,0:0:0:0:
192,60,18269,2,0,L|248:63,1,50,10|0,0:0|0:0,0:0:0:0:
279,29,18545,2,0,L|335:32,1,50,2|8,3:2|0:0,0:0:0:0:
352,76,18821,1,2,0:0:0:0:
456,111,19097,1,2,0:0:0:0:
456,111,19235,1,0,0:0:0:0:
456,111,19374,2,0,L|459:216,1,100,8|2,0:0|0:0,0:0:0:0:
459,310,19926,5,0,3:0:0:0:
381,369,20202,1,2,0:0:0:0:
381,369,20340,1,0,3:0:0:0:
381,369,20478,2,0,L|296:363,1,50,8|0,0:0|0:0,0:0:0:0:
302,324,20754,2,0,L|241:327,1,50,2|8,0:0|0:0,0:0:0:0:
215,291,21030,2,0,P|191:233|213:188,1,100,2|2,0:0|3:2,0:0:0:0:
286,145,21582,1,10,0:0:0:0:
220,69,21858,2,0,L|103:69,1,100,2|2,0:0|0:0,0:0:0:0:
25,245,22686,5,2,0:0:0:0:
84,325,22962,2,0,L|144:322,1,50,2|2,3:2|0:0,0:0:0:0:
167,285,23238,2,0,L|288:289,1,100,2|2,0:0|0:0,0:0:0:0:
327,368,23790,1,8,0:0:0:0:
411,312,24066,1,2,0:0:0:0:
411,312,24204,1,8,0:0:0:0:
411,312,24342,6,0,P|433:253|412:210,1,100,2|2,3:2|0:0,0:0:0:0:
503,164,24894,2,0,P|462:115|415:112,1,100,10|2,0:0|3:2,0:0:0:0:
360,36,25446,2,0,L|278:38,1,50,2|0,0:0|0:0,0:0:0:0:
281,78,25722,2,0,L|147:75,1,100,2|8,3:2|0:0,0:0:0:0:
109,145,26274,1,2,0:0:0:0:
182,212,26550,2,0,P|197:270|178:313,1,100,2|2,3:2|0:0,0:0:0:0:
383,307,27378,6,0,P|368:259|384:213,1,100,2|2,3:2|0:0,0:0:0:0:
482,177,27930,1,2,0:0:0:0:
482,177,28068,1,2,0:0:0:0:
482,177,28206,2,0,L|490:72,1,100,8|2,0:0|0:0,0:0:0:0:
404,24,28758,2,0,L|274:30,1,100,2|2,3:2|0:0,0:0:0:0:
273,68,29172,1,0,0:0:0:0:
512,261,29862,5,2,0:0:0:0:
512,261,30000,1,2,0:0:0:0:
512,261,30138,2,0,L|447:256,1,50,2|2,0:0|0:0,0:0:0:0:
418,281,30414,2,0,L|353:276,1,50,2|2,1:2|1:2,0:0:0:0:
325,250,30690,1,2,1:2:0:0:
263,329,30966,6,0,B|182:329|214:281|151:229|91:276,1,200,2|10,3:2|0:0,0:0:0:0:
91,275,31794,1,2,0:0:0:0:
29,209,32070,1,2,0:0:0:0:
29,209,32208,1,2,0:0:0:0:
29,209,32346,2,0,L|22:149,1,50,2|0,0:0|0:0,0:0:0:0:
48,116,32622,5,10,0:0:0:0:
142,149,32898,1,2,0:0:0:0:
193,63,33174,2,0,B|257:53|257:53|271:58|271:58|415:33,1,200,0|10,3:0|3:2,0:0:0:0:
458,109,34002,1,2,3:2:0:0:
376,166,34278,2,0,P|346:226|373:275,1,100,2|2,0:0|3:2,0:0:0:0:
448,301,34830,1,10,0:0:0:0:
448,301,35106,1,2,0:0:0:0:
368,361,35382,6,0,B|235:365|235:365|233:370|233:370|214:360|214:360|210:363|210:363|174:365,1,200,2|8,3:2|0:0,0:0:0:0:
119,294,36210,1,2,3:2:0:0:
119,294,36348,1,2,3:2:0:0:
119,294,36486,2,0,L|114:225,1,50,2|2,3:2|0:0,0:0:0:0:
73,216,36762,1,2,0:0:0:0:
93,118,37038,6,0,P|112:103|137:100,1,50,10|2,0:0|0:0,0:0:0:0:
174,66,37314,2,0,P|196:75|211:96,1,50,2|2,0:0|0:0,0:0:0:0:
486,35,38695,5,2,0:0:0:0:
486,35,38833,1,2,0:0:0:0:
486,35,38971,2,0,L|486:89,1,50,2|2,0:0|0:0,0:0:0:0:
437,110,39247,2,0,L|437:164,1,50,2|2,1:2|1:2,0:0:0:0:
476,198,39523,1,2,1:2:0:0:
410,286,39799,6,0,P|366:319|291:261,1,150,0|0,3:0|0:0,0:0:0:0:
255,235,40351,2,0,P|192:201|138:246,1,150,10|8,0:0|0:0,0:0:0:0:
96,281,40903,1,2,0:0:0:0:
35,201,41179,1,0,0:0:0:0:
35,201,41317,1,2,0:0:0:0:
35,201,41455,2,0,L|41:118,1,50,10|0,0:0|0:0,0:0:0:0:
12,102,41731,1,2,0:0:0:0:
95,30,42007,6,0,P|123:23|144:28,1,50,2|8,3:2|0:0,0:0:0:0:
186,61,42283,2,0,P|214:68|235:63,1,50,2|0,0:0|0:0,0:0:0:0:
276,28,42559,1,2,0:0:0:0:
385,14,42835,1,2,0:0:0:0:
436,111,43111,1,2,0:0:0:0:
348,174,43387,5,2,3:2:0:0:
348,174,43525,1,0,0:0:0:0:
348,174,43663,2,0,P|342:207|357:234,1,50,8|0,0:0|3:2,0:0:0:0:
379,266,43939,2,0,P|385:299|370:326,1,50,2|8,0:0|0:0,0:0:0:0:
340,352,44215,2,0,L|175:340,1,150,2|0,3:2|0:0,0:0:0:0:
142,366,44767,1,10,0:0:0:0:
55,297,45043,1,2,3:2:0:0:
134,221,45319,5,2,0:0:0:0:
134,221,45457,1,0,0:0:0:0:
134,221,45595,2,0,L|142:162,1,50,2|0,0:0|0:0,0:0:0:0:
104,130,45871,1,10,0:0:0:0:
150,30,46147,2,0,L|213:29,1,50,2|8,0:0|0:0,0:0:0:0:
244,61,46423,2,0,L|370:59,1,100,2|2,3:2|0:0,0:0:0:0:
443,12,46975,5,10,0:0:0:0:
501,105,47251,1,2,3:2:0:0:
417,173,47527,1,2,0:0:0:0:
417,173,47665,1,0,0:0:0:0:
417,173,47803,1,2,0:0:0:0:
326,235,48079,2,0,L|333:346,1,100,2|2,0:0|0:0,0:0:0:0:
225,362,48631,6,0,P|163:325|101:363,1,150,2|0,3:2|0:0,0:0:0:0:
48,374,49183,1,10,0:0:0:0:
6,272,49459,1,2,3:2:0:0:
98,212,49735,2,0,P|113:163|94:112,1,100,2|0,0:0|0:0,0:0:0:0:
83,9,50287,5,10,0:0:0:0:
173,71,50563,1,2,0:0:0:0:
266,12,50839,2,0,L|387:7,1,100,2|0,3:2|0:0,0:0:0:0:
412,46,51253,1,2,3:2:0:0:
412,46,51391,1,8,0:0:0:0:
481,131,51667,6,0,L|472:286,1,150,2|0,3:2|0:0,0:0:0:0:
498,329,52219,1,2,3:2:0:0:
397,373,52495,2,0,L|343:369,1,50,10|0,0:0|3:0,0:0:0:0:
312,326,52771,2,0,L|258:330,1,50,2|8,0:0|0:0,0:0:0:0:
219,363,53047,1,2,0:0:0:0:
512,193,56359,5,2,0:0:0:0:
512,193,56497,1,2,0:0:0:0:
512,193,56635,2,0,L|447:188,1,50,2|2,0:0|0:0,0:0:0:0:
430,138,56911,2,0,L|365:143,1,50,2|2,1:2|1:2,0:0:0:0:
344,190,57187,1,2,1:2:0:0:
244,123,57463,2,0,B|217:155|217:155|261:314,1,200,2|10,3:2|0:0,0:0:0:0:
259,307,58291,1,2,0:0:0:0:
164,377,58567,1,2,0:0:0:0:
164,377,58705,1,2,0:0:0:0:
164,377,58844,2,0,L|101:370,1,50,2|0,0:0|0:0,0:0:0:0:
55,382,59119,5,10,0:0:0:0:
5,272,59395,1,2,0:0:0:0:
74,174,59672,2,0,B|134:127|197:179|165:227|253:227,1,200,0|10,3:0|3:2,0:0:0:0:
245,226,60499,1,2,3:2:0:0:
345,159,60775,2,0,L|330:59,1,100,2|2,0:0|3:2,0:0:0:0:
444,18,61327,1,10,0:0:0:0:
444,18,61603,1,2,0:0:0:0:
507,120,61879,6,0,B|505:157|505:157|508:161|508:161|496:179|496:179|501:181|501:181|494:318,1,200,2|8,3:2|0:0,0:0:0:0:
396,377,62707,1,2,0:2:0:0:
396,377,62845,1,2,0:2:0:0:
396,377,62983,2,0,L|327:372,1,50,2|2,0:2|0:0,0:0:0:0:
298,336,63259,1,2,0:0:0:0:
226,239,63535,6,0,P|207:224|182:221,1,50,10|2,0:0|0:0,0:0:0:0:
130,251,63811,2,0,P|108:260|93:281,1,50,2|2,0:0|0:0,0:0:0:0:
508,35,65192,5,2,0:0:0:0:
508,35,65330,1,2,0:0:0:0:
508,35,65468,2,0,L|452:32,1,50,2|2,0:0|0:0,0:0:0:0:
415,74,65744,2,0,L|359:71,1,50,2|2,1:2|1:2,0:0:0:0:
330,22,66020,1,2,1:2:0:0:
221,73,66296,6,0,P|239:126|215:167,1,100,2|2,3:2|0:0,0:0:0:0:
126,237,66848,1,10,0:0:0:0:
126,237,67124,1,2,3:2:0:0:
184,341,67400,1,2,0:0:0:0:
303,304,67676,5,2,0:0:0:0:
303,304,67814,1,2,0:0:0:0:
303,304,67952,2,0,L|373:306,1,50,2|2,0:0|0:0,0:0:0:0:
397,346,68228,1,2,0:0:0:0:
495,277,68504,2,0,L|490:212,1,50,2|8,3:2|0:0,0:0:0:0:
449,184,68780,2,0,L|454:119,1,50,2|0,0:0|3:2,0:0:0:0:
500,98,69056,1,10,0:0:0:0:
417,25,69332,5,0,3:0:0:0:
417,25,69470,1,8,0:0:0:0:
417,25,69608,2,0,L|335:22,1,50,2|0,0:0|0:0,0:0:0:0:
324,65,69884,1,2,0:0:0:0:
218,7,70160,1,10,0:2:0:0:
138,97,70436,1,2,0:0:0:0:
138,97,70574,1,8,0:0:0:0:
138,97,70712,2,0,P|120:158|141:197,1,100,2|2,3:2|0:0,0:0:0:0:
227,263,71264,1,10,0:0:0:0:
155,360,71540,5,2,3:2:0:0:
155,360,71678,1,8,0:0:0:0:
155,360,71816,2,0,L|85:357,1,50,2|0,0:0|0:0,0:0:0:0:
49,380,72092,1,2,0:0:0:0:
2,269,72368,2,0,L|-2:210,1,50,10|0,0:0|0:0,0:0:0:0:
37,173,72644,1,2,0:0:0:0:
123,90,72920,6,0,P|175:110|221:88,1,100,0|2,3:0|0:0,0:0:0:0:
303,15,73472,1,10,0:0:0:0:
372,112,73748,1,2,0:0:0:0:
372,112,73886,1,8,0:0:0:0:
372,112,74024,2,0,L|368:186,1,50,2|0,0:0|0:0,0:0:0:0:
315,189,74300,2,0,L|319:263,1,50,2|2,3:2|0:0,0:0:0:0:
279,285,74576,1,8,0:0:0:0:
368,364,74852,1,2,0:0:0:0:
470,302,75128,1,2,0:0:0:0:
