osu file format v14

[General]
AudioFilename: audio.mp3
AudioLeadIn: 0
PreviewTime: 56362
Countdown: 0
SampleSet: Soft
StackLeniency: 0.3
Mode: 0
LetterboxInBreaks: 0
WidescreenStoryboard: 1

[Editor]
DistanceSpacing: 4.2
BeatDivisor: 8
GridSize: 32
TimelineZoom: 3.599998

[Metadata]
Title:boss (ceo)
TitleUnicode:boss (ceo)
Artist:kurtains
ArtistUnicode:kurtains
Creator:Azinlen
Version:bossman
Source:
Tags:daycore vanchanical hyperpop slowsilver03 english hiphop hip hop hip-hop rap pop
BeatmapID:2921883
BeatmapSetID:1414274

[Difficulty]
HPDrainRate:5
CircleSize:4
OverallDifficulty:8
ApproachRate:9
SliderMultiplier:2.6
SliderTickRate:1

[Events]
//Background and Video events
0,0,"bg.jpg",0,0
//Break Periods
//Storyboard Layer 0 (Background)
//Storyboard Layer 1 (Fail)
//Storyboard Layer 2 (Pass)
//Storyboard Layer 3 (Foreground)
//Storyboard Layer 4 (Overlay)
//Storyboard Sound Samples

[TimingPoints]
53,552.028705492686,4,2,1,50,1,0
878,-66.6666666666667,4,2,1,50,0,0
1153,-100,4,2,1,50,0,0
29443,-100,4,2,1,5,0,0
29856,-100,4,2,1,50,0,0
42792,-200,4,2,1,50,0,0
43387,-66.6666666666667,4,2,1,50,0,0
45043,-100,4,2,1,50,0,0
61316,-66.6666666666667,4,2,1,50,0,0
61728,-66.6666666666667,4,2,1,5,0,0
61866,-100,4,2,1,50,0,0
63380,-100,4,2,1,5,0,0
63517,-100,4,2,1,50,0,0

[Colours]
Combo1 : 204,230,209
Combo2 : 191,255,206
Combo3 : 205,255,174
Combo4 : 214,228,194

[HitObjects]
94,113,53,6,0,B|152:88|199:138|166:178|223:229|288:197,1,195,0|0,3:2|0:0,0:0:0:0:
300,155,605,1,8,0:0:0:0:
313,241,881,6,0,P|326:263|314:238,1,97.50000371933,0|8,3:0|0:0,0:0:0:0:
386,159,1157,2,0,P|371:84|371:62,1,65,0|0,0:0|0:0,0:0:0:0:
490,253,1433,2,0,P|499:222|504:190,1,65,2|0,0:0|0:0,0:0:0:0:
376,297,1709,5,10,0:0:0:0:
366,334,1847,1,0,0:0:0:0:
405,339,1985,1,0,0:0:0:0:
415,302,2123,1,8,0:2:0:0:
245,205,2261,6,0,P|251:266|258:348,1,130,0|0,3:0|0:0,0:0:0:0:
246,351,2675,6,0,P|240:286|234:221,1,130,0|0,3:0|0:0,0:0:0:0:
220,216,3089,2,0,P|224:259|228:309,1,65,2|2,3:2|0:2,0:0:0:0:
109,339,3365,1,2,0:2:0:0:
103,333,3503,1,0,0:0:0:0:
109,324,3641,5,2,0:0:0:0:
0,112,4469,6,0,B|51:91|99:142|63:174|118:238|188:201,1,195,2|0,3:2|0:0,0:0:0:0:
208,167,5021,2,0,L|191:87,1,65,8|0,0:0|0:0,0:0:0:0:
194,103,5297,1,2,0:0:0:0:
296,207,5573,5,2,0:0:0:0:
304,130,5711,1,2,0:0:0:0:
315,51,5849,2,0,P|307:27|308:53,1,65,2|0,0:0|0:0,0:0:0:0:
401,108,6125,5,10,0:0:0:0:
474,85,6263,1,0,0:0:0:0:
502,159,6401,1,2,0:0:0:0:
428,182,6539,1,8,0:0:0:0:
512,277,6677,6,0,B|465:252|409:287|447:332|382:371|339:340,1,195,2|0,3:2|0:0,0:0:0:0:
236,314,7229,2,0,P|266:292|308:298,1,65,10|0,3:2|0:0,0:0:0:0:
171,370,7505,2,0,P|139:367|114:347,1,65,2|8,3:2|0:0,0:0:0:0:
136,161,7781,1,2,0:0:0:0:
136,161,7850,1,0,0:0:0:0:
136,161,7919,1,0,0:0:0:0:
136,161,7988,1,0,0:0:0:0:
136,161,8057,2,0,P|154:232|166:320,2,130,0|10|2,3:0|0:2|0:2,0:0:0:0:
19,94,8885,6,0,B|59:113|117:78|79:34|140:-8|197:16,1,195,2|0,3:2|0:0,0:0:0:0:
208,80,9437,2,0,P|228:93|208:72,1,65,8|0,0:0|0:0,0:0:0:0:
331,15,9713,5,2,0:2:0:0:
317,91,9851,1,2,0:2:0:0:
393,102,9989,1,2,0:2:0:0:
407,26,10127,1,2,0:0:0:0:
470,145,10265,6,0,B|456:209|456:209|458:216|458:216|443:285,1,130,2|10,0:0|0:0,0:0:0:0:
496,351,10679,1,2,0:0:0:0:
423,376,10817,1,2,0:0:0:0:
372,295,10955,1,2,0:0:0:0:
166,358,12197,5,2,0:0:0:0:
93,330,12335,1,2,0:0:0:0:
127,260,12473,1,2,0:0:0:0:
200,288,12611,1,2,0:0:0:0:
244,225,12749,5,2,1:2:0:0:
353,183,12887,1,2,1:2:0:0:
302,77,13025,1,2,1:2:0:0:
298,82,13301,6,0,B|251:73|200:116|239:157|179:213|92:160,1,195,2|0,3:2|0:0,0:0:0:0:
35,124,13853,2,0,P|108:112|147:100,1,65,10|0,0:0|0:0,0:0:0:0:
64,206,14129,2,0,P|31:209|0:215,1,65,2|8,3:2|0:0,0:0:0:0:
127,260,14405,2,0,P|207:272|290:298,1,130,2|2,0:0|0:0,0:0:0:0:
324,353,14819,1,2,0:0:0:0:
324,353,14957,2,0,P|371:342|412:338,1,65,2|2,0:0|0:0,0:0:0:0:
439,251,15233,2,0,P|406:245|375:237,1,65,2|0,0:0|0:0,0:0:0:0:
298,163,15509,6,0,B|342:186|390:143|361:105|407:59|472:93,1,195,2|0,3:2|3:0,0:0:0:0:
509,139,16061,2,0,P|473:160|431:157,1,65,8|0,0:0|0:0,0:0:0:0:
337,40,16337,1,2,3:2:0:0:
339,34,16475,1,8,0:0:0:0:
212,136,16613,1,2,0:0:0:0:
212,136,16682,1,0,0:0:0:0:
212,136,16751,1,0,0:0:0:0:
118,90,16889,2,0,P|67:78|33:80,1,65,2|0,0:0|0:0,0:0:0:0:
31,243,17165,6,0,L|138:221,1,65,10|0,0:0|3:0,0:0:0:0:
145,314,17441,2,0,L|208:327,1,65,2|8,0:0|0:0,0:0:0:0:
291,371,17717,6,0,B|300:311|300:311|294:298|294:298|303:229,1,130,2|2,3:2|0:0,0:0:0:0:
313,147,18131,1,0,0:0:0:0:
387,222,18269,2,0,L|484:211,1,65,10|0,0:0|0:0,0:0:0:0:
505,136,18545,2,0,P|503:124|497:145,1,65,2|8,3:2|0:0,0:0:0:0:
400,97,18821,5,2,0:0:0:0:
400,97,18890,1,0,0:0:0:0:
400,97,18959,1,0,0:0:0:0:
411,7,19097,1,2,0:0:0:0:
319,0,19235,1,0,0:0:0:0:
268,91,19374,5,8,0:0:0:0:
178,102,19512,1,0,0:0:0:0:
193,191,19650,1,2,0:0:0:0:
284,178,19788,1,8,0:0:0:0:
359,274,19926,6,0,B|314:259|255:290|295:336|229:376|181:344,1,195,0|0,3:0|3:0,0:0:0:0:
111,294,20478,2,0,P|159:282|194:274,1,65,8|0,0:0|0:0,0:0:0:0:
128,369,20754,2,0,P|96:377|64:384,1,65,2|8,0:0|0:0,0:0:0:0:
7,338,21030,1,2,0:0:0:0:
7,338,21099,1,0,0:0:0:0:
7,338,21168,1,0,0:0:0:0:
7,338,21237,1,0,0:0:0:0:
7,338,21306,6,0,P|23:266|38:181,1,130,2|10,3:2|0:0,0:0:0:0:
103,181,21720,2,0,P|88:117|76:53,1,130,0|8,3:0|0:0,0:0:0:0:
10,15,22134,1,2,0:0:0:0:
301,69,22962,6,0,P|304:30|308:-10,1,65,2|2,3:2|0:0,0:0:0:0:
228,172,23238,1,2,0:0:0:0:
228,172,23307,1,0,0:0:0:0:
228,172,23376,1,0,0:0:0:0:
228,172,23445,1,0,0:0:0:0:
228,172,23514,5,2,0:0:0:0:
207,78,23652,1,0,0:0:0:0:
113,97,23790,1,8,0:0:0:0:
134,191,23928,5,0,0:0:0:0:
50,234,24066,1,2,0:0:0:0:
95,309,24204,1,8,0:0:0:0:
179,266,24342,6,0,B|226:238|283:287|248:318|304:362|364:329,1,195,2|0,3:2|3:0,0:0:0:0:
403,270,24894,2,0,P|359:246|331:248,1,65,10|0,0:0|0:0,0:0:0:0:
424,353,25170,2,0,P|455:347|481:328,1,65,2|8,3:2|0:0,0:0:0:0:
486,232,25446,1,2,0:0:0:0:
486,232,25515,1,0,0:0:0:0:
486,232,25584,1,0,0:0:0:0:
486,232,25653,1,0,0:0:0:0:
486,232,25722,5,2,3:2:0:0:
457,136,25860,1,2,0:0:0:0:
358,124,25998,1,8,0:0:0:0:
296,45,26136,2,0,B|225:52|256:90|173:109,1,130,0|8,3:0|0:0,0:0:0:0:
92,67,26550,2,0,P|83:107|95:152,1,65,2|8,3:2|0:0,0:0:0:0:
161,189,26826,1,2,0:0:0:0:
162,183,26964,1,0,0:0:0:0:
14,314,27378,6,0,L|146:290,1,130,2|2,3:2|0:0,0:0:0:0:
172,314,27723,1,0,0:0:0:0:
172,314,27792,1,0,0:0:0:0:
247,329,27930,1,2,0:0:0:0:
308,279,28068,1,2,0:0:0:0:
383,294,28206,1,8,0:0:0:0:
433,353,28344,1,0,0:0:0:0:
491,299,28482,1,2,0:0:0:0:
446,239,28620,1,8,0:0:0:0:
446,239,28758,6,0,B|442:180|442:180|446:170|446:170|441:94,1,130,2|2,3:2|0:0,0:0:0:0:
433,106,29172,2,0,B|436:165|436:165|432:175|432:175|436:234,1,130,0|0,0:0|0:0,0:0:0:0:
302,89,29862,5,2,0:0:0:0:
225,73,30000,1,2,0:0:0:0:
304,97,30138,5,2,0:0:0:0:
227,81,30276,1,2,0:0:0:0:
307,105,30414,5,2,1:2:0:0:
230,89,30552,1,2,1:2:0:0:
178,148,30690,2,0,L|190:245,1,65,2|0,1:2|0:0,0:0:0:0:
113,278,30966,6,0,B|170:267|214:303|182:343|227:386|304:358,1,195,2|0,3:2|0:0,0:0:0:0:
329,310,31518,2,0,L|321:245,1,65,10|0,0:0|0:0,0:0:0:0:
370,181,31794,1,2,0:0:0:0:
368,175,32070,5,2,0:0:0:0:
443,190,32208,1,2,0:0:0:0:
489,128,32346,2,0,L|474:49,1,65,2|0,0:0|0:0,0:0:0:0:
406,27,32622,5,10,0:0:0:0:
316,68,32760,1,0,0:0:0:0:
222,39,32898,1,2,0:0:0:0:
132,80,33036,1,8,0:0:0:0:
41,34,33174,6,0,B|59:116|59:116|53:138|53:138|80:244,1,195,0|0,3:0|0:0,0:0:0:0:
7,299,33726,2,0,L|89:314,1,65,10|0,3:2|0:0,0:0:0:0:
147,373,34002,2,0,L|210:361,1,65,2|8,3:2|0:0,0:0:0:0:
276,290,34278,1,2,0:0:0:0:
276,290,34347,1,0,0:0:0:0:
276,290,34416,1,0,0:0:0:0:
276,290,34485,1,0,0:0:0:0:
276,290,34554,6,0,B|283:228|283:228|277:216|277:216|283:148,1,130,2|10,3:2|0:0,0:0:0:0:
209,74,34968,2,0,B|202:136|202:136|208:148|208:148|202:216,1,130,0|0,3:0|0:0,0:0:0:0:
146,254,35382,6,0,P|56:265|26:160,1,195,2|0,3:2|0:0,0:0:0:0:
55,117,35934,1,8,0:0:0:0:
10,23,36210,5,2,3:2:0:0:
87,39,36348,1,2,3:2:0:0:
6,18,36486,5,2,3:2:0:0:
83,34,36624,1,2,0:0:0:0:
160,52,36762,2,0,L|311:31,1,130,2|10,0:0|0:0,0:0:0:0:
314,110,37176,1,2,0:0:0:0:
389,93,37314,1,2,0:0:0:0:
364,18,37452,1,2,0:0:0:0:
485,186,38695,5,2,0:0:0:0:
411,169,38833,1,2,0:0:0:0:
388,245,38971,1,2,0:0:0:0:
462,262,39109,1,2,0:0:0:0:
344,333,39247,5,2,1:2:0:0:
269,348,39385,1,2,1:2:0:0:
192,365,39523,1,2,1:2:0:0:
9,191,39799,6,0,B|55:169|111:221|72:254|125:295|167:277,1,195,0|0,3:0|0:0,0:0:0:0:
225,241,40351,1,10,0:0:0:0:
225,241,40627,2,0,P|184:208|151:209,1,65,2|8,3:2|0:0,0:0:0:0:
112,142,40903,2,0,L|273:120,1,130,2|0,0:0|0:0,0:0:0:0:
285,63,41317,1,2,0:0:0:0:
218,23,41455,2,0,L|141:32,1,65,10|0,0:0|0:0,0:0:0:0:
285,63,41731,2,0,L|349:55,1,65,2|8,0:0|0:0,0:0:0:0:
480,48,42007,5,2,3:2:0:0:
486,54,42283,1,2,0:0:0:0:
482,64,42559,1,2,0:0:0:0:
396,156,42835,6,0,P|399:182|402:208,1,32.5,2|0,0:0|0:0,0:0:0:0:
467,273,43111,1,2,0:0:0:0:
470,268,43387,6,0,B|430:252|373:283|405:328|350:374|278:343,1,195,2|8,3:2|0:0,0:0:0:0:
304,345,43801,2,0,B|339:354|399:321|367:276|424:245|464:261,1,195,0|8,3:2|0:0,0:0:0:0:
467,273,44215,1,2,3:2:0:0:
313,234,44491,1,2,0:0:0:0:
159,188,44767,1,10,0:0:0:0:
153,180,45043,6,0,L|165:262,1,65,2|8,3:2|0:0,0:0:0:0:
103,298,45319,1,2,0:0:0:0:
103,298,45388,1,0,0:0:0:0:
103,298,45457,1,0,0:0:0:0:
103,298,45526,1,0,0:0:0:0:
103,298,45595,5,2,0:0:0:0:
11,267,45733,1,0,0:0:0:0:
67,192,45871,1,10,0:0:0:0:
36,100,46009,1,0,0:0:0:0:
114,47,46147,2,0,L|201:57,1,65,2|8,0:0|0:0,0:0:0:0:
246,125,46423,6,0,B|296:112|345:157|301:193|345:249|418:225,1,195,2|0,3:2|3:0,0:0:0:0:
465,179,46975,2,0,P|480:221|475:260,1,65,10|0,0:0|0:0,0:0:0:0:
506,326,47251,2,0,L|410:318,1,65,2|8,3:2|0:0,0:0:0:0:
369,369,47527,1,2,0:0:0:0:
369,369,47596,1,0,0:0:0:0:
369,369,47665,1,0,0:0:0:0:
369,369,47734,1,0,0:0:0:0:
369,369,47803,1,2,0:0:0:0:
240,305,48079,6,0,P|225:344|231:381,2,65,2|0|2,0:0|0:0|0:0,0:0:0:0:
172,228,48631,2,0,B|109:241|109:241|97:250|97:250|-1:268,1,130,2|0,3:2|0:0,0:0:0:0:
0,192,49045,1,0,0:0:0:0:
0,192,49183,2,0,L|81:177,1,65,10|0,0:0|0:0,0:0:0:0:
108,98,49459,2,0,L|171:86,1,65,2|8,3:2|0:0,0:0:0:0:
232,17,49735,1,2,0:0:0:0:
232,17,49804,1,0,0:0:0:0:
232,17,49873,1,0,0:0:0:0:
232,17,49942,1,0,0:0:0:0:
232,17,50011,5,0,0:0:0:0:
211,150,50149,1,0,0:0:0:0:
336,165,50287,1,10,0:0:0:0:
357,32,50425,1,0,0:0:0:0:
353,38,50563,2,0,L|422:30,1,65,2|8,0:0|0:0,0:0:0:0:
488,159,50839,6,0,B|455:146|394:181|435:228|373:269|310:248,1,195,2|2,3:2|3:2,0:0:0:0:
273,325,51391,2,0,P|252:302|239:250,1,65,8|0,0:0|0:0,0:0:0:0:
273,176,51667,2,0,B|192:194|192:194|175:187|175:187|67:210,1,195,2|0,3:2|0:0,0:0:0:0:
14,131,52219,6,0,L|151:100,1,130,2|10,3:2|0:0,0:0:0:0:
147,87,52633,2,0,L|20:115,1,130,0|8,3:0|0:0,0:0:0:0:
4,103,53047,1,2,0:0:0:0:
411,64,56359,5,2,0:0:0:0:
334,44,56497,1,2,0:0:0:0:
310,119,56635,1,2,0:0:0:0:
387,139,56773,1,2,0:0:0:0:
364,213,56911,5,2,1:2:0:0:
450,189,57049,1,2,1:2:0:0:
485,288,57187,1,2,1:2:0:0:
486,281,57463,6,0,B|434:256|378:299|412:336|347:373|298:345,1,195,2|0,3:2|0:0,0:0:0:0:
224,281,58016,2,0,P|295:257|311:250,1,65,10|0,0:0|0:0,0:0:0:0:
166,350,58292,1,2,0:0:0:0:
171,353,58568,5,2,0:0:0:0:
137,264,58706,1,2,0:0:0:0:
52,298,58844,2,0,L|66:218,1,65,2|0,0:0|0:0,0:0:0:0:
11,139,59120,5,10,0:0:0:0:
87,154,59258,1,0,0:0:0:0:
6,145,59396,5,2,0:0:0:0:
82,160,59534,1,8,0:0:0:0:
175,69,59672,6,0,B|163:155|163:155|170:166|170:166|155:272,1,195,0|0,3:0|0:0,0:0:0:0:
217,328,60224,2,0,L|293:316,1,65,10|0,3:2|0:0,0:0:0:0:
354,380,60500,2,0,L|430:368,1,65,2|8,3:2|0:0,0:0:0:0:
471,293,60776,1,2,0:0:0:0:
471,293,60845,1,0,0:0:0:0:
471,293,60914,1,0,0:0:0:0:
471,293,60983,1,0,0:0:0:0:
471,293,61052,2,0,L|456:199,1,65,2|0,3:2|0:0,0:0:0:0:
474,135,61328,6,0,P|418:141|377:187,1,97.50000371933,10|0,0:0|3:0,0:0:0:0:
385,158,61604,2,0,P|423:128|471:126,1,97.50000371933,2|0,0:0|0:0,0:0:0:0:
504,56,61880,6,0,B|419:47|419:47|405:35|405:35|297:25,1,195,2|0,3:2|0:0,0:0:0:0:
251,106,62432,2,0,L|265:180,1,65,8|0,0:0|0:0,0:0:0:0:
207,252,62708,5,2,0:2:0:0:
132,233,62846,1,2,0:2:0:0:
108,309,62984,1,2,0:2:0:0:
183,328,63122,1,2,0:0:0:0:
180,334,63260,2,0,L|258:321,1,65,2|0,0:0|0:0,0:0:0:0:
375,370,63536,5,10,0:0:0:0:
387,291,63674,1,2,0:0:0:0:
436,229,63812,1,2,0:0:0:0:
424,150,63950,1,2,0:0:0:0:
319,25,65192,5,2,0:0:0:0:
242,40,65330,1,2,0:0:0:0:
259,113,65468,1,2,0:0:0:0:
336,98,65606,1,2,0:0:0:0:
191,172,65744,5,2,1:2:0:0:
287,190,65882,1,2,1:2:0:0:
266,282,66020,1,2,1:2:0:0:
271,290,66296,6,0,B|183:281|183:281|173:286|173:286|62:273,1,195,2|0,3:2|0:0,0:0:0:0:
26,332,66848,2,0,P|0:276|38:209,1,130,10|2,0:0|3:2,0:0:0:0:
102,195,67262,1,8,0:0:0:0:
102,195,67400,2,0,L|83:98,1,65,2|0,0:0|0:0,0:0:0:0:
22,43,67814,5,2,0:0:0:0:
97,51,67952,1,2,0:0:0:0:
164,7,68090,1,2,0:0:0:0:
239,15,68228,1,2,0:0:0:0:
321,123,68504,6,0,B|384:119|384:119|397:123|397:123|500:117,1,130,2|2,3:2|0:0,0:0:0:0:
451,131,68918,2,0,B|397:134|397:134|384:130|384:130|321:134,1,130,0|0,3:2|0:0,0:0:0:0:
323,145,69332,2,0,L|397:141,1,65,0|8,3:0|0:0,0:0:0:0:
451,217,69608,1,2,0:0:0:0:
451,217,69677,1,0,0:0:0:0:
451,217,69746,1,0,0:0:0:0:
451,217,69815,1,0,0:0:0:0:
451,217,69884,2,0,P|451:283|417:318,1,65,2|0,0:0|0:0,0:0:0:0:
376,350,70160,5,10,0:2:0:0:
287,323,70298,1,0,3:0:0:0:
196,362,70436,2,0,L|116:351,1,65,2|8,0:0|0:0,0:0:0:0:
64,381,70712,6,0,B|49:289|49:289|35:276|35:276|22:194,1,195,2|0,3:2|0:0,0:0:0:0:
70,133,71264,2,0,P|104:158|160:159,1,65,10|0,0:0|0:0,0:0:0:0:
195,43,71540,2,0,P|164:52|139:73,1,65,2|8,3:2|0:0,0:0:0:0:
181,255,71816,1,2,0:0:0:0:
181,255,71885,1,0,0:0:0:0:
181,255,71954,1,0,0:0:0:0:
181,255,72023,1,0,0:0:0:0:
181,255,72092,2,0,L|207:110,1,130,2|10,0:0|0:0,0:0:0:0:
269,82,72506,1,0,0:0:0:0:
269,82,72644,2,0,L|277:160,1,65,2|8,0:0|0:0,0:0:0:0:
326,205,72920,6,0,P|386:211|437:147,1,130,0|2,3:0|0:0,0:0:0:0:
435,181,73334,2,0,P|390:225|327:220,1,130,0|0,3:0|0:0,0:0:0:0:
323,231,73748,2,0,P|368:241|410:232,1,65,2|8,0:0|0:0,0:0:0:0:
449,330,74024,5,2,0:0:0:0:
449,330,74093,1,0,0:0:0:0:
449,330,74162,1,0,0:0:0:0:
449,330,74231,1,0,0:0:0:0:
449,330,74300,5,2,3:2:0:0:
356,318,74438,1,2,0:0:0:0:
276,367,74576,1,8,0:0:0:0:
183,355,74714,1,0,3:2:0:0:
178,360,74852,2,0,L|169:274,1,65,2|8,0:0|0:0,0:0:0:0:
163,221,75128,1,2,0:0:0:0:
