osu file format v14

[General]
AudioFilename: audio.mp3
AudioLeadIn: 0
PreviewTime: 206223
Countdown: 0
SampleSet: Soft
StackLeniency: 0.6
Mode: 0
LetterboxInBreaks: 0
WidescreenStoryboard: 0

[Editor]
Bookmarks: 30348,107223
DistanceSpacing: 2.4
BeatDivisor: 4
GridSize: 4
TimelineZoom: 1.299999

[Metadata]
Title:Rapunzel
TitleUnicode:ラプンツェル
Artist:kurokumo
ArtistUnicode:くろくも
Creator:Abelia
Version:Fairy Tale
Source:
Tags:Japanese Rock nbuna n-buna utaite cover 歌ってみた hatsune miku dark 初音ミク vocaloid append no.734 月を歩いている ナブナ nabuna りする あわしま
BeatmapID:2087755
BeatmapSetID:998138

[Difficulty]
HPDrainRate:5
CircleSize:4.1
OverallDifficulty:6
ApproachRate:7.5
SliderMultiplier:1.7
SliderTickRate:1

[Events]
//Background and Video events
0,0,"57819449_p0.jpg",0,0
//Break Periods
2,203418,205393
//Storyboard Layer 0 (Background)
//Storyboard Layer 1 (Fail)
//Storyboard Layer 2 (Pass)
//Storyboard Layer 3 (Foreground)
//Storyboard Layer 4 (Overlay)
//Storyboard Sound Samples

[TimingPoints]
718,750,4,2,1,23,1,0
718,-109.649122807018,4,2,1,23,0,0
24718,-97.0873786407767,4,2,1,30,0,0
36718,-109.89010989011,4,2,1,23,0,0
54718,-109.89010989011,4,2,0,23,0,0
56218,-109.89010989011,4,2,1,23,0,0
58843,-109.89010989011,4,2,1,35,0,0
59030,-109.89010989011,4,2,1,12,0,0
59218,750,4,2,1,30,1,0
59218,-80,4,2,1,45,0,0
83218,-92.5925925925926,4,2,1,30,0,0
130468,-92.5925925925926,4,2,1,35,0,0
130843,-92.5925925925926,4,2,1,40,0,0
131218,-71.4285714285714,4,2,1,50,0,1
152218,-86.9565217391304,4,2,1,46,0,0
153718,750,4,2,1,30,1,0
153718,-80,4,2,1,45,0,0
164218,-71.4285714285714,4,2,1,45,0,0
164968,-80,4,2,1,45,0,0
166843,-71.4285714285714,4,2,1,45,0,0
167218,-80,4,2,1,45,0,0
171718,-71.4285714285714,4,2,1,45,0,1
200218,-71.4285714285714,4,2,1,40,0,0
202468,-71.4285714285714,4,2,1,25,0,0
202655,-71.4285714285714,4,2,1,40,0,0
206218,750,4,2,1,30,1,0
206218,-109.89010989011,4,2,1,23,0,0
224218,-109.89010989011,4,2,0,23,0,0
230218,-109.89010989011,4,2,1,23,0,0
231718,-109.89010989011,4,2,1,11,0,0
232468,-109.89010989011,4,2,1,5,0,0
234718,750,4,2,1,30,1,0
234718,-71.4285714285714,4,2,1,50,0,1
258718,-71.4285714285714,4,2,1,23,0,0
263593,-200,4,2,1,13,0,0

[Colours]
Combo1 : 255,217,100
Combo2 : 255,255,102
Combo3 : 87,163,255
Combo4 : 123,248,109

[HitObjects]
286,133,343,5,2,0:0:0:0:
202,69,718,2,0,P|197:107|191:145,1,77.519999053711,2|0,0:0|0:0,0:0:0:0:
125,222,1468,1,0,0:0:0:0:
171,312,1843,2,0,P|247:297|323:287,1,155.039998107422,2|0,0:0|0:0,0:0:0:0:
422,323,2968,1,0,0:0:0:0:
457,224,3343,6,0,P|407:127|300:145,1,232.559997161133,2|0,0:0|0:0,0:0:0:0:
261,225,4843,1,2,0:0:0:0:
261,225,5593,1,2,0:0:0:0:
246,115,5968,1,2,0:0:0:0:
159,181,6343,1,2,0:0:0:0:
58,136,6718,6,0,P|62:174|66:213,2,77.519999053711
3,42,7843,1,2,0:0:0:0:
107,7,8218,1,2,0:0:0:0:
171,85,8593,1,2,0:0:0:0:
273,45,8968,2,0,P|267:82|262:120,1,77.519999053711,2|2,0:0|0:0,0:0:0:0:
288,226,9718,5,2,0:0:0:0:
364,147,10093,1,0,0:0:0:0:
468,175,10468,1,2,0:0:0:0:
394,254,10843,1,2,0:0:0:0:
394,254,11593,2,0,P|399:292|405:330,1,77.519999053711,0|2,0:0|0:0,0:0:0:0:
484,280,12343,1,2,0:0:0:0:
459,182,12718,5,2,0:0:0:0:
471,85,13093,2,0,P|433:91|395:97,1,77.519999053711
359,7,13843,2,0,P|287:8|273:78,1,155.039998107422,2|0,0:0|0:0,0:0:0:0:
324,152,14968,1,0,0:0:0:0:
372,257,15343,6,0,B|225:257|314:349|173:346,1,232.559997161133,2|0,0:0|2:0,2:0:0:0:
93,323,16843,1,2,0:0:0:0:
93,323,17593,1,2,0:0:0:0:
155,239,17968,1,2,0:0:0:0:
52,220,18343,1,2,0:0:0:0:
52,220,19093,5,2,0:0:0:0:
38,124,19468,1,2,0:0:0:0:
85,39,19843,1,2,0:0:0:0:
85,39,20593,1,2,0:0:0:0:
173,77,20968,1,2,0:0:0:0:
258,26,21343,1,2,0:0:0:0:
313,105,21718,6,0,P|351:98|389:93,1,77.519999053711,2|0,0:0|0:0,0:0:0:0:
476,130,22468,1,2,0:0:0:0:
449,218,22843,1,2,0:0:0:0:
449,218,23593,1,0,0:0:0:0:
383,276,23968,2,0,B|392:313|392:313|409:348,1,77.519999053711,2|0,0:0|0:0,0:0:0:0:
298,307,24718,6,0,P|214:303|165:371,1,175.099998530502,6|2,3:2|0:0,0:0:0:0:
87,308,25843,2,0,P|84:264|73:222,1,87.5499992652512,2|0,0:0|3:2,0:0:0:0:
112,97,26593,1,2,3:2:0:0:
21,129,26968,1,2,0:0:0:0:
0,35,27343,1,2,0:0:0:0:
0,35,27530,1,0,0:0:0:0:
0,35,27718,6,0,B|19:40|19:40|43:43,1,43.7749996326256,2|0,3:2|0:0,0:0:0:0:
112,97,28093,2,0,P|144:67|185:53,1,87.5499992652512,8|8,0:0|0:0,0:0:0:0:
185,53,28655,1,8,0:0:0:0:
261,107,28843,2,0,P|257:128|255:150,1,43.7749996326256,2|0,3:2|0:0,0:0:0:0:
338,185,29218,2,0,P|345:141|348:98,1,87.5499992652512,8|8,0:0|0:0,0:0:0:0:
348,98,29780,1,8,0:2:0:0:
296,27,29968,1,6,3:2:0:0:
296,27,30718,6,0,B|401:1|351:80|457:62,1,175.099998530502,6|2,3:2|0:0,0:0:0:0:
492,151,31843,2,0,P|481:195|472:236,1,87.5499992652512,2|0,0:0|3:2,0:0:0:0:
492,339,32593,1,2,3:2:0:0:
391,306,32968,1,2,0:0:0:0:
351,209,33343,1,2,0:0:0:0:
277,319,33718,6,0,P|256:325|234:329,1,43.7749996326256,2|8,3:2|0:0,0:0:0:0:
166,277,34093,2,0,P|195:244|222:210,1,87.5499992652512,8|10,0:0|0:0,0:0:0:0:
222,210,34655,1,8,0:0:0:0:
277,144,34843,2,0,P|256:135|237:125,1,43.7749996326256,0|8,0:0|0:0,0:0:0:0:
259,34,35218,2,0,P|216:44|174:56,1,87.5499992652512,10|8,3:2|3:2,0:0:0:0:
174,56,35780,1,8,0:0:0:0:
97,18,35968,1,2,0:0:0:0:
97,18,36718,6,0,P|92:56|86:94,1,77.3500025965882,2|2,0:0|0:0,0:0:0:0:
0,130,37468,1,2,0:0:0:0:
58,202,37843,1,2,0:0:0:0:
148,174,38218,1,2,0:0:0:0:
148,174,38968,1,2,0:0:0:0:
132,277,39343,1,2,0:0:0:0:
233,246,39718,5,2,0:0:0:0:
259,335,40093,2,0,P|295:322|332:310,1,77.3500025965882,2|2,0:0|0:0,0:0:0:0:
409,368,40843,2,0,P|430:336|450:304,1,77.3500025965882,2|2,0:0|0:0,0:0:0:0:
470,220,41593,1,2,0:0:0:0:
392,252,41968,1,2,0:0:0:0:
392,252,42718,6,0,P|387:211|381:175,1,77.3500025965882,2|2,0:0|0:0,0:0:0:0:
317,108,43468,1,2,0:0:0:0:
288,200,43843,1,2,0:0:0:0:
222,128,44218,1,2,0:0:0:0:
222,128,44968,1,2,0:0:0:0:
317,108,45343,1,2,0:0:0:0:
344,14,45718,5,2,0:0:0:0:
250,37,46093,2,0,P|211:31|174:22,1,77.3500025965882,2|2,0:0|0:0,0:0:0:0:
128,102,46843,1,2,0:0:0:0:
35,61,47218,2,0,P|44:134|57:214,1,154.700005193176
57,214,48718,5,2,0:0:0:0:
152,192,49093,1,2,0:0:0:0:
223,258,49468,1,2,0:0:0:0:
282,177,49843,1,2,0:0:0:0:
383,199,50218,1,2,0:0:0:0:
383,199,50968,2,0,P|387:237|398:274,1,77.3500025965882,2|2,0:0|0:0,0:0:0:0:
478,219,51718,5,2,0:0:0:0:
485,128,52093,2,0,P|446:123|409:112,1,77.3500025965882,2|2,0:0|0:0,0:0:0:0:
364,23,52843,2,0,P|292:10|257:73,1,154.700005193176,2|2,0:0|0:0,0:0:0:0:
326,127,53968,1,2,0:0:0:0:
326,127,54718,5,2,3:2:0:0:
234,97,55093,1,2,3:2:0:0:
162,161,55468,1,2,0:0:0:0:
140,70,55843,1,2,0:0:0:0:
64,131,56218,2,0,P|61:169|58:208,1,77.3500025965882,2|2,3:2|3:2,0:0:0:0:
20,293,56968,1,2,0:0:0:0:
116,333,57343,1,2,0:0:0:0:
192,262,57718,5,2,0:0:0:0:
192,262,58468,1,2,0:0:0:0:
284,253,58843,2,0,L|290:291,1,38.6750012982941,2|0,1:2|0:0,0:0:0:0:
370,365,59218,6,0,B|383:286|383:286|428:261|428:261|442:181,1,212.5,6|10,3:2|0:0,0:0:0:0:
404,34,60343,1,0,0:0:0:0:
404,34,60530,1,0,0:0:0:0:
312,77,60718,2,0,P|318:129|322:182,1,106.25,2|0,3:2|0:0,0:0:0:0:
322,182,61468,2,0,B|314:210|314:210|304:232,1,53.125,8|0,0:0|0:0,0:0:0:0:
231,283,61843,1,2,0:0:0:0:
231,283,62030,1,2,0:0:0:0:
169,218,62218,5,2,3:2:0:0:
216,364,62593,1,2,0:0:0:0:
305,232,62968,2,0,B|296:178|296:178|278:129,1,106.25,10|2,0:0|0:0,0:0:0:0:
213,84,63530,1,0,0:0:0:0:
166,149,63718,1,0,3:2:0:0:
196,5,64093,1,0,0:0:0:0:
54,100,64468,1,10,0:0:0:0:
104,217,64843,1,2,0:0:0:0:
104,217,65030,1,0,0:0:0:0:
27,268,65218,6,0,P|69:357|166:338,1,212.5,6|10,3:2|0:0,0:0:0:0:
209,190,66343,1,0,0:0:0:0:
209,190,66530,1,0,0:0:0:0:
124,251,66718,2,0,P|116:198|105:147,1,106.25,2|0,3:2|0:0,0:0:0:0:
104,146,67468,2,0,P|94:121|81:97,1,53.125,10|0,0:0|0:0,0:0:0:0:
108,16,67843,1,2,0:0:0:0:
108,16,68030,1,2,0:0:0:0:
4,57,68218,5,2,3:2:0:0:
184,80,68593,2,0,L|191:25,1,53.125,2|0,0:0|0:0,0:0:0:0:
285,16,68968,2,0,P|279:68|271:121,1,106.25,10|2,0:0|0:0,0:0:0:0:
199,167,69530,1,0,0:0:0:0:
222,249,69718,2,0,B|276:240|276:240|325:222,1,106.25,0|2,3:2|0:0,0:0:0:0:
447,115,70468,2,0,P|455:62|461:9,1,106.25,10|2,0:0|0:0,0:0:0:0:
375,36,71030,1,0,0:0:0:0:
271,4,71218,6,0,B|133:21|234:92|100:107,1,212.5,6|10,3:2|0:0,0:0:0:0:
100,106,72343,2,0,P|103:132|110:157,1,53.125
22,188,72718,2,0,P|31:280|120:251,1,212.5,2|10,3:2|0:0,0:0:0:0:
102,108,73843,1,2,0:0:0:0:
165,161,74030,1,2,0:0:0:0:
253,234,74218,5,2,3:2:0:0:
284,78,74593,1,2,0:0:0:0:
253,234,74968,2,0,P|260:286|265:339,1,106.25,10|2,0:0|0:0,0:0:0:0:
344,358,75530,1,0,0:0:0:0:
362,253,75718,2,0,B|398:118|454:228|487:97,1,212.5,2|10,3:2|0:0,0:0:0:0:
486,97,76843,2,0,P|461:103|434:107,1,53.125
308,114,77218,6,0,P|205:89|100:67,1,212.5,6|10,3:2|0:0,0:0:0:0:
16,203,78343,1,0,0:0:0:0:
30,276,78530,1,0,0:0:0:0:
5,365,78718,2,0,P|104:363|120:266,1,212.5,2|10,3:2|0:0,0:0:0:0:
120,267,79843,2,0,P|145:273|172:277,1,53.125,2|2,0:0|0:0,0:0:0:0:
272,229,80218,5,2,3:2:0:0:
291,359,80593,2,0,P|316:353|343:349,1,53.125,2|0,0:0|0:0,0:0:0:0:
434,371,80968,2,0,P|471:334|471:282,1,106.25,10|2,0:0|0:0,0:0:0:0:
389,278,81530,1,0,0:0:0:0:
328,223,81718,2,0,B|343:171|343:171|351:119,1,106.25,0|2,3:2|0:0,0:0:0:0:
284,11,82468,1,10,0:0:0:0:
223,172,82843,1,2,0:0:0:0:
249,99,83030,1,0,0:0:0:0:
173,109,83218,6,0,P|163:64|158:18,2,91.800002241211,6|2|10,3:2|0:0|0:0,0:0:0:0:
284,7,84343,2,0,P|301:90|386:90,1,183.600004482422,2|2,0:0|3:2,0:0:0:0:
377,0,85468,1,10,0:0:0:0:
483,107,85843,6,0,P|467:198|455:289,1,183.600004482422,2|0,0:0|0:0,0:0:0:0:
487,373,86968,1,8,0:0:0:0:
336,358,87343,2,0,P|329:312|322:267,1,91.800002241211,2|0,0:0|3:2,0:0:0:0:
235,173,88093,1,2,3:2:0:0:
196,295,88468,1,10,0:0:0:0:
112,199,88843,1,2,0:0:0:0:
49,114,89218,6,0,P|138:93|227:69,1,183.600004482422,0|8,3:2|0:0,2:0:0:0:
345,0,90343,1,2,0:0:0:0:
430,135,90718,2,0,P|387:119|341:112,1,91.800002241211,2|2,3:2|3:2,2:0:0:0:
260,199,91468,1,10,0:0:0:0:
350,298,91843,1,2,0:0:0:0:
470,244,92218,5,2,3:2:0:0:
377,202,92593,1,0,0:0:0:0:
315,325,92968,1,10,0:0:0:0:
190,362,93343,2,0,B|185:340|185:340|183:316,1,45.9000011206055,2|0,3:2|0:0,0:0:0:0:
109,253,93718,2,0,P|101:298|93:343,1,91.800002241211,2|2,0:0|3:2,0:0:0:0:
38,193,94468,1,10,0:0:0:0:
196,223,94843,2,0,B|191:201|191:201|189:177,1,45.9000011206055,2|8,0:0|0:0,0:0:0:0:
222,97,95218,5,6,3:2:0:0:
108,133,95593,2,0,B|118:89|118:89|120:42,1,91.800002241211,2|10,0:0|0:0,0:0:0:0:
253,5,96343,2,0,P|334:30|330:115,1,183.600004482422,2|2,0:0|3:2,0:0:0:0:
357,206,97468,1,10,0:0:0:0:
401,320,97843,6,0,P|310:307|218:297,1,183.600004482422,2|0,0:0|0:0,0:0:0:0:
151,360,98968,1,8,0:0:0:0:
74,269,99343,2,0,B|94:228|94:228|109:184,1,91.800002241211,2|0,0:0|3:2,0:0:0:0:
82,62,100093,1,2,0:0:0:0:
194,99,100468,1,10,0:0:0:0:
253,0,100843,6,0,P|207:7|162:12,1,91.800002241211,2|0,0:0|3:2,0:0:0:0:
277,150,101593,1,2,0:0:0:0:
383,120,101968,1,10,0:0:0:0:
432,253,102343,2,0,P|510:221|492:138,1,183.600004482422,2|2,0:0|3:2,0:0:0:0:
499,12,103468,1,10,0:0:0:0:
381,73,103843,2,0,P|387:118|397:163,1,91.800002241211,2|2,0:0|3:2,0:0:0:0:
458,223,104405,5,8,0:0:0:0:
306,139,104780,1,0,3:2:0:0:
248,205,104968,2,0,P|203:192|158:183,1,91.800002241211,10|2,0:0|3:2,0:0:0:0:
87,231,105530,2,0,P|80:274|113:304,1,91.800002241211,8|8,0:0|0:0,0:0:0:0:
159,372,106093,2,0,P|180:363|202:356,1,45.9000011206055,2|0,3:2|0:0,0:0:0:0:
289,347,106468,2,8,L|285:369,3,22.9500005603027,10|8|8|8,0:0|0:0|0:0|0:0,0:0:0:0:
406,303,107030,1,8,0:0:0:0:
330,278,107218,5,6,3:2:0:0:
330,278,107968,2,0,L|321:166,1,91.800002241211,2|2,3:2|0:0,0:0:0:0:
456,184,108530,1,8,0:0:0:0:
408,242,108718,1,0,3:2:0:0:
351,78,109093,1,2,0:0:0:0:
246,135,109468,1,2,3:2:0:0:
130,141,109843,2,0,P|135:118|139:96,1,45.9000011206055,2|8,0:0|0:0,0:0:0:0:
100,24,110218,6,0,P|78:31|56:38,3,45.9000011206055,2|0|8|0,3:2|0:0|0:0|3:2,0:0:0:0:
139,96,110968,2,0,P|160:88|182:81,3,45.9000011206055,8|8|2|0,0:0|0:0|3:2|0:0,0:0:0:0:
69,147,111718,2,0,B|87:162|87:162|102:179,1,45.9000011206055,8|0,0:0|3:2,0:0:0:0:
137,255,112093,1,8,0:0:0:0:
137,255,112280,1,0,3:2:0:0:
62,293,112468,2,0,B|55:271|55:271|51:247,1,45.9000011206055,2|8,3:2|0:0,0:0:0:0:
127,384,112843,2,0,B|129:361|129:361|136:338,1,45.9000011206055,8|0,0:0|3:2,0:0:0:0:
265,359,113218,5,6,3:2:0:0:
265,359,113593,2,0,P|302:280|388:282,1,183.600004482422,2|2,0:0|0:0,0:0:0:0:
471,324,114530,2,0,P|475:301|477:278,1,45.9000011206055,8|0,0:0|3:2,0:0:0:0:
435,203,114905,1,8,0:0:0:0:
435,203,115093,1,2,0:0:0:0:
402,79,115468,1,10,0:0:0:0:
310,161,115843,1,10,0:0:0:0:
310,161,116030,1,8,0:0:0:0:
322,80,116218,6,0,P|314:58|311:35,1,45.9000011206055,2|0,3:2|0:0,0:0:0:0:
234,73,116593,2,0,P|218:56|205:37,1,45.9000011206055,10|0,0:0|3:2,0:0:0:0:
157,112,116968,2,0,L|149:167,1,45.9000011206055,10|8,0:0|0:0,0:0:0:0:
89,216,117343,1,2,3:2:0:0:
89,216,117530,1,0,0:0:0:0:
10,251,117718,2,0,L|3:205,3,45.9000011206055,8|0|10|0,0:0|3:2|0:0|3:2,0:0:0:0:
82,298,118468,2,0,L|75:343,3,45.9000011206055,2|8|10|0,3:2|0:0|0:0|3:2,0:0:0:0:
172,232,119218,5,6,3:2:0:0:
172,232,119405,1,8,0:0:0:0:
172,232,119968,2,0,L|181:120,1,91.800002241211,2|2,3:2|0:0,0:0:0:0:
233,38,120530,1,8,0:0:0:0:
258,113,120718,1,0,3:2:0:0:
356,181,121093,2,0,P|365:160|372:138,1,45.9000011206055,10|8,0:0|0:0,0:0:0:0:
489,124,121468,2,0,P|473:141|455:156,1,45.9000011206055,2|8,3:2|0:0,0:0:0:0:
424,233,121843,2,0,P|431:254|440:275,1,45.9000011206055,10|0,0:0|3:2,0:0:0:0:
506,330,122218,5,2,3:2:0:0:
506,330,122405,1,0,0:0:0:0:
441,378,122593,2,0,B|418:371|418:371|398:361,1,45.9000011206055,8|0,0:0|3:2,0:0:0:0:
363,291,122968,1,8,0:0:0:0:
292,323,123155,2,0,B|280:304|280:304|271:282,1,45.9000011206055,8|2,0:0|3:2,0:0:0:0:
239,210,123530,1,0,0:0:0:0:
191,272,123717,1,8,0:0:0:0:
97,344,124093,2,0,P|95:321|92:298,1,45.9000011206055,8|0,0:0|3:2,0:0:0:0:
51,227,124468,1,2,3:2:0:0:
51,227,124655,1,8,0:0:0:0:
14,295,124843,1,10,0:0:0:0:
72,147,125218,5,6,3:2:0:0:
72,147,125593,2,0,P|164:136|253:120,1,183.600004482422,2|2,0:0|0:0,0:0:0:0:
335,156,126530,2,0,P|343:134|349:112,1,45.9000011206055,8|0,0:0|3:2,0:0:0:0:
298,49,126905,1,8,0:0:0:0:
298,49,127093,1,2,0:0:0:0:
265,205,127468,1,10,0:0:0:0:
357,353,127843,1,10,0:0:0:0:
357,353,128031,1,8,0:0:0:0:
444,354,128218,6,0,B|437:331|437:331|435:309,3,45.9000011206055,2|8|10|0,3:2|0:0|0:0|3:2,0:0:0:0:
366,267,128968,2,0,B|372:244|372:244|374:222,3,45.9000011206055,10|8|2|8,0:0|0:0|3:2|0:0,0:0:0:0:
289,293,129718,2,0,P|265:287|244:281,1,45.9000011206055,10|0,0:0|3:2,0:0:0:0:
169,313,130093,1,10,0:0:0:0:
39,184,130468,5,2,3:2:0:0:
111,161,130655,1,8,0:0:0:0:
142,62,130843,5,8,1:2:0:0:
216,86,131030,1,8,0:0:0:0:
269,178,131218,6,0,B|322:152|322:152|368:108,1,118.999996368408,6|2,3:2|0:0,0:0:0:0:
210,0,131968,1,10,0:0:0:0:
182,235,132343,2,0,B|175:206|175:206|164:179,1,59.4999981842042,2|0,0:0|0:0,0:0:0:0:
29,246,132718,2,0,P|55:352|165:347,1,237.999992736817,2|10,3:2|0:0,0:0:0:0:
279,172,133843,1,2,0:0:0:0:
266,242,134030,1,2,0:0:0:0:
289,341,134218,5,2,3:2:0:0:
421,243,134593,1,2,0:0:0:0:
204,308,134968,1,10,0:0:0:0:
325,141,135343,2,0,B|163:134|284:49|125:42,1,237.999992736817,2|2,0:0|0:0,0:0:0:0:
202,224,136468,2,0,P|168:309|79:301,1,178.499994552612,10|0,0:0|0:0,0:0:0:0:
34,233,137218,5,6,3:2:0:0:
136,130,137593,1,2,0:0:0:0:
264,15,137968,1,10,0:0:0:0:
84,32,138343,1,2,0:0:0:0:
159,45,138530,1,0,0:0:0:0:
235,109,138718,2,0,P|263:100|292:93,2,59.4999981842042,2|0|0,3:2|0:0|0:0,0:0:0:0:
124,211,139468,1,10,0:0:0:0:
356,210,139843,1,2,0:0:0:0:
288,246,140030,1,2,0:0:0:0:
231,325,140218,5,2,3:2:0:0:
199,150,140593,1,2,0:0:0:0:
362,112,140968,1,10,0:0:0:0:
154,251,141343,2,0,P|86:245|75:97,1,237.999992736817,2|0,0:0|0:0,0:0:0:0:
266,68,142468,1,8,0:0:0:0:
154,251,143218,6,0,B|157:191|178:135,1,118.999996368408,6|2,3:2|0:0,0:0:0:0:
351,230,143968,1,10,0:0:0:0:
382,24,144343,2,0,B|386:52|394:81,1,59.4999981842042,2|0,0:0|0:0,0:0:0:0:
468,248,144718,2,0,P|442:354|332:349,1,237.999992736817,2|10,3:2|0:0,0:0:0:0:
178,362,145843,1,2,0:0:0:0:
199,289,146030,1,2,0:0:0:0:
199,178,146218,5,2,3:2:0:0:
90,290,146593,1,2,0:0:0:0:
276,231,146968,1,10,0:0:0:0:
74,156,147343,2,0,P|102:49|212:53,1,237.999992736817,2|2,0:0|0:0,0:0:0:0:
382,13,148468,2,0,P|370:104|378:204,1,178.499994552612,10|0,0:0|0:0,0:0:0:0:
432,264,149218,5,6,3:2:0:0:
461,154,149593,1,2,0:0:0:0:
512,0,149968,1,10,0:0:0:0:
393,78,150343,1,2,0:0:0:0:
335,130,150530,1,0,0:0:0:0:
257,186,150718,2,0,P|244:160|233:132,2,59.4999981842042,2|0|0,3:2|0:0|0:0,0:0:0:0:
78,257,151468,1,10,0:0:0:0:
170,107,151843,1,2,0:0:0:0:
148,182,152030,1,2,0:0:0:0:
184,280,152218,6,0,L|219:241,1,48.8750009322167,2|0,3:2|0:0,0:0:0:0:
294,214,152593,2,0,L|337:170,1,48.8750009322167,2|0,0:0|0:0,0:0:0:0:
412,175,152968,2,0,L|459:148,1,48.8750009322167,2|0,0:0|0:0,0:0:0:0:
490,81,153343,2,0,L|510:15,1,48.8750009322167,2|0,0:0|0:0,0:0:0:0:
391,66,153718,6,0,B|310:54|310:54|284:10|284:10|205:0,1,212.5,6|8,3:2|0:0,0:0:0:0:
138,173,154843,2,0,P|163:164|189:159,1,53.125
272,202,155218,1,2,3:2:0:0:
272,202,155968,2,0,P|262:258|243:309,1,106.25,10|2,0:0|0:0,0:0:0:0:
367,362,156718,6,0,B|415:340|415:340|467:329,1,106.25,2|2,3:2|0:0,0:0:0:0:
512,266,157280,1,2,0:0:0:0:
412,230,157468,1,10,0:0:0:0:
429,62,157843,2,0,P|379:80|327:89,1,106.25,2|0,0:0|3:2,0:0:0:0:
171,0,158593,2,0,P|154:104|120:205,1,212.5,2|2,0:0|0:0,0:0:0:0:
30,359,159718,6,0,B|104:332|104:332|183:317,1,159.375,6|0,3:2|0:0,0:0:0:0:
255,353,160468,1,10,0:0:0:0:
342,239,160843,2,0,P|326:188|318:135,1,106.25,2|0,0:0|3:2,0:0:0:0:
449,158,161593,2,0,P|485:65|408:3,1,212.5,2|2,0:0|0:0,0:0:0:0:
394,41,162436,1,2,0:0:0:0:
368,70,162530,1,2,0:0:0:0:
335,80,162624,1,2,0:0:0:0:
300,71,162718,6,0,P|315:174|326:281,1,212.5,2|10,3:2|0:0,0:0:0:0:
210,350,163749,2,0,P|170:338|133:328,1,79.6875,2|2,0:0|0:0,0:0:0:0:
58,261,164218,2,0,L|53:231,3,29.7499990921021,2|2|2|2,3:2|0:0|0:0|0:0,0:0:0:0:
137,229,164593,2,0,L|141:199,3,29.7499990921021,2|2|2|2,0:0|0:0|0:0|0:0,0:0:0:0:
159,261,164968,1,10,0:0:0:0:
195,277,165061,1,2,0:0:0:0:
234,274,165155,1,2,0:0:0:0:
266,252,165249,1,2,0:0:0:0:
276,214,165343,1,2,0:0:0:0:
215,46,165718,6,0,P|205:85|198:124,1,79.6875,6|2,3:2|0:0,0:0:0:0:
212,158,166093,1,2,0:0:0:0:
135,270,166468,1,10,0:0:0:0:
97,260,166562,1,2,0:0:0:0:
75,228,166656,1,2,0:0:0:0:
72,189,166750,1,2,0:0:0:0:
88,153,166843,2,0,L|118:157,2,29.7499990921021,2|2|2,0:0|0:0|0:0,0:0:0:0:
131,56,167218,2,0,P|92:64|52:72,2,79.6875,2|2|2,3:2|0:0|0:0,0:0:0:0:
200,121,167968,2,0,P|211:82|225:45,2,79.6875,10|2|2,0:0|0:0|0:0,0:0:0:0:
143,220,168718,6,0,B|235:185|197:256|292:232,1,159.375,6|0,3:2|0:0,0:0:0:0:
417,193,169468,2,0,P|437:262|370:291,1,159.375,10|0,0:0|0:0,0:0:0:0:
337,156,170218,2,0,B|349:85|356:11|356:11|372:41|396:63,1,212.5,2|10,3:2|0:0,0:0:0:0:
226,81,171155,2,0,P|222:68|219:55,4,26.5625,2|2|2|2|2,0:0|0:0|0:0|0:0|0:0,0:0:0:0:
106,0,171718,5,6,3:2:0:0:
95,77,171905,1,2,0:0:0:0:
37,134,172093,1,2,0:0:0:0:
0,212,172280,2,0,P|63:219|118:226,1,118.999996368408,2|2,0:0|0:0,0:0:0:0:
179,275,172843,1,2,0:0:0:0:
198,351,173030,1,2,0:0:0:0:
282,314,173218,1,2,3:2:0:0:
265,291,173405,1,2,0:0:0:0:
357,347,173593,1,2,0:0:0:0:
383,271,173780,2,0,P|373:182|364:93,1,178.499994552612,2|2,0:0|0:0,0:0:0:0:
400,25,174530,1,2,0:0:0:0:
285,133,174718,6,0,B|174:121|242:61|131:62,1,178.499994552612,2|2,3:2|0:0,0:0:0:0:
44,104,175468,1,10,0:0:0:0:
109,156,175655,1,2,0:0:0:0:
31,189,175843,1,2,0:0:0:0:
159,236,176218,2,0,B|145:292|145:292|119:347,1,118.999996368408,2|2,3:2|0:0,0:0:0:0:
74,262,176780,1,2,0:0:0:0:
206,353,176968,2,0,P|262:337|298:291,1,118.999996368408,10|0,0:0|0:0,0:0:0:0:
276,214,177530,1,2,0:0:0:0:
243,108,177718,5,6,3:2:0:0:
317,140,177905,1,2,0:0:0:0:
343,59,178093,2,0,P|373:53|401:46,1,59.4999981842042,2|2,0:0|0:0,0:0:0:0:
466,102,178468,1,10,0:0:0:0:
471,204,178655,1,2,0:0:0:0:
488,179,178843,1,2,0:0:0:0:
493,287,179030,2,0,B|433:285|433:285|376:267,1,118.999996368408,2|2,0:0|0:0,0:0:0:0:
329,197,179593,1,2,0:0:0:0:
257,240,179780,2,0,P|263:268|267:298,1,59.4999981842042,2|8,0:0|0:0,0:0:0:0:
217,366,180155,1,2,0:0:0:0:
197,122,180530,1,2,0:0:0:0:
173,208,180718,5,2,3:2:0:0:
113,144,180905,1,2,0:0:0:0:
134,59,181093,1,2,0:0:0:0:
131,292,181468,2,0,P|72:281|18:256,1,118.999996368408,10|2,0:0|0:0,0:0:0:0:
55,76,182218,2,0,P|113:79|158:42,1,118.999996368408,2|2,3:2|0:0,0:0:0:0:
230,0,182780,1,2,0:0:0:0:
208,117,182968,1,10,0:0:0:0:
372,157,183343,1,2,0:0:0:0:
332,81,183530,1,2,0:0:0:0:
279,188,183718,6,0,P|265:245|244:301,1,118.999996368408,6|2,3:2|0:0,0:0:0:0:
118,363,184468,1,10,0:0:0:0:
108,283,184655,1,2,0:0:0:0:
43,229,184843,1,2,0:0:0:0:
4,157,185030,2,0,P|39:75|96:116,1,178.499994552612,2|0,0:0|0:0,0:0:0:0:
121,192,185780,1,2,0:0:0:0:
121,192,185968,1,10,0:0:0:0:
117,274,186155,2,0,B|146:269|146:269|173:259,1,59.4999981842042,2|0,0:0|0:0,3:0:0:0:
253,228,186530,1,2,0:0:0:0:
253,228,186718,5,2,3:2:0:0:
212,155,186905,1,2,0:0:0:0:
299,150,187093,1,2,0:0:0:0:
377,110,187280,1,2,0:0:0:0:
343,227,187468,2,0,L|469:206,1,118.999996368408,10|2,0:0|0:0,0:0:0:0:
498,71,188218,2,0,B|386:64|451:1|340:8,1,178.499994552612,2|0,3:2|0:0,0:0:0:0:
274,70,188968,2,0,B|284:158|284:158|342:226,1,178.499994552612,10|0,0:0|0:0,0:0:0:0:
411,183,189718,5,6,3:2:0:0:
186,121,190280,1,2,0:0:0:0:
213,40,190468,1,10,0:0:0:0:
186,121,190655,2,0,P|195:185|199:239,1,118.999996368408,2|2,0:0|0:0,0:0:0:0:
149,305,191218,1,2,3:2:0:0:
89,247,191405,1,2,0:0:0:0:
67,325,191593,1,2,0:0:0:0:
67,325,191968,1,8,0:0:0:0:
307,365,192343,1,2,0:0:0:0:
355,232,192718,6,0,P|279:203|246:277,1,178.499994552612,2|2,3:2|0:0,0:0:0:0:
220,362,193468,1,10,0:0:0:0:
299,345,193655,1,2,0:0:0:0:
391,315,193843,1,2,0:0:0:0:
472,134,194218,2,0,P|354:120|247:68,1,237.999992736817,0|8,3:2|0:0,0:0:0:0:
96,0,195343,2,0,P|90:59|79:117,1,118.999996368408,2|6,0:0|3:2,0:0:0:0:
0,297,196280,5,2,0:0:0:0:
13,219,196468,1,10,0:0:0:0:
0,297,196655,2,0,B|59:311|59:311|116:313,1,118.999996368408,2|2,0:0|0:0,0:0:0:0:
190,269,197218,2,0,P|240:296|244:352,1,118.999996368408,2|2,3:2|0:0,0:0:0:0:
173,384,197780,1,2,0:0:0:0:
173,384,197968,1,10,0:0:0:0:
116,227,198343,1,2,0:0:0:0:
189,181,198530,1,2,0:0:0:0:
289,151,198718,5,2,3:2:0:0:
328,77,198905,1,2,0:0:0:0:
239,76,199093,1,2,0:0:0:0:
222,48,199280,1,2,0:0:0:0:
134,0,199468,2,0,P|131:59|122:118,1,118.999996368408,10|2,0:0|0:0,0:0:0:0:
55,153,200030,1,2,0:0:0:0:
38,143,200124,1,2,0:0:0:0:
27,126,200218,2,0,P|33:233|141:230,1,237.999992736817,6|10,3:2|0:0,0:0:0:0:
236,12,201718,6,0,B|383:35|265:116|424:129,2,237.999992736817,4|4|4,3:2|3:2|3:2,0:0:0:0:
236,12,206218,6,0,P|241:50|247:88,1,77.3500025965882,2|2,0:0|0:0,0:0:0:0:
185,168,206968,1,2,0:0:0:0:
275,196,207343,1,2,0:0:0:0:
333,124,207718,1,2,0:0:0:0:
333,124,208468,1,2,0:0:0:0:
382,230,208843,1,2,0:0:0:0:
449,135,209218,5,2,0:0:0:0:
512,62,209593,2,0,P|476:53|437:42,1,77.3500025965882,2|2,0:0|0:0,0:0:0:0:
340,21,210343,2,0,P|350:56|360:95,1,77.3500025965882,2|2,0:0|0:0,0:0:0:0:
433,142,211093,1,2,0:0:0:0:
375,203,211468,1,2,0:0:0:0:
375,203,212218,6,0,P|358:237|309:260,1,77.3500025965882,2|2,2:0|2:0,2:0:0:0:
231,242,212968,1,2,0:0:0:0:
159,177,213343,1,2,0:0:0:0:
250,145,213718,1,2,0:0:0:0:
250,145,214468,1,2,0:0:0:0:
271,47,214843,1,2,0:0:0:0:
176,76,215218,5,2,0:0:0:0:
161,178,215593,2,0,P|170:215|177:253,1,77.3500025965882,2|2,0:0|0:0,0:0:0:0:
131,344,216343,1,2,0:0:0:0:
31,337,216718,2,0,P|15:267|81:239,1,154.700005193176,0|2,0:0|0:0,0:0:0:0:
81,239,218218,5,2,0:0:0:0:
172,271,218593,1,2,0:0:0:0:
250,215,218968,1,2,0:0:0:0:
298,302,219343,1,2,0:0:0:0:
402,292,219718,1,2,0:0:0:0:
402,292,220468,2,0,P|398:330|387:367,1,77.3500025965882,2|2,0:0|0:0,0:0:0:0:
307,312,221218,5,2,0:0:0:0:
300,221,221593,2,0,P|339:216|376:205,1,77.3500025965882,2|2,0:0|0:0,0:0:0:0:
439,141,222343,2,0,P|391:86|324:113,1,154.700005193176,2|2,0:0|0:0,0:0:0:0:
241,143,223280,1,2,0:0:0:0:
264,39,223468,1,2,0:0:0:0:
264,39,224218,5,2,3:2:0:0:
166,193,224593,1,2,3:2:0:0:
166,193,225718,5,2,3:2:0:0:
126,15,226093,1,2,3:2:0:0:
126,15,227218,5,2,0:0:0:0:
107,115,227593,1,2,0:0:0:0:
45,198,227968,1,2,0:0:0:0:
78,293,228343,1,2,0:0:0:0:
168,369,228718,1,2,0:0:0:0:
190,280,229093,1,2,0:0:0:0:
171,189,229468,1,2,0:0:0:0:
234,124,229843,1,2,0:0:0:0:
353,59,230218,6,0,P|340:171|438:306,1,270.725009088059,2|2,0:0|0:0,0:0:0:0:
436,259,231624,1,2,0:0:0:0:
427,225,231718,2,0,P|355:210|314:270,1,154.700005193176
344,279,234718,6,0,B|332:220|332:220|310:165,1,118.999996368408,6|2,3:2|0:0,0:0:0:0:
213,353,235468,1,10,0:0:0:0:
420,365,235843,2,0,B|425:335|425:335|436:308,1,59.4999981842042,2|0,0:0|0:0,0:0:0:0:
482,159,236218,2,0,P|383:115|368:223,1,237.999992736817,2|10,3:2|0:0,0:0:0:0:
512,359,237343,1,2,0:0:0:0:
440,340,237530,1,2,0:0:0:0:
337,322,237718,5,2,3:2:0:0:
494,267,238093,1,2,0:0:0:0:
267,247,238468,1,10,0:0:0:0:
378,28,238843,2,0,B|217:49|345:123|187:144,1,237.999992736817,2|2,0:0|0:0,0:0:0:0:
32,46,239968,2,0,P|85:114|66:198,1,178.499994552612,10|0,0:0|0:0,0:0:0:0:
0,246,240718,5,6,3:2:0:0:
138,275,241093,1,2,0:0:0:0:
332,308,241468,1,10,0:0:0:0:
186,345,241843,1,2,0:0:0:0:
251,304,242030,1,0,0:0:0:0:
330,218,242218,2,0,L|322:155,2,59.4999981842042,2|0|0,3:2|0:0|0:0,0:0:0:0:
511,302,242968,1,10,0:0:0:0:
436,143,243343,1,2,0:0:0:0:
441,223,243530,1,2,0:0:0:0:
415,322,243718,5,2,3:2:0:0:
336,182,244093,1,2,0:0:0:0:
512,243,244468,1,10,0:0:0:0:
283,279,244843,2,0,P|188:228|236:132,1,237.999992736817,2|0,0:0|0:0,0:0:0:0:
421,231,245968,1,8,0:0:0:0:
236,131,246718,6,0,B|219:189|219:189|194:242,1,118.999996368408,6|2,3:2|0:0,0:0:0:0:
31,111,247468,1,10,0:0:0:0:
109,288,247843,2,0,B|101:259|101:259|99:229,1,59.4999981842042,2|0,0:0|0:0,0:0:0:0:
142,56,248218,2,0,B|299:62|178:147|340:154,1,237.999992736817,2|10,3:2|0:0,0:0:0:0:
496,68,249343,1,2,0:0:0:0:
422,89,249530,1,2,0:0:0:0:
321,63,249718,5,2,3:2:0:0:
486,169,250093,1,2,0:0:0:0:
415,0,250468,1,10,0:0:0:0:
387,254,250843,2,0,P|269:233|151:221,1,237.999992736817,2|2,0:0|0:0,0:0:0:0:
2,285,251968,2,0,P|22:367|106:374,1,178.499994552612,10|0,0:0|0:0,0:0:0:0:
148,305,252718,5,6,3:2:0:0:
123,174,253093,1,2,0:0:0:0:
95,0,253468,1,10,0:0:0:0:
46,149,253843,1,2,0:0:0:0:
105,95,254030,1,0,0:0:0:0:
208,88,254218,2,0,L|202:155,2,59.4999981842042,2|0|0,3:2|0:0|0:0,0:0:0:0:
73,234,254968,1,10,0:0:0:0:
334,144,255343,1,2,0:0:0:0:
268,182,255530,1,2,0:0:0:0:
191,251,255718,5,2,3:2:0:0:
157,99,256093,1,2,0:0:0:0:
317,36,256468,1,10,0:0:0:0:
257,191,256843,1,2,0:0:0:0:
326,226,257030,1,0,0:0:0:0:
409,289,257218,2,0,P|429:233|450:177,1,118.999996368408,2|0,3:2|0:0,0:0:0:0:
374,7,257968,2,0,P|353:62|332:118,1,118.999996368408,8|0,0:0|0:0,0:0:0:0:
409,289,258718,5,2,3:2:0:0:
335,264,259093,1,2,0:0:0:0:
237,213,259468,1,2,0:0:0:0:
135,186,259843,1,2,0:0:0:0:
24,114,260218,1,2,0:0:0:0:
24,114,260968,5,2,0:0:0:0:
136,186,261343,1,2,0:0:0:0:
238,213,261718,1,2,0:0:0:0:
332,263,262093,1,2,0:0:0:0:
409,289,262468,1,2,0:0:0:0:
469,336,262843,1,2,0:0:0:0:
469,336,263593,6,0,P|477:316|485:294,1,42.5,2|2,0:0|0:0,0:0:0:0:
