osu file format v14

[General]
AudioFilename: audio.mp3
AudioLeadIn: 0
PreviewTime: 77820
Countdown: 0
SampleSet: Soft
StackLeniency: 0.6
Mode: 0
LetterboxInBreaks: 0
WidescreenStoryboard: 1

[Editor]
Bookmarks: 1358,12158,13958,21158,35558,42758,64358,71558,78758,89558,91358,105758,127358,134558,141758,159758,172358,183158,188558,199358,202958,206558,210158,217358,222758,224558,228158,229958,231758
DistanceSpacing: 1
BeatDivisor: 4
GridSize: 32
TimelineZoom: 1.9

[Metadata]
Title:Eden
TitleUnicode:Eden
Artist:kukui
ArtistUnicode:kukui
Creator:Lasse
Version:Normal
Source:ローゼンメイデン
Tags:myu shimotsuki haruka 霜月はるか leer lied japanese pop anime rozen maiden image song
BeatmapID:3364263
BeatmapSetID:1648201

[Difficulty]
HPDrainRate:3
CircleSize:3.4
OverallDifficulty:5
ApproachRate:6
SliderMultiplier:1
SliderTickRate:1

[Events]
//Background and Video events
0,0,"bg.jpg",0,0
//Break Periods
//Storyboard Layer 0 (Background)
//Storyboard Layer 1 (Fail)
//Storyboard Layer 2 (Pass)
//Storyboard Layer 3 (Foreground)
//Storyboard Layer 4 (Overlay)
//Storyboard Sound Samples

[TimingPoints]
1358,300,6,2,1,65,1,0
1358,-90.9090909090909,6,2,1,65,0,0
12158,-100,6,2,1,65,0,0
12233,-100,6,2,1,50,0,0
12758,-100,6,2,1,60,0,0
12833,-100,6,2,1,50,0,0
13058,-100,6,2,1,65,0,0
13133,-100,6,2,1,50,0,0
13508,-100,6,2,1,60,0,0
13583,-100,6,2,1,50,0,0
13958,-90.9090909090909,6,2,1,65,0,0
21158,-111.111111111111,6,2,1,60,0,0
21233,-111.111111111111,6,2,1,50,0,0
42158,-111.111111111111,6,2,1,53,0,0
42458,-111.111111111111,6,2,1,56,0,0
42758,-105.263157894737,6,2,1,60,0,0
42833,-105.263157894737,6,2,1,55,0,0
63458,-105.263157894737,6,2,1,58,0,0
64358,-111.111111111111,6,2,1,60,0,0
64433,-111.111111111111,6,2,1,50,0,0
66158,-111.111111111111,6,2,1,60,0,0
66233,-111.111111111111,6,2,1,50,0,0
67958,-111.111111111111,6,2,1,60,0,0
68033,-111.111111111111,6,2,1,55,0,0
71558,-111.111111111111,6,2,1,60,0,0
71633,-111.111111111111,6,2,1,50,0,0
73358,-111.111111111111,6,2,1,60,0,0
73433,-111.111111111111,6,2,1,55,0,0
75158,-100,6,2,1,60,0,0
76958,-100,6,2,1,62,0,0
77858,-100,6,2,1,65,0,0
78758,-90.9090909090909,6,2,1,70,0,1
79058,-90.9090909090909,6,2,1,70,0,0
89558,-100,6,2,1,65,0,0
90008,-100,6,2,1,55,0,0
90458,-100,6,2,1,65,0,0
90758,-100,6,2,1,60,0,0
91208,-100,6,2,1,55,0,0
91358,-90.9090909090909,6,2,1,70,0,0
105458,-90.9090909090909,6,2,1,65,0,0
105758,-100,6,2,1,60,0,0
106058,-100,6,2,1,55,0,0
125558,-100,6,2,1,60,0,0
127358,-111.111111111111,6,2,1,60,0,0
127433,-111.111111111111,6,2,1,50,0,0
129158,-111.111111111111,6,2,1,60,0,0
129233,-111.111111111111,6,2,1,50,0,0
130958,-111.111111111111,6,2,1,60,0,0
131033,-111.111111111111,6,2,1,55,0,0
132758,-111.111111111111,6,2,1,55,0,0
134558,-100,6,2,1,60,0,0
139958,-100,6,2,1,60,0,0
141758,-111.111111111111,6,2,1,60,0,0
141833,-111.111111111111,6,2,1,50,0,0
143558,-111.111111111111,6,2,1,60,0,0
143633,-111.111111111111,6,2,1,50,0,0
145358,-111.111111111111,6,2,1,60,0,0
145433,-111.111111111111,6,2,1,50,0,0
147158,-111.111111111111,6,2,1,60,0,0
147233,-111.111111111111,6,2,1,50,0,0
148958,-111.111111111111,6,2,1,60,0,0
149033,-111.111111111111,6,2,1,50,0,0
150758,-111.111111111111,6,2,1,60,0,0
150833,-111.111111111111,6,2,1,50,0,0
152558,-111.111111111111,6,2,1,60,0,0
152633,-111.111111111111,6,2,1,50,0,0
154358,-111.111111111111,6,2,1,60,0,0
154433,-111.111111111111,6,2,1,50,0,0
156158,-105.263157894737,6,2,1,60,0,0
156233,-105.263157894737,6,2,1,55,0,0
157958,-100,6,2,1,60,0,0
158858,-100,6,2,1,65,0,0
159758,-90.9090909090909,6,2,1,70,0,1
160058,-90.9090909090909,6,2,1,70,0,0
170558,-100,6,2,1,65,0,0
170858,-100,6,2,1,60,0,0
171458,-100,6,2,1,65,0,0
171758,-100,6,2,1,60,0,0
172058,-100,6,2,1,55,0,0
172208,-100,6,2,1,60,0,0
172358,-90.9090909090909,6,2,1,75,0,1
183158,-100,6,2,1,65,0,0
183458,-100,6,2,1,60,0,0
184058,-100,6,2,1,65,0,0
184358,-100,6,2,1,60,0,0
184808,-100,6,2,1,55,0,0
184958,-100,6,2,1,65,0,0
185258,-100,6,2,1,60,0,0
185858,-100,6,2,1,65,0,0
186158,-100,6,2,1,60,0,0
186608,-100,6,2,1,55,0,0
186758,-100,6,2,1,65,0,0
187058,-100,6,2,1,60,0,0
187658,-100,6,2,1,65,0,0
187958,-100,6,2,1,60,0,0
188558,-95.2380952380952,6,2,1,72,0,1
188858,-95.2380952380952,6,2,1,72,0,0
209858,-95.2380952380952,6,2,2,67,0,0
210158,-100,6,2,1,70,0,0
217358,-105.263157894737,6,2,1,65,0,0
220958,-111.111111111111,6,2,1,60,0,0
222758,-111.111111111111,6,2,1,55,0,0
224558,-117.647058823529,6,2,1,50,0,0
225458,-117.647058823529,6,2,1,45,0,0
226358,-117.647058823529,6,2,1,40,0,0
227258,-117.647058823529,6,2,1,36,0,0
228158,-125,6,2,1,32,0,0
229058,-125,6,2,1,28,0,0
229958,-125,6,2,1,24,0,0
230858,-125,6,2,1,20,0,0
231758,-125,6,2,1,15,0,0

[Colours]
Combo1 : 240,140,140
Combo2 : 200,180,220
Combo3 : 240,200,155
Combo4 : 150,185,220

[HitObjects]
39,24,1358,6,0,P|21:77|34:144,1,110.000003356934,2|0,1:1|0:2,0:0:0:0:
58,181,1808,1,8,1:2:0:0:
58,181,1958,2,0,P|104:167|171:172,1,110.000003356934,0|2,3:2|0:2,0:0:0:0:
267,210,2558,1,8,0:2:0:0:
343,130,2858,1,0,1:2:0:0:
434,190,3158,2,0,P|450:230|445:362,2,165.000005035401,2|8|0,1:2|1:2|1:2,0:0:0:0:
343,130,4358,1,8,0:2:0:0:
267,210,4658,1,0,1:2:0:0:
177,145,4958,6,0,P|113:130|51:146,1,110.000003356934,2|0,1:2|0:2,0:0:0:0:
26,169,5408,1,8,1:2:0:0:
26,169,5558,2,0,P|11:233|27:295,1,110.000003356934,2|0,3:2|0:2,0:0:0:0:
101,348,6158,1,8,0:2:0:0:
207,319,6458,1,0,0:2:0:0:
310,356,6758,2,0,P|364:363|416:348,1,110.000003356934,2|0,1:2|1:2,0:0:0:0:
463,317,7208,1,8,1:2:0:0:
463,317,7358,2,0,P|470:262|455:210,1,110.000003356934,0|2,3:2|1:2,0:0:0:0:
366,144,7958,1,10,0:2:0:0:
274,205,8258,1,2,3:2:0:0:
177,152,8558,6,0,P|170:64|213:-5,2,165.000005035401,10|8|2,1:1|1:2|0:2,0:0:0:0:
274,205,9758,1,8,0:2:0:0:
366,144,10058,1,0,1:2:0:0:
455,210,10358,2,0,P|470:262|463:317,1,110.000003356934,2|0,1:2|0:2,0:0:0:0:
425,357,10808,1,8,1:2:0:0:
425,357,10958,2,0,P|372:372|318:365,2,110.000003356934,2|2|8,3:2|1:2|0:2,0:0:0:0:
506,283,11858,1,2,1:3:0:0:
449,188,12158,6,0,P|357:154|267:194,1,200,6|2,1:2|1:2,0:0:0:0:
203,271,13058,2,0,P|138:297|56:271,1,150,6|0,1:2|1:2,0:0:0:0:
4,122,13958,6,0,P|11:78|70:39,1,110.000003356934,6|0,1:2|1:2,0:0:0:0:
167,13,14558,1,0,3:2:0:0:
239,95,14858,1,2,1:2:0:0:
197,198,15158,1,8,0:2:0:0:
197,198,15308,2,0,P|183:246|203:319,1,110.000003356934,0|0,1:2|0:2,0:0:0:0:
233,342,15758,2,0,P|286:353|338:339,1,110.000003356934,2|0,1:2|0:2,0:0:0:0:
385,307,16208,2,0,P|399:259|379:186,1,110.000003356934,8|0,0:2|0:2,0:0:0:0:
352,158,16658,1,2,0:2:0:0:
244,133,16958,1,8,0:2:0:0:
174,218,17258,1,0,1:2:0:0:
70,179,17558,6,0,P|54:102|104:19,2,165.000005035401,2|8|0,1:2|1:2|1:2,0:0:0:0:
153,250,18758,1,8,0:2:0:0:
258,218,19058,1,0,1:2:0:0:
345,284,19358,2,0,P|388:299|466:270,1,110.000003356934,2|0,1:2|0:2,0:0:0:0:
486,244,19808,2,0,P|501:201|472:123,1,110.000003356934,8|0,1:2|0:2,0:0:0:0:
446,103,20258,2,0,P|403:88|325:117,1,110.000003356934,2|8,0:2|0:2,0:0:0:0:
175,170,21158,6,0,P|115:185|39:158,2,134.999995880127,2|0|0,1:1|1:2|0:2,0:0:0:0:
254,128,22358,1,8,0:2:0:0:
343,136,22658,1,0,1:2:0:0:
396,208,22958,2,0,P|411:261|397:353,2,134.999995880127,2|0|2,1:2|1:2|0:2,0:0:0:0:
240,116,24458,5,0,1:2:0:0:
174,177,24758,2,0,P|159:230|173:322,2,134.999995880127,2|0|0,1:2|1:2|0:2,0:0:0:0:
240,116,25958,1,8,0:2:0:0:
323,149,26258,2,0,P|365:154|415:142,2,89.9999972534181,2|2|10,0:2|1:2|0:2,0:0:0:0:
196,21,27458,1,2,1:2:0:0:
106,14,27758,1,8,0:2:0:0:
39,74,28058,1,0,3:2:0:0:
24,162,28358,6,0,P|18:229|29:295,2,134.999995880127,2|0|0,1:1|1:2|0:2,0:0:0:0:
70,84,29558,1,8,0:2:0:0:
159,74,29858,1,0,1:2:0:0:
229,130,30158,2,0,P|239:196|234:263,2,134.999995880127,2|0|2,1:2|1:2|0:2,0:0:0:0:
287,61,31358,2,0,P|334:50|391:51,1,89.9999972534181,8|0,0:2|1:2,0:0:0:0:
451,97,31958,6,0,P|461:163|456:230,2,134.999995880127,2|0|0,1:2|1:2|0:2,0:0:0:0:
375,49,33158,1,8,0:2:0:0:
289,77,33458,2,0,P|246:81|193:64,2,89.9999972534181,2|2|10,0:2|1:2|0:2,0:0:0:0:
375,49,34358,2,0,P|418:45|471:62,2,89.9999972534181,0|2|10,0:2|1:2|1:2,0:0:0:0:
289,78,35258,1,8,0:2:0:0:
354,139,35558,6,0,P|370:191|348:275,1,134.999995880127,2|0,1:1|1:2,0:0:0:0:
252,358,36458,2,0,P|218:345|152:343,1,89.9999972534181,2|8,0:2|2:2,0:0:0:0:
81,375,37058,1,0,1:2:0:0:
16,312,37358,6,0,P|8:245|35:184,2,134.999995880127,2|0|2,1:2|1:2|0:2,0:0:0:0:
81,375,38558,1,8,0:2:0:0:
164,341,38858,1,0,1:2:0:0:
251,361,39158,6,0,P|307:367|391:347,2,134.999995880127,2|0|2,1:2|1:2|0:2,0:0:0:0:
164,341,40358,1,8,0:2:0:0:
148,252,40658,1,0,0:2:0:0:
205,182,40958,2,0,P|247:167|308:172,1,89.9999972534181,2|0,1:2|1:2,0:0:0:0:
338,184,41408,1,2,0:2:0:0:
338,184,41558,2,0,P|382:184|424:169,1,89.9999972534181,0|0,0:2|1:2,0:0:0:0:
481,98,42158,2,0,P|476:71|469:47,1,44.999998626709,8|0,0:2|1:2,0:0:0:0:
433,29,42458,2,0,P|406:34|382:41,1,44.999998626709,8|8,0:2|0:2,0:0:0:0:
351,71,42758,6,0,P|276:92|200:62,2,142.49999619484,2|0|0,1:1|1:2|0:2,0:0:0:0:
437,31,43958,1,8,0:2:0:0:
492,108,44258,1,0,1:2:0:0:
409,154,44558,2,0,P|390:201|398:257,1,94.9999974632264,2|0,1:2|0:2,0:0:0:0:
416,285,45008,1,0,1:2:0:0:
292,356,45458,2,0,P|242:361|195:349,1,94.9999974632264,2|8,0:2|0:2,0:0:0:0:
109,317,46058,1,0,1:2:0:0:
64,233,46358,6,0,P|68:178|96:129,1,94.9999974632264,2|0,1:2|0:2,0:0:0:0:
120,110,46808,1,0,1:2:0:0:
120,110,46958,2,0,P|169:114|225:97,1,94.9999974632264,2|0,0:2|0:2,0:0:0:0:
303,66,47558,1,8,0:2:0:0:
303,66,47708,2,0,P|350:52|434:110,1,142.49999619484,0|0,1:2|1:2,0:0:0:0:
477,176,48458,5,10,0:2:0:0:
396,226,48758,1,0,0:2:0:0:
305,197,49058,1,2,1:2:0:0:
221,241,49358,2,0,P|165:252|121:237,1,94.9999974632264,8|2,0:2|0:2,0:0:0:0:
58,179,49958,6,0,P|54:117|89:39,2,142.49999619484,10|0|0,1:1|1:2|0:2,0:0:0:0:
90,268,51158,1,8,0:2:0:0:
170,318,51458,1,0,1:2:0:0:
264,317,51758,2,0,P|313:304|373:313,1,94.9999974632264,2|0,1:2|0:2,0:0:0:0:
400,325,52208,1,0,1:2:0:0:
502,226,52658,2,0,P|504:163|485:114,2,94.9999974632264,2|8|0,0:2|0:2|1:2,0:0:0:0:
434,293,53558,6,0,P|387:275|341:272,1,94.9999974632264,2|0,1:2|0:2,0:0:0:0:
300,288,54008,1,0,1:2:0:0:
300,288,54158,2,0,P|252:283|208:266,1,94.9999974632264,2|0,0:2|0:2,0:0:0:0:
154,195,54758,1,8,0:2:0:0:
154,195,54908,2,0,P|145:109|92:93,1,142.49999619484,0|0,1:2|1:2,0:0:0:0:
13,140,55658,6,0,P|3:177|10:239,1,94.9999974632264,2|0,1:2|0:2,0:0:0:0:
52,316,56258,1,2,1:2:0:0:
146,306,56558,1,8,0:2:0:0:
232,345,56858,1,2,0:2:0:0:
319,308,57158,6,0,P|329:261|314:155,2,142.49999619484,2|0|2,1:1|1:2|0:2,0:0:0:0:
251,375,58358,1,8,0:2:0:0:
156,375,58658,1,0,1:2:0:0:
88,307,58958,2,0,P|85:240|100:204,1,94.9999974632264,2|0,1:2|0:2,0:0:0:0:
125,178,59408,2,0,P|137:132|131:85,1,94.9999974632264,0|0,1:2|0:2,0:0:0:0:
106,45,59858,1,2,0:2:0:0:
195,14,60158,1,8,0:2:0:0:
276,62,60458,1,0,1:2:0:0:
365,30,60758,6,0,P|414:23|496:84,2,142.49999619484,2|0|0,1:2|1:2|0:2,0:0:0:0:
276,62,61958,1,8,0:2:0:0:
261,155,62258,1,0,0:2:0:0:
336,212,62558,2,0,P|382:226|443:219,2,94.9999974632264,2|0|0,1:2|0:2|0:2,0:0:0:0:
261,155,63458,1,2,1:2:0:0:
172,189,63758,1,8,1:2:0:0:
158,283,64058,1,2,1:2:0:0:
230,349,64358,6,0,P|312:366|374:345,1,134.999995880127,2|0,1:1|1:2,0:0:0:0:
507,182,65558,2,0,L|497:80,1,89.9999972534181,8|0,0:2|1:2,0:0:0:0:
431,32,66158,2,0,P|366:14|301:28,2,134.999995880127,2|0|0,1:1|1:2|0:2,0:0:0:0:
498,92,67358,2,0,L|507:182,1,89.9999972534181,8|0,0:2|1:2,0:0:0:0:
451,252,67958,6,0,P|386:269|321:255,2,134.999995880127,2|0|0,1:1|1:2|0:2,0:0:0:0:
511,186,69158,1,8,0:2:0:0:
511,186,69308,2,0,L|502:96,1,89.9999972534181,0|0,1:2|0:2,0:0:0:0:
473,61,69758,5,2,1:2:0:0:
388,92,70058,1,2,1:2:0:0:
300,71,70358,1,2,0:2:0:0:
234,132,70658,2,0,L|242:221,2,89.9999972534181,2|8|2,1:2|0:2|3:2,0:0:0:0:
174,64,71558,6,0,P|84:66|50:97,2,134.999995880127,2|0|0,1:1|1:2|0:2,0:0:0:0:
234,132,72758,2,0,L|242:221,1,89.9999972534181,8|0,0:2|1:2,0:0:0:0:
202,302,73358,6,0,P|146:320|107:311,1,89.9999972534181,2|0,1:1|0:2,0:0:0:0:
73,301,73808,1,0,1:2:0:0:
73,301,73958,2,0,P|61:250|73:201,1,89.9999972534181,0|0,0:2|0:2,0:0:0:0:
120,141,74558,1,10,0:2:0:0:
203,174,74858,1,0,1:2:0:0:
293,133,75158,6,0,P|341:119|390:127,1,100,2|8,1:1|0:2,0:0:0:0:
434,159,75608,1,0,1:2:0:0:
434,159,75758,2,0,P|447:206|439:255,1,100,2|0,0:2|0:2,0:0:0:0:
392,346,76358,1,8,0:2:0:0:
392,346,76508,2,0,P|344:360|295:352,1,100,0|0,1:2|0:2,0:0:0:0:
248,335,76958,5,2,1:1:0:0:
201,246,77258,1,8,0:2:0:0:
265,169,77558,1,2,0:2:0:0:
213,83,77858,2,0,L|100:75,2,100,2|10|10,1:2|1:2|1:2,0:0:0:0:
306,26,78758,6,0,P|360:16|412:33,1,110.000003356934,6|0,1:1|0:2,0:0:0:0:
456,72,79208,1,8,1:2:0:0:
456,72,79358,2,0,P|465:125|448:177,1,110.000003356934,0|2,3:2|0:2,0:0:0:0:
370,256,79958,1,8,0:2:0:0:
266,218,80258,1,0,1:2:0:0:
168,268,80558,2,0,P|98:287|10:254,2,165.000005035401,2|8|0,1:2|1:2|1:2,0:0:0:0:
266,218,81758,1,8,0:2:0:0:
370,256,82058,1,0,1:2:0:0:
447,177,82358,6,0,P|464:125|456:72,1,110.000003356934,2|0,1:2|2:2,0:0:0:0:
423,33,82808,1,8,1:2:0:0:
423,33,82958,2,0,P|371:16|318:27,1,110.000003356934,2|0,3:2|0:2,0:0:0:0:
230,93,83558,1,8,0:2:0:0:
131,43,83858,1,0,2:2:0:0:
36,99,84158,2,0,P|19:151|27:204,1,110.000003356934,2|0,1:2|1:2,0:0:0:0:
60,243,84608,1,8,1:2:0:0:
60,243,84758,2,0,P|112:260|165:249,1,110.000003356934,2|2,3:2|1:2,0:0:0:0:
241,169,85358,1,10,0:2:0:0:
349,151,85658,1,2,3:2:0:0:
440,212,85958,6,0,P|472:281|455:373,2,165.000005035401,10|8|2,1:1|1:2|0:2,0:0:0:0:
349,151,87158,1,8,0:2:0:0:
250,198,87458,1,0,1:2:0:0:
160,134,87758,2,0,P|101:117|42:134,1,110.000003356934,2|0,1:2|0:2,0:0:0:0:
16,166,88208,1,8,1:2:0:0:
16,166,88358,2,0,P|-1:225|16:284,2,110.000003356934,2|2|8,3:2|1:2|0:2,0:0:0:0:
98,92,89258,1,2,1:3:0:0:
178,151,89558,6,0,P|230:162|286:133,1,100,6|0,1:2|0:0,0:0:0:0:
302,105,90008,2,0,P|303:73|313:50,1,50,8|8,0:3|0:2,0:0:0:0:
394,2,90458,1,6,1:2:0:0:
483,56,90758,1,4,0:3:0:0:
483,56,90908,2,0,P|491:106|484:156,1,100,0|0,1:2|0:2,0:0:0:0:
488,209,91358,6,0,P|441:191|377:192,1,110.000003356934,6|0,1:2|1:2,0:0:0:0:
332,214,91808,1,10,1:2:0:0:
332,214,91958,1,2,3:2:0:0:
234,264,92258,2,0,P|179:264|127:245,2,110.000003356934,2|8|0,1:2|0:2|0:0,0:0:0:0:
332,214,93158,2,0,P|344:175|335:105,1,110.000003356934,2|2,1:2|0:2,0:0:0:0:
262,24,93758,1,2,3:2:0:0:
176,93,94058,1,2,0:2:0:0:
80,38,94358,1,8,0:2:0:0:
14,126,94658,1,2,1:2:0:0:
67,222,94958,6,0,P|136:235|236:197,2,165.000005035401,2|8|2,1:2|1:2|1:2,0:0:0:0:
14,126,96158,1,8,0:2:0:0:
80,38,96458,1,0,1:2:0:0:
176,93,96758,2,0,P|240:98|286:79,1,110.000003356934,2|0,1:2|0:2,0:0:0:0:
377,27,97358,1,2,3:2:0:0:
468,87,97658,2,0,P|481:134|468:205,2,110.000003356934,2|8|0,0:2|0:2|0:2,0:0:0:0:
377,27,98558,6,0,P|337:47|260:33,1,110.000003356934,2|0,1:1|1:2,0:0:0:0:
226,65,99008,1,8,1:2:0:0:
226,65,99158,2,0,P|172:56|122:78,1,110.000003356934,2|2,1:1|1:2,0:0:0:0:
55,165,99758,1,8,0:2:0:0:
55,165,99908,2,0,P|46:219|68:269,1,110.000003356934,0|0,1:2|2:2,0:0:0:0:
107,306,100358,6,0,P|181:302|225:263,1,110.000003356934,2|0,1:2|0:2,0:0:0:0:
257,254,100808,1,8,1:2:0:0:
257,254,100958,1,2,3:2:0:0:
351,198,101258,2,0,P|425:202|469:241,2,110.000003356934,2|8|0,0:2|0:2|1:2,0:0:0:0:
256,253,102158,6,0,P|208:279|154:277,1,110.000003356934,2|0,1:2|0:2,0:0:0:0:
106,248,102608,2,0,P|80:200|82:146,1,110.000003356934,8|0,1:2|0:2,0:0:0:0:
106,96,103058,1,2,1:2:0:0:
215,88,103358,1,8,0:2:0:0:
316,46,103658,1,0,1:2:0:0:
425,58,103958,6,0,P|451:105|449:160,1,110.000003356934,2|0,1:2|0:2,0:0:0:0:
424,211,104408,1,8,1:2:0:0:
424,211,104558,2,0,P|376:237|322:235,1,110.000003356934,2|8,3:2|0:2,0:0:0:0:
215,206,105158,1,8,0:2:0:0:
220,96,105458,1,0,3:2:0:0:
139,25,105758,6,0,P|84:19|34:37,1,100,6|0,1:2|0:2,0:0:0:0:
11,73,106208,1,0,1:2:0:0:
11,73,106358,2,0,P|5:126|23:176,1,100,8|0,0:2|0:2,0:0:0:0:
86,243,106958,1,8,0:2:0:0:
183,220,107258,1,0,1:2:0:0:
264,277,107558,2,0,P|311:288|376:270,1,100,2|0,1:2|0:2,0:0:0:0:
407,254,108008,1,0,1:2:0:0:
407,254,108158,2,0,P|454:243|519:261,2,100,8|2|8,0:2|0:2|0:2,0:0:0:0:
338,327,109058,6,0,P|289:337|241:326,1,100,0|2,1:2|1:2,0:0:0:0:
160,275,109658,1,2,0:2:0:0:
160,275,109808,2,0,P|152:216|180:111,1,150,0|0,1:2|0:2,0:0:0:0:
236,53,110558,1,8,0:2:0:0:
236,53,110708,2,0,P|290:68|344:59,1,100,0|0,1:2|3:2,0:0:0:0:
380,47,111158,1,0,1:2:0:0:
473,12,111458,5,2,0:2:0:0:
504,106,111758,1,8,0:2:0:0:
410,140,112058,2,0,P|390:186|397:243,1,100,2|8,1:2|0:2,0:0:0:0:
447,319,112658,1,0,3:2:0:0:
368,381,112958,6,0,P|313:381|258:358,1,100,10|0,1:1|0:2,0:0:0:0:
233,342,113408,1,0,1:2:0:0:
233,342,113558,2,0,P|185:326|136:327,1,100,8|0,0:2|0:2,0:0:0:0:
47,373,114158,1,8,0:2:0:0:
0,284,114458,1,0,1:2:0:0:
89,237,114758,2,0,P|106:192|104:133,1,100,2|0,1:2|0:2,0:0:0:0:
75,108,115208,1,0,1:2:0:0:
75,108,115358,2,0,P|74:58|91:11,1,100,8|2,0:2|0:2,0:0:0:0:
183,49,115958,2,0,P|229:66|279:65,1,100,8|0,0:2|1:2,0:0:0:0:
375,37,116558,6,0,P|391:83|390:133,1,100,2|0,1:2|0:2,0:0:0:0:
372,180,117008,1,0,1:2:0:0:
372,180,117158,2,0,P|325:197|275:196,1,100,8|0,0:2|0:2,0:0:0:0:
182,175,117758,1,8,0:2:0:0:
182,175,117908,2,0,P|132:174|85:191,1,100,0|0,1:2|3:2,0:0:0:0:
46,221,118358,1,0,1:2:0:0:
26,319,118658,5,2,1:2:0:0:
108,375,118958,1,8,0:2:0:0:
198,333,119258,2,0,P|258:316|313:321,1,100,2|8,1:2|0:2,0:0:0:0:
390,347,119858,1,2,0:2:0:0:
474,294,120158,6,0,P|486:245|478:196,1,100,2|0,1:1|0:2,0:0:0:0:
453,160,120608,1,0,1:2:0:0:
453,160,120758,2,0,P|404:148|355:156,1,100,10|0,0:2|0:2,0:0:0:0:
262,192,121358,1,10,0:2:0:0:
274,291,121658,1,0,1:2:0:0:
194,351,121958,2,0,P|144:358|96:347,1,100,2|0,1:2|0:2,0:0:0:0:
22,279,122558,2,0,P|14:229|25:181,1,100,10|0,0:2|0:2,0:0:0:0:
103,117,123158,1,8,0:2:0:0:
194,157,123458,1,0,1:2:0:0:
280,106,123758,6,0,P|328:94|377:102,1,100,2|0,1:1|0:2,0:0:0:0:
419,138,124208,1,0,1:2:0:0:
419,138,124358,2,0,P|430:186|422:235,1,100,8|0,0:2|0:2,0:0:0:0:
358,313,124958,1,8,0:2:0:0:
358,313,125108,2,0,P|308:321|260:309,1,100,0|0,1:2|0:2,0:0:0:0:
215,288,125558,6,0,P|189:332|183:391,2,100,2|0|8,1:2|0:2|0:2,0:0:0:0:
257,260,126308,1,8,0:2:0:0:
257,260,126458,2,0,P|249:210|224:167,1,100,2|10,1:2|1:2,0:0:0:0:
149,101,127058,1,2,3:2:0:0:
77,171,127358,6,0,P|59:213|53:313,2,134.999995880127,2|0|0,1:1|1:2|0:2,0:0:0:0:
159,134,128558,2,0,L|256:146,1,89.9999972534181,8|0,0:2|1:2,0:0:0:0:
337,129,129158,2,0,P|334:61|311:-1,2,134.999995880127,2|0|0,1:1|1:2|0:2,0:0:0:0:
251,158,130358,2,0,L|154:170,1,89.9999972534181,8|0,0:2|1:2,0:0:0:0:
92,226,130958,6,0,P|82:271|98:323,1,89.9999972534181,2|0,1:1|0:2,0:0:0:0:
122,353,131408,1,0,1:2:0:0:
122,353,131558,2,0,P|167:363|219:347,1,89.9999972534181,8|0,0:2|0:2,0:0:0:0:
290,310,132158,1,8,0:2:0:0:
290,310,132308,2,0,P|333:299|376:309,1,89.9999972534181,0|0,1:2|0:2,0:0:0:0:
415,333,132758,5,2,1:2:0:0:
487,279,133058,1,2,1:2:0:0:
476,189,133358,1,10,0:2:0:0:
392,154,133658,1,2,1:2:0:0:
392,154,133808,2,0,P|348:164|305:153,1,89.9999972534181,8|0,0:2|1:2,0:0:0:0:
261,140,134258,2,0,P|256:105|253:83,1,44.999998626709,2|0,3:2|3:2,0:0:0:0:
219,59,134558,6,0,P|175:48|104:61,1,100,2|0,1:1|0:2,0:0:0:0:
82,84,135008,1,0,1:2:0:0:
82,84,135158,1,8,0:2:0:0:
36,172,135458,2,0,P|29:221|40:269,1,100,2|8,0:2|0:2,0:0:0:0:
91,355,136058,1,0,1:2:0:0:
185,321,136358,2,0,P|233:309|282:316,1,100,2|0,1:2|0:2,0:0:0:0:
331,341,136808,1,0,1:2:0:0:
331,341,136958,2,0,P|380:347|428:336,2,100,8|2|8,0:2|0:2|0:2,0:0:0:0:
236,307,137858,1,0,1:2:0:0:
280,217,138158,6,0,P|289:153|276:105,1,100,2|0,1:1|2:2,0:0:0:0:
252,77,138608,1,0,1:2:0:0:
252,77,138758,1,8,0:2:0:0:
160,36,139058,2,0,P|111:30|63:41,2,100,2|8|0,0:2|0:2|0:2,0:0:0:0:
252,77,139958,2,0,P|301:83|349:72,1,100,2|0,1:1|0:2,0:0:0:0:
398,82,140408,2,0,P|421:125|427:174,1,100,8|8,0:2|0:2,0:0:0:0:
421,225,140858,1,8,1:2:0:0:
329,265,141158,1,0,1:2:0:0:
235,228,141458,1,8,1:2:0:0:
136,262,141758,6,0,P|123:298|130:366,1,89.9999972534181,2|0,1:2|0:2,0:0:0:0:
378,376,142958,2,0,P|391:340|384:272,1,89.9999972534181,8|0,1:2|1:2,0:0:0:0:
364,202,143558,6,0,P|361:157|375:114,1,89.9999972534181,2|0,1:2|0:2,0:0:0:0:
134,14,144758,2,0,P|136:58|122:101,1,89.9999972534181,8|0,1:2|1:2,0:0:0:0:
57,163,145358,6,0,P|42:205|45:250,1,89.9999972534181,2|0,1:2|1:2,0:0:0:0:
301,337,146558,2,0,L|296:398,2,44.999998626709,8|0|2,0:2|1:2|0:2,0:0:0:0:
366,274,147158,6,0,P|368:229|354:186,1,89.9999972534181,2|0,1:1|0:2,0:0:0:0:
323,153,147608,1,0,1:2:0:0:
323,153,147758,2,0,P|280:167|235:164,1,89.9999972534181,0|0,0:0|0:2,0:0:0:0:
148,141,148358,1,10,0:2:0:0:
110,222,148658,1,0,1:2:0:0:
26,188,148958,6,0,P|16:118|30:86,1,89.9999972534181,2|0,1:2|1:2,0:0:0:0:
280,23,150158,2,0,P|290:93|276:125,1,89.9999972534181,10|0,0:2|1:2,0:0:0:0:
241,189,150758,6,0,P|231:259|245:291,1,89.9999972534181,2|0,1:2|0:2,0:0:0:0:
478,372,151958,2,0,P|488:302|474:270,1,89.9999972534181,8|0,1:2|1:2,0:0:0:0:
408,233,152558,6,0,P|372:244|316:233,1,89.9999972534181,2|0,1:2|0:2,0:0:0:0:
244,188,153158,1,2,0:2:0:0:
173,243,153458,1,0,0:2:0:0:
92,203,153758,1,8,0:2:0:0:
92,203,153908,2,0,P|90:155|103:113,1,89.9999972534181,0|0,1:2|0:2,0:0:0:0:
138,88,154358,6,0,P|183:92|230:77,1,89.9999972534181,2|0,1:2|1:2,0:0:0:0:
304,36,154958,1,2,0:2:0:0:
377,87,155258,2,0,P|389:130|386:174,2,89.9999972534181,0|10|0,1:2|0:2|0:2,0:0:0:0:
304,36,156158,6,0,P|259:31|206:45,2,94.9999974632264,2|0|0,1:2|0:2|0:0,0:0:0:0:
386,82,157058,1,2,1:2:0:0:
340,165,157358,1,8,0:2:0:0:
403,235,157658,1,0,1:2:0:0:
341,313,157958,6,0,P|289:325|233:305,2,100,10|0|2,1:2|0:2|0:2,0:0:0:0:
403,235,158858,1,2,1:2:0:0:
340,165,159158,1,8,1:2:0:0:
386,82,159458,1,8,1:2:0:0:
288,30,159758,6,0,P|236:25|176:48,1,110.000003356934,6|0,1:1|0:2,0:0:0:0:
142,81,160208,1,8,1:2:0:0:
142,81,160358,2,0,P|90:99|36:94,2,110.000003356934,0|2|8,3:2|0:2|0:2,0:0:0:0:
238,27,161258,1,0,1:2:0:0:
332,83,161558,2,0,P|353:136|348:253,2,165.000005035401,2|8|0,1:2|1:2|1:2,0:0:0:0:
238,27,162758,1,8,0:2:0:0:
142,80,163058,1,0,1:2:0:0:
35,53,163358,6,0,P|14:105|27:176,1,110.000003356934,2|0,1:2|0:2,0:0:0:0:
49,209,163808,1,8,1:2:0:0:
49,209,163958,2,0,P|99:230|153:226,1,110.000003356934,2|0,3:2|1:2,0:0:0:0:
246,166,164558,1,8,0:2:0:0:
346,120,164858,1,0,0:2:0:0:
445,167,165158,6,0,P|464:219|463:276,1,110.000003356934,2|0,1:2|1:2,0:0:0:0:
450,329,165608,1,8,1:2:0:0:
450,329,165758,2,0,P|398:348|341:347,1,110.000003356934,2|2,3:2|1:2,0:0:0:0:
236,321,166358,1,10,0:2:0:0:
134,364,166658,1,2,3:2:0:0:
40,305,166958,6,0,P|25:224|58:150,2,165.000005035401,10|8|2,1:1|1:2|0:2,0:0:0:0:
134,364,168158,1,8,0:2:0:0:
236,321,168458,1,0,1:2:0:0:
343,347,168758,2,0,P|398:347|450:329,1,110.000003356934,2|0,1:2|0:2,0:0:0:0:
485,287,169208,1,8,1:2:0:0:
485,287,169358,2,0,P|485:232|466:180,2,110.000003356934,2|2|8,3:2|1:2|0:2,0:0:0:0:
401,358,170258,1,2,1:3:0:0:
309,318,170558,6,0,P|256:302|197:307,2,100,6|8|0,1:2|0:2|0:0,0:0:0:0:
401,358,171458,2,0,P|454:374|513:369,2,100,4|2|2,1:2|1:3|0:2,0:0:0:0:
317,286,172358,6,0,P|329:230|300:166,1,110.000003356934,6|0,1:2|0:2,0:0:0:0:
285,139,172808,1,8,1:2:0:0:
285,139,172958,2,0,P|235:110|165:118,1,110.000003356934,0|2,3:2|1:2,0:0:0:0:
79,143,173558,1,8,0:2:0:0:
47,248,173858,1,0,1:2:0:0:
117,332,174158,2,0,P|167:361|237:353,1,110.000003356934,2|0,1:2|0:2,0:0:0:0:
267,335,174608,2,0,P|276:273|320:227,1,110.000003356934,8|0,1:2|0:2,0:0:0:0:
353,211,175058,1,2,1:2:0:0:
451,157,175358,1,10,0:2:0:0:
451,157,175508,2,0,P|442:95|398:49,1,110.000003356934,0|0,1:2|3:2,0:0:0:0:
360,45,175958,6,0,P|304:64|246:56,1,110.000003356934,2|0,1:1|0:2,0:0:0:0:
203,69,176408,1,8,1:2:0:0:
203,69,176558,2,0,P|151:50|97:55,1,110.000003356934,0|2,3:2|1:2,0:0:0:0:
24,137,177158,1,8,0:2:0:0:
24,137,177308,2,0,P|5:189|10:243,1,110.000003356934,0|0,1:2|0:2,0:0:0:0:
44,285,177758,2,0,P|96:304|150:299,1,110.000003356934,2|0,1:2|1:2,0:0:0:0:
202,315,178208,2,0,P|256:310|307:329,1,110.000003356934,8|0,1:2|0:2,0:0:0:0:
348,365,178658,1,2,1:2:0:0:
457,352,178958,1,2,1:2:0:0:
478,244,179258,1,2,3:2:0:0:
388,179,179558,6,0,P|333:174|282:193,1,110.000003356934,10|0,1:1|0:2,0:0:0:0:
242,231,180008,1,8,1:2:0:0:
242,231,180158,2,0,P|190:249|136:245,1,110.000003356934,0|2,3:2|1:2,0:0:0:0:
30,211,180758,1,8,0:2:0:0:
30,101,181058,1,0,1:2:0:0:
126,48,181358,2,0,P|180:44|232:61,1,110.000003356934,2|0,1:2|0:2,0:0:0:0:
272,99,181808,1,8,1:2:0:0:
272,99,181958,1,2,3:2:0:0:
361,162,182258,2,0,P|415:165|467:148,2,110.000003356934,2|8|2,1:2|0:2|1:3,0:0:0:0:
272,99,183158,6,0,P|269:47|242:-8,2,100,6|8|0,1:2|0:2|3:2,0:0:0:0:
240,194,184058,1,6,1:2:0:0:
154,242,184358,1,2,3:3:0:0:
154,242,184508,2,0,P|104:239|58:220,1,100,0|0,1:2|0:2,0:0:0:0:
26,181,184958,6,0,P|28:131|47:85,2,100,6|8|0,1:2|0:2|3:2,0:0:0:0:
63,273,185858,1,2,1:2:0:0:
160,249,186158,1,2,1:3:0:0:
284,341,186608,5,2,0:2:0:0:
284,341,186758,2,0,P|329:360|379:362,1,100,6|8,1:2|0:2,0:0:0:0:
422,335,187208,2,0,P|440:288|442:239,1,100,0|8,1:2|0:2,0:0:0:0:
430,190,187658,1,6,1:2:0:0:
351,137,187958,1,2,3:3:0:0:
351,137,188108,2,0,P|301:138|255:157,1,100,0|0,1:2|0:2,0:0:0:0:
216,193,188558,6,0,P|170:212|114:204,1,104.999996795654,6|0,1:1|1:2,0:0:0:0:
68,190,189008,1,8,1:2:0:0:
68,190,189158,2,0,P|49:144|57:88,1,104.999996795654,0|2,3:2|1:2,0:0:0:0:
139,25,189758,1,8,0:2:0:0:
139,25,189908,2,0,P|190:17|238:37,1,104.999996795654,0|0,1:2|0:2,0:0:0:0:
275,74,190358,2,0,P|326:81|374:61,1,104.999996795654,2|0,1:2|0:2,0:0:0:0:
423,79,190808,2,0,P|454:119|460:171,1,104.999996795654,8|0,1:2|0:2,0:0:0:0:
460,224,191258,1,2,0:2:0:0:
386,299,191558,1,8,0:2:0:0:
285,268,191858,1,0,1:2:0:0:
206,337,192158,6,0,P|127:359|46:317,2,157.499995193482,2|8|0,1:2|1:2|1:2,0:0:0:0:
285,268,193358,1,8,0:2:0:0:
386,299,193658,1,0,1:2:0:0:
460,224,193958,2,0,P|465:168|441:114,1,104.999996795654,2|0,1:2|0:2,0:0:0:0:
404,93,194408,2,0,P|348:88|294:112,1,104.999996795654,8|0,1:2|0:2,0:0:0:0:
266,142,194858,1,2,0:2:0:0:
216,234,195158,1,8,0:2:0:0:
116,268,195458,1,0,0:2:0:0:
20,224,195758,6,0,P|5:164|15:111,1,104.999996795654,0|2,1:2|0:2,0:0:0:0:
44,81,196208,1,8,1:2:0:0:
44,81,196358,2,0,P|104:66|157:76,1,104.999996795654,2|2,0:2|1:2,0:0:0:0:
211,161,196958,1,10,0:2:0:0:
211,161,197108,2,0,P|262:166|313:152,1,104.999996795654,0|0,1:2|0:2,0:0:0:0:
344,108,197558,2,0,P|394:93|446:99,1,104.999996795654,2|0,1:2|0:2,0:0:0:0:
489,137,198008,1,8,1:2:0:0:
489,137,198158,2,0,P|504:187|498:239,1,104.999996795654,0|0,3:2|0:2,0:0:0:0:
431,320,198758,1,10,0:2:0:0:
329,292,199058,1,0,1:2:0:0:
249,360,199358,6,0,P|199:369|135:349,1,104.999996795654,2|0,1:1|0:2,0:0:0:0:
100,372,199808,1,8,1:2:0:0:
100,372,199958,2,0,P|67:333|52:267,1,104.999996795654,0|2,3:2|1:2,0:0:0:0:
101,188,200558,1,8,0:2:0:0:
203,166,200858,1,0,1:2:0:0:
283,233,201158,2,0,P|333:242|397:222,1,104.999996795654,2|0,1:2|0:2,0:0:0:0:
432,245,201608,1,8,1:2:0:0:
432,245,201758,2,0,P|465:206|480:140,1,104.999996795654,0|2,3:2|0:2,0:0:0:0:
453,52,202358,1,2,1:2:0:0:
352,20,202658,1,2,1:2:0:0:
265,80,202958,6,0,P|215:89|151:69,1,104.999996795654,6|8,1:2|1:2,0:0:0:0:
117,50,203408,1,0,1:2:0:0:
117,50,203558,1,2,0:2:0:0:
45,126,203858,2,0,P|26:184|34:241,1,104.999996795654,2|8,1:2|0:2,0:0:0:0:
59,270,204308,2,0,P|109:282|160:274,1,104.999996795654,2|0,1:2|3:2,0:0:0:0:
207,298,204758,2,0,P|258:289|308:302,1,104.999996795654,2|8,1:2|1:2,0:0:0:0:
348,337,205208,1,0,1:2:0:0:
348,337,205358,1,2,0:2:0:0:
448,308,205658,2,0,P|460:257|452:206,1,104.999996795654,8|10,0:2|0:2,0:0:0:0:
414,169,206108,2,0,P|363:181|312:173,1,104.999996795654,8|0,0:3|3:2,0:0:0:0:
274,210,206558,6,0,P|222:201|171:213,1,104.999996795654,6|0,1:2|0:2,0:0:0:0:
139,255,207008,2,0,P|87:263|36:251,1,104.999996795654,8|0,1:2|0:2,0:0:0:0:
1,211,207458,1,2,1:2:0:0:
3,106,207758,1,8,0:2:0:0:
101,69,208058,1,0,1:2:0:0:
194,117,208358,2,0,P|246:133|351:113,2,157.499995193482,2|8|2,1:2|1:2|0:2,0:0:0:0:
101,69,209558,1,10,2:2:0:0:
17,133,209858,1,0,0:2:0:0:
43,229,210158,6,0,P|83:243|157:223,1,100,10|0,1:1|1:2,0:0:0:0:
183,211,210608,1,8,1:2:0:0:
183,211,210758,2,0,P|231:201|278:216,1,100,0|2,3:2|1:2,0:0:0:0:
358,285,211358,1,8,0:2:0:0:
358,285,211508,2,0,P|406:295|453:280,1,100,0|0,1:2|0:2,0:0:0:0:
489,244,211958,2,0,P|499:196|484:149,1,100,2|0,1:2|0:2,0:0:0:0:
442,119,212408,2,0,P|394:109|347:124,1,100,8|0,1:2|0:2,0:0:0:0:
309,158,212858,1,2,2:2:0:0:
260,245,213158,1,8,0:2:0:0:
168,284,213458,1,0,1:2:0:0:
77,242,213758,6,0,P|63:190|80:128,1,100,2|0,1:2|0:2,0:0:0:0:
99,104,214208,1,8,1:2:0:0:
99,104,214358,1,0,3:2:0:0:
177,42,214658,2,0,P|229:28|291:45,2,100,2|8|0,1:2|0:2|1:2,0:0:0:0:
99,104,215558,2,0,P|91:152|104:200,1,100,2|0,1:2|0:2,0:0:0:0:
133,241,216008,1,8,1:2:0:0:
133,241,216158,2,0,P|181:248|229:235,1,100,0|2,3:2|0:2,0:0:0:0:
283,149,216758,1,8,0:2:0:0:
379,123,217058,1,0,0:2:0:0:
467,170,217358,6,0,P|478:205|474:278,1,94.9999974632264,2|0,1:1|1:2,0:0:0:0:
470,313,217808,1,8,1:2:0:0:
470,313,217958,1,0,3:2:0:0:
389,362,218258,2,0,P|344:365|284:347,1,94.9999974632264,2|8,1:2|0:2,0:0:0:0:
269,312,218708,2,0,P|223:300|175:302,1,94.9999974632264,0|0,1:2|0:2,0:0:0:0:
141,334,219158,2,0,P|96:337|36:319,1,94.9999974632264,2|0,1:2|0:2,0:0:0:0:
20,293,219608,1,8,1:2:0:0:
20,293,219758,2,0,P|17:248|35:188,1,94.9999974632264,0|0,3:2|0:2,0:0:0:0:
84,122,220358,1,10,0:2:0:0:
178,127,220658,1,0,1:2:0:0:
236,201,220958,6,0,P|282:219|331:213,1,89.9999972534181,2|0,1:2|0:2,0:0:0:0:
361,194,221408,1,8,1:2:0:0:
361,194,221558,2,0,P|379:148|373:99,1,89.9999972534181,0|2,3:2|1:2,0:0:0:0:
311,44,222158,1,8,0:2:0:0:
229,82,222458,1,0,1:2:0:0:
152,36,222758,2,0,P|102:23|48:33,1,89.9999972534181,2|0,1:2|0:2,0:0:0:0:
30,56,223208,1,8,1:2:0:0:
30,56,223358,2,0,P|17:106|27:160,1,89.9999972534181,0|2,3:2|0:2,0:0:0:0:
53,228,223958,1,8,0:2:0:0:
140,207,224258,1,0,0:2:0:0:
192,280,224558,6,0,P|236:293|286:288,1,85.0000016212464,2|0,1:2|1:2,0:0:0:0:
314,317,225008,1,8,1:2:0:0:
314,317,225158,2,0,P|356:318|396:306,1,85.0000016212464,0|2,3:2|1:2,0:0:0:0:
455,244,225758,1,8,0:2:0:0:
455,244,225908,2,0,P|458:195|443:147,1,85.0000016212464,0|0,1:2|0:2,0:0:0:0:
420,129,226358,2,0,P|412:62|429:5,2,127.50000243187,2|8|2,1:2|1:2|0:2,0:0:0:0:
476,192,227558,1,8,0:2:0:0:
469,276,227858,1,0,1:2:0:0:
400,326,228158,6,0,P|356:326|321:314,1,80,2|0,1:2|0:2,0:0:0:0:
292,296,228608,1,8,1:2:0:0:
292,296,228758,2,0,P|254:283|214:284,1,80,0|0,3:2|1:2,0:0:0:0:
143,320,229358,2,0,P|99:320|64:308,1,80,8|0,0:2|1:2,0:0:0:0:
4,256,229958,2,0,P|4:212|16:177,1,80,2|0,1:2|0:2,0:0:0:0:
40,152,230408,1,8,1:2:0:0:
40,152,230558,2,0,P|84:152|119:140,1,80,0|0,3:2|0:2,0:0:0:0:
188,177,231158,2,0,P|232:177|267:189,2,80,2|8|4,0:2|0:2|1:1,0:0:0:0:
