osu file format v14

[General]
AudioFilename: audio.mp3
AudioLeadIn: 0
PreviewTime: 77820
Countdown: 0
SampleSet: Soft
StackLeniency: 0.6
Mode: 0
LetterboxInBreaks: 0
WidescreenStoryboard: 1

[Editor]
Bookmarks: 1358,12158,13958,21158,35558,42758,64358,71558,78758,89558,91358,105758,127358,134558,141758,159758,172358,183158,188558,199358,202958,206558,210158,217358,222758,224558,228158,229958,231758
DistanceSpacing: 2
BeatDivisor: 4
GridSize: 32
TimelineZoom: 1.9

[Metadata]
Title:Eden
TitleUnicode:Eden
Artist:kukui
ArtistUnicode:kukui
Creator:Lasse
Version:Hard
Source:ローゼンメイデン
Tags:myu shimotsuki haruka 霜月はるか leer lied japanese pop anime rozen maiden image song
BeatmapID:3364262
BeatmapSetID:1648201

[Difficulty]
HPDrainRate:4.6
CircleSize:3.8
OverallDifficulty:6.8
ApproachRate:8
SliderMultiplier:1.2
SliderTickRate:1

[Events]
//Background and Video events
0,0,"bg.jpg",0,0
//Break Periods
//Storyboard Layer 0 (Background)
//Storyboard Layer 1 (Fail)
//Storyboard Layer 2 (Pass)
//Storyboard Layer 3 (Foreground)
//Storyboard Layer 4 (Overlay)
//Storyboard Sound Samples

[TimingPoints]
1358,300,6,2,1,65,1,0
1358,-90.9090909090909,6,2,1,65,0,0
12158,-111.111111111111,6,2,1,65,0,0
12233,-111.111111111111,6,2,1,50,0,0
12758,-125,6,2,1,60,0,0
12833,-125,6,2,1,50,0,0
13058,-99.9999999999999,6,2,1,65,0,0
13133,-99.9999999999999,6,2,1,50,0,0
13508,-125,6,2,1,60,0,0
13583,-125,6,2,1,50,0,0
13958,-90.9090909090909,6,2,1,65,0,0
21158,-125,6,2,1,60,0,0
21233,-125,6,2,1,50,0,0
42158,-125,6,2,1,53,0,0
42458,-125,6,2,1,56,0,0
42758,-117.647058823529,6,2,1,60,0,0
42833,-117.647058823529,6,2,1,55,0,0
63458,-100,6,2,1,58,0,0
64358,-133.333333333333,6,2,1,60,0,0
64433,-133.333333333333,6,2,1,50,0,0
66158,-133.333333333333,6,2,1,60,0,0
66233,-133.333333333333,6,2,1,50,0,0
67958,-121.951219512195,6,2,1,60,0,0
68033,-121.951219512195,6,2,1,55,0,0
71558,-133.333333333333,6,2,1,60,0,0
71633,-133.333333333333,6,2,1,50,0,0
73358,-125,6,2,1,60,0,0
73433,-125,6,2,1,55,0,0
75158,-111.111111111111,6,2,1,60,0,0
76958,-100,6,2,1,62,0,0
77858,-90.9090909090909,6,2,1,65,0,0
78758,-83.3333333333333,6,2,1,70,0,1
79058,-83.3333333333333,6,2,1,70,0,0
89558,-83.3333333333333,6,2,1,65,0,0
90008,-83.3333333333333,6,2,1,55,0,0
90458,-83.3333333333333,6,2,1,65,0,0
90758,-100,6,2,1,60,0,0
91208,-83.3333333333333,6,2,1,55,0,0
91358,-83.3333333333333,6,2,1,70,0,0
105458,-83.3333333333333,6,2,1,65,0,0
105758,-111.111111111111,6,2,1,60,0,0
106058,-111.111111111111,6,2,1,55,0,0
125558,-100,6,2,1,60,0,0
127358,-133.333333333333,6,2,1,60,0,0
127433,-133.333333333333,6,2,1,50,0,0
129158,-133.333333333333,6,2,1,60,0,0
129233,-133.333333333333,6,2,1,50,0,0
130958,-121.951219512195,6,2,1,60,0,0
131033,-121.951219512195,6,2,1,55,0,0
132758,-111.111111111111,6,2,1,55,0,0
134558,-117.647058823529,6,2,1,60,0,0
139958,-108.695652173913,6,2,1,60,0,0
141758,-133.333333333333,6,2,1,60,0,0
141833,-133.333333333333,6,2,1,50,0,0
143558,-133.333333333333,6,2,1,60,0,0
143633,-133.333333333333,6,2,1,50,0,0
145358,-133.333333333333,6,2,1,60,0,0
145433,-133.333333333333,6,2,1,50,0,0
147158,-133.333333333333,6,2,1,60,0,0
147233,-133.333333333333,6,2,1,50,0,0
148958,-133.333333333333,6,2,1,60,0,0
149033,-133.333333333333,6,2,1,50,0,0
150758,-133.333333333333,6,2,1,60,0,0
150833,-133.333333333333,6,2,1,50,0,0
152558,-133.333333333333,6,2,1,60,0,0
152633,-133.333333333333,6,2,1,50,0,0
154358,-133.333333333333,6,2,1,60,0,0
154433,-133.333333333333,6,2,1,50,0,0
156158,-117.647058823529,6,2,1,60,0,0
156233,-117.647058823529,6,2,1,55,0,0
157958,-100,6,2,1,60,0,0
158858,-86.9565217391304,6,2,1,65,0,0
159758,-76.9230769230769,6,2,1,70,0,1
160058,-76.9230769230769,6,2,1,70,0,0
170558,-76.9230769230769,6,2,1,65,0,0
170858,-76.9230769230769,6,2,1,60,0,0
171458,-76.9230769230769,6,2,1,65,0,0
171758,-76.9230769230769,6,2,1,60,0,0
172058,-76.9230769230769,6,2,1,55,0,0
172208,-76.9230769230769,6,2,1,60,0,0
172358,-71.4285714285714,6,2,1,75,0,1
183158,-133.333333333333,6,2,1,65,0,0
183458,-133.333333333333,6,2,1,60,0,0
184058,-133.333333333333,6,2,1,65,0,0
184358,-133.333333333333,6,2,1,60,0,0
184808,-133.333333333333,6,2,1,55,0,0
184958,-133.333333333333,6,2,1,65,0,0
185258,-133.333333333333,6,2,1,60,0,0
185858,-133.333333333333,6,2,1,65,0,0
186158,-133.333333333333,6,2,1,60,0,0
186608,-133.333333333333,6,2,1,55,0,0
186758,-133.333333333333,6,2,1,65,0,0
187058,-133.333333333333,6,2,1,60,0,0
187658,-133.333333333333,6,2,1,65,0,0
187958,-133.333333333333,6,2,1,60,0,0
188558,-76.9230769230769,6,2,1,72,0,1
188858,-76.9230769230769,6,2,1,72,0,0
209858,-83.3333333333333,6,2,2,67,0,0
210158,-83.3333333333333,6,2,1,70,0,0
217358,-90.9090909090909,6,2,1,65,0,0
220958,-100,6,2,1,60,0,0
222758,-111.111111111111,6,2,1,55,0,0
224558,-125,6,2,1,50,0,0
225458,-125,6,2,1,45,0,0
226358,-133.333333333333,6,2,1,40,0,0
227258,-133.333333333333,6,2,1,36,0,0
228158,-142.857142857143,6,2,1,32,0,0
229058,-142.857142857143,6,2,1,28,0,0
229958,-153.846153846154,6,2,1,24,0,0
230858,-153.846153846154,6,2,1,20,0,0
231758,-153.846153846154,6,2,1,15,0,0

[Colours]
Combo1 : 240,140,140
Combo2 : 200,180,220
Combo3 : 240,200,155
Combo4 : 150,185,220

[HitObjects]
39,28,1358,6,0,P|12:64|20:174,1,132.00000402832,2|0,1:1|0:2,0:0:0:0:
74,202,1808,1,8,1:2:0:0:
158,217,1958,2,0,P|195:213|229:198,1,66.0000020141602,0|0,3:2|0:2,0:0:0:0:
301,171,2258,2,0,P|359:166|441:196,1,132.00000402832,2|8,0:2|0:2,0:0:0:0:
490,353,2858,6,0,P|461:336|428:327,1,66.0000020141602,0|0,1:2|0:2,0:0:0:0:
347,356,3158,2,0,P|299:382|216:364,1,132.00000402832,2|0,1:2|0:2,0:0:0:0:
149,328,3608,1,8,1:2:0:0:
178,247,3758,2,0,P|180:164|144:109,2,132.00000402832,2|0|8,3:2|1:2|0:2,0:0:0:0:
12,165,4658,6,0,P|39:155|92:148,1,66.0000020141602,0|0,1:2|0:2,0:0:0:0:
90,244,4958,2,0,P|63:254|10:261,1,66.0000020141602,2|0,1:2|0:2,0:0:0:0:
159,184,5258,2,0,P|173:214|178:247,1,66.0000020141602,0|8,0:2|1:2,0:0:0:0:
137,337,5558,6,0,P|197:343|260:306,1,132.00000402832,2|0,3:2|0:2,0:0:0:0:
293,229,6008,1,0,0:2:0:0:
252,153,6158,2,0,P|255:114|269:81,1,66.0000020141602,8|0,0:2|1:2,0:0:0:0:
337,41,6458,2,0,P|366:40|402:48,1,66.0000020141602,0|0,0:2|0:2,0:0:0:0:
481,131,6758,6,0,P|482:203|464:264,1,132.00000402832,2|0,1:2|1:2,0:0:0:0:
423,335,7208,1,8,1:2:0:0:
341,361,7358,2,0,P|300:356|264:332,1,66.0000020141602,0|0,3:2|0:2,0:0:0:0:
221,279,7658,2,0,P|218:239|202:204,1,66.0000020141602,2|0,1:2|0:2,0:0:0:0:
152,156,7958,5,10,0:2:0:0:
152,156,8108,1,0,1:2:0:0:
90,215,8258,5,2,3:2:0:0:
90,215,8408,1,0,3:2:0:0:
20,165,8558,6,0,P|23:102|78:40,1,132.00000402832,10|0,1:1|0:2,0:0:0:0:
144,18,9008,1,8,1:2:0:0:
201,82,9158,2,0,P|248:94|287:87,1,66.0000020141602,0|0,3:2|0:2,0:0:0:0:
345,62,9458,2,0,P|384:113|388:178,1,132.00000402832,2|8,0:2|0:2,0:0:0:0:
475,326,10058,6,0,P|448:313|399:307,1,66.0000020141602,0|0,1:2|0:2,0:0:0:0:
338,349,10358,2,0,P|263:357|204:310,1,132.00000402832,2|0,1:2|0:2,0:0:0:0:
170,255,10808,1,8,1:2:0:0:
203,175,10958,2,0,P|200:130|182:96,1,66.0000020141602,2|0,3:2|0:2,0:0:0:0:
131,50,11258,2,0,P|67:39|10:70,2,132.00000402832,2|8|2,1:2|0:2|1:3,0:0:0:0:
203,175,12158,6,0,P|266:185|323:154,1,107.999996704102,6|0,1:2|0:2,0:0:0:0:
306,169,12758,2,0,L|312:105,1,48,2|0,1:2|0:2,0:0:0:0:
365,38,13058,6,0,P|412:25|488:64,1,120,6|2,1:2|0:3,0:0:0:0:
510,123,13508,2,0,L|500:223,1,96,0|0,1:2|0:2,0:0:0:0:
441,298,13958,6,0,P|376:308|317:282,1,132.00000402832,6|0,1:2|1:2,0:0:0:0:
244,234,14408,1,8,1:2:0:0:
163,263,14558,2,0,P|145:291|140:330,1,66.0000020141602,0|0,3:2|0:2,0:0:0:0:
244,234,14858,2,0,P|259:169|228:95,1,132.00000402832,2|8,1:2|0:2,0:0:0:0:
175,50,15308,1,0,1:2:0:0:
11,128,15608,5,0,0:2:0:0:
11,128,15758,2,0,P|0:164|5:209,1,66.0000020141602,2|0,1:2|0:2,0:0:0:0:
46,267,16058,1,0,0:2:0:0:
46,267,16208,2,0,P|81:268|117:256,1,66.0000020141602,8|0,0:2|3:2,0:0:0:0:
185,214,16508,1,0,0:2:0:0:
185,214,16658,2,0,P|242:211|303:281,2,132.00000402832,2|8|0,0:2|0:2|1:2,0:0:0:0:
270,363,17558,6,0,P|327:366|388:296,1,132.00000402832,2|0,1:2|0:2,0:0:0:0:
472,282,18008,2,0,P|415:285|354:215,1,132.00000402832,8|0,1:2|0:2,0:0:0:0:
292,171,18458,2,0,P|322:166|363:133,1,66.0000020141602,0|0,1:2|0:2,0:0:0:0:
316,69,18758,2,0,P|286:74|245:107,1,66.0000020141602,8|0,0:2|0:2,0:0:0:0:
192,178,19058,6,0,P|164:196|132:201,1,66.0000020141602,0|0,1:2|0:2,0:0:0:0:
45,203,19358,2,0,P|16:141|25:66,1,132.00000402832,2|0,1:2|0:2,0:0:0:0:
85,22,19808,2,0,P|115:10|148:11,1,66.0000020141602,8|0,1:2|3:2,0:0:0:0:
224,51,20108,1,0,0:2:0:0:
224,51,20258,2,0,P|299:71|366:33,1,132.00000402832,2|8,0:2|0:2,0:0:0:0:
419,4,20708,2,0,P|399:78|437:145,1,132.00000402832,0|0,1:2|0:2,0:0:0:0:
473,187,21158,6,0,P|396:160|314:166,2,144,2|0|0,1:1|1:2|0:2,0:0:0:0:
506,307,22358,1,8,0:2:0:0:
402,375,22658,1,0,1:2:0:0:
305,297,22958,2,0,P|298:243|312:184,1,96,2|0,1:2|0:2,0:0:0:0:
355,144,23408,2,0,P|382:139|424:137,1,48,0|0,1:2|0:2,0:0:0:0:
296,58,23858,2,0,P|248:57|205:36,2,96,2|8|0,0:2|0:2|1:2,0:0:0:0:
362,18,24608,1,0,0:2:0:0:
429,55,24758,6,0,P|445:98|435:153,1,96,2|0,1:2|0:2,0:0:0:0:
385,201,25208,1,0,1:2:0:0:
385,201,25358,2,0,P|336:211|287:200,1,96,0|0,0:2|0:2,0:0:0:0:
171,139,25958,1,8,0:2:0:0:
171,139,26108,1,0,1:2:0:0:
213,74,26258,6,0,P|212:49|201:27,1,48,2|0,0:2|0:2,0:0:0:0:
125,24,26558,2,0,P|98:27|59:43,1,48,2|0,1:2|0:2,0:0:0:0:
73,109,26858,2,0,P|75:145|97:208,1,96,10|0,0:2|0:2,0:0:0:0:
160,249,27308,1,0,0:2:0:0:
160,249,27458,2,0,P|218:234|270:232,1,96,2|8,1:2|0:2,0:0:0:0:
388,260,28058,1,0,3:2:0:0:
388,260,28208,1,0,3:2:0:0:
444,201,28358,6,0,P|454:121|423:50,2,144,2|0|0,1:1|1:2|0:2,0:0:0:0:
365,298,29558,1,8,0:2:0:0:
244,267,29858,1,0,1:2:0:0:
136,329,30158,2,0,P|76:335|29:314,1,96,2|0,1:2|0:2,0:0:0:0:
1,257,30608,2,0,P|5:231|16:204,1,48,0|0,1:2|0:2,0:0:0:0:
118,118,31058,2,0,P|72:104|25:112,2,96,2|8|0,0:2|0:2|1:2,0:0:0:0:
179,226,31958,6,0,P|224:239|271:231,1,96,2|0,1:2|0:2,0:0:0:0:
323,170,32408,1,0,1:2:0:0:
323,170,32558,2,0,P|316:118|328:73,1,96,0|0,0:2|0:2,0:0:0:0:
430,7,33158,1,8,0:2:0:0:
430,7,33308,1,0,1:2:0:0:
487,61,33458,6,0,P|489:84|485:125,1,48,2|0,0:2|0:2,0:0:0:0:
454,180,33758,2,0,P|452:203|456:244,1,48,2|0,1:2|0:2,0:0:0:0:
467,306,34058,2,0,P|413:314|360:295,1,96,10|0,0:2|0:2,0:0:0:0:
306,260,34508,1,0,0:2:0:0:
230,285,34658,2,0,P|209:344|211:389,2,96,2|10|8,1:2|1:2|0:2,0:0:0:0:
320,173,35558,6,0,P|317:125|299:81,1,96,2|0,1:1|0:2,0:0:0:0:
230,41,36008,2,0,P|206:43|183:50,1,48,0|0,1:2|0:2,0:0:0:0:
94,161,36458,2,0,P|46:158|2:140,2,96,2|8|0,0:2|2:2|1:2,0:0:0:0:
164,125,37208,1,0,0:2:0:0:
212,187,37358,2,0,P|221:220|207:295,1,96,2|0,1:2|0:2,0:0:0:0:
169,347,37808,2,0,P|136:356|61:342,1,96,0|0,1:2|0:2,0:0:0:0:
14,297,38258,2,0,P|5:264|19:189,2,96,2|8|0,0:2|0:2|1:2,0:0:0:0:
161,330,39158,6,0,P|207:320|254:328,1,96,2|0,1:2|0:2,0:0:0:0:
328,358,39608,2,0,P|350:365|379:364,1,48,0|0,1:2|0:2,0:0:0:0:
484,292,40058,2,0,P|493:239|480:182,1,96,2|8,0:2|0:2,0:0:0:0:
427,144,40508,2,0,P|373:135|316:148,1,96,0|0,1:2|0:2,0:0:0:0:
274,195,40958,2,0,P|226:201|179:192,1,96,2|0,1:2|1:2,0:0:0:0:
105,162,41408,1,2,0:2:0:0:
105,162,41558,2,0,P|98:114|107:67,1,96,0|0,0:2|1:2,0:0:0:0:
225,13,42158,5,8,0:2:0:0:
225,13,42308,1,0,1:2:0:0:
295,56,42458,5,8,0:2:0:0:
295,56,42608,1,8,0:2:0:0:
362,16,42758,6,0,P|412:9|489:74,2,153.000002918243,2|0|0,1:1|1:2|0:2,0:0:0:0:
249,86,43958,1,8,0:2:0:0:
265,217,44258,1,0,1:2:0:0:
189,325,44558,2,0,P|122:345|78:325,1,102.000001945496,2|0,1:2|0:2,0:0:0:0:
20,305,45008,2,0,P|16:275|25:241,1,51.0000009727478,0|0,1:2|0:2,0:0:0:0:
107,155,45458,2,0,P|57:145|11:165,2,102.000001945496,2|8|0,0:2|0:2|1:2,0:0:0:0:
167,201,46208,1,0,0:2:0:0:
222,253,46358,6,0,P|271:262|317:242,1,102.000001945496,2|0,1:2|0:2,0:0:0:0:
364,183,46808,1,0,1:2:0:0:
364,183,46958,2,0,P|358:130|385:74,1,102.000001945496,2|0,0:2|0:2,0:0:0:0:
500,171,47558,1,8,0:2:0:0:
500,171,47708,2,0,P|506:224|479:280,1,102.000001945496,0|0,1:2|2:2,0:0:0:0:
430,319,48158,1,0,1:2:0:0:
295,269,48458,6,0,P|238:256|182:266,1,102.000001945496,10|0,0:2|0:2,0:0:0:0:
127,297,48908,1,0,0:2:0:0:
57,265,49058,2,0,P|50:239|54:203,1,51.0000009727478,2|0,1:2|0:2,0:0:0:0:
99,155,49358,2,0,P|156:142|212:152,1,102.000001945496,8|2,0:2|0:2,0:0:0:0:
257,197,49808,1,0,3:2:0:0:
327,149,49958,6,0,P|347:94|315:2,2,153.000002918243,10|0|0,1:1|1:2|0:2,0:0:0:0:
199,185,51158,1,8,0:2:0:0:
199,317,51458,1,0,1:2:0:0:
325,358,51758,6,0,P|380:361|437:335,1,102.000001945496,2|0,1:2|0:2,0:0:0:0:
471,286,52208,2,0,P|464:250|454:228,1,51.0000009727478,0|0,1:2|0:2,0:0:0:0:
340,168,52658,2,0,P|387:151|438:154,2,102.000001945496,2|8|0,0:2|0:2|1:2,0:0:0:0:
247,263,53558,6,0,P|199:279|148:276,1,102.000001945496,2|0,1:2|0:2,0:0:0:0:
78,241,54008,1,0,1:2:0:0:
78,241,54158,2,0,P|68:195|81:124,1,102.000001945496,2|0,0:2|0:2,0:0:0:0:
158,38,54758,1,8,0:2:0:0:
158,38,54908,2,0,P|205:21|256:24,1,102.000001945496,0|0,1:2|0:2,0:0:0:0:
334,44,55358,1,0,1:2:0:0:
271,177,55658,6,0,P|224:194|173:191,1,102.000001945496,2|0,1:2|0:2,0:0:0:0:
98,169,56108,1,0,0:2:0:0:
29,203,56258,2,0,P|17:234|11:269,1,51.0000009727478,2|0,1:2|0:2,0:0:0:0:
50,335,56558,5,8,0:2:0:0:
50,335,56708,1,0,1:2:0:0:
126,302,56858,5,2,0:2:0:0:
126,302,57008,1,0,3:2:0:0:
183,357,57158,6,0,P|232:366|287:329,1,102.000001945496,2|0,1:1|0:2,0:0:0:0:
317,277,57608,2,0,P|302:227|321:168,1,102.000001945496,0|0,1:2|0:2,0:0:0:0:
363,121,58058,1,2,0:2:0:0:
477,195,58358,2,0,P|488:244|473:292,1,102.000001945496,8|0,0:2|1:2,0:0:0:0:
418,344,58808,1,0,0:2:0:0:
347,314,58958,6,0,P|294:297|241:300,1,102.000001945496,2|0,1:2|0:2,0:0:0:0:
181,336,59408,2,0,P|130:336|82:320,1,102.000001945496,0|0,1:2|0:2,0:0:0:0:
28,264,59858,2,0,P|29:208|51:153,2,102.000001945496,2|8|0,0:2|0:2|1:2,0:0:0:0:
82,320,60608,1,0,0:2:0:0:
161,294,60758,6,0,P|240:278|315:289,2,153.000002918243,2|0|0,1:2|1:2|0:2,0:0:0:0:
48,373,61958,1,8,0:2:0:0:
48,373,62108,1,0,1:2:0:0:
10,306,62258,2,0,P|13:277|33:245,1,51.0000009727478,0|0,0:2|0:2,0:0:0:0:
82,210,62558,2,0,P|100:170|88:99,1,102.000001945496,2|0,1:2|0:2,0:0:0:0:
60,44,63008,2,0,P|25:44|-5:52,1,51.0000009727478,0|0,1:2|0:2,0:0:0:0:
185,167,63458,6,0,P|231:161|258:149,1,60,2|0,1:2|0:2,0:0:0:0:
310,86,63758,2,0,P|338:77|368:75,1,60,8|0,1:2|0:2,0:0:0:0:
461,120,64058,1,2,1:2:0:0:
461,120,64208,1,0,3:2:0:0:
397,197,64358,6,0,P|376:240|395:342,1,135.000005149841,2|0,1:1|1:2,0:0:0:0:
206,333,65558,2,0,L|105:321,1,90.0000034332277,8|0,0:2|1:2,0:0:0:0:
15,251,66158,2,0,P|-6:294|13:396,2,135.000005149841,2|0|0,1:1|1:2|0:2,0:0:0:0:
126,191,67358,2,0,L|227:179,1,90.0000034332277,8|0,0:2|1:2,0:0:0:0:
342,233,67958,6,0,P|352:162|315:100,2,147.600002252197,2|0|0,1:1|1:2|0:2,0:0:0:0:
235,305,69158,1,8,0:2:0:0:
235,305,69308,2,0,P|177:289|130:292,1,98.4000015014649,0|0,1:2|0:2,0:0:0:0:
66,325,69758,6,0,P|58:353|57:376,1,49.2000007507324,2|0,1:2|0:2,0:0:0:0:
139,290,70058,2,0,P|137:265|129:242,1,49.2000007507324,2|0,1:2|0:2,0:0:0:0:
60,175,70358,2,0,P|29:175|3:165,1,49.2000007507324,2|0,0:2|0:2,0:0:0:0:
125,105,70658,2,0,P|153:93|236:93,1,98.4000015014649,2|8,1:2|0:2,0:0:0:0:
295,106,71108,1,0,1:2:0:0:
342,166,71258,2,0,P|345:189|346:220,1,49.2000007507324,2|0,3:2|3:2,0:0:0:0:
336,324,71558,6,0,P|369:338|466:304,2,135.000005149841,2|0|0,1:1|1:2|0:2,0:0:0:0:
258,222,72758,2,0,L|247:122,1,90.0000034332277,8|0,0:2|1:2,0:0:0:0:
239,60,73208,1,0,0:2:0:0:
169,22,73358,6,0,P|115:18|72:38,1,96,2|0,1:1|0:2,0:0:0:0:
26,91,73808,1,0,1:2:0:0:
26,91,73958,2,0,P|22:145|42:188,1,96,0|0,0:2|0:2,0:0:0:0:
151,271,74558,2,0,P|205:275|248:255,1,96,10|0,0:2|1:2,0:0:0:0:
307,217,75008,1,0,0:2:0:0:
261,136,75158,6,0,P|251:80|267:25,1,107.999996704102,2|8,1:1|0:2,0:0:0:0:
345,40,75608,1,0,1:2:0:0:
345,40,75758,2,0,P|395:24|460:31,1,107.999996704102,2|0,0:2|0:2,0:0:0:0:
464,171,76358,1,8,0:2:0:0:
464,171,76508,2,0,P|414:187|349:180,1,107.999996704102,0|0,1:2|0:2,0:0:0:0:
246,114,76958,6,0,P|219:65|144:61,1,120,2|8,1:1|0:2,0:0:0:0:
72,33,77408,1,0,1:2:0:0:
21,107,77558,2,0,P|21:139|38:183,1,60,2|0,0:2|0:2,0:0:0:0:
116,268,77858,6,0,L|45:262,1,66.0000020141602,2|0,1:2|0:2,0:0:0:0:
179,187,78158,2,0,L|108:181,1,66.0000020141602,10|0,1:2|0:2,0:0:0:0:
200,301,78458,2,0,L|129:295,1,66.0000020141602,10|0,1:2|0:2,0:0:0:0:
271,232,78758,6,0,P|297:293|389:288,1,143.999995605469,6|0,1:1|0:2,0:0:0:0:
429,235,79208,2,0,P|490:209|485:117,1,143.999995605469,8|0,1:2|0:2,0:0:0:0:
430,79,79658,2,0,P|404:18|312:23,1,143.999995605469,2|8,0:2|0:2,0:0:0:0:
213,143,80258,6,0,P|223:181|218:223,1,71.9999978027344,0|0,1:2|0:2,0:0:0:0:
178,293,80558,2,0,P|107:315|39:291,1,143.999995605469,2|0,1:2|0:2,0:0:0:0:
6,211,81008,1,8,1:2:0:0:
43,129,81158,2,0,P|114:107|182:131,2,143.999995605469,2|0|8,3:2|1:2|0:2,0:0:0:0:
6,211,81908,1,0,0:2:0:0:
43,293,82058,6,0,P|48:327|34:374,1,71.9999978027344,0|0,1:2|0:2,0:0:0:0:
146,266,82358,2,0,P|137:300|142:336,1,71.9999978027344,2|0,1:2|0:2,0:0:0:0:
239,303,82658,2,0,P|243:338|235:373,1,71.9999978027344,0|8,2:2|1:2,0:0:0:0:
333,302,82958,6,0,P|394:325|471:291,1,143.999995605469,2|0,3:2|0:2,0:0:0:0:
501,215,83408,1,0,0:2:0:0:
444,144,83558,2,0,P|417:135|364:141,1,71.9999978027344,8|0,0:2|1:2,0:0:0:0:
300,188,83858,2,0,P|264:191|229:181,1,71.9999978027344,0|0,2:2|0:2,0:0:0:0:
150,113,84158,6,0,P|148:43|83:20,1,143.999995605469,2|0,1:2|1:2,0:0:0:0:
14,73,84608,2,0,P|3:101|13:157,2,71.9999978027344,8|2|0,1:2|3:2|0:2,0:0:0:0:
115,128,85058,2,0,P|118:163|107:197,1,71.9999978027344,2|0,1:2|0:2,0:0:0:0:
33,272,85358,5,10,0:2:0:0:
33,272,85508,1,0,1:2:0:0:
92,339,85658,5,2,3:2:0:0:
92,339,85808,1,0,3:2:0:0:
165,286,85958,6,0,P|218:273|314:286,1,143.999995605469,10|0,1:1|0:2,0:0:0:0:
382,332,86408,1,8,1:2:0:0:
462,291,86558,2,0,P|472:244|459:194,1,71.9999978027344,0|0,3:2|0:2,0:0:0:0:
415,149,86858,2,0,P|344:163|274:151,1,143.999995605469,2|8,0:2|0:2,0:0:0:0:
203,102,87308,1,0,0:2:0:0:
260,39,87458,6,0,P|300:28|342:29,1,71.9999978027344,0|0,1:2|0:2,0:0:0:0:
203,102,87758,2,0,P|132:113|62:99,1,143.999995605469,2|0,1:2|0:2,0:0:0:0:
0,166,88208,1,8,1:2:0:0:
49,241,88358,2,0,P|90:238|138:220,1,71.9999978027344,2|0,3:2|0:2,0:0:0:0:
229,243,88658,2,0,P|244:295|231:412,2,143.999995605469,2|8|2,1:2|0:2|1:3,0:0:0:0:
120,96,89558,5,6,1:2:0:0:
389,25,90008,5,8,0:3:0:0:
389,25,90158,1,8,0:2:0:0:
378,188,90458,5,6,1:2:0:0:
375,353,90758,5,4,0:3:0:0:
375,353,90908,2,0,P|426:368|474:315,1,120,0|0,1:2|0:2,0:0:0:0:
445,243,91358,6,0,P|374:220|304:222,1,143.999995605469,6|0,1:2|1:2,0:0:0:0:
221,243,91808,1,10,1:2:0:0:
174,316,91958,1,2,3:2:0:0:
174,316,92108,1,0,0:2:0:0:
93,346,92258,2,0,P|55:347|14:332,2,71.9999978027344,2|0|8,1:2|0:2|0:2,0:0:0:0:
174,316,92708,2,0,P|191:243|163:167,1,143.999995605469,2|0,1:2|2:2,0:0:0:0:
102,124,93158,6,0,P|64:123|23:138,1,71.9999978027344,2|0,1:2|0:2,0:0:0:0:
171,179,93458,2,0,P|209:180|250:165,1,71.9999978027344,2|8,0:2|1:2,0:0:0:0:
317,115,93758,2,0,P|303:75|305:37,1,71.9999978027344,2|0,3:2|0:2,0:0:0:0:
392,1,94058,2,0,P|426:62|410:138,1,143.999995605469,2|8,0:2|0:2,0:0:0:0:
360,202,94508,1,0,0:2:0:0:
419,264,94658,6,0,P|461:264|505:239,1,71.9999978027344,2|0,1:2|0:2,0:0:0:0:
360,202,94958,2,0,P|288:173|218:192,1,143.999995605469,2|0,1:2|0:2,0:0:0:0:
184,263,95408,2,0,P|114:276|49:248,1,143.999995605469,8|0,1:2|0:2,0:0:0:0:
5,172,95858,2,0,P|13:102|60:48,2,143.999995605469,2|8|0,1:2|0:2|1:2,0:0:0:0:
135,310,96758,6,0,P|204:296|269:324,1,143.999995605469,2|0,1:2|0:2,0:0:0:0:
336,378,97208,1,8,1:2:0:0:
417,350,97358,2,0,P|433:311|428:260,1,71.9999978027344,2|0,3:2|0:2,0:0:0:0:
501,227,97658,2,0,P|431:240|366:212,1,143.999995605469,2|8,0:2|0:2,0:0:0:0:
305,150,98108,1,0,1:2:0:0:
260,76,98258,2,0,P|223:62|190:60,1,71.9999978027344,0|0,0:2|0:2,0:0:0:0:
101,108,98558,6,0,P|73:170|89:267,1,143.999995605469,2|0,1:1|1:2,0:0:0:0:
122,318,99008,2,0,P|187:346|258:340,1,143.999995605469,8|0,1:2|0:2,0:0:0:0:
341,382,99458,2,0,P|342:342|352:303,1,71.9999978027344,2|0,1:2|0:2,0:0:0:0:
406,246,99758,1,8,0:2:0:0:
492,247,99908,2,0,P|498:176|469:110,1,143.999995605469,0|0,1:2|2:2,0:0:0:0:
381,68,100358,6,0,P|301:85|241:56,1,143.999995605469,2|0,1:2|0:2,0:0:0:0:
170,19,100808,1,8,1:2:0:0:
94,61,100958,2,0,P|79:94|77:141,1,71.9999978027344,2|0,3:2|0:2,0:0:0:0:
99,212,101258,2,0,P|105:282|76:348,2,143.999995605469,2|8|0,0:2|0:2|1:2,0:0:0:0:
285,166,102158,6,0,P|278:95|307:29,1,143.999995605469,2|0,1:2|0:2,0:0:0:0:
393,29,102608,2,0,P|421:94|415:165,1,143.999995605469,8|0,1:2|0:2,0:0:0:0:
388,251,103058,2,0,P|426:251|484:223,1,71.9999978027344,2|0,1:2|0:2,0:0:0:0:
327,314,103358,2,0,P|327:352|355:410,1,71.9999978027344,8|0,0:2|0:2,0:0:0:0:
264,253,103658,2,0,P|226:253|168:281,1,71.9999978027344,0|0,1:2|0:2,0:0:0:0:
325,189,103958,6,0,P|324:118|297:52,1,143.999995605469,2|0,1:2|0:2,0:0:0:0:
222,9,104408,1,8,1:2:0:0:
147,53,104558,2,0,P|119:118|119:190,1,143.999995605469,2|8,3:2|0:2,0:0:0:0:
199,357,105158,5,8,0:2:0:0:
199,357,105308,1,8,1:2:0:0:
273,330,105458,5,0,3:2:0:0:
273,330,105608,1,0,3:2:0:0:
341,375,105758,6,0,P|398:384|455:356,1,107.999996704102,6|0,1:2|0:2,0:0:0:0:
495,311,106208,1,0,1:2:0:0:
495,311,106358,2,0,P|504:254|476:197,1,107.999996704102,8|0,0:2|0:2,0:0:0:0:
360,144,106958,1,8,0:2:0:0:
235,208,107258,1,0,1:2:0:0:
105,154,107558,6,0,P|96:97|124:40,1,107.999996704102,2|0,1:2|0:2,0:0:0:0:
181,14,108008,1,0,1:2:0:0:
181,14,108158,2,0,P|210:15|248:29,1,53.9999983520508,8|0,0:2|0:2,0:0:0:0:
297,62,108458,2,0,P|364:71|423:48,1,107.999996704102,2|8,0:2|0:2,0:0:0:0:
502,174,109058,6,0,P|472:166|444:164,1,53.9999983520508,0|0,1:2|0:2,0:0:0:0:
377,190,109358,2,0,P|324:201|272:191,1,107.999996704102,2|0,1:2|0:2,0:0:0:0:
203,159,109808,1,0,1:2:0:0:
130,179,109958,2,0,P|110:228|111:282,1,107.999996704102,8|0,0:2|0:2,0:0:0:0:
224,375,110558,5,8,0:2:0:0:
224,375,110708,1,0,1:2:0:0:
368,375,111008,5,0,3:2:0:0:
368,375,111158,1,0,1:2:0:0:
487,282,111458,6,0,P|488:248|481:216,1,53.9999983520508,2|0,0:2|1:2,0:0:0:0:
434,172,111758,2,0,P|406:167|369:168,1,53.9999983520508,8|0,0:2|0:2,0:0:0:0:
317,209,112058,2,0,P|261:216|201:188,2,107.999996704102,2|8|0,1:2|0:2|3:2,0:0:0:0:
380,166,112808,1,0,3:2:0:0:
334,90,112958,6,0,P|283:71|230:79,1,107.999996704102,10|0,1:1|0:2,0:0:0:0:
164,109,113408,1,0,1:2:0:0:
164,109,113558,2,0,P|111:116|61:97,1,107.999996704102,8|0,0:2|0:2,0:0:0:0:
0,246,114158,6,0,P|34:236|78:238,1,53.9999983520508,8|0,0:2|0:2,0:0:0:0:
115,276,114458,2,0,P|141:278|167:287,1,53.9999983520508,0|0,1:2|0:2,0:0:0:0:
217,344,114758,2,0,P|270:351|320:332,1,107.999996704102,2|0,1:2|0:2,0:0:0:0:
376,282,115208,1,0,1:2:0:0:
376,282,115358,2,0,P|376:252|364:220,1,53.9999983520508,8|0,0:2|0:2,0:0:0:0:
310,180,115658,2,0,P|257:173|207:192,2,107.999996704102,2|8|0,0:2|0:2|1:2,0:0:0:0:
457,145,116558,6,0,P|463:91|445:42,1,107.999996704102,2|0,1:2|0:2,0:0:0:0:
377,7,117008,1,0,1:2:0:0:
312,46,117158,2,0,P|262:64|209:57,1,107.999996704102,8|0,0:2|0:2,0:0:0:0:
80,13,117758,5,8,0:2:0:0:
80,13,117908,1,0,1:2:0:0:
6,134,118208,5,0,3:2:0:0:
6,134,118358,1,0,1:2:0:0:
99,238,118658,6,0,P|136:238|171:218,1,53.9999983520508,2|0,1:2|0:2,0:0:0:0:
210,184,118958,2,0,P|210:147|230:112,1,53.9999983520508,8|0,0:2|0:2,0:0:0:0:
267,76,119258,2,0,P|341:63|387:79,1,107.999996704102,2|8,1:2|0:2,0:0:0:0:
433,123,119708,1,0,1:2:0:0:
433,123,119858,2,0,P|440:148|438:175,1,53.9999983520508,2|0,0:2|3:2,0:0:0:0:
387,248,120158,6,0,P|313:261|267:245,1,107.999996704102,2|0,1:1|0:2,0:0:0:0:
215,218,120608,1,0,1:2:0:0:
145,246,120758,2,0,P|133:274|128:309,1,53.9999983520508,10|0,0:2|0:2,0:0:0:0:
161,364,121058,2,0,P|185:374|217:378,1,53.9999983520508,0|0,0:2|0:2,0:0:0:0:
288,368,121358,2,0,P|340:353|402:361,1,107.999996704102,10|0,0:2|1:2,0:0:0:0:
499,251,121958,6,0,P|495:212|481:180,1,53.9999983520508,2|0,1:2|0:2,0:0:0:0:
424,160,122258,2,0,P|400:164|362:164,1,53.9999983520508,0|0,0:2|1:2,0:0:0:0:
309,119,122558,2,0,P|311:67|282:6,2,107.999996704102,10|0|8,0:2|0:2|0:2,0:0:0:0:
247,163,123308,1,0,0:2:0:0:
176,136,123458,2,0,P|147:127|112:128,1,53.9999983520508,0|0,1:2|0:2,0:0:0:0:
38,160,123758,6,0,P|17:209|18:262,1,107.999996704102,2|0,1:1|0:2,0:0:0:0:
41,334,124208,1,0,1:2:0:0:
103,375,124358,2,0,P|133:375|171:368,1,53.9999983520508,8|0,0:2|0:2,0:0:0:0:
219,328,124658,2,0,P|244:323|272:323,1,53.9999983520508,0|0,0:2|0:2,0:0:0:0:
345,358,124958,1,8,0:2:0:0:
345,358,125108,2,0,P|403:362|464:348,1,107.999996704102,0|0,1:2|0:2,0:0:0:0:
503,273,125558,6,0,P|497:237|484:207,1,60,2|0,1:2|0:2,0:0:0:0:
422,164,125858,2,0,P|386:170|356:182,1,60,0|0,0:2|1:2,0:0:0:0:
298,231,126158,1,8,0:2:0:0:
298,231,126308,1,8,0:2:0:0:
229,182,126458,1,2,1:2:0:0:
127,300,126758,1,10,1:2:0:0:
9,205,127058,1,2,3:2:0:0:
9,205,127208,1,0,3:2:0:0:
78,152,127358,6,0,P|91:98|58:19,2,135.000005149841,2|0|0,1:1|1:2|0:2,0:0:0:0:
143,249,128558,2,0,L|232:239,1,90.0000034332277,8|0,0:2|1:2,0:0:0:0:
364,257,129158,2,0,P|390:318|378:383,2,135.000005149841,2|0|0,1:1|1:2|0:2,0:0:0:0:
254,214,130358,2,0,L|164:204,1,90.0000034332277,8|0,0:2|1:2,0:0:0:0:
53,137,130958,6,0,P|53:91|90:38,1,98.4000015014649,2|0,1:1|0:2,0:0:0:0:
151,18,131408,1,0,1:2:0:0:
151,18,131558,2,0,P|177:27|251:20,1,98.4000015014649,8|0,0:2|0:2,0:0:0:0:
328,127,132158,1,8,0:2:0:0:
328,127,132308,2,0,P|375:115|423:123,1,98.4000015014649,0|0,1:2|0:2,0:0:0:0:
488,188,132758,6,0,P|497:216|498:250,1,53.9999983520508,2|0,1:2|0:2,0:0:0:0:
421,311,133058,2,0,P|412:285|410:258,1,53.9999983520508,2|0,1:2|0:2,0:0:0:0:
311,210,133358,2,0,P|319:235|321:262,1,53.9999983520508,10|0,0:2|0:2,0:0:0:0:
269,332,133658,1,2,1:2:0:0:
269,332,133808,2,0,P|215:342|146:325,1,107.999996704102,8|0,0:2|1:2,0:0:0:0:
92,292,134258,1,2,3:2:0:0:
92,292,134408,1,0,3:2:0:0:
145,221,134558,6,0,P|158:167|141:107,1,102.000001945496,2|0,1:1|0:2,0:0:0:0:
101,61,135008,1,0,1:2:0:0:
101,61,135158,2,0,P|67:52|29:48,1,51.0000009727478,8|0,0:2|0:2,0:0:0:0:
149,122,135458,2,0,P|200:125|256:97,1,102.000001945496,2|8,0:2|0:2,0:0:0:0:
390,31,136058,6,0,P|415:32|439:40,1,51.0000009727478,0|0,1:2|0:2,0:0:0:0:
491,96,136358,2,0,P|494:148|483:205,1,102.000001945496,2|0,1:2|0:2,0:0:0:0:
456,268,136808,1,0,1:2:0:0:
387,302,136958,2,0,P|361:300|337:292,1,51.0000009727478,8|0,0:2|0:2,0:0:0:0:
286,235,137258,2,0,P|284:182|267:129,2,102.000001945496,2|8|0,0:2|0:2|1:2,0:0:0:0:
261,308,138008,1,0,0:2:0:0:
201,356,138158,6,0,P|176:361|150:359,1,51.0000009727478,2|0,1:1|0:2,0:0:0:0:
80,328,138458,2,0,P|63:308|51:286,1,51.0000009727478,0|0,2:2|1:2,0:0:0:0:
43,209,138758,2,0,P|51:184|64:163,1,51.0000009727478,8|0,0:2|0:2,0:0:0:0:
127,117,139058,2,0,P|183:122|241:105,1,102.000001945496,2|8,0:2|0:2,0:0:0:0:
297,80,139508,2,0,P|301:44|307:26,1,51.0000009727478,0|0,1:2|0:2,0:0:0:0:
447,109,139958,6,0,P|460:161|460:239,1,110.399996293945,2|0,1:1|0:2,0:0:0:0:
424,291,140408,2,0,P|372:304|294:304,1,110.399996293945,8|8,0:2|0:2,0:0:0:0:
238,349,140858,2,0,P|233:317|221:283,1,55.1999981469727,8|0,1:2|0:2,0:0:0:0:
143,301,141158,2,0,P|148:269|160:235,1,55.1999981469727,0|0,1:2|0:2,0:0:0:0:
230,212,141458,2,0,P|225:180|213:146,1,55.1999981469727,8|0,1:2|0:2,0:0:0:0:
148,98,141758,6,0,P|100:99|43:81,1,90.0000034332277,2|0,1:2|0:2,0:0:0:0:
60,88,142358,2,0,P|108:87|165:105,1,90.0000034332277,0|0,0:2|0:2,0:0:0:0:
246,161,142958,1,8,1:2:0:0:
348,104,143258,1,0,1:2:0:0:
445,169,143558,6,0,P|458:220|457:258,1,90.0000034332277,2|0,1:2|0:2,0:0:0:0:
458,257,144158,2,0,P|445:213|445:168,1,90.0000034332277,0|0,0:2|0:2,0:0:0:0:
485,58,144758,1,8,1:2:0:0:
374,17,145058,1,0,1:2:0:0:
333,128,145358,6,0,P|310:135|277:131,1,45.0000017166138,2|0,1:2|0:2,0:0:0:0:
217,117,145658,2,0,P|195:110|173:110,1,45.0000017166138,0|0,1:2|0:2,0:0:0:0:
112,153,145958,2,0,P|98:203|101:258,1,90.0000034332277,0|0,0:2|0:2,0:0:0:0:
164,354,146558,1,8,0:2:0:0:
164,354,146708,1,0,1:2:0:0:
164,354,146858,2,0,P|191:362|225:360,1,45.0000017166138,2|0,0:2|0:2,0:0:0:0:
288,320,147158,6,0,P|287:275|274:232,1,90.0000034332277,2|0,1:1|0:2,0:0:0:0:
249,162,147608,2,0,P|251:103|284:20,1,135.000005149841,0|0,1:2|0:2,0:0:0:0:
423,10,148358,2,0,P|444:52|451:102,1,90.0000034332277,10|0,0:2|1:2,0:0:0:0:
434,166,148808,1,0,3:2:0:0:
374,210,148958,6,0,P|345:209|314:197,1,45.0000017166138,2|0,1:2|0:2,0:0:0:0:
258,182,149258,2,0,P|229:183|198:195,1,45.0000017166138,0|0,1:2|0:2,0:0:0:0:
156,235,149558,2,0,P|118:247|57:236,1,90.0000034332277,0|0,0:2|0:2,0:0:0:0:
6,131,150158,2,0,P|8:104|17:76,1,45.0000017166138,10|0,0:2|0:2,0:0:0:0:
72,41,150458,2,0,P|99:43|127:52,1,45.0000017166138,0|0,1:2|0:2,0:0:0:0:
184,88,150758,6,0,P|233:98|285:90,2,90.0000034332277,2|0|0,1:2|0:2|0:2,0:0:0:0:
92,161,151658,2,0,P|85:185|85:214,1,45.0000017166138,2|0,0:2|0:2,0:0:0:0:
116,272,151958,2,0,P|142:278|175:279,1,45.0000017166138,8|0,1:2|0:2,0:0:0:0:
227,310,152258,2,0,P|248:304|271:302,1,45.0000017166138,0|0,1:2|3:2,0:0:0:0:
279,306,152483,1,0,3:2:0:0:
286,311,152558,6,0,P|334:313|385:292,1,90.0000034332277,2|0,1:2|0:2,0:0:0:0:
456,216,153158,2,0,P|458:168|437:117,1,90.0000034332277,2|0,0:2|0:2,0:0:0:0:
353,54,153758,1,8,0:2:0:0:
353,54,153908,2,0,P|305:52|254:73,1,90.0000034332277,0|0,1:2|0:2,0:0:0:0:
213,128,154358,6,0,P|170:142|125:139,1,90.0000034332277,2|0,1:2|1:2,0:0:0:0:
54,110,154808,1,0,0:2:0:0:
54,110,154958,2,0,P|50:83|42:60,1,45.0000017166138,2|0,0:2|0:2,0:0:0:0:
13,175,155258,2,0,P|7:207|12:273,1,90.0000034332277,0|10,1:2|0:2,0:0:0:0:
36,334,155708,1,0,1:2:0:0:
97,376,155858,2,0,P|124:374|150:368,1,45.0000017166138,0|0,0:2|3:2,0:0:0:0:
218,325,156158,6,0,P|224:293|216:204,1,102.000001945496,2|0,1:2|0:2,0:0:0:0:
164,172,156608,2,0,P|158:140|166:51,1,102.000001945496,8|0,0:2|0:2,0:0:0:0:
219,21,157058,2,0,P|246:21|286:35,1,51.0000009727478,2|0,1:2|0:2,0:0:0:0:
333,67,157358,2,0,P|357:73|383:72,1,51.0000009727478,8|0,0:2|0:2,0:0:0:0:
451,36,157658,1,0,1:2:0:0:
451,36,157808,1,0,3:2:0:0:
509,103,157958,6,0,P|515:150|501:243,1,120,10|0,1:2|0:2,0:0:0:0:
481,302,158408,1,8,0:2:0:0:
410,351,158558,2,0,P|381:347|341:334,1,60,2|0,0:2|1:2,0:0:0:0:
283,282,158858,5,2,1:2:0:0:
336,218,159008,1,2,0:3:0:0:
286,151,159158,2,0,L|282:82,1,69.0000013160706,8|0,1:2|0:2,0:0:0:0:
190,177,159458,2,0,L|193:245,1,69.0000013160706,8|0,1:2|0:2,0:0:0:0:
107,100,159758,6,0,P|49:103|20:197,1,155.999992858887,6|0,1:1|0:2,0:0:0:0:
76,256,160208,2,0,P|79:314|173:343,1,155.999992858887,8|0,1:2|0:2,0:0:0:0:
232,287,160658,2,0,P|290:284|319:190,1,155.999992858887,2|8,0:2|0:2,0:0:0:0:
181,44,161258,6,0,P|144:29|106:33,1,77.9999964294435,0|0,1:2|0:2,0:0:0:0:
256,98,161558,2,0,P|323:107|413:70,1,155.999992858887,2|0,1:2|0:2,0:0:0:0:
487,120,162008,1,8,1:2:0:0:
451,206,162158,2,0,P|442:273|479:363,2,155.999992858887,2|0|8,3:2|1:2|0:2,0:0:0:0:
487,120,162908,1,0,0:2:0:0:
404,76,163058,6,0,P|396:42|401:-7,1,77.9999964294435,0|0,1:2|0:2,0:0:0:0:
297,134,163358,2,0,P|300:95|292:57,1,77.9999964294435,2|0,1:2|0:2,0:0:0:0:
196,102,163658,2,0,P|187:64|191:25,1,77.9999964294435,0|8,0:2|1:2,0:0:0:0:
102,149,163958,6,0,P|48:147|10:237,1,155.999992858887,2|0,3:2|1:2,0:0:0:0:
24,321,164408,1,0,0:0:0:0:
97,379,164558,2,0,P|132:379|177:367,1,77.9999964294435,8|0,0:2|1:2,0:0:0:0:
245,308,164858,2,0,P|282:297|321:297,1,77.9999964294435,0|0,0:2|0:2,0:0:0:0:
405,361,165158,6,0,P|478:351|499:280,1,155.999992858887,2|0,1:2|1:2,0:0:0:0:
481,188,165608,2,0,P|484:145|497:98,2,77.9999964294435,8|2|0,1:2|3:2|0:2,0:0:0:0:
394,255,166058,2,0,P|391:212|378:165,1,77.9999964294435,2|0,1:2|0:2,0:0:0:0:
299,114,166358,5,10,0:2:0:0:
299,114,166508,1,0,1:2:0:0:
214,149,166658,5,2,3:2:0:0:
214,149,166808,1,0,3:2:0:0:
129,108,166958,6,0,P|73:105|25:198,1,155.999992858887,10|0,1:1|0:2,0:0:0:0:
40,273,167408,1,8,1:2:0:0:
116,326,167558,2,0,P|154:325|196:312,1,77.9999964294435,0|0,3:2|0:2,0:0:0:0:
266,255,167858,2,0,P|257:205|287:97,1,155.999992858887,2|8,0:2|0:2,0:0:0:0:
342,33,168308,1,0,0:2:0:0:
414,92,168458,6,0,P|452:103|494:92,1,77.9999964294435,0|0,1:2|0:2,0:0:0:0:
341,33,168758,2,0,P|270:13|173:18,1,155.999992858887,2|0,1:2|0:2,0:0:0:0:
101,50,169208,1,8,1:2:0:0:
60,134,169358,2,0,P|58:168|74:223,1,77.9999964294435,2|0,3:2|0:2,0:0:0:0:
130,280,169658,2,0,P|201:300|298:295,2,155.999992858887,2|8|2,1:2|0:2|1:3,0:0:0:0:
32,123,170558,5,6,1:2:0:0:
162,22,170858,5,8,0:2:0:0:
162,22,171008,1,8,2:3:0:0:
256,171,171308,5,4,0:3:0:0:
256,171,171458,1,4,1:2:0:0:
350,22,171758,5,2,1:3:0:0:
480,123,172058,5,2,0:2:0:0:
480,123,172208,1,0,1:2:0:0:
413,179,172358,6,0,P|333:198|255:170,1,167.999994873047,6|0,1:2|0:2,0:0:0:0:
191,102,172808,2,0,P|197:61|226:21,2,83.9999974365235,8|0|0,1:2|3:2|0:2,0:0:0:0:
254,169,173258,2,0,P|282:246|263:327,1,167.999994873047,2|8,1:2|0:2,0:0:0:0:
81,379,173858,6,0,P|78:330|67:289,1,83.9999974365235,0|0,1:2|0:2,0:0:0:0:
1,232,174158,2,0,P|3:149|50:81,1,167.999994873047,2|0,1:2|0:2,0:0:0:0:
133,38,174608,2,0,P|209:69|290:54,1,167.999994873047,8|0,1:2|0:2,0:0:0:0:
360,114,175058,2,0,P|408:96|442:98,1,83.9999974365235,2|0,1:2|0:2,0:0:0:0:
509,166,175358,5,10,0:2:0:0:
509,166,175508,1,0,1:2:0:0:
512,262,175658,5,2,1:2:0:0:
512,262,175808,1,0,3:2:0:0:
446,327,175958,6,0,P|386:339|275:306,1,167.999994873047,2|0,1:1|0:2,0:0:0:0:
210,256,176408,1,8,1:2:0:0:
130,302,176558,2,0,P|113:338|119:405,1,83.9999974365235,0|0,3:2|0:2,0:0:0:0:
210,256,176858,2,0,P|209:214|191:176,1,83.9999974365235,2|0,1:2|0:2,0:0:0:0:
110,144,177158,1,8,0:2:0:0:
110,144,177308,2,0,P|20:139|6:64,1,167.999994873047,0|0,1:2|0:2,0:0:0:0:
76,20,177758,6,0,P|122:11|243:27,1,167.999994873047,2|0,1:2|1:2,0:0:0:0:
326,58,178208,2,0,P|368:56|409:44,1,83.9999974365235,8|0,1:2|3:2,0:0:0:0:
257,119,178508,1,0,0:2:0:0:
257,119,178658,2,0,P|245:159|242:201,1,83.9999974365235,2|0,1:2|0:2,0:0:0:0:
304,289,178958,5,2,1:2:0:0:
304,289,179108,1,0,0:2:0:0:
393,314,179258,5,2,3:2:0:0:
393,314,179408,1,0,3:2:0:0:
468,268,179558,6,0,P|484:193|457:92,1,167.999994873047,10|0,1:1|0:2,0:0:0:0:
399,38,180008,1,8,1:2:0:0:
314,74,180158,2,0,P|264:77|221:60,1,83.9999974365235,0|0,3:2|0:2,0:0:0:0:
145,35,180458,2,0,P|70:29|20:121,1,167.999994873047,2|8,1:2|0:2,0:0:0:0:
8,189,180908,1,2,0:2:0:0:
70,257,181058,2,0,P|112:266|163:256,1,83.9999974365235,0|0,1:2|0:2,0:0:0:0:
246,204,181358,6,0,P|238:122|273:44,1,167.999994873047,2|0,1:2|0:2,0:0:0:0:
360,18,181808,1,8,1:2:0:0:
421,86,181958,2,0,P|458:105|499:104,1,83.9999974365235,2|0,3:2|0:2,0:0:0:0:
383,171,182258,2,0,P|350:247|357:336,2,167.999994873047,2|8|2,1:2|0:2|1:3,0:0:0:0:
486,69,183158,5,6,1:2:0:0:
383,171,183458,6,0,L|392:224,2,45.0000017166138,8|0|0,0:2|1:2|3:2,0:0:0:0:
256,96,184058,5,6,1:2:0:0:
129,171,184358,5,2,3:3:0:0:
129,171,184508,2,0,P|69:183|41:155,1,90.0000034332277,0|0,1:2|0:2,0:0:0:0:
0,104,184958,5,6,1:2:0:0:
46,262,185258,6,0,L|34:323,2,45.0000017166138,8|0|0,0:2|1:2|3:2,0:0:0:0:
165,151,185858,5,2,1:2:0:0:
256,284,186158,5,2,1:3:0:0:
347,151,186608,5,2,0:2:0:0:
347,151,186758,1,6,1:2:0:0:
466,262,187058,5,8,0:2:0:0:
466,262,187208,1,0,1:2:0:0:
367,384,187508,5,8,0:2:0:0:
367,384,187658,1,6,1:2:0:0:
260,288,187958,5,2,3:3:0:0:
260,288,188108,2,0,P|255:240|288:192,1,90.0000034332277,0|0,1:2|0:2,0:0:0:0:
341,136,188558,6,0,P|347:82|268:22,1,155.999992858887,6|0,1:1|1:2,0:0:0:0:
189,5,189008,1,8,1:2:0:0:
118,53,189158,2,0,P|107:89|111:138,1,77.9999964294435,0|0,3:2|0:2,0:0:0:0:
49,190,189458,2,0,P|107:176|216:171,1,155.999992858887,2|8,1:2|0:2,0:0:0:0:
262,233,189908,2,0,P|270:286|362:324,1,155.999992858887,0|0,1:2|0:2,0:0:0:0:
450,372,190358,6,0,P|449:331|460:284,1,77.9999964294435,2|0,1:2|0:2,0:0:0:0:
495,218,190658,1,0,0:2:0:0:
495,218,190808,2,0,P|496:179|488:140,1,77.9999964294435,8|0,1:2|3:2,0:0:0:0:
428,78,191108,1,0,0:2:0:0:
428,78,191258,2,0,P|361:90|268:52,2,155.999992858887,2|8|0,0:2|0:2|1:2,0:0:0:0:
282,198,192158,6,0,P|210:170|133:181,1,155.999992858887,2|0,1:2|0:2,0:0:0:0:
63,231,192608,2,0,P|54:263|56:316,2,77.9999964294435,8|0|0,1:2|3:2|0:2,0:0:0:0:
133,180,193058,2,0,P|143:142|142:104,1,77.9999964294435,0|0,1:2|0:2,0:0:0:0:
205,226,193358,2,0,P|203:264|213:302,1,77.9999964294435,8|0,0:2|0:2,0:0:0:0:
297,357,193658,6,0,P|331:348|384:348,1,77.9999964294435,0|0,1:2|0:2,0:0:0:0:
455,375,193958,2,0,P|470:304|447:219,1,155.999992858887,2|0,1:2|0:2,0:0:0:0:
403,151,194408,2,0,P|410:106|427:64,2,77.9999964294435,8|0|0,1:2|3:2|0:2,0:0:0:0:
333,219,194858,6,0,P|247:238|174:192,1,155.999992858887,2|8,0:2|0:2,0:0:0:0:
120,165,195308,1,0,1:2:0:0:
38,190,195458,2,0,P|18:231|12:277,1,77.9999964294435,0|0,0:2|0:2,0:0:0:0:
37,345,195758,2,0,P|71:362|109:370,1,77.9999964294435,0|0,1:2|0:2,0:0:0:0:
213,369,196058,5,2,0:2:0:0:
213,369,196208,1,8,1:2:0:0:
252,294,196358,5,2,0:2:0:0:
252,294,196508,1,0,0:2:0:0:
194,230,196658,6,0,P|182:161|237:67,1,155.999992858887,2|10,1:2|0:2,0:0:0:0:
281,28,197108,2,0,P|330:44|359:43,1,77.9999964294435,0|0,1:2|0:0,0:0:0:0:
441,35,197408,1,0,0:2:0:0:
479,111,197558,2,0,P|491:180|436:274,1,155.999992858887,2|0,1:2|0:2,0:0:0:0:
388,307,198008,1,8,1:2:0:0:
436,378,198158,2,0,P|477:386|527:376,1,77.9999964294435,0|0,3:2|0:2,0:0:0:0:
388,307,198458,2,0,P|347:299|297:309,1,77.9999964294435,0|0,0:2|0:2,0:0:0:0:
236,345,198758,2,0,P|182:360|76:325,1,155.999992858887,10|0,0:2|1:2,0:0:0:0:
13,178,199358,6,0,P|27:123|110:49,1,155.999992858887,2|0,1:1|0:2,0:0:0:0:
179,37,199808,1,8,1:2:0:0:
253,79,199958,2,0,P|274:125|276:183,1,77.9999964294435,0|0,3:2|0:2,0:0:0:0:
253,234,200258,2,0,P|194:283|118:296,2,155.999992858887,2|8|0,1:2|0:2|1:2,0:0:0:0:
277,151,201008,1,0,0:2:0:0:
306,70,201158,6,0,P|364:20|440:7,1,155.999992858887,2|0,1:2|0:2,0:0:0:0:
511,56,201608,1,8,1:2:0:0:
491,139,201758,2,0,P|446:163|411:165,1,77.9999964294435,0|0,3:2|0:2,0:0:0:0:
340,197,202058,2,0,P|307:176|268:170,1,77.9999964294435,2|0,0:2|0:2,0:0:0:0:
177,207,202358,5,2,1:2:0:0:
177,207,202508,1,8,2:2:0:0:
146,289,202658,5,2,1:2:0:0:
146,289,202808,1,8,0:2:0:0:
197,357,202958,6,0,P|271:372|364:336,1,155.999992858887,6|8,1:2|1:2,0:0:0:0:
427,376,203408,1,0,1:2:0:0:
495,324,203558,2,0,P|494:282|476:239,1,77.9999964294435,2|0,0:2|0:2,0:0:0:0:
437,174,203858,2,0,P|438:132|456:89,2,77.9999964294435,2|8|8,1:2|0:2|0:2,0:0:0:0:
390,246,204308,2,0,P|316:269|240:254,1,155.999992858887,2|0,1:2|3:2,0:0:0:0:
174,199,204758,6,0,P|188:123|165:49,1,155.999992858887,2|8,1:2|1:2,0:0:0:0:
93,3,205208,1,0,1:2:0:0:
28,59,205358,2,0,P|15:99|16:157,1,77.9999964294435,2|0,0:2|0:2,0:0:0:0:
21,220,205658,2,0,P|31:257|51:290,1,77.9999964294435,8|0,0:2|0:2,0:0:0:0:
120,350,205958,5,10,0:2:0:0:
120,350,206108,1,8,0:3:0:0:
199,313,206258,5,2,1:2:0:0:
199,313,206408,1,0,3:2:0:0:
272,357,206558,6,0,P|334:370|433:335,1,155.999992858887,6|0,1:2|0:2,0:0:0:0:
478,279,207008,2,0,P|491:217|456:118,1,155.999992858887,8|0,1:2|0:2,0:0:0:0:
396,78,207458,2,0,P|334:65|235:100,2,155.999992858887,2|8|0,1:2|0:2|1:2,0:0:0:0:
395,268,208358,6,0,P|322:293|245:281,1,155.999992858887,2|0,1:2|0:2,0:0:0:0:
165,251,208808,2,0,P|148:284|141:331,2,77.9999964294435,8|0|0,1:2|3:2|0:2,0:0:0:0:
234,198,209258,5,2,0:2:0:0:
234,198,209408,1,0,3:2:0:0:
209,120,209558,5,10,2:2:0:0:
209,120,209708,1,0,1:2:0:0:
273,67,209858,6,0,L|281:24,3,35.9999989013672,0|0|0|0,0:2|0:2|0:2|0:2,0:0:0:0:
307,18,210158,6,0,P|351:24|377:132,1,143.999995605469,10|0,1:1|1:2,0:0:0:0:
422,182,210608,1,8,1:2:0:0:
351,226,210758,2,0,P|310:226|276:209,1,71.9999978027344,0|0,3:2|0:2,0:0:0:0:
214,160,211058,2,0,P|160:137|57:155,1,143.999995605469,2|8,1:2|0:2,0:0:0:0:
65,231,211508,2,0,P|119:254|222:236,1,143.999995605469,0|0,1:2|0:2,0:0:0:0:
282,213,211958,6,0,P|293:178|316:144,1,71.9999978027344,2|0,1:2|0:2,0:0:0:0:
398,138,212258,1,0,0:2:0:0:
398,138,212408,2,0,P|422:165|440:201,1,71.9999978027344,8|0,1:2|3:2,0:0:0:0:
460,276,212708,1,0,0:2:0:0:
407,339,212858,2,0,P|325:353|270:329,2,143.999995605469,2|8|0,2:2|0:2|1:2,0:0:0:0:
418,173,213758,6,0,P|351:148|282:163,1,143.999995605469,2|0,1:2|0:2,0:0:0:0:
217,215,214208,1,8,1:2:0:0:
142,177,214358,2,0,P|131:139|131:101,1,71.9999978027344,0|0,3:2|0:2,0:0:0:0:
217,215,214658,2,0,P|228:253|228:291,1,71.9999978027344,2|0,1:2|0:2,0:0:0:0:
179,352,214958,2,0,P|112:376|43:361,1,143.999995605469,8|0,0:2|1:2,0:0:0:0:
1,200,215558,6,0,P|4:125|38:59,1,143.999995605469,2|0,1:2|0:2,0:0:0:0:
106,24,216008,1,8,1:2:0:0:
162,84,216158,2,0,P|205:95|257:93,1,71.9999978027344,0|0,3:2|0:2,0:0:0:0:
306,133,216458,2,0,P|370:102|441:100,1,143.999995605469,2|8,0:2|0:2,0:0:0:0:
495,163,216908,2,0,P|489:234|455:297,1,143.999995605469,0|0,1:2|0:2,0:0:0:0:
383,348,217358,6,0,P|322:323|227:332,1,132.00000402832,2|0,1:1|1:2,0:0:0:0:
182,353,217808,1,8,1:2:0:0:
104,370,217958,2,0,P|64:369|31:355,1,66.0000020141602,0|0,3:2|0:2,0:0:0:0:
5,288,218258,2,0,P|10:216|44:151,1,132.00000402832,2|8,1:2|0:2,0:0:0:0:
106,126,218708,2,0,P|178:131|243:165,1,132.00000402832,0|0,1:2|0:2,0:0:0:0:
293,216,219158,6,0,P|352:242|418:246,1,132.00000402832,2|0,1:2|0:2,0:0:0:0:
479,194,219608,1,8,1:2:0:0:
479,194,219758,2,0,P|474:122|440:57,1,132.00000402832,0|0,3:2|0:2,0:0:0:0:
302,7,220358,2,0,P|264:11|231:23,1,66.0000020141602,10|0,0:2|0:2,0:0:0:0:
176,71,220658,2,0,P|138:75|105:87,1,66.0000020141602,0|0,1:2|0:2,0:0:0:0:
48,147,220958,6,0,P|50:218|75:276,1,120,2|0,1:2|0:2,0:0:0:0:
117,330,221408,1,8,1:2:0:0:
117,330,221558,2,0,P|154:322|183:307,1,60,0|0,3:2|0:2,0:0:0:0:
246,343,221858,2,0,P|318:348|379:375,2,120,2|8|0,1:2|0:2|1:2,0:0:0:0:
141,232,222758,6,0,P|144:172|166:110,1,107.999996704102,2|0,1:2|0:2,0:0:0:0:
217,78,223208,1,8,1:2:0:0:
217,78,223358,2,0,P|246:79|279:70,1,53.9999983520508,0|0,3:2|0:2,0:0:0:0:
343,94,223658,2,0,P|388:83|471:92,1,107.999996704102,2|8,0:2|0:2,0:0:0:0:
502,139,224108,2,0,P|508:180|507:208,1,53.9999983520508,0|0,1:2|0:2,0:0:0:0:
460,314,224558,6,0,P|415:325|352:315,1,96,2|0,1:2|1:2,0:0:0:0:
293,303,225008,1,8,1:2:0:0:
293,303,225158,2,0,P|245:297|199:308,1,96,0|2,3:2|1:2,0:0:0:0:
73,368,225758,1,8,0:2:0:0:
73,368,225908,2,0,P|59:319|71:261,1,96,0|0,1:2|0:2,0:0:0:0:
130,221,226358,6,0,P|176:218|223:198,1,90.0000034332277,2|0,1:2|0:2,0:0:0:0:
275,152,226808,2,0,P|277:127|284:103,1,45.0000017166138,8|0,1:2|3:2,0:0:0:0:
389,40,227258,2,0,P|435:43|482:63,2,90.0000034332277,2|8|0,0:2|0:2|1:2,0:0:0:0:
282,107,228158,6,0,P|236:104|200:91,1,83.9999974365235,2|0,1:2|0:2,0:0:0:0:
135,52,228608,1,8,1:2:0:0:
135,52,228758,2,0,P|95:38|53:36,1,83.9999974365235,0|0,3:2|1:2,0:0:0:0:
31,150,229358,2,0,P|71:164|113:166,1,83.9999974365235,8|0,0:2|1:2,0:0:0:0:
200,230,229958,6,0,P|240:216|281:216,1,77.9999964294435,2|0,1:2|0:2,0:0:0:0:
347,258,230408,1,8,1:2:0:0:
347,258,230558,2,0,P|387:272|433:272,1,77.9999964294435,0|0,3:2|0:2,0:0:0:0:
504,200,231158,2,0,P|501:161|488:124,2,77.9999964294435,2|8|4,0:2|0:2|1:1,0:0:0:0:
