osu file format v14

[General]
AudioFilename: audio.mp3
AudioLeadIn: 0
PreviewTime: 77820
Countdown: 0
SampleSet: Soft
StackLeniency: 0.7
Mode: 0
LetterboxInBreaks: 0
WidescreenStoryboard: 0

[Editor]
Bookmarks: 1358,12158,13958,21158,35558,42758,64358,71558,78758,89558,91358,105758,127358,134558,141758,159758,172358,183158,188558,199358,202958,206558,210158,217358,222758,224558,228158,229958,231758
DistanceSpacing: 1
BeatDivisor: 4
GridSize: 32
TimelineZoom: 1.9

[Metadata]
Title:Eden
TitleUnicode:Eden
Artist:kukui
ArtistUnicode:kukui
Creator:Lasse
Version:Desire
Source:ローゼンメイデン
Tags:myu shimotsuki haruka 霜月はるか leer lied japanese pop anime rozen maiden image song
BeatmapID:3364261
BeatmapSetID:1648201

[Difficulty]
HPDrainRate:6
CircleSize:4.5
OverallDifficulty:8
ApproachRate:9
SliderMultiplier:1.4
SliderTickRate:1

[Events]
//Background and Video events
0,0,"bg.jpg",0,0
//Break Periods
//Storyboard Layer 0 (Background)
//Storyboard Layer 1 (Fail)
//Storyboard Layer 2 (Pass)
//Storyboard Layer 3 (Foreground)
//Storyboard Layer 4 (Overlay)
//Storyboard Sound Samples

[TimingPoints]
1358,300,6,2,1,65,1,0
1358,-90.9090909090909,6,2,1,65,0,0
12158,-111.111111111111,6,2,1,65,0,0
12233,-111.111111111111,6,2,1,50,0,0
12758,-125,6,2,1,60,0,0
12833,-125,6,2,1,50,0,0
13058,-99.9999999999999,6,2,1,65,0,0
13133,-99.9999999999999,6,2,1,50,0,0
13508,-125,6,2,1,60,0,0
13583,-125,6,2,1,50,0,0
13958,-90.9090909090909,6,2,1,65,0,0
21158,-125,6,2,1,60,0,0
21233,-125,6,2,1,50,0,0
42158,-125,6,2,1,53,0,0
42458,-125,6,2,1,56,0,0
42758,-117.647058823529,6,2,1,60,0,0
42833,-117.647058823529,6,2,1,55,0,0
63458,-100,6,2,1,58,0,0
64358,-133.333333333333,6,2,1,60,0,0
64433,-133.333333333333,6,2,1,50,0,0
66158,-133.333333333333,6,2,1,60,0,0
66233,-133.333333333333,6,2,1,50,0,0
67958,-121.951219512195,6,2,1,60,0,0
68033,-121.951219512195,6,2,1,55,0,0
71558,-133.333333333333,6,2,1,60,0,0
71633,-133.333333333333,6,2,1,50,0,0
73358,-125,6,2,1,60,0,0
73433,-125,6,2,1,55,0,0
75158,-111.111111111111,6,2,1,60,0,0
76958,-100,6,2,1,62,0,0
77858,-90.9090909090909,6,2,1,65,0,0
78758,-83.3333333333333,6,2,1,70,0,1
79058,-83.3333333333333,6,2,1,70,0,0
89558,-83.3333333333333,6,2,1,65,0,0
90008,-83.3333333333333,6,2,1,55,0,0
90458,-83.3333333333333,6,2,1,65,0,0
90758,-83.3333333333333,6,2,1,60,0,0
91208,-83.3333333333333,6,2,1,55,0,0
91358,-83.3333333333333,6,2,1,70,0,0
105458,-83.3333333333333,6,2,1,65,0,0
105758,-111.111111111111,6,2,1,60,0,0
106058,-111.111111111111,6,2,1,55,0,0
125558,-100,6,2,1,60,0,0
127358,-133.333333333333,6,2,1,60,0,0
127433,-133.333333333333,6,2,1,50,0,0
129158,-133.333333333333,6,2,1,60,0,0
129233,-133.333333333333,6,2,1,50,0,0
130958,-121.951219512195,6,2,1,60,0,0
131033,-121.951219512195,6,2,1,55,0,0
132758,-111.111111111111,6,2,1,55,0,0
134558,-117.647058823529,6,2,1,60,0,0
139958,-108.695652173913,6,2,1,60,0,0
141758,-133.333333333333,6,2,1,60,0,0
141833,-133.333333333333,6,2,1,50,0,0
143558,-133.333333333333,6,2,1,60,0,0
143633,-133.333333333333,6,2,1,50,0,0
145358,-133.333333333333,6,2,1,60,0,0
145433,-133.333333333333,6,2,1,50,0,0
147158,-133.333333333333,6,2,1,60,0,0
147233,-133.333333333333,6,2,1,50,0,0
148958,-133.333333333333,6,2,1,60,0,0
149033,-133.333333333333,6,2,1,50,0,0
150758,-133.333333333333,6,2,1,60,0,0
150833,-133.333333333333,6,2,1,50,0,0
152558,-133.333333333333,6,2,1,60,0,0
152633,-133.333333333333,6,2,1,50,0,0
154358,-133.333333333333,6,2,1,60,0,0
154433,-133.333333333333,6,2,1,50,0,0
156158,-117.647058823529,6,2,1,60,0,0
156233,-117.647058823529,6,2,1,55,0,0
157958,-100,6,2,1,60,0,0
158858,-86.9565217391304,6,2,1,65,0,0
159758,-76.9230769230769,6,2,1,70,0,1
160058,-76.9230769230769,6,2,1,70,0,0
170558,-76.9230769230769,6,2,1,65,0,0
170858,-76.9230769230769,6,2,1,60,0,0
171458,-76.9230769230769,6,2,1,65,0,0
171758,-76.9230769230769,6,2,1,60,0,0
172058,-76.9230769230769,6,2,1,55,0,0
172208,-76.9230769230769,6,2,1,60,0,0
172358,-71.4285714285714,6,2,1,75,0,1
183158,-133.333333333333,6,2,1,65,0,0
183458,-133.333333333333,6,2,1,60,0,0
184058,-133.333333333333,6,2,1,65,0,0
184358,-133.333333333333,6,2,1,60,0,0
184808,-133.333333333333,6,2,1,55,0,0
184958,-133.333333333333,6,2,1,65,0,0
185258,-133.333333333333,6,2,1,60,0,0
185858,-133.333333333333,6,2,1,65,0,0
186158,-133.333333333333,6,2,1,60,0,0
186608,-133.333333333333,6,2,1,55,0,0
186758,-133.333333333333,6,2,1,65,0,0
187058,-133.333333333333,6,2,1,60,0,0
187658,-133.333333333333,6,2,1,65,0,0
187958,-133.333333333333,6,2,1,60,0,0
188258,-133.333333333333,6,2,2,65,0,0
188558,-76.9230769230769,6,2,1,72,0,1
188858,-76.9230769230769,6,2,1,72,0,0
209858,-76.9230769230769,6,2,2,67,0,0
210158,-83.3333333333333,6,2,1,70,0,0
217358,-90.9090909090909,6,2,1,65,0,0
220958,-100,6,2,1,60,0,0
222758,-111.111111111111,6,2,1,55,0,0
224558,-125,6,2,1,50,0,0
225458,-125,6,2,1,45,0,0
226358,-142.857142857143,6,2,1,40,0,0
227258,-142.857142857143,6,2,1,36,0,0
228158,-166.666666666667,6,2,1,32,0,0
229058,-166.666666666667,6,2,1,28,0,0
229958,-250,6,2,1,24,0,0
230858,-250,6,2,1,20,0,0
231758,-250,6,2,1,15,0,0

[Colours]
Combo1 : 240,140,140
Combo2 : 200,180,220
Combo3 : 240,200,155
Combo4 : 150,185,220

[HitObjects]
292,58,1358,6,0,P|215:28|141:45,1,154.000004699707,2|0,1:1|0:2,0:2:0:0:
64,91,1808,2,0,P|33:66|-10:51,2,77.0000023498536,8|0|0,1:2|3:2|0:2,0:2:0:0:
91,187,2258,2,0,P|161:216|235:203,1,154.000004699707,2|8,0:2|0:2,0:2:0:0:
305,240,2708,1,0,0:2:0:0:
372,148,2858,6,0,P|368:109|350:75,1,77.0000023498536,0|0,1:2|0:2,0:2:0:0:
219,58,3158,2,0,P|205:132|235:202,1,154.000004699707,2|0,1:2|0:2,0:2:0:0:
305,240,3608,1,8,1:2:0:0:
429,201,3758,2,0,P|458:271|445:345,2,154.000004699707,2|0|8,3:2|1:2|0:2,0:2:0:0:
372,148,4508,1,0,0:2:0:0:
385,37,4658,6,0,P|413:22|465:20,1,77.0000023498536,0|0,1:2|0:2,0:2:0:0:
261,90,4958,2,0,P|262:58|286:12,1,77.0000023498536,2|0,1:2|0:2,0:2:0:0:
244,223,5258,2,0,P|217:206|189:162,1,77.0000023498536,0|8,0:2|1:2,0:2:0:0:
344,320,5558,6,0,P|277:353|192:321,1,154.000004699707,2|0,3:2|0:2,0:2:0:0:
134,365,6008,1,0,0:2:0:0:
32,300,6158,2,0,P|17:335|13:373,1,77.0000023498536,8|0,0:2|1:2,0:2:0:0:
204,332,6458,2,0,P|199:293|185:258,1,77.0000023498536,0|0,0:2|0:2,0:2:0:0:
103,181,6758,6,0,P|64:176|29:162,1,77.0000023498536,2|0,1:2|0:2,0:2:0:0:
0,90,7058,1,0,1:2:0:0:
104,27,7208,2,0,P|142:31|177:45,2,77.0000023498536,8|0|0,1:2|3:2|0:2,0:2:0:0:
192,208,7658,2,0,P|230:203|265:189,1,77.0000023498536,2|0,1:2|0:2,0:2:0:0:
410,89,7958,5,10,0:2:0:0:
386,0,8108,1,0,1:2:0:0:
471,25,8258,5,2,3:2:0:0:
325,64,8408,1,0,3:2:0:0:
433,177,8558,6,0,P|448:251|426:325,1,154.000004699707,10|0,1:1|0:2,0:2:0:0:
373,380,9008,1,8,1:2:0:0:
318,264,9158,2,0,P|271:252|228:257,1,77.0000023498536,0|0,3:2|0:2,0:2:0:0:
179,330,9458,2,0,P|104:345|31:319,1,154.000004699707,2|8,0:2|0:2,0:2:0:0:
1,249,9908,1,0,0:2:0:0:
161,174,10058,6,0,P|114:162|71:167,1,77.0000023498536,0|0,1:2|0:2,0:2:0:0:
242,253,10358,2,0,P|313:278|388:262,1,154.000004699707,2|0,1:2|0:2,0:2:0:0:
452,306,10808,1,8,1:2:0:0:
511,210,10958,2,0,P|507:170|490:131,1,77.0000023498536,2|0,3:2|0:2,0:2:0:0:
337,54,11258,2,0,P|408:28|483:44,2,154.000004699707,2|8|2,1:2|0:2|1:3,0:2:0:0:
175,330,12158,6,0,P|113:349|53:338,1,125.999996154785,6|0,1:2|0:2,0:2:0:0:
0,155,12758,6,0,L|11:83,1,56,2|0,1:2|0:2,0:2:0:0:
191,47,13058,6,0,P|125:20|57:32,1,140,6|2,1:2|0:3,0:2:0:0:
225,144,13508,6,0,P|166:147|117:124,1,112,0|0,1:2|0:2,0:2:0:0:
268,224,13958,6,0,P|259:149|308:92,1,154.000004699707,6|0,1:2|1:2,0:2:0:0:
383,72,14408,1,8,1:2:0:0:
456,174,14558,2,0,P|455:212|437:257,1,77.0000023498536,0|0,3:2|0:2,0:2:0:0:
358,363,14858,2,0,P|431:375|491:329,1,154.000004699707,2|8,1:2|0:2,0:2:0:0:
369,266,15308,2,0,P|405:249|443:248,1,77.0000023498536,0|0,1:2|0:2,0:2:0:0:
333,135,15608,5,0,0:2:0:0:
333,135,15758,2,0,P|329:174|311:208,1,77.0000023498536,2|0,1:2|0:2,0:2:0:0:
195,80,16058,1,0,0:2:0:0:
195,80,16208,2,0,P|230:63|269:62,1,77.0000023498536,8|0,0:2|3:2,0:2:0:0:
239,254,16508,1,0,0:2:0:0:
239,254,16658,2,0,P|177:226|137:148,2,154.000004699707,2|8|0,0:2|0:2|1:2,0:2:0:0:
304,296,17408,1,0,0:2:0:0:
363,189,17558,6,0,P|426:165|510:191,1,154.000004699707,2|0,1:2|0:2,0:2:0:0:
512,348,18008,2,0,P|440:372|368:348,1,154.000004699707,8|0,1:2|0:2,0:2:0:0:
221,310,18458,2,0,P|204:345|206:402,1,77.0000023498536,0|0,1:2|0:2,0:2:0:0:
368,348,18758,2,0,P|365:309|348:275,1,77.0000023498536,8|0,0:2|0:2,0:2:0:0:
222,191,19058,6,0,P|184:186|137:155,1,77.0000023498536,0|0,1:2|0:2,0:2:0:0:
303,140,19358,2,0,P|370:104|444:117,1,154.000004699707,2|0,1:2|0:2,0:2:0:0:
218,99,19808,2,0,P|199:65|194:27,1,77.0000023498536,8|0,1:2|3:2,0:2:0:0:
303,140,20108,1,0,0:2:0:0:
361,216,20258,2,0,P|377:289|346:358,1,154.000004699707,2|8,0:2|0:2,0:2:0:0:
210,346,20708,2,0,P|193:272|224:203,1,154.000004699707,0|0,1:2|0:2,0:2:0:0:
303,140,21158,6,0,P|382:140|469:102,2,168,2|0|0,1:1|1:2|0:2,0:2:0:0:
160,70,22358,2,0,P|165:36|161:-3,1,56,8|0,0:2|0:2,0:2:0:0:
91,10,22658,2,0,P|86:44|90:83,1,56,0|0,1:2|0:2,0:2:0:0:
169,153,22958,6,0,P|121:175|50:160,1,112,2|0,1:2|0:2,0:2:0:0:
9,118,23408,2,0,P|8:90|13:62,1,56,0|0,1:2|0:2,0:2:0:0:
120,214,23858,2,0,P|126:267|100:321,2,112,2|8|0,0:2|0:2|1:2,0:2:0:0:
72,159,24608,1,0,0:2:0:0:
155,103,24758,6,0,P|209:94|262:118,1,112,2|0,1:2|0:2,0:2:0:0:
273,216,25208,1,0,1:2:0:0:
312,277,25358,2,0,P|360:302|416:301,1,112,0|0,0:2|0:2,0:2:0:0:
509,152,25958,5,8,0:2:0:0:
428,177,26108,1,0,1:2:0:0:
380,107,26258,2,0,P|384:79|395:53,1,56,2|0,0:2|0:2,0:2:0:0:
328,175,26558,2,0,P|301:185|274:188,1,56,2|0,1:2|0:2,0:2:0:0:
170,143,26858,2,0,P|122:118|67:126,1,112,10|0,0:2|0:2,0:2:0:0:
8,170,27308,1,0,0:2:0:0:
40,272,27458,2,0,P|88:297|143:289,1,112,2|8,1:2|0:2,0:2:0:0:
364,161,28058,5,0,3:2:0:0:
364,161,28208,1,0,3:2:0:0:
440,224,28358,6,0,P|467:304|453:385,2,168,2|0|0,1:1|1:2|0:2,0:2:0:0:
295,358,29558,2,0,P|336:355|365:344,1,56,8|0,0:2|0:2,0:2:0:0:
337,278,29858,2,0,P|296:281|267:292,1,56,0|0,1:2|0:2,0:2:0:0:
177,348,30158,6,0,P|130:357|57:329,1,112,2|0,1:2|0:2,0:2:0:0:
16,289,30608,2,0,P|20:263|33:235,1,56,0|0,1:2|0:2,0:2:0:0:
208,141,31058,2,0,P|216:86|198:33,2,112,2|8|0,0:2|0:2|1:2,0:2:0:0:
170,203,31808,1,0,0:2:0:0:
239,265,31958,6,0,P|286:274|359:246,1,112,2|0,1:2|0:2,0:2:0:0:
433,319,32408,1,0,1:2:0:0:
489,275,32558,2,0,P|497:220|479:167,1,112,0|0,0:2|0:2,0:2:0:0:
348,57,33158,5,8,0:2:0:0:
281,107,33308,1,0,1:2:0:0:
216,52,33458,2,0,P|220:24|230:-1,1,56,2|0,0:2|0:2,0:2:0:0:
348,57,33758,2,0,P|358:82|362:110,1,56,2|0,1:2|0:2,0:2:0:0:
263,216,34058,2,0,P|317:224|366:198,1,112,10|0,0:2|0:2,0:2:0:0:
423,153,34508,1,0,0:2:0:0:
497,213,34658,2,0,P|507:240|511:285,1,56,2|0,1:2|0:2,0:2:0:0:
469,348,34958,2,0,P|442:358|397:362,1,56,10|0,1:2|0:2,0:2:0:0:
315,302,35258,6,8,P|310:274|300:248,1,56,8|0,0:2|0:2,0:2:0:0:
217,206,35558,2,0,P|164:221|98:204,1,112,2|0,1:1|0:2,0:2:0:0:
47,169,36008,2,0,P|51:141|61:115,1,56,0|0,1:2|0:2,0:2:0:0:
217,206,36458,2,0,P|221:262|201:315,2,112,2|8|0,0:2|2:2|1:2,0:2:0:0:
186,139,37208,1,0,0:2:0:0:
257,60,37358,6,0,P|310:45|376:62,1,112,2|0,1:2|0:2,0:2:0:0:
430,88,37808,2,0,P|461:91|501:85,2,56,0|0|0,1:2|0:2|0:2,0:2:0:0:
371,131,38258,2,0,P|355:184|367:238,1,112,2|8,0:2|0:2,0:2:0:0:
512,379,38858,6,0,P|482:368|442:363,1,56,0|0,1:2|0:2,0:2:0:0:
375,329,39158,2,0,P|321:348|267:347,1,112,2|0,1:2|0:2,0:2:0:0:
166,384,39608,1,0,1:2:0:0:
124,324,39758,2,0,P|130:288|148:258,1,56,0|0,0:2|0:2,0:2:0:0:
215,187,40058,2,0,P|163:168|107:168,1,112,2|8,0:2|0:2,0:2:0:0:
56,94,40508,2,0,P|32:99|-5:97,2,56,0|0|0,1:2|0:2|0:2,0:2:0:0:
182,26,40958,6,0,P|234:6|292:6,1,112,2|0,1:2|1:2,0:2:0:0:
413,76,41408,1,2,0:2:0:0:
413,76,41558,2,0,P|432:128|433:186,1,112,0|0,0:2|1:2,0:2:0:0:
193,227,42158,5,8,0:2:0:0:
319,157,42308,1,0,1:2:0:0:
179,144,42458,5,8,0:2:0:0:
333,240,42608,1,8,0:2:0:0:
256,192,42758,6,0,P|245:219|244:375,2,178.500003404617,2|0|0,1:1|1:2|0:2,0:2:0:0:
410,109,43958,2,0,P|436:108|482:94,1,59.5000011348725,8|0,0:2|0:2,0:2:0:0:
451,23,44258,2,0,P|425:24|379:38,1,59.5000011348725,0|0,1:2|0:2,0:2:0:0:
309,89,44558,6,0,P|247:95|194:73,1,119.000002269745,2|0,1:2|0:2,0:2:0:0:
118,65,45008,2,0,P|124:37|147:6,1,59.5000011348725,0|0,1:2|0:2,0:2:0:0:
236,171,45458,2,0,P|242:233|220:286,2,119.000002269745,2|8|0,0:2|0:2|1:2,0:2:0:0:
191,107,46208,1,0,0:2:0:0:
87,164,46358,6,0,P|65:218|72:277,1,119.000002269745,2|0,1:2|0:2,0:2:0:0:
132,371,46808,1,0,1:2:0:0:
195,326,46958,2,0,P|251:309|309:321,1,119.000002269745,2|0,0:2|0:2,0:2:0:0:
512,253,47558,5,8,0:2:0:0:
512,253,47708,2,0,P|454:264|397:248,1,119.000002269745,0|0,1:2|2:2,2:2:0:0:
338,197,48158,2,0,P|340:165|354:135,1,59.5000011348725,0|0,1:2|0:2,0:2:0:0:
462,61,48458,6,0,P|405:44|347:56,1,119.000002269745,10|0,0:2|0:2,0:2:0:0:
281,97,48908,1,0,0:2:0:0:
184,57,49058,2,0,P|172:29|171:0,1,59.5000011348725,2|0,1:2|0:2,0:2:0:0:
281,97,49358,2,0,P|279:129|265:159,1,59.5000011348725,8|0,0:2|0:2,0:2:0:0:
181,197,49658,1,2,0:2:0:0:
108,135,49808,1,0,3:2:0:0:
29,212,49958,6,0,P|2:292|13:390,2,178.500003404617,10|0|0,1:1|1:2|0:2,0:2:0:0:
157,357,51158,2,0,P|129:356|99:348,1,59.5000011348725,8|0,0:2|0:2,0:2:0:0:
112,271,51458,2,0,P|139:271|170:280,1,59.5000011348725,0|0,1:2|0:2,0:2:0:0:
273,331,51758,6,0,P|328:334|391:304,1,119.000002269745,2|0,1:2|0:2,0:2:0:0:
435,249,52208,2,0,P|428:213|417:188,1,59.5000011348725,0|0,1:2|0:2,0:2:0:0:
276,99,52658,2,0,P|329:74|388:76,2,119.000002269745,2|8|0,0:2|0:2|1:2,0:2:0:0:
228,160,53408,1,0,0:2:0:0:
206,64,53558,6,0,P|152:39|93:41,1,119.000002269745,2|0,1:2|0:2,0:2:0:0:
14,122,54008,1,0,1:2:0:0:
56,186,54158,2,0,P|109:210|168:208,1,119.000002269745,2|0,0:2|0:2,0:2:0:0:
410,134,54758,5,8,0:2:0:0:
410,134,54908,2,0,P|428:185|414:258,1,119.000002269745,0|0,1:2|0:2,0:2:0:0:
474,348,55358,2,0,P|448:334|420:324,1,59.5000011348725,0|0,1:2|0:2,0:2:0:0:
346,350,55658,6,0,P|287:359|231:341,1,119.000002269745,2|0,1:2|0:2,0:2:0:0:
164,379,56108,1,0,0:2:0:0:
87,328,56258,2,0,P|91:300|104:267,1,59.5000011348725,2|0,1:2|0:2,0:2:0:0:
184,173,56558,5,8,0:2:0:0:
237,229,56708,1,0,1:2:0:0:
182,148,56858,5,2,0:2:0:0:
105,176,57008,1,0,3:2:0:0:
187,123,57158,6,0,P|190:62|161:5,1,119.000002269745,2|0,1:1|0:2,0:2:0:0:
79,83,57608,2,0,P|49:88|20:88,2,59.5000011348725,0|0|0,1:2|0:2|0:2,0:2:0:0:
187,123,58058,2,0,P|216:117|245:117,1,59.5000011348725,2|0,0:2|0:2,0:2:0:0:
347,177,58358,2,0,P|405:180|459:155,1,119.000002269745,8|0,0:2|1:2,0:2:0:0:
507,95,58808,1,0,0:2:0:0:
429,16,58958,6,0,P|370:12|316:37,1,119.000002269745,2|0,1:2|0:2,0:2:0:0:
245,117,59408,2,0,P|252:175|231:230,1,119.000002269745,0|0,1:2|0:2,0:2:0:0:
109,217,59858,2,0,P|101:158|122:103,2,119.000002269745,2|8|0,0:2|0:2|1:2,0:2:0:0:
167,268,60608,1,0,0:2:0:0:
280,214,60758,6,0,P|347:200|464:239,2,178.500003404617,2|0|0,1:2|1:2|0:2,0:2:0:0:
151,338,61958,1,8,0:2:0:0:
77,375,62108,1,0,1:2:0:0:
14,321,62258,2,0,P|15:291|30:256,1,59.5000011348725,0|0,0:2|0:2,0:2:0:0:
155,207,62558,2,0,P|166:160|146:81,1,119.000002269745,2|0,1:2|0:2,0:2:0:0:
68,35,63008,2,0,P|38:35|3:43,1,59.5000011348725,0|0,1:2|0:2,0:2:0:0:
342,214,63458,6,0,P|376:213|410:203,1,70,2|0,1:2|0:2,0:2:0:0:
275,68,63758,2,0,P|308:57|343:57,1,70,8|0,1:2|0:2,0:2:0:0:
200,181,64058,5,2,1:2:0:0:
121,110,64208,1,0,3:2:0:0:
32,166,64358,2,0,P|13:206|14:322,1,157.500006008148,2|0,1:1|1:2,0:2:0:0:
253,383,65558,2,0,L|258:274,1,105.000004005432,8|0,0:2|1:2,0:2:0:0:
480,166,66158,6,0,P|499:206|498:322,2,157.500006008148,2|0|0,1:1|1:2|0:2,0:2:0:0:
309,90,67358,2,0,L|203:82,1,105.000004005432,8|0,0:2|1:2,0:2:0:0:
42,192,67958,6,0,P|36:106|70:27,2,172.200002627564,2|0|0,1:1|1:2|0:2,0:2:0:0:
165,329,69158,1,8,0:2:0:0:
165,329,69308,2,0,P|107:325|49:356,1,114.800001751709,0|0,1:2|0:2,0:2:0:0:
239,371,69758,6,0,P|247:343|248:314,1,57.4000008758545,2|0,1:2|0:2,0:2:0:0:
151,184,70058,2,0,P|142:211|141:240,1,57.4000008758545,2|0,1:2|0:2,0:2:0:0:
314,131,70358,2,0,P|286:122|257:121,1,57.4000008758545,2|0,0:2|0:2,0:2:0:0:
343,285,70658,2,0,P|371:297|462:290,1,114.800001751709,2|8,1:2|0:2,0:2:0:0:
512,242,71108,1,0,1:2:0:0:
443,178,71258,2,0,P|441:147|448:108,1,57.4000008758545,2|0,3:2|3:2,0:2:0:0:
373,16,71558,6,0,P|351:47|234:49,2,157.500006008148,2|0|0,1:1|1:2|0:2,0:2:0:0:
282,147,72758,2,0,P|273:96|241:55,1,105.000004005432,8|0,0:2|1:2,0:2:0:0:
170,23,73208,1,0,0:2:0:0:
119,124,73358,6,0,P|127:174|167:222,1,112,2|0,1:1|0:2,0:2:0:0:
243,254,73808,1,0,1:2:0:0:
243,254,73958,2,0,P|289:231|354:228,1,112,0|0,0:2|0:2,0:2:0:0:
348,227,74558,2,0,P|302:250|237:253,1,112,10|0,0:2|1:2,0:2:0:0:
181,296,75008,1,0,0:2:0:0:
89,241,75158,6,0,P|71:188|96:97,1,125.999996154785,2|8,1:1|0:2,0:2:0:0:
153,33,75608,1,0,1:2:0:0:
153,33,75758,2,0,P|93:13|31:23,1,125.999996154785,2|0,0:2|0:2,0:2:0:0:
162,194,76358,1,8,0:2:0:0:
162,194,76508,2,0,P|223:205|282:187,1,125.999996154785,0|0,1:2|0:2,0:2:0:0:
400,91,76958,6,0,P|426:148|401:239,1,140,2|8,1:1|0:2,0:2:0:0:
364,282,77408,1,0,1:2:0:0:
439,359,77558,2,0,P|476:358|515:337,1,70,2|0,0:2|0:2,0:2:0:0:
261,308,77858,6,0,L|252:393,1,77.0000023498536,2|0,1:2|0:2,0:2:0:0:
136,212,78158,2,0,L|127:297,1,77.0000023498536,10|0,1:2|0:2,0:2:0:0:
372,205,78458,2,0,L|363:290,1,77.0000023498536,10|0,1:2|0:2,0:2:0:0:
299,75,78758,6,0,P|366:28|446:44,1,167.999994873047,6|0,1:1|0:2,0:2:0:0:
307,155,79208,2,0,P|266:150|234:123,2,83.9999974365235,8|0|0,1:2|3:2|0:2,0:2:0:0:
210,326,79658,2,0,P|217:244|164:182,1,167.999994873047,2|8,0:2|0:2,0:2:0:0:
86,145,80108,1,0,0:2:0:0:
47,294,80258,6,0,P|88:295|124:274,1,83.9999974365235,0|0,1:2|0:2,0:2:0:0:
287,116,80558,2,0,P|234:178|241:259,1,167.999994873047,2|0,1:2|0:2,0:2:0:0:
292,326,81008,1,8,1:2:0:0:
446,362,81158,2,0,P|498:299|491:218,2,167.999994873047,2|0|8,3:2|1:2|0:2,0:2:0:0:
364,381,81908,1,0,0:2:0:0:
322,235,82058,6,0,P|330:194|364:153,1,83.9999974365235,0|0,1:2|0:2,0:2:0:0:
199,232,82358,2,0,P|230:259|249:309,1,83.9999974365235,2|0,1:2|0:2,0:2:0:0:
263,126,82658,2,0,P|223:139|170:130,1,83.9999974365235,0|8,2:2|1:2,0:2:0:0:
337,255,82958,6,0,P|353:176|438:151,1,167.999994873047,2|0,3:2|0:2,0:2:0:0:
501,189,83408,1,0,0:2:0:0:
389,323,83558,2,0,P|415:336|479:331,1,83.9999974365235,8|0,0:2|1:2,0:2:0:0:
237,287,83858,2,0,P|232:315|257:375,1,83.9999974365235,0|0,2:2|0:2,0:2:0:0:
224,131,84158,6,0,P|195:135|146:177,1,83.9999974365235,2|0,1:2|0:2,0:2:0:0:
116,243,84458,1,0,1:2:0:0:
237,287,84608,2,0,P|265:282|314:240,2,83.9999974365235,8|2|0,1:2|3:2|0:2,0:2:0:0:
218,105,85058,2,0,P|177:114|146:142,1,83.9999974365235,2|0,1:2|0:2,0:2:0:0:
339,139,85358,5,10,0:2:0:0:
328,37,85508,1,0,1:2:0:0:
449,113,85658,5,2,3:2:0:0:
412,221,85808,1,0,3:2:0:0:
510,296,85958,6,0,P|471:366|383:371,1,167.999994873047,10|0,1:1|0:2,0:2:0:0:
307,360,86408,1,8,1:2:0:0:
271,230,86558,2,0,P|277:182|300:140,1,83.9999974365235,0|0,3:2|0:2,0:2:0:0:
436,109,86858,2,0,P|397:38|316:30,1,167.999994873047,2|8,0:2|0:2,0:2:0:0:
249,4,87308,1,0,0:2:0:0:
164,130,87458,6,0,P|121:130|85:111,1,83.9999974365235,0|0,1:2|0:2,0:2:0:0:
145,220,87758,2,0,P|64:227|25:298,1,167.999994873047,2|0,1:2|0:2,0:2:0:0:
72,369,88208,1,8,1:2:0:0:
212,276,88358,2,0,P|228:241|224:191,1,83.9999974365235,2|0,3:2|0:2,0:2:0:0:
427,329,88658,2,0,P|388:258|307:250,2,167.999994873047,2|8|2,1:2|0:2|1:3,0:2:0:0:
512,75,89558,5,6,1:2:0:0:
377,190,90008,5,8,0:3:0:0:
455,202,90158,1,8,0:2:0:0:
256,16,90458,5,6,1:2:0:0:
135,190,90758,5,4,0:3:0:0:
57,202,90908,1,0,1:2:0:0:
256,16,91208,5,0,0:2:0:0:
319,70,91358,2,0,P|399:87|475:43,1,167.999994873047,6|0,1:2|1:2,0:2:0:0:
395,130,91808,1,10,1:2:0:0:
346,198,91958,1,2,3:2:0:0:
356,281,92108,1,0,0:2:0:0:
425,327,92258,2,0,P|468:328|507:304,1,83.9999974365235,2|0,1:2|0:2,0:1:0:0:
395,130,92558,1,8,0:2:0:0:
319,70,92708,2,0,P|238:52|162:96,1,167.999994873047,2|0,1:2|2:2,0:1:0:0:
64,217,93158,6,0,P|39:184|5:162,1,83.9999974365235,2|0,1:2|0:2,0:2:0:0:
235,224,93458,2,0,P|276:217|313:198,1,83.9999974365235,2|8,0:2|1:2,0:2:0:0:
151,172,93758,2,0,P|165:132|166:91,1,83.9999974365235,2|0,3:2|0:2,0:2:0:0:
234,322,94058,2,0,P|294:377|376:377,1,167.999994873047,2|8,0:2|0:2,0:1:0:0:
454,343,94508,1,0,0:2:0:0:
512,218,94658,6,0,P|492:181|459:152,1,83.9999974365235,2|0,1:2|0:2,0:2:0:0:
325,96,94958,2,0,P|385:40|467:40,1,167.999994873047,2|0,1:2|0:2,0:2:0:0:
326,186,95408,2,0,P|285:177|249:150,1,83.9999974365235,8|0,1:2|3:2,0:2:0:0:
189,86,95708,1,0,0:2:0:0:
67,171,95858,2,0,P|76:130|98:95,1,83.9999974365235,2|0,1:2|0:2,0:2:0:0:
251,152,96158,2,0,P|242:192|220:228,1,83.9999974365235,8|0,0:2|0:2,0:2:0:0:
76,282,96458,2,0,P|40:260|0:251,1,83.9999974365235,0|0,1:2|0:2,0:2:0:0:
178,365,96758,6,0,P|258:382|336:337,1,167.999994873047,2|0,1:2|0:2,0:2:0:0:
417,374,97208,1,8,1:2:0:0:
495,293,97358,2,0,P|488:236|466:204,1,83.9999974365235,2|0,3:2|0:2,0:2:0:0:
334,143,97658,2,0,P|407:103|487:121,1,167.999994873047,2|8,0:2|0:2,0:2:0:0:
345,234,98108,1,0,1:2:0:0:
255,209,98258,6,0,P|236:171|234:129,1,83.9999974365235,0|0,0:2|0:2,0:2:0:0:
25,82,98558,2,0,P|105:99|177:60,1,167.999994873047,2|0,1:1|1:2,0:2:0:0:
172,325,99008,2,0,P|169:242|114:181,1,167.999994873047,8|0,1:2|0:2,0:2:0:0:
0,300,99458,6,0,P|43:299|89:267,1,83.9999974365235,2|0,1:2|0:2,0:2:0:0:
211,148,99758,1,8,0:2:0:0:
177,59,99908,2,0,P|140:38|98:38,1,83.9999974365235,0|0,1:2|0:2,0:2:0:0:
211,148,100208,1,0,2:2:0:0:
279,207,100358,6,0,P|359:224|431:185,1,167.999994873047,2|0,1:2|0:2,0:2:0:0:
501,246,100808,1,8,1:2:0:0:
433,95,100958,2,0,P|469:74|511:74,1,83.9999974365235,2|0,3:2|0:2,0:2:0:0:
279,207,101258,2,0,P|239:134|257:54,1,167.999994873047,2|8,0:2|0:2,0:2:0:0:
363,214,101708,2,0,P|352:254|322:283,2,83.9999974365235,2|0|0,0:2|1:2|0:2,0:2:0:0:
331,94,102158,6,0,P|258:54|178:71,1,167.999994873047,2|0,1:2|0:2,0:2:0:0:
105,185,102608,2,0,P|50:123|48:41,1,167.999994873047,8|0,1:2|0:2,0:2:0:0:
240,183,103058,2,0,P|237:221|210:274,1,83.9999974365235,2|0,1:2|0:2,0:2:0:0:
414,194,103358,2,0,P|382:172|350:122,1,83.9999974365235,8|0,0:2|0:2,0:2:0:0:
317,339,103658,2,0,P|351:322|410:319,1,83.9999974365235,0|0,1:2|0:2,0:2:0:0:
225,154,103958,6,0,P|210:234|146:286,1,167.999994873047,2|0,1:2|0:2,0:2:0:0:
103,371,104408,1,8,1:2:0:0:
0,287,104558,2,0,P|12:239|43:201,1,83.9999974365235,2|0,3:2|0:2,0:2:0:0:
225,154,104858,2,0,P|213:106|182:68,1,83.9999974365235,8|0,0:2|0:2,0:2:0:0:
110,11,105158,5,8,0:2:0:0:
20,70,105308,1,8,1:2:0:0:
103,137,105458,1,0,3:2:0:0:
193,78,105608,1,0,3:2:0:0:
302,110,105758,6,0,P|327:163|324:242,1,125.999996154785,6|0,1:2|0:2,0:2:0:0:
368,297,106208,1,0,1:2:0:0:
275,365,106358,2,0,P|213:374|153:357,1,125.999996154785,8|0,0:2|0:2,0:2:0:0:
62,169,106958,6,0,P|36:166|-15:179,1,62.9999980773926,8|0,0:2|0:2,0:2:0:0:
135,276,107258,2,0,P|138:250|125:199,1,62.9999980773926,0|0,1:2|0:2,0:2:0:0:
253,129,107558,2,0,P|192:147|133:127,1,125.999996154785,2|0,1:2|0:2,0:2:0:0:
275,44,108008,1,0,1:2:0:0:
341,103,108158,2,0,P|343:134|337:165,1,62.9999980773926,8|0,0:2|0:2,0:2:0:0:
454,213,108458,2,0,P|444:151|461:91,1,125.999996154785,2|8,0:2|0:2,0:2:0:0:
241,270,109058,6,0,P|271:262|302:262,1,62.9999980773926,0|0,1:2|0:2,0:2:0:0:
347,358,109358,2,0,P|287:378|225:371,1,125.999996154785,2|0,1:2|0:2,0:2:0:0:
150,380,109808,1,0,1:2:0:0:
70,294,109958,2,0,P|63:231|83:172,1,125.999996154785,8|0,0:2|0:2,0:2:0:0:
218,47,110558,5,8,0:2:0:0:
230,121,110708,1,0,1:2:0:0:
465,80,111008,5,0,3:2:0:0:
453,6,111158,1,0,1:2:0:0:
318,178,111458,6,0,P|355:165|400:167,1,62.9999980773926,2|0,0:2|1:2,0:2:0:0:
507,222,111758,2,0,P|470:209|425:211,1,62.9999980773926,8|0,0:2|0:2,0:2:0:0:
301,311,112058,2,0,P|358:275|428:283,2,125.999996154785,2|8|0,1:2|0:2|3:2,0:2:0:0:
254,373,112808,1,0,3:2:0:0:
137,286,112958,6,0,P|113:226|125:165,1,125.999996154785,10|0,1:1|0:2,0:2:0:0:
185,116,113408,1,0,1:2:0:0:
283,167,113558,2,0,P|341:166|402:130,1,125.999996154785,8|0,0:2|0:2,0:2:0:0:
155,34,114158,6,0,P|121:24|69:25,1,62.9999980773926,8|0,0:2|0:2,0:2:0:0:
18,67,114458,2,0,P|8:101|9:153,1,62.9999980773926,0|0,1:2|0:2,0:2:0:0:
39,210,114758,2,0,P|79:228|174:220,1,125.999996154785,2|0,1:2|0:2,0:2:0:0:
289,269,115208,1,0,1:2:0:0:
349,203,115358,2,0,P|346:171|337:141,1,62.9999980773926,8|0,0:2|0:2,0:2:0:0:
443,256,115658,2,0,P|436:318|458:376,2,125.999996154785,2|8|0,0:2|0:2|1:2,0:2:0:0:
210,174,116558,6,0,P|216:111|194:53,1,125.999996154785,2|0,1:2|0:2,0:2:0:0:
138,11,117008,1,0,1:2:0:0:
47,88,117158,2,0,P|40:150|62:208,1,125.999996154785,8|0,0:2|0:2,0:2:0:0:
222,288,117758,5,8,0:2:0:0:
147,299,117908,1,0,1:2:0:0:
359,351,118208,5,0,3:2:0:0:
434,362,118358,1,0,1:2:0:0:
311,154,118658,6,0,P|290:185|277:235,1,62.9999980773926,2|0,1:2|0:2,0:2:0:0:
416,212,118958,2,0,P|404:241|386:266,1,62.9999980773926,8|0,0:2|0:2,0:2:0:0:
393,112,119258,2,0,P|340:72|263:79,1,125.999996154785,2|8,1:2|0:2,0:2:0:0:
211,96,119708,1,0,1:2:0:0:
154,46,119858,1,2,0:2:0:0:
225,21,120008,1,0,3:2:0:0:
268,145,120158,6,0,P|321:185|398:178,1,125.999996154785,2|0,1:1|0:2,0:2:0:0:
425,244,120608,1,0,1:2:0:0:
510,191,120758,2,0,P|504:160|492:131,1,62.9999980773926,10|0,0:2|0:2,0:2:0:0:
425,244,121058,2,0,P|430:274|442:303,1,62.9999980773926,0|0,0:2|0:2,0:2:0:0:
301,215,121358,6,0,P|239:217|190:255,1,125.999996154785,10|0,0:2|1:2,0:2:0:0:
155,323,121808,1,0,0:2:0:0:
266,374,121958,2,0,P|296:368|325:356,1,62.9999980773926,2|0,1:2|0:2,0:2:0:0:
442,303,122258,2,0,P|454:331|459:362,1,62.9999980773926,0|0,0:2|1:2,0:2:0:0:
276,297,122558,2,0,P|262:236|286:179,2,125.999996154785,10|0|8,0:2|0:2|0:2,0:2:0:0:
325,356,123308,1,0,0:2:0:0:
442,303,123458,2,0,P|470:290|501:285,1,62.9999980773926,0|0,1:2|0:2,0:2:0:0:
362,146,123758,6,0,P|300:143|251:105,1,125.999996154785,2|0,1:1|0:2,0:2:0:0:
206,42,124208,1,0,1:2:0:0:
88,98,124358,2,0,P|102:70|128:52,1,62.9999980773926,8|0,0:2|0:2,0:2:0:0:
209,189,124658,2,0,P|194:216|169:235,1,62.9999980773926,0|0,0:2|0:2,0:2:0:0:
35,287,124958,5,8,0:2:0:0:
93,362,125108,2,0,P|153:375|210:351,1,125.999996154785,0|0,1:2|0:2,0:2:0:0:
319,286,125558,2,0,P|335:319|334:367,1,70,2|0,1:2|0:2,0:2:0:0:
169,235,125858,2,0,P|171:200|187:169,1,70,0|0,0:2|1:2,0:2:0:0:
317,73,126158,5,8,0:2:0:0:
391,125,126308,1,8,0:2:0:0:
460,65,126458,1,2,1:2:0:0:
512,288,126758,5,10,1:2:0:0:
307,55,127058,5,2,3:2:0:0:
221,115,127208,1,0,3:2:0:0:
148,38,127358,2,0,P|115:28|2:85,2,157.500006008148,2|0|0,1:1|1:2|0:2,0:2:0:0:
256,128,128558,2,0,L|261:249,1,105.000004005432,8|0,0:2|1:2,0:2:0:0:
364,346,129158,6,0,P|397:356|510:299,2,157.500006008148,2|0|0,1:1|1:2|0:2,0:2:0:0:
256,256,130358,2,0,L|251:135,1,105.000004005432,8|0,0:2|1:2,0:2:0:0:
160,34,130958,6,0,P|105:26|44:61,1,114.800001751709,2|0,1:1|0:2,0:2:0:0:
5,113,131408,1,0,1:2:0:0:
74,189,131558,2,0,P|129:197|190:162,1,114.800001751709,8|0,0:2|0:2,0:2:0:0:
390,318,132158,1,8,0:2:0:0:
390,318,132308,2,0,P|335:310|274:345,1,114.800001751709,0|0,1:2|0:2,0:2:0:0:
465,366,132758,6,0,P|476:338|475:304,1,62.9999980773926,2|0,1:2|0:2,0:2:0:0:
335,167,133058,2,0,P|324:195|324:228,1,62.9999980773926,2|0,1:2|0:2,0:2:0:0:
500,165,133358,2,0,P|511:137|510:103,1,62.9999980773926,10|0,0:2|0:2,0:2:0:0:
368,24,133658,1,2,1:2:0:0:
368,24,133808,2,0,P|304:36|240:9,1,125.999996154785,8|0,0:2|1:2,0:2:0:0:
131,49,134258,1,2,3:2:0:0:
200,128,134408,1,0,3:2:0:0:
79,179,134558,6,0,P|46:218|46:303,1,119.000002269745,2|0,1:1|0:2,0:2:0:0:
66,350,135008,1,0,1:2:0:0:
154,298,135158,2,0,P|188:289|230:293,1,59.5000011348725,8|0,0:2|0:2,0:2:0:0:
320,318,135458,2,0,P|316:259|280:213,1,119.000002269745,2|8,0:2|0:2,0:2:0:0:
211,192,135908,1,0,0:2:0:0:
162,122,136058,2,0,P|168:95|182:60,1,59.5000011348725,0|0,1:2|0:2,0:2:0:0:
277,18,136358,6,0,P|313:44|399:43,1,119.000002269745,2|0,1:2|0:2,0:2:0:0:
452,22,136808,1,0,1:2:0:0:
512,133,136958,2,0,P|509:104|496:78,1,59.5000011348725,8|0,0:2|0:2,0:2:0:0:
375,158,137258,2,0,P|378:187|391:213,1,59.5000011348725,2|0,0:2|0:2,0:2:0:0:
363,315,137558,2,0,P|421:315|471:284,1,119.000002269745,8|0,0:2|1:2,0:2:0:0:
491,216,138008,1,0,0:2:0:0:
375,158,138158,6,0,P|348:145|318:143,1,59.5000011348725,2|0,1:1|0:2,0:2:0:0:
421,41,138458,2,0,P|423:70|436:96,1,59.5000011348725,0|0,2:2|1:2,0:2:0:0:
297,60,138758,2,0,P|321:43|337:18,1,59.5000011348725,8|0,0:2|0:2,0:2:0:0:
375,158,139058,2,0,P|319:142|263:165,1,119.000002269745,2|8,0:2|0:2,0:2:0:0:
208,225,139508,1,0,1:2:0:0:
241,301,139658,2,0,P|272:310|303:309,1,59.5000011348725,0|0,0:2|0:2,0:2:0:0:
208,225,139958,6,0,P|152:209|84:238,1,128.79999567627,2|0,1:1|0:2,0:2:0:0:
30,284,140408,1,8,0:2:0:0:
15,208,140558,1,0,3:2:0:0:
89,234,140708,1,8,0:2:0:0:
144,132,140858,6,0,P|144:99|131:58,1,64.3999978381348,8|0,1:2|0:2,0:2:0:0:
292,1,141158,2,0,P|283:32|283:64,1,64.3999978381348,0|0,1:2|0:2,0:2:0:0:
413,153,141458,2,0,P|421:121|421:89,1,64.3999978381348,8|0,1:2|0:2,0:2:0:0:
241,123,141758,6,0,P|287:110|362:111,1,105.000004005432,2|0,1:2|0:2,0:2:0:0:
344,109,142358,2,0,P|293:122|241:123,1,105.000004005432,0|0,0:2|0:2,0:2:0:0:
118,91,142958,1,8,1:2:0:0:
87,212,143258,1,0,1:2:0:0:
209,243,143558,6,0,P|222:294|223:346,1,105.000004005432,2|0,1:2|0:2,0:2:0:0:
223,346,144158,2,0,P|210:295|209:243,1,105.000004005432,0|0,0:2|0:2,0:2:0:0:
298,139,144758,1,8,1:2:0:0:
405,223,145058,1,0,1:2:0:0:
510,105,145358,6,0,P|508:80|497:52,1,52.5000020027161,2|0,1:2|0:2,0:2:0:0:
437,13,145658,2,0,P|412:15|384:26,1,52.5000020027161,0|0,1:2|0:2,0:2:0:0:
341,83,145958,2,0,P|292:98|232:88,1,105.000004005432,0|0,0:2|0:2,0:2:0:0:
90,0,146558,5,8,0:2:0:0:
42,56,146708,1,0,1:2:0:0:
95,106,146858,2,0,P|134:95|166:93,1,52.5000020027161,2|0,0:2|0:2,0:2:0:0:
256,122,147158,6,0,P|265:162|258:246,1,105.000004005432,2|0,1:1|0:2,0:2:0:0:
180,279,147608,2,0,P|131:259|24:277,1,157.500006008148,0|0,1:2|0:2,0:2:0:0:
30,274,148358,2,0,P|26:221|36:170,1,105.000004005432,10|0,0:2|1:2,0:2:0:0:
73,108,148808,1,0,3:2:0:0:
151,180,148958,6,0,P|180:179|211:172,1,52.5000020027161,2|0,1:2|0:2,0:2:0:0:
297,119,149258,2,0,P|326:120|357:127,1,52.5000020027161,0|0,1:2|0:2,0:2:0:0:
442,156,149558,2,0,P|445:103|435:52,1,105.000004005432,0|0,0:2|0:2,0:2:0:0:
435,52,150158,2,0,P|409:47|383:46,1,52.5000020027161,10|0,0:2|0:2,0:2:0:0:
297,119,150458,2,0,P|322:123|348:124,1,52.5000020027161,0|0,1:2|0:2,0:2:0:0:
243,44,150758,6,0,P|214:31|134:44,2,105.000004005432,2|0|0,1:2|0:2|0:2,0:2:0:0:
168,200,151658,2,0,P|167:173|172:148,1,52.5000020027161,2|0,0:2|0:2,0:2:0:0:
283,213,151958,2,0,P|283:239|278:264,1,52.5000020027161,8|0,1:2|0:2,0:2:0:0:
188,338,152258,2,0,P|164:327|138:322,1,52.5000020027161,0|0,1:2|3:2,0:2:0:0:
132,325,152483,1,0,3:2:0:0:
125,328,152558,6,0,P|74:331|26:309,1,105.000004005432,2|0,1:2|0:2,0:2:0:0:
160,188,153158,2,0,P|112:166|61:170,1,105.000004005432,2|0,0:2|0:2,0:2:0:0:
222,72,153758,1,8,0:2:0:0:
222,72,153908,2,0,P|273:75|320:54,1,105.000004005432,0|0,1:2|0:2,0:2:0:0:
410,114,154358,6,0,P|457:91|508:94,1,105.000004005432,2|0,1:2|1:2,0:2:0:0:
444,192,154808,1,0,0:2:0:0:
444,192,154958,2,0,P|459:220|465:248,1,52.5000020027161,2|0,0:2|0:2,0:2:0:0:
391,323,155258,2,0,P|376:295|370:267,1,52.5000020027161,0|0,1:2|0:2,0:2:0:0:
291,214,155558,1,10,0:2:0:0:
229,254,155708,1,0,1:2:0:0:
171,208,155858,2,0,P|178:182|191:160,1,52.5000020027161,0|0,0:2|3:2,0:2:0:0:
120,71,156158,6,0,P|178:76|233:54,1,119.000002269745,2|0,1:2|0:2,0:2:0:0:
191,160,156608,2,0,P|166:106|119:70,1,119.000002269745,8|0,0:2|0:2,0:2:0:0:
59,220,157058,2,0,P|32:224|-13:240,1,59.5000011348725,2|0,1:2|0:2,0:2:0:0:
124,313,157358,2,0,P|151:309|196:293,1,59.5000011348725,8|0,0:2|0:2,0:2:0:0:
279,216,157658,1,0,1:2:0:0:
338,149,157808,1,0,3:2:0:0:
419,189,157958,6,0,P|442:230|421:340,1,140,10|0,1:2|0:2,0:2:0:0:
380,381,158408,1,8,0:2:0:0:
273,285,158558,2,0,P|271:251|284:207,1,70,2|0,0:2|1:2,0:2:0:0:
360,54,158858,5,2,1:2:0:0:
419,189,159008,1,2,0:3:0:0:
231,143,159158,2,0,L|328:131,1,80.5000015354157,8|0,1:2|0:2,0:2:0:0:
182,328,159458,2,0,L|279:316,1,80.5000015354157,8|0,1:2|0:2,0:2:0:0:
84,209,159758,6,0,P|27:229|13:355,1,181.999991668702,6|0,1:1|0:2,0:2:0:0:
155,243,160208,2,0,P|158:182|142:155,2,90.9999958343508,8|0|0,1:2|3:2|0:2,0:2:0:0:
328,137,160658,2,0,P|240:131|199:55,1,181.999991668702,2|8,0:2|0:2,0:2:0:0:
271,0,161108,1,0,0:2:0:0:
403,85,161258,6,0,P|420:126|413:170,1,90.9999958343508,0|0,1:2|0:2,0:2:0:0:
244,265,161558,2,0,P|251:178|328:137,1,181.999991668702,2|0,1:2|0:2,0:2:0:0:
413,171,162008,1,8,1:2:0:0:
384,320,162158,2,0,P|300:345|234:289,2,181.999991668702,2|0|8,3:2|1:2|0:2,0:2:0:0:
441,251,162908,1,0,0:2:0:0:
327,136,163058,6,0,P|332:91|366:39,1,90.9999958343508,0|0,1:2|0:2,0:2:0:0:
140,5,163358,2,0,P|161:44|166:89,1,90.9999958343508,2|0,1:2|0:2,0:2:0:0:
27,195,163658,2,0,P|5:155|0:110,1,90.9999958343508,0|8,0:2|1:2,0:2:0:0:
210,248,163958,6,0,P|163:237|64:329,2,181.999991668702,2|0|8,3:2|1:2|0:2,0:2:0:0:
296,208,164708,1,0,1:2:0:0:
368,316,164858,2,0,P|411:331|463:322,1,90.9999958343508,0|0,0:2|0:2,0:2:0:0:
296,208,165158,6,0,P|281:165|288:119,1,90.9999958343508,2|0,1:2|0:2,0:2:0:0:
338,45,165458,1,0,1:2:0:0:
452,101,165608,2,0,P|471:141|466:198,2,90.9999958343508,8|2|0,1:2|3:2|0:2,0:2:0:0:
353,278,166058,2,0,P|397:282|439:265,1,90.9999958343508,2|0,1:2|0:2,0:2:0:0:
287,120,166358,5,10,0:2:0:0:
249,252,166508,1,0,1:2:0:0:
215,351,166658,5,2,3:2:0:0:
170,175,166808,1,0,3:2:0:0:
135,289,166958,6,0,P|88:357|-8:348,1,181.999991668702,10|0,1:1|0:2,0:2:0:0:
81,200,167408,2,0,P|84:146|116:102,1,90.9999958343508,8|0,1:2|3:2,0:2:0:0:
259,45,167708,1,0,0:2:0:0:
312,120,167858,2,0,P|256:187|170:175,1,181.999991668702,2|8,0:2|0:2,0:2:0:0:
102,114,168308,1,0,0:2:0:0:
259,45,168458,6,0,P|218:23|166:27,1,90.9999958343508,0|0,1:2|0:2,0:2:0:0:
312,120,168758,2,0,P|398:127|450:57,1,181.999991668702,2|0,1:2|0:2,0:2:0:0:
372,9,169208,1,8,1:2:0:0:
225,128,169358,2,0,P|238:171|270:201,1,90.9999958343508,2|0,3:2|0:2,0:2:0:0:
138,64,169658,2,0,P|51:56|0:126,2,181.999991668702,2|8|2,1:2|0:2|1:3,0:2:0:0:
256,384,170558,5,6,1:2:0:0:
441,224,170858,5,8,0:2:0:0:
429,297,171008,1,8,2:3:0:0:
83,297,171308,5,4,0:3:0:0:
71,224,171458,1,4,1:2:0:0:
256,0,171758,5,2,1:3:0:0:
301,184,172058,5,2,0:2:0:0:
211,200,172208,1,0,1:2:0:0:
328,93,172358,6,0,P|405:147|497:124,1,195.999994018555,6|0,1:2|0:2,0:2:0:0:
289,10,172808,2,0,P|250:41|240:88,2,97.9999970092774,8|0|0,1:2|3:2|0:2,0:2:0:0:
417,53,173258,2,0,P|425:147|359:215,1,195.999994018555,2|8,1:2|0:2,0:2:0:0:
311,301,173708,1,0,0:2:0:0:
220,179,173858,6,0,P|171:163|111:171,1,97.9999970092774,0|0,1:2|0:2,0:2:0:0:
54,259,174158,2,0,P|7:176|40:86,1,195.999994018555,2|0,1:2|0:2,0:2:0:0:
160,262,174608,2,0,P|151:304|110:354,2,97.9999970092774,8|0|0,1:2|3:2|0:2,0:2:0:0:
256,113,175058,2,0,P|235:69|234:20,1,97.9999970092774,2|0,1:2|0:2,0:2:0:0:
467,44,175358,5,10,0:2:0:0:
422,179,175508,1,0,1:2:0:0:
377,89,175658,5,2,1:2:0:0:
512,134,175808,1,0,3:2:0:0:
313,171,175958,6,0,P|266:223|312:354,1,195.999994018555,2|0,1:1|0:2,0:2:0:0:
378,380,176408,1,8,1:2:0:0:
417,263,176558,2,0,P|464:250|512:255,1,97.9999970092774,0|0,3:2|0:2,0:2:0:0:
308,71,176858,2,0,P|356:75|403:63,1,97.9999970092774,2|0,1:2|0:2,0:2:0:0:
228,178,177158,1,8,0:2:0:0:
140,122,177308,2,0,P|46:138|8:225,1,195.999994018555,0|0,1:2|0:2,0:2:0:0:
201,348,177758,6,0,P|154:362|107:349,1,97.9999970092774,2|0,1:2|0:2,0:2:0:0:
256,192,178058,1,0,1:2:0:0:
388,292,178208,2,0,P|386:341|359:381,1,97.9999970092774,8|0,1:2|3:2,0:2:0:0:
256,192,178508,1,0,0:2:0:0:
391,97,178658,2,0,P|438:113|468:151,1,97.9999970092774,2|0,1:2|0:2,0:2:0:0:
189,50,178958,5,2,1:2:0:0:
310,24,179108,1,0,0:2:0:0:
176,79,179258,5,2,3:2:0:0:
314,135,179408,1,0,3:2:0:0:
110,165,179558,6,0,P|48:221|80:352,1,195.999994018555,10|0,1:1|0:2,0:2:0:0:
145,381,180008,1,8,1:2:0:0:
329,286,180158,2,0,P|343:332|342:381,1,97.9999970092774,0|0,3:2|0:2,0:2:0:0:
181,206,180458,2,0,P|274:220|340:153,1,195.999994018555,2|8,1:2|0:2,0:2:0:0:
368,55,180908,1,2,0:2:0:0:
271,27,181058,1,0,1:2:0:0:
243,124,181208,1,0,0:2:0:0:
436,131,181358,6,0,P|503:196|489:290,1,195.999994018555,2|0,1:2|0:2,0:2:0:0:
424,363,181808,1,8,1:2:0:0:
302,241,181958,2,0,P|261:227|197:228,1,97.9999970092774,2|0,3:2|0:2,0:2:0:0:
22,324,182258,2,0,P|7:230|75:164,2,195.999994018555,2|8|2,1:2|0:2|1:3,0:2:0:0:
256,384,183158,5,6,1:2:0:0:
398,192,183458,5,8,0:2:0:0:
431,258,183608,1,0,1:2:0:0:
472,197,183758,1,0,3:2:0:0:
256,0,184058,5,6,1:2:0:0:
114,192,184358,5,2,3:3:0:0:
81,258,184508,2,0,B|53:267|53:267|9:249|13:202,1,105.000004005432,0|0,1:2|0:2,0:2:0:0:
81,81,184958,5,6,1:2:0:0:
304,209,185258,5,8,0:2:0:0:
216,224,185408,1,0,1:2:0:0:
246,141,185558,1,0,3:2:0:0:
426,29,185858,5,2,1:2:0:0:
512,342,186158,5,2,1:3:0:0:
347,129,186608,5,2,0:2:0:0:
452,160,186758,1,6,1:2:0:0:
165,255,187058,5,8,0:2:0:0:
60,224,187208,1,0,1:2:0:0:
377,211,187508,5,8,0:2:0:0:
397,314,187658,1,6,1:2:0:0:
135,173,187958,5,2,3:3:0:0:
115,70,188108,1,0,1:2:0:0:
206,7,188258,5,0,0:2:0:0:
225,30,188333,1,0,0:2:0:0:
251,45,188408,1,0,0:2:0:0:
281,50,188483,1,0,0:2:0:0:
310,43,188558,6,0,P|396:31|452:104,1,181.999991668702,6|0,1:1|1:2,0:2:0:0:
505,167,189008,1,8,1:2:0:0:
350,203,189158,2,0,P|349:157|364:115,1,90.9999958343508,0|0,3:2|0:2,0:2:0:0:
437,219,189458,2,0,P|382:286|295:274,1,181.999991668702,2|8,1:2|0:2,0:2:0:0:
192,379,189908,2,0,P|229:361|280:363,1,90.9999958343508,0|0,1:2|0:2,0:2:0:0:
109,192,190208,5,0,0:2:0:0:
71,264,190358,2,0,P|47:297|1:321,1,90.9999958343508,2|0,1:2|0:2,0:2:0:0:
109,192,190658,1,0,0:2:0:0:
65,123,190808,2,0,P|47:85|49:34,1,90.9999958343508,8|0,1:2|3:2,0:2:0:0:
109,192,191108,1,0,0:2:0:0:
190,188,191258,2,0,P|277:223|289:324,2,181.999991668702,2|8|0,0:2|0:2|1:2,0:2:0:0:
102,212,192008,1,0,0:2:0:0:
148,351,192158,6,0,P|234:365|296:302,1,181.999991668702,2|0,1:2|0:2,0:2:0:0:
435,203,192608,2,0,P|441:247|460:289,2,90.9999958343508,8|0|0,1:2|3:2|0:2,0:2:0:0:
333,86,193058,2,0,P|326:41|307:0,1,90.9999958343508,0|0,1:2|0:2,0:2:0:0:
143,104,193358,2,0,P|150:149|169:191,1,90.9999958343508,8|0,0:2|0:2,0:2:0:0:
259,256,193658,6,0,P|304:262|346:281,1,90.9999958343508,0|0,1:2|0:2,0:2:0:0:
162,301,193958,2,0,P|98:344|-3:312,1,181.999991668702,2|0,1:2|0:2,0:2:0:0:
168,190,194408,2,0,P|149:148|142:103,1,90.9999958343508,8|0,1:2|3:2,0:2:0:0:
181,23,194708,1,0,0:2:0:0:
301,128,194858,6,0,P|387:147|460:91,1,181.999991668702,2|8,0:2|0:2,0:2:0:0:
487,8,195308,1,0,1:2:0:0:
327,42,195458,2,0,P|308:84|301:129,1,90.9999958343508,0|0,0:2|0:2,0:2:0:0:
235,314,195758,2,0,P|216:272|209:227,1,90.9999958343508,0|0,1:2|0:2,0:2:0:0:
112,83,196058,5,2,0:2:0:0:
211,34,196208,1,8,1:2:0:0:
118,109,196358,5,2,0:2:0:0:
0,71,196508,1,0,0:2:0:0:
123,135,196658,6,0,P|182:137|231:109,1,90.9999958343508,2|0,1:2|0:2,0:2:0:0:
385,0,196958,1,10,0:2:0:0:
385,0,197108,2,0,P|313:51|313:138,1,181.999991668702,0|0,1:2|0:2,0:2:0:0:
467,231,197558,6,0,P|466:143|395:92,1,181.999991668702,2|0,1:2|0:2,0:2:0:0:
282,234,198008,1,8,1:2:0:0:
340,311,198158,2,0,P|384:316|429:298,1,90.9999958343508,0|0,3:2|0:2,0:2:0:0:
313,138,198458,2,0,P|268:132|224:151,1,90.9999958343508,0|0,0:2|0:2,0:2:0:0:
92,240,198758,2,0,P|84:152|151:95,1,181.999991668702,10|0,0:2|1:2,0:2:0:0:
227,149,199208,1,0,0:2:0:0:
388,191,199358,6,0,P|396:103|330:46,1,181.999991668702,2|0,1:1|0:2,0:2:0:0:
250,1,199808,1,8,1:2:0:0:
149,95,199958,2,0,P|136:136|143:190,1,90.9999958343508,0|0,3:2|0:2,0:2:0:0:
171,311,200258,2,0,P|113:377|26:368,2,181.999991668702,2|8|0,1:2|0:2|1:2,0:2:0:0:
250,266,201008,1,0,0:2:0:0:
341,356,201158,6,0,P|428:364|485:298,1,181.999991668702,2|0,1:2|0:2,0:2:0:0:
507,209,201608,1,8,1:2:0:0:
364,140,201758,2,0,P|408:128|453:134,1,90.9999958343508,0|0,3:2|0:2,0:2:0:0:
250,266,202058,2,0,P|295:270|338:259,1,90.9999958343508,2|0,0:2|0:2,0:2:0:0:
183,147,202358,5,2,1:2:0:0:
121,312,202508,1,8,2:2:0:0:
46,261,202658,5,2,1:2:0:0:
28,84,202808,1,8,0:2:0:0:
183,147,202958,6,0,P|245:156|327:63,1,181.999991668702,6|8,1:2|1:2,0:2:0:0:
266,7,203408,1,0,1:2:0:0:
130,82,203558,2,0,P|105:120|99:170,1,90.9999958343508,2|0,0:2|0:2,0:2:0:0:
312,261,203858,5,2,1:2:0:0:
407,218,204008,1,8,0:2:0:0:
469,301,204158,1,8,0:2:0:0:
374,344,204308,2,0,P|300:290|210:306,1,181.999991668702,2|0,1:2|3:2,0:2:0:0:
161,134,204758,6,0,P|87:184|-1:171,1,181.999991668702,2|8,1:2|1:2,0:2:0:0:
158,43,205208,1,0,1:2:0:0:
241,78,205358,2,0,P|254:118|248:175,1,90.9999958343508,2|0,0:2|0:2,0:2:0:0:
99,281,205658,2,0,P|86:237|90:192,1,90.9999958343508,8|0,0:2|0:2,0:2:0:0:
270,271,205958,5,10,0:2:0:0:
221,384,206108,1,8,0:3:0:0:
349,319,206258,5,2,1:2:0:0:
322,195,206408,1,0,3:2:0:0:
434,129,206558,6,0,P|506:187|495:274,1,181.999991668702,6|0,1:2|0:2,0:2:0:0:
416,379,207008,2,0,P|474:376|508:355,1,90.9999958343508,8|0,1:2|3:2,0:2:0:0:
322,195,207308,1,0,0:2:0:0:
245,249,207458,2,0,P|218:300|219:340,1,90.9999958343508,2|0,1:2|0:2,0:2:0:0:
313,101,207758,2,0,P|281:52|246:33,1,90.9999958343508,8|0,0:2|0:2,0:2:0:0:
407,233,208058,2,0,P|465:229|498:209,1,90.9999958343508,0|0,1:2|0:2,0:2:0:0:
254,36,208358,6,0,P|165:42|108:110,1,181.999991668702,2|0,1:2|0:2,0:2:0:0:
102,275,208808,2,0,P|61:255|-2:256,2,90.9999958343508,8|0|0,1:2|3:2|0:2,0:2:0:0:
199,359,209258,5,2,0:2:0:0:
179,189,209408,1,0,3:2:0:0:
298,113,209558,5,10,2:2:0:0:
259,264,209708,1,0,1:2:0:0:
362,358,209858,5,0,0:2:0:0:
394,366,209933,1,0,0:2:0:0:
428,364,210008,1,0,0:2:0:0:
460,351,210083,1,0,0:2:0:0:
486,329,210158,6,0,P|500:248|458:170,1,167.999994873047,10|0,1:1|1:2,0:2:0:0:
391,131,210608,1,8,1:2:0:0:
335,266,210758,2,0,P|294:277|254:268,1,83.9999974365235,0|0,3:2|0:2,0:2:0:0:
108,225,211058,2,0,P|70:298|85:379,1,167.999994873047,2|8,1:2|0:2,0:2:0:0:
194,212,211508,2,0,P|177:171|141:143,1,83.9999974365235,0|0,1:2|0:2,0:2:0:0:
303,23,211808,5,0,0:2:0:0:
303,23,211958,2,0,P|261:28|222:13,1,83.9999974365235,2|0,1:2|0:2,0:2:0:0:
402,98,212258,1,0,0:2:0:0:
402,98,212408,2,0,P|396:56|411:17,1,83.9999974365235,8|0,1:2|3:2,0:2:0:0:
332,196,212708,1,0,0:2:0:0:
332,196,212858,2,0,P|413:207|442:295,2,167.999994873047,2|8|0,2:2|0:2|1:2,0:2:0:0:
256,154,213608,1,0,0:2:0:0:
157,250,213758,6,0,P|75:238|46:150,1,167.999994873047,2|0,1:2|0:2,0:2:0:0:
1,93,214208,1,8,1:2:0:0:
142,43,214358,2,0,P|103:30|62:36,1,83.9999974365235,0|0,3:2|0:2,0:2:0:0:
175,161,214658,2,0,P|216:166|256:154,1,83.9999974365235,2|0,1:2|0:2,0:2:0:0:
373,84,214958,2,0,P|367:42|380:3,1,83.9999974365235,8|0,0:2|0:2,0:2:0:0:
505,219,215258,2,0,P|517:179|512:138,1,83.9999974365235,0|0,1:2|0:2,0:2:0:0:
310,238,215558,6,0,P|366:167|452:182,1,167.999994873047,2|0,1:2|0:2,0:2:0:0:
505,219,216008,1,8,1:2:0:0:
433,328,216158,2,0,P|387:333|335:302,1,83.9999974365235,0|0,3:2|0:2,0:2:0:0:
220,225,216458,2,0,P|139:224|93:291,1,167.999994873047,2|8,0:2|0:2,0:2:0:0:
242,384,216908,2,0,P|263:348|264:306,1,83.9999974365235,0|0,1:2|0:2,0:2:0:0:
135,188,217208,5,0,0:2:0:0:
135,188,217358,2,0,P|54:188|15:120,1,154.000004699707,2|0,1:1|1:2,0:2:0:0:
11,55,217808,1,8,1:2:0:0:
153,35,217958,2,0,P|118:20|80:20,1,77.0000023498536,0|0,3:2|0:2,0:2:0:0:
202,123,218258,2,0,P|283:123|322:55,1,154.000004699707,2|8,1:2|0:2,0:2:0:0:
421,221,218708,2,0,P|386:201|347:193,2,77.0000023498536,0|0|0,1:2|0:2|0:2,0:2:0:0:
468,362,219158,6,0,P|393:364|350:304,1,154.000004699707,2|0,1:2|0:2,0:2:0:0:
282,266,219608,1,8,1:2:0:0:
331,173,219758,2,0,P|287:113|213:115,1,154.000004699707,0|0,3:2|0:2,0:2:0:0:
143,361,220358,6,0,P|146:322|135:286,1,77.0000023498536,10|0,0:2|0:2,0:2:0:0:
28,299,220658,2,0,P|25:337|36:373,1,77.0000023498536,0|0,1:2|0:2,0:2:0:0:
98,215,220958,6,0,P|31:218|-3:161,1,140,2|0,1:2|0:2,0:2:0:0:
100,103,221408,1,8,1:2:0:0:
182,188,221558,2,0,P|185:222|175:260,1,70,0|0,3:2|0:2,0:2:0:0:
347,147,221858,2,0,P|280:149|245:92,1,140,2|8,1:2|0:2,0:2:0:0:
429,120,222308,2,0,P|431:154|423:188,2,70,0|0|0,2:2|1:2|2:2,2:2:0:0:
298,32,222758,6,0,P|248:62|179:43,1,125.999996154785,2|0,1:2|0:2,0:2:0:0:
118,12,223208,1,8,1:2:0:0:
42,100,223358,2,0,P|38:139|49:173,1,62.9999980773926,0|0,3:2|0:2,0:2:0:0:
124,256,223658,2,0,P|65:270|12:239,1,125.999996154785,2|8,0:2|0:2,0:2:0:0:
157,187,224108,1,0,1:2:0:0:
199,248,224258,2,0,P|198:281|182:308,1,62.9999980773926,0|0,0:2|0:2,0:2:0:0:
273,232,224558,6,0,P|332:246|383:216,1,112,2|0,1:2|1:2,0:2:0:0:
432,268,225008,1,8,1:2:0:0:
493,197,225158,2,0,P|488:160|476:139,1,56,0|0,3:2|0:2,0:2:0:0:
423,64,225458,2,0,P|428:27|440:6,1,56,2|0,1:2|0:2,0:2:0:0:
348,106,225758,1,8,0:2:0:0:
348,106,225908,2,0,P|295:121|245:99,1,112,0|0,1:2|0:2,0:2:0:0:
174,33,226358,6,0,P|123:10|77:20,1,97.9999970092774,2|0,1:2|0:2,0:2:0:0:
29,62,226808,2,0,P|21:77|17:117,1,48.9999985046387,8|0,1:2|3:2,0:2:0:0:
152,231,227258,2,0,P|108:252|60:246,2,97.9999970092774,2|8|0,0:2|0:2|1:2,0:2:0:0:
203,181,228008,1,0,0:2:0:0:
280,220,228158,6,0,P|297:252|292:307,1,83.9999974365235,2|0,1:2|0:2,0:2:0:0:
252,357,228608,1,8,1:2:0:0:
252,357,228758,2,0,P|220:374|165:369,1,83.9999974365235,0|0,3:2|1:2,0:2:0:0:
73,315,229358,2,0,P|70:273|88:236,1,83.9999974365235,8|0,0:2|1:2,0:2:0:0:
200,188,229958,6,0,P|229:191|264:178,1,56,2|0,1:2|0:2,0:2:0:0:
315,139,230408,1,8,1:2:0:0:
315,139,230558,2,0,P|307:112|310:84,1,56,0|0,3:2|0:2,0:2:0:0:
469,23,231158,2,0,P|446:17|429:16,1,28,2|0,0:2|0:2,0:2:0:0:
428,90,231458,2,0,P|451:96|468:97,1,28,8|0,0:2|0:2,0:2:0:0:
373,40,231758,5,4,1:1:0:0:
