osu file format v14

[General]
AudioFilename: audio 1.4x.mp3
AudioLeadIn: 1000
PreviewTime: 85495
Countdown: 0
SampleSet: None
StackLeniency: 0.8
Mode: 0
LetterboxInBreaks: 0
WidescreenStoryboard: 0

[Editor]
DistanceSpacing: 0.6
BeatDivisor: 4
GridSize: 8
TimelineZoom: 3.499999

[Metadata]
Title:Remote Control speed up. Version
TitleUnicode:Control speed up. Version
Artist:kradness&Reol
ArtistUnicode:kradness&Reol
Creator:Flapster
Version:Remote Control 1.4x
Source:
Tags:
BeatmapID:2038069
BeatmapSetID:973540

[Difficulty]
HPDrainRate:6
CircleSize:4
OverallDifficulty:9
ApproachRate:9.8
SliderMultiplier:1.72
SliderTickRate:1

[Events]
//Background and Video events
0,0,"Remote Control.jpg",0,0
//Break Periods
2,131917,135394
//Storyboard Layer 0 (Background)
//Storyboard Layer 1 (Fail)
//Storyboard Layer 2 (Pass)
//Storyboard Layer 3 (Foreground)
//Storyboard Sound Samples

[TimingPoints]
-1269,259.7403,4,2,0,30,1,0
808,-133.3333,4,2,0,30,0,0
1002,-133.3333,4,2,0,5,0,0
1067,-133.3333,4,2,0,15,0,0
1782,-133.3333,4,2,0,5,0,0
1847,-133.3333,4,2,0,25,0,0
2042,-133.3333,4,2,0,15,0,0
2366,-133.3333,4,2,0,25,0,0
2561,-133.3333,4,2,0,15,0,0
2886,-133.3333,4,2,1,30,0,0
11197,-100,4,2,1,50,0,0
11717,-133.3333,4,2,1,40,0,0
12756,-133.3333,4,2,0,40,0,0
13275,-133.3333,4,2,1,40,0,0
14964,-133.3333,4,2,0,40,0,0
15353,-100,4,2,1,50,0,0
15872,-133.3333,4,2,1,40,0,0
16912,-133.3333,4,2,0,40,0,0
17431,-133.3333,4,2,1,40,0,0
19120,-133.3333,4,2,0,40,0,0
19509,-100,4,2,2,50,0,0
23665,-100,4,2,2,55,0,0
26782,-100,4,2,2,60,0,0
26912,-100,4,2,2,70,0,0
27042,-100,4,2,2,80,0,0
27302,-100,4,2,2,70,0,0
27431,-100,4,2,2,60,0,0
27561,-133.3333,4,2,2,55,0,0
27756,-133.3333,4,2,2,5,0,0
27821,-83.33334,4,2,3,60,0,0
35223,-83.33334,4,2,3,50,0,0
35743,-83.33334,4,2,3,60,0,0
36132,-100,4,2,4,50,0,0
44445,-83.33334,4,2,3,60,0,0
52756,-100,4,2,4,50,0,0
58990,-100,4,2,3,60,0,0
59120,-100,4,2,4,50,0,0
59509,-100,4,2,3,60,0,0
59639,-100,4,2,4,50,0,0
59899,-100,4,2,3,60,0,0
60159,-100,4,2,4,50,0,0
60288,-100,4,2,3,60,0,0
60418,-133.3333,4,2,4,50,0,0
60743,-133.3333,4,2,4,5,0,0
60808,-50,4,2,4,60,0,0
61002,-50,4,2,4,5,0,0
61067,-66.66666,4,1,2,70,0,1
77691,-66.66666,4,2,4,55,0,0
81457,-66.66666,4,2,4,60,0,0
81847,-83.33334,4,2,3,60,0,0
89250,-83.33334,4,2,3,50,0,0
89639,-83.33334,4,2,3,60,0,0
90159,-100,4,2,4,50,0,0
98470,-83.33334,4,2,3,60,0,0
106782,-100,4,2,4,50,0,0
113016,-100,4,2,3,60,0,0
113145,-100,4,2,4,50,0,0
113535,-100,4,2,3,60,0,0
113665,-100,4,2,4,50,0,0
113925,-100,4,2,3,60,0,0
114185,-100,4,2,4,50,0,0
114315,-100,4,2,3,60,0,0
114445,-133.3333,4,2,4,50,0,0
114769,-133.3333,4,2,4,5,0,0
114834,-50,4,2,1,60,0,0
115094,-66.66666,4,1,2,70,0,1
131717,-66.66666,4,1,2,60,0,0
135873,-133.3333,4,2,4,40,0,0
140029,-100,4,2,4,50,0,0
148340,-100,4,2,4,60,0,0
156652,-66.66666,4,2,4,50,0,0
157691,-66.66666,4,2,4,60,0,0
158730,-66.66666,4,2,4,50,0,0
159250,-66.66666,4,2,4,60,0,0
159769,-66.66666,4,2,4,50,0,0
160029,-66.66666,4,2,4,60,0,0
160288,-66.66666,4,2,4,50,0,0
160418,-66.66666,4,2,4,60,0,0
160548,-66.66666,4,2,4,50,0,0
160678,-66.66666,4,2,4,60,0,0
160808,-66.66666,4,2,4,70,0,0
161327,-100,4,2,4,50,0,0
161522,-100,4,2,4,5,0,0
161587,-50,4,2,4,55,0,0
161782,-50,4,2,4,5,0,0
161847,-83.33334,4,2,3,60,0,0
170159,-100,4,2,4,50,0,0
176392,-100,4,2,3,60,0,0
176522,-100,4,2,4,50,0,0
176912,-100,4,2,3,60,0,0
177042,-100,4,2,4,50,0,0
177302,-100,4,2,3,60,0,0
177821,-100,4,2,4,50,0,0
178340,-83.33334,4,2,3,70,0,0
178860,-83.33334,4,2,4,60,0,0
179380,-83.33334,4,2,3,70,0,0
179509,-62.5,4,1,2,80,0,1
195873,-62.5,4,1,2,85,0,1
196002,-62.5,4,1,2,90,0,0
196392,-100,4,2,2,70,0,0
196587,-100,4,2,2,5,0,0
196652,-50,4,2,2,70,0,0
196847,-50,4,2,2,5,0,0
196912,-66.66666,4,2,2,70,0,0
197107,-66.66666,4,2,2,5,0,0
197172,-62.5,4,1,2,80,0,1
204445,-62.5,4,1,2,70,0,1
204574,-62.5,4,1,2,80,0,1
204704,-62.5,4,1,2,90,0,1
204964,-62.5,4,1,2,80,0,1
205094,-62.5,4,1,2,70,0,1
205223,-62.5,4,1,2,60,0,1
205483,-62.5,4,1,2,80,0,1
214574,-62.5,4,1,2,90,0,1
214834,-62.5,4,1,2,100,0,0
215353,-62.5,4,2,2,92,0,0
215873,-62.5,4,2,2,84,0,0
216392,-62.5,4,2,2,76,0,0
216912,-62.5,4,2,2,68,0,0
217431,-62.5,4,2,2,60,0,0
217951,-62.5,4,2,2,52,0,0
218470,-62.5,4,2,2,44,0,0
218990,-62.5,4,2,2,36,0,0
219509,-62.5,4,2,2,28,0,0
220029,-62.5,4,2,2,20,0,0
220288,-62.5,4,1,4,10,0,0

[HitObjects]
83,59,808,6,0,P|102:102|147:125,1,96.75
224,138,1067,2,0,P|139:198|282:194,1,354.75
304,131,1847,6,0,P|341:135|385:129,1,64.5
448,123,2042,2,0,L|443:225,1,96.75
293,277,2366,6,0,L|297:202,1,64.5
304,131,2561,2,0,P|256:124|208:131,1,96.75
58,192,2886,5,2,0:0:0:0:
113,335,3145,1,8,0:0:0:0:
201,136,3405,5,2,0:0:0:0:
256,279,3665,1,8,0:0:0:0:
494,175,3925,5,2,0:0:0:0:
428,346,4185,1,8,0:0:0:0:
322,107,4445,5,8,0:0:0:0:
256,279,4704,1,4,0:0:0:0:
58,192,4964,6,0,B|72:161|72:161|176:149,1,129
454,192,5483,2,0,B|440:161|440:161|336:149,1,129
112,312,6002,5,2,0:0:0:0:
400,312,6262,1,8,0:0:0:0:
256,104,6522,1,8,0:0:0:0:
256,368,6782,1,4,0:0:0:0:
104,67,7042,5,2,0:0:0:0:
256,104,7302,1,8,0:0:0:0:
408,104,7561,5,2,0:0:0:0:
256,141,7820,1,8,0:0:0:0:
74,141,8080,5,2,0:0:0:0:
256,185,8340,1,8,0:0:0:0:
438,185,8600,5,8,0:0:0:0:
256,229,8859,1,4,0:0:0:0:
74,141,9120,6,0,B|105:155|105:155|117:259,1,129
438,141,9639,2,0,B|407:155|407:155|395:259,1,129
256,344,10158,5,2,0:0:0:0:
256,40,10418,1,8,0:0:0:0:
170,277,10678,1,8,0:0:0:0:
341,106,10938,1,4,0:0:0:0:
158,192,11197,6,0,L|150:96,1,86
361,95,11457,2,0,L|354:151,1,43
340,242,11587,1,2,0:0:0:0:
177,183,11717,6,0,L|171:95,1,64.5
341,106,11977,2,0,L|337:154,1,32.25
330,223,12107,1,2,0:0:0:0:
181,300,12237,6,0,P|151:306|116:302,1,64.5
43,276,12431,1,2,0:0:0:0:
27,268,12496,2,0,L|25:202,1,64.5
111,71,12756,1,0,0:0:0:0:
111,71,12887,2,0,L|112:135,1,64.5
187,201,13146,1,2,0:0:0:0:
270,151,13275,6,0,P|300:145|335:149,1,64.5
408,175,13470,1,2,0:0:0:0:
424,183,13535,2,0,L|426:249,1,64.5
288,328,13795,2,0,L|286:262,1,64.5
279,135,14055,1,2,0:0:0:0:
270,151,14315,6,0,L|149:162,1,96.75
125,166,14574,2,0,P|123:201|130:235,1,64.5
192,303,14834,1,2,0:0:0:0:
273,250,14964,2,0,P|305:251|335:267,2,64.5
114,269,15353,6,0,P|109:226|119:184,1,86
326,187,15613,2,0,L|322:240,1,43
288,328,15743,1,2,0:0:0:0:
134,262,15872,6,0,P|133:216|144:184,1,64.5
309,199,16132,2,0,L|306:250,1,32.25
280,312,16262,1,2,0:0:0:0:
114,269,16392,6,0,L|116:182,1,64.5
118,119,16587,1,2,0:0:0:0:
102,127,16652,2,0,P|53:122|34:111,1,64.5
205,57,16912,1,0,0:0:0:0:
205,57,17042,2,0,L|203:121,1,64.5
197,217,17301,1,2,0:0:0:0:
288,189,17431,6,0,P|338:188|374:197,1,64.5
433,209,17626,1,2,0:0:0:0:
446,197,17691,2,0,L|450:128,1,64.5
392,52,17951,2,0,P|361:44|329:45,1,64.5
205,57,18210,1,2,0:0:0:0:
191,69,18470,6,0,L|194:177,1,96.75
197,217,18730,2,0,P|228:222|260:219,1,64.5
419,271,18990,2,0,P|387:276|355:273,1,64.5
222,345,19250,2,0,P|253:350|285:347,1,64.5
443,257,19509,6,0,L|435:342,1,86
377,191,19769,1,0,0:0:0:0:
377,191,19834,1,0,0:0:0:0:
377,191,19899,2,0,L|384:118,1,43
391,55,20029,1,8,0:0:0:0:
471,168,20159,1,2,0:0:0:0:
278,210,20288,1,0,0:0:0:0:
281,177,20352,1,0,0:0:0:0:
285,145,20417,1,8,0:0:0:0:
289,113,20482,1,0,0:0:0:0:
293,81,20547,5,2,0:0:0:0:
100,97,20678,2,0,P|100:137|108:193,1,86
179,277,20937,1,2,0:0:0:0:
278,210,21067,2,0,P|362:211|430:232,2,129
96,278,21587,6,0,B|149:287|149:287|181:277,1,86
315,214,21847,1,0,0:0:0:0:
323,193,21912,1,0,0:0:0:0:
332,172,21977,2,0,L|270:177,1,43
196,187,22107,1,8,0:0:0:0:
286,291,22237,1,2,0:0:0:0:
361,91,22366,1,0,0:0:0:0:
328,94,22430,1,0,0:0:0:0:
296,97,22495,1,0,0:0:0:0:
264,101,22560,1,0,0:0:0:0:
232,104,22625,5,2,0:0:0:0:
108,149,22756,2,0,P|100:203|126:254,1,86
212,312,23016,1,2,0:0:0:0:
212,312,23080,1,2,0:0:0:0:
212,312,23145,1,8,0:0:0:0:
281,178,23275,2,0,L|196:187,2,86
446,162,23665,5,2,0:0:0:0:
361,68,23795,1,0,0:0:0:0:
340,71,23859,1,0,0:0:0:0:
318,73,23925,1,2,0:0:0:0:
290,58,23989,1,0,0:0:0:0:
259,54,24054,1,0,0:0:0:0:
227,61,24119,1,0,0:0:0:0:
201,79,24185,6,0,L|199:182,1,86
196,187,24379,1,0,0:0:0:0:
194,209,24445,1,2,0:0:0:0:
169,229,24509,1,0,0:0:0:0:
155,257,24574,1,0,0:0:0:0:
156,289,24639,1,0,0:0:0:0:
170,318,24704,6,0,P|224:319|288:313,1,86
457,255,24964,1,2,0:0:0:0:
293,197,25094,1,0,0:0:0:0:
370,331,25223,5,2,0:0:0:0:
399,153,25353,1,0,0:0:0:0:
403,132,25418,1,0,0:0:0:0:
407,111,25482,1,2,0:0:0:0:
378,97,25547,1,0,0:0:0:0:
347,91,25612,1,0,0:0:0:0:
315,96,25677,1,0,0:0:0:0:
289,113,25743,6,0,P|294:196|282:232,1,86
206,308,26002,2,0,L|147:310,1,43
76,313,26132,1,0,0:0:0:0:
72,109,26262,6,0,P|155:104|191:116,1,86
50,198,26522,1,2,0:0:0:0:
81,191,26587,1,0,0:0:0:0:
113,188,26652,1,0,0:0:0:0:
145,188,26717,1,0,0:0:0:0:
177,193,26782,5,2,0:0:0:0:
361,220,26912,1,2,0:0:0:0:
290,92,27042,1,2,0:0:0:0:
290,92,27172,1,2,0:0:0:0:
260,335,27302,5,2,0:0:0:0:
336,212,27432,1,2,0:0:0:0:
177,193,27561,2,0,P|113:186|65:194,1,96.75
81,190,27821,6,0,L|89:294,1,103.2
160,343,28016,1,0,0:0:0:0:
160,343,28080,2,0,P|235:330|281:344,1,103.2
467,245,28340,2,0,P|392:258|345:246,1,103.2
252,78,28600,1,8,0:0:0:0:
289,78,28665,1,0,0:0:0:0:
328,75,28730,1,0,0:0:0:0:
367,74,28795,1,0,0:0:0:0:
407,72,28860,6,0,P|417:139|406:185,1,103.2
261,334,29120,2,0,P|251:267|262:221,1,103.2
443,264,29380,1,2,0:0:0:0:
241,349,29509,1,0,0:0:0:0:
262,101,29639,2,0,L|368:96,1,103.2
443,264,29899,6,0,P|445:315|440:337,2,51.6
365,96,30159,2,0,P|363:45|368:23,2,51.6
277,244,30418,2,0,P|225:247|176:232,1,103.2
340,176,30678,1,8,0:0:0:0:
360,208,30743,1,0,0:0:0:0:
366,246,30807,1,0,0:0:0:0:
357,283,30872,1,0,0:0:0:0:
334,314,30937,6,0,P|285:331|234:334,1,103.2
70,266,31197,1,8,0:0:0:0:
246,167,31327,1,0,0:0:0:0:
122,53,31457,2,0,L|123:188,1,103.2
128,339,31717,1,8,0:0:0:0:
164,351,31781,1,0,0:0:0:0:
202,355,31846,1,0,0:0:0:0:
241,352,31911,1,0,0:0:0:0:
278,341,31977,6,0,L|276:222,1,103.2
272,149,32172,1,0,0:0:0:0:
272,149,32237,2,0,P|358:142|392:151,1,103.2
175,236,32496,2,0,P|89:243|55:234,1,103.2
54,78,32756,1,8,0:0:0:0:
90,66,32820,1,0,0:0:0:0:
129,61,32885,1,0,0:0:0:0:
167,64,32950,1,0,0:0:0:0:
204,73,33016,6,0,P|255:90|310:91,1,103.2
486,174,33275,2,0,P|435:190|380:191,1,103.2
255,171,33535,1,2,0:0:0:0:
414,78,33665,1,0,0:0:0:0:
414,322,33795,2,0,L|310:317,1,103.2
146,327,34055,6,0,L|94:324,2,51.6
272,243,34315,2,0,L|323:245,2,51.6
117,195,34574,2,0,P|99:142|118:91,1,103.2
344,153,34834,1,8,0:0:0:0:
305,150,34898,1,0,0:0:0:0:
266,148,34963,1,0,0:0:0:0:
228,146,35028,1,0,0:0:0:0:
189,143,35094,5,2,0:0:0:0:
374,131,35223,1,2,0:0:0:0:
231,249,35353,1,2,0:0:0:0:
277,71,35483,1,2,0:0:0:0:
345,243,35613,1,2,0:0:0:0:
152,124,35743,5,8,0:0:0:0:
403,107,35873,1,8,0:0:0:0:
292,332,36002,1,8,0:0:0:0:
148,259,36132,5,6,0:0:0:0:
148,259,36262,2,0,P|188:245|231:249,1,86
292,332,36522,1,0,0:0:0:0:
388,297,36652,2,0,L|397:191,1,86
403,107,36912,1,8,0:0:0:0:
317,164,37042,1,0,0:0:0:0:
481,244,37172,6,0,L|490:138,1,86
410,90,37431,1,8,0:0:0:0:
324,146,37562,2,0,P|281:154|240:144,1,86
153,95,37821,2,0,L|145:180,2,86
49,219,38210,6,0,P|110:278|192:272,1,172
249,184,38600,1,0,0:0:0:0:
263,82,38730,2,0,P|182:105|145:179,1,172
193,273,39120,1,0,0:0:0:0:
383,198,39250,5,2,0:0:0:0:
289,158,39380,2,0,B|283:217|283:217|304:266|304:266|299:325,1,172
383,198,39769,2,0,L|390:112,1,86
204,290,40029,2,0,L|197:376,1,86
167,173,40288,6,0,P|100:163|58:177,1,86
118,264,40548,1,8,0:0:0:0:
262,181,40678,1,0,0:0:0:0:
173,78,40808,2,0,P|240:68|282:82,1,86
353,108,41067,2,0,L|346:194,1,86
389,288,41327,5,2,0:0:0:0:
429,66,41457,2,0,P|358:21|276:64,1,172
210,126,41847,2,0,P|134:123|114:111,1,86
43,57,42107,1,8,0:0:0:0:
178,42,42237,1,0,0:0:0:0:
73,201,42366,6,0,P|155:226|241:221,1,172
326,161,42756,1,0,0:0:0:0:
414,213,42886,2,0,L|405:321,1,86
315,179,43145,1,8,0:0:0:0:
492,144,43275,1,0,0:0:0:0:
406,298,43405,6,0,P|341:292|314:281,1,86
231,234,43665,2,0,P|166:240|139:251,1,86
98,338,43925,1,2,0:0:0:0:
252,324,44055,1,8,0:0:0:0:
83,360,44185,1,8,0:0:0:0:
271,341,44315,1,8,0:0:0:0:
315,179,44445,6,0,P|264:170|213:178,1,103.2
191,188,44639,1,0,0:0:0:0:
168,200,44704,2,0,L|173:315,1,103.2
323,271,44964,1,2,0:0:0:0:
216,100,45094,1,0,0:0:0:0:
409,75,45223,1,8,0:0:0:0:
416,112,45287,1,0,0:0:0:0:
419,151,45352,1,0,0:0:0:0:
416,190,45417,1,0,0:0:0:0:
407,227,45483,6,0,L|272:216,1,103.2
373,330,45743,2,0,L|238:319,1,103.2
100,300,46002,1,2,0:0:0:0:
216,100,46132,1,0,0:0:0:0:
323,271,46262,2,0,P|245:273|211:262,1,103.2
101,126,46522,6,0,P|76:119|50:120,2,51.6
251,191,46782,2,0,P|275:197|301:196,2,51.6
86,276,47042,2,0,P|81:345|105:386,1,103.2
320,349,47302,1,8,0:0:0:0:
321,310,47366,1,0,0:0:0:0:
323,271,47431,1,0,0:0:0:0:
325,233,47496,1,0,0:0:0:0:
327,194,47561,5,2,0:0:0:0:
188,322,47691,1,0,0:0:0:0:
408,374,47821,2,0,L|412:244,1,103.2
381,53,48080,1,2,0:0:0:0:
498,153,48210,1,0,0:0:0:0:
327,193,48340,1,8,0:0:0:0:
289,202,48405,1,0,0:0:0:0:
250,203,48470,1,0,0:0:0:0:
212,197,48535,1,0,0:0:0:0:
176,184,48600,6,0,P|154:236|156:295,1,103.2
170,303,48795,1,0,0:0:0:0:
188,322,48860,2,0,L|321:317,1,103.2
430,197,49120,2,0,L|297:192,1,103.2
139,80,49380,1,8,0:0:0:0:
172,61,49444,1,0,0:0:0:0:
210,53,49509,1,0,0:0:0:0:
249,55,49574,1,0,0:0:0:0:
285,68,49639,6,0,L|274:203,1,103.2
388,102,49899,2,0,L|377:237,1,103.2
358,375,50158,1,2,0:0:0:0:
158,259,50288,1,0,0:0:0:0:
329,152,50418,2,0,P|331:230|320:264,1,103.2
179,352,50678,6,0,P|153:350|127:346,2,51.6
342,277,50937,2,0,P|367:273|393:271,2,51.6
138,227,51197,1,2,0:0:0:0:
351,166,51327,1,0,0:0:0:0:
245,44,51457,1,8,0:0:0:0:
231,80,51522,1,0,0:0:0:0:
225,118,51587,1,0,0:0:0:0:
228,156,51652,1,0,0:0:0:0:
240,193,51717,6,0,P|336:200|392:224,1,154.8
472,255,51977,2,0,P|376:261|320:285,1,154.8
242,322,52237,1,2,0:0:0:0:
423,356,52366,1,8,0:0:0:0:
237,293,52496,1,8,0:0:0:0:
452,229,52626,1,8,0:0:0:0:
232,264,52756,6,0,P|221:235|223:177,1,86
328,135,53016,2,0,P|398:138|439:119,1,86
229,58,53275,2,0,P|158:54|117:73,1,86
65,153,53535,2,0,L|70:260,1,86
232,264,53795,5,2,0:0:0:0:
168,154,53925,1,0,0:0:0:0:
165,338,54055,1,8,0:0:0:0:
315,173,54185,1,0,0:0:0:0:
175,70,54315,2,0,P|162:110|167:153,1,86
232,264,54574,2,0,L|349:271,1,86
485,157,54834,6,0,L|399:166,1,86
317,269,55094,2,0,L|403:260,1,86
302,177,55353,2,0,L|216:186,1,86
134,289,55613,2,0,L|220:280,1,86
77,218,55873,6,0,P|49:250|44:292,1,86
108,135,56132,2,0,P|66:127|27:144,1,86
165,205,56392,2,0,P|192:173|197:131,1,86
133,288,56652,2,0,P|175:296|214:279,1,86
300,221,56912,6,0,L|304:117,1,86
399,94,57172,2,0,L|395:198,1,86
375,297,57431,2,0,P|451:300|474:284,1,86
300,221,57691,2,0,P|224:218|201:234,1,86
133,288,57951,5,2,0:0:0:0:
280,318,58080,1,0,0:0:0:0:
124,262,58210,1,8,0:0:0:0:
323,208,58340,1,0,0:0:0:0:
113,235,58470,2,0,P|108:164|112:120,1,86
346,195,58730,2,0,P|351:124|347:80,1,86
117,51,58990,5,2,0:0:0:0:
434,64,59120,1,2,0:0:0:0:
115,184,59509,5,2,0:0:0:0:
421,201,59639,1,2,0:0:0:0:
199,289,59899,6,0,B|219:295|235:307|235:307|252:292|252:292|268:311|268:311|284:295|284:295|299:312|299:312|317:301|336:301,1,172
429,292,60288,1,2,0:0:0:0:
109,264,60418,6,0,B|104:209|104:209|124:153|124:153|117:106,1,161.25
169,38,60808,6,0,P|219:127|118:108,1,258
150,27,61067,6,0,P|214:24|278:32,1,129
396,237,61327,1,8,0:0:0:0:
211,172,61457,1,0,0:0:0:0:
426,23,61587,2,0,P|424:92|414:165,1,129
372,338,61847,2,0,L|231:329,1,129
92,200,62107,6,0,P|140:170|238:186,1,129
372,338,62366,2,0,P|316:306|288:249,1,129
352,27,62626,2,0,P|353:83|291:160,1,129
159,287,62886,1,8,0:0:0:0:
141,59,63016,1,0,0:0:0:0:
391,106,63145,5,2,0:0:0:0:
391,106,63275,2,0,P|392:172|380:241,1,129
216,182,63535,1,0,0:0:0:0:
479,84,63665,2,0,P|479:180|464:275,1,193.5
390,343,63925,2,0,L|254:339,1,129
96,153,64185,5,2,0:0:0:0:
366,133,64315,1,2,0:0:0:0:
158,304,64445,1,8,0:0:0:0:
225,45,64574,1,2,0:0:0:0:
382,253,64704,5,2,0:0:0:0:
50,227,64834,1,2,0:0:0:0:
255,36,64964,1,8,0:0:0:0:
241,360,65094,1,2,0:0:0:0:
116,75,65223,6,0,L|244:66,1,129
373,281,65483,1,8,0:0:0:0:
208,215,65613,1,0,0:0:0:0:
415,77,65743,2,0,P|421:144|405:208,1,129
136,159,66002,2,0,P|191:127|253:140,1,129
373,281,66262,6,0,L|392:151,1,129
120,153,66522,2,0,L|139:281,1,129
320,77,66782,2,0,P|255:71|191:77,1,129
122,303,67042,1,8,0:0:0:0:
390,303,67172,1,0,0:0:0:0:
280,169,67302,5,2,0:0:0:0:
122,303,67431,2,0,P|234:318|279:302,1,129
120,153,67691,1,0,0:0:0:0:
403,138,67821,2,0,L|394:266,1,129
305,53,68080,2,0,L|296:181,1,129
120,153,68340,5,2,0:0:0:0:
392,125,68470,1,2,0:0:0:0:
218,337,68600,1,8,0:0:0:0:
191,64,68730,1,2,0:0:0:0:
402,239,68860,5,2,0:0:0:0:
131,264,68990,1,2,0:0:0:0:
305,53,69120,1,8,0:0:0:0:
332,327,69250,1,2,0:0:0:0:
88,127,69380,6,0,P|152:122|216:129,1,129
375,223,69639,1,8,0:0:0:0:
182,344,69769,1,0,0:0:0:0:
392,366,69899,2,0,P|404:293|394:204,1,129
349,65,70159,2,0,L|220:75,1,129
74,210,70418,6,0,P|62:272|90:328,1,129
287,240,70678,2,0,P|223:240|162:259,1,129
368,295,70937,2,0,P|385:235|363:176,1,129
161,85,71197,1,8,0:0:0:0:
182,344,71327,1,0,0:0:0:0:
46,236,71457,5,2,0:0:0:0:
251,166,71587,2,0,P|334:172|363:207,1,129
263,360,71847,1,0,0:0:0:0:
148,213,71977,2,0,L|134:81,1,129
345,14,72237,2,0,L|331:142,1,129
131,192,72496,5,2,0:0:0:0:
440,159,72626,1,2,0:0:0:0:
148,213,72756,1,8,0:0:0:0:
413,273,72886,1,2,0:0:0:0:
153,338,73016,5,2,0:0:0:0:
266,74,73145,1,2,0:0:0:0:
432,298,73275,1,8,0:0:0:0:
114,171,73405,1,2,0:0:0:0:
414,45,73535,6,0,P|414:150|396:192,1,129
284,320,73795,2,0,P|348:362|335:287,1,193.5
260,230,74055,1,2,0:0:0:0:
442,79,74185,1,0,0:0:0:0:
213,22,74315,2,0,P|200:89|213:151,1,129
372,301,74574,6,0,P|320:256|259:236,1,129
119,93,74834,2,0,P|167:51|229:32,1,129
336,148,75094,2,0,P|274:135|211:146,1,129
107,333,75353,1,8,0:0:0:0:
246,224,75483,1,0,0:0:0:0:
64,217,75613,5,2,0:0:0:0:
308,295,75743,2,0,P|339:235|321:167,1,129
170,168,76002,1,0,0:0:0:0:
236,351,76132,1,2,0:0:0:0:
255,98,76262,1,0,0:0:0:0:
172,281,76392,1,8,0:0:0:0:
419,233,76522,1,0,0:0:0:0:
226,66,76652,5,12,0:0:0:0:
337,350,76782,1,2,0:0:0:0:
351,107,76912,5,8,0:0:0:0:
218,306,77042,1,2,0:0:0:0:
113,99,77172,5,8,0:0:0:0:
413,58,77302,2,0,P|420:148|272:115,1,258
196,35,77691,5,2,0:0:0:0:
183,330,77951,1,8,0:0:0:0:
226,66,78210,5,2,0:0:0:0:
222,186,78340,1,2,0:0:0:0:
218,306,78470,1,8,0:0:0:0:
73,214,78730,5,2,0:0:0:0:
368,227,78990,1,8,0:0:0:0:
102,182,79250,5,2,0:0:0:0:
222,186,79380,1,2,0:0:0:0:
342,190,79510,1,8,0:0:0:0:
368,39,79769,5,2,0:0:0:0:
381,334,80029,1,8,0:0:0:0:
338,70,80288,5,2,0:0:0:0:
342,190,80418,1,2,0:0:0:0:
346,310,80548,1,8,0:0:0:0:
493,216,80808,5,2,0:0:0:0:
462,186,81067,5,8,0:0:0:0:
222,194,81197,1,2,0:0:0:0:
493,216,81457,5,8,0:0:0:0:
198,229,81587,1,8,0:0:0:0:
353,363,81717,1,8,0:0:0:0:
338,70,81847,6,0,P|264:67|224:78,1,103.2
53,147,82107,2,0,P|127:144|167:155,1,103.2
335,223,82366,2,0,P|261:220|221:231,1,103.2
58,261,82626,1,8,0:0:0:0:
49,224,82690,1,0,0:0:0:0:
48,184,82755,1,0,0:0:0:0:
53,147,82820,1,0,0:0:0:0:
65,110,82885,5,2,0:0:0:0:
266,136,83016,1,0,0:0:0:0:
170,50,83145,1,8,0:0:0:0:
151,223,83275,1,0,0:0:0:0:
288,281,83405,2,0,B|319:264|319:264|330:174,1,103.2
330,170,83600,1,0,0:0:0:0:
333,144,83665,1,8,0:0:0:0:
134,203,83795,1,0,0:0:0:0:
212,308,83925,6,0,P|204:333|191:355,2,51.6
281,153,84185,2,0,P|280:110|290:84,2,51.6
359,308,84445,2,0,P|434:311|486:300,1,103.2
433,139,84704,1,8,0:0:0:0:
395,136,84768,1,0,0:0:0:0:
356,137,84833,1,0,0:0:0:0:
318,143,84898,1,0,0:0:0:0:
281,153,84964,6,0,P|198:136|172:107,1,103.2
335,44,85223,1,8,0:0:0:0:
210,228,85353,1,0,0:0:0:0:
105,85,85483,2,0,P|140:48|190:37,1,103.2
361,21,85743,1,8,0:0:0:0:
359,59,85807,1,0,0:0:0:0:
357,98,85872,1,0,0:0:0:0:
356,137,85937,1,0,0:0:0:0:
354,175,86002,6,0,L|251:163,1,103.2
143,266,86262,2,0,L|245:254,1,103.2
160,154,86522,2,0,L|57:142,1,103.2
64,286,86782,1,8,0:0:0:0:
80,320,86846,1,0,0:0:0:0:
111,343,86911,1,0,0:0:0:0:
149,349,86976,1,0,0:0:0:0:
185,336,87042,5,2,0:0:0:0:
308,163,87172,1,0,0:0:0:0:
174,189,87302,1,8,0:0:0:0:
340,284,87431,1,0,0:0:0:0:
394,130,87561,2,0,P|366:87|319:68,1,103.2
294,77,87756,1,0,0:0:0:0:
270,86,87821,1,8,0:0:0:0:
252,231,87951,1,0,0:0:0:0:
126,204,88080,6,0,P|106:185|91:165,2,51.6
149,349,88340,2,0,P|124:349|97:355,2,51.6
321,332,88600,2,0,P|348:289|348:235,1,103.2
230,148,88860,1,8,0:0:0:0:
269,151,88925,1,0,0:0:0:0:
307,144,88990,1,0,0:0:0:0:
343,129,89055,1,0,0:0:0:0:
374,107,89120,5,2,0:0:0:0:
123,91,89250,1,2,0:0:0:0:
236,318,89380,1,2,0:0:0:0:
236,318,89510,1,2,0:0:0:0:
250,59,89640,5,2,0:0:0:0:
147,225,89769,1,2,0:0:0:0:
348,237,89899,1,8,0:0:0:0:
366,217,90159,6,0,L|373:131,1,86
468,90,90418,2,0,L|461:176,1,86
451,290,90678,1,2,0:0:0:0:
451,290,90808,1,0,0:0:0:0:
354,350,90937,2,0,P|311:352|269:344,1,86
204,214,91197,6,0,L|92:230,1,86
67,316,91457,1,8,0:0:0:0:
256,286,91587,2,0,P|292:212|253:139,1,172
153,111,91977,2,0,P|105:87|81:47,1,86
122,226,92237,6,0,P|164:230|204:214,1,86
285,150,92496,1,8,0:0:0:0:
285,150,92626,1,0,0:0:0:0:
312,248,92756,2,0,P|295:287|263:316,1,86
425,280,93016,2,0,P|429:238|413:199,1,86
385,98,93275,6,0,L|395:1,1,86
293,64,93535,2,0,L|283:161,1,86
368,278,93795,2,0,L|378:181,1,86
276,244,94055,2,0,L|266:341,1,86
169,365,94315,6,0,P|126:368|86:353,1,86
114,165,94574,2,0,P|156:161|196:176,1,86
141,265,94834,1,2,0:0:0:0:
141,265,94964,1,0,0:0:0:0:
41,239,95094,2,0,P|15:203|10:160,1,86
247,265,95353,6,0,P|280:237|296:197,1,86
263,96,95613,1,8,0:0:0:0:
188,24,95743,2,0,P|161:122|196:176,1,172
294,198,96132,2,0,P|336:187|377:197,1,86
425,290,96392,6,0,P|412:330|383:361,1,86
293,312,96652,1,8,0:0:0:0:
293,312,96782,1,0,0:0:0:0:
202,262,96912,2,0,P|173:293|160:334,1,86
134,183,97172,2,0,P|171:162|214:161,1,86
377,197,97431,5,2,0:0:0:0:
377,197,97561,2,0,P|341:175|319:139,1,86
289,39,97821,1,2,0:0:0:0:
275,60,98080,5,8,0:0:0:0:
212,210,98210,1,8,0:0:0:0:
112,81,98340,1,8,0:0:0:0:
279,145,98470,6,0,P|304:189|302:240,1,103.2
286,261,98665,1,0,0:0:0:0:
270,281,98730,2,0,L|154:289,1,103.2
16,190,98990,2,0,L|132:198,1,103.2
112,81,99250,1,8,0:0:0:0:
150,84,99314,1,0,0:0:0:0:
189,87,99379,1,0,0:0:0:0:
227,90,99444,1,0,0:0:0:0:
266,93,99509,5,2,0:0:0:0:
477,110,99639,1,0,0:0:0:0:
320,194,99769,1,8,0:0:0:0:
393,39,99899,1,0,0:0:0:0:
396,248,100029,2,0,P|358:282|306:287,1,103.2
81,193,100288,2,0,L|88:332,1,103.2
215,344,100548,6,0,P|245:355|287:360,2,51.6
275,219,100808,2,0,P|303:205|337:179,2,51.6
138,86,101067,2,0,P|204:77|258:102,1,103.2
405,133,101327,1,8,0:0:0:0:
402,171,101392,1,0,0:0:0:0:
399,210,101457,1,0,0:0:0:0:
396,248,101522,1,0,0:0:0:0:
393,287,101587,5,2,0:0:0:0:
201,249,101717,1,0,0:0:0:0:
286,373,101847,2,0,L|299:249,1,103.2
146,204,102107,2,0,L|157:307,1,103.2
393,287,102366,1,8,0:0:0:0:
406,250,102431,1,0,0:0:0:0:
416,214,102496,1,0,0:0:0:0:
418,175,102561,1,0,0:0:0:0:
415,133,102626,6,0,P|363:136|312:128,1,103.2
292,113,102821,1,0,0:0:0:0:
273,96,102886,2,0,P|222:87|170:90,1,103.2
61,216,103145,2,0,P|111:224|163:221,1,103.2
366,317,103405,1,8,0:0:0:0:
329,330,103470,1,0,0:0:0:0:
291,336,103535,1,0,0:0:0:0:
252,335,103600,1,0,0:0:0:0:
215,326,103665,5,2,0:0:0:0:
204,140,103795,1,0,0:0:0:0:
291,245,103925,1,8,0:0:0:0:
133,234,104055,1,0,0:0:0:0:
147,79,104185,2,0,P|192:56|242:66,1,103.2
394,248,104445,2,0,L|290:244,1,103.2
204,140,104704,6,0,P|172:142|126:138,2,51.6
319,67,104964,2,0,P|351:69|397:65,2,51.6
102,75,105223,2,0,P|70:148|84:185,1,103.2
262,202,105483,1,8,0:0:0:0:
265,240,105547,1,0,0:0:0:0:
263,279,105612,1,0,0:0:0:0:
255,316,105677,1,0,0:0:0:0:
241,352,105742,5,2,0:0:0:0:
155,202,105873,1,0,0:0:0:0:
351,191,106002,2,0,P|357:243|351:294,1,103.2
220,370,106262,1,2,0:0:0:0:
204,140,106392,1,8,0:0:0:0:
128,318,106522,1,8,0:0:0:0:
351,293,106652,1,8,0:0:0:0:
321,65,106782,6,0,P|278:56|234:64,1,86
126,125,107042,1,8,0:0:0:0:
265,240,107172,1,0,0:0:0:0:
265,240,107302,2,0,P|274:198|276:153,1,86
128,218,107561,2,0,P|130:260|139:302,1,86
260,344,107821,5,2,0:0:0:0:
395,229,107951,1,0,0:0:0:0:
376,351,108080,1,8,0:0:0:0:
272,180,108210,1,0,0:0:0:0:
424,140,108340,2,0,P|461:160|483:196,1,86
396,331,108600,2,0,L|310:325,1,86
116,331,108860,6,0,L|202:325,1,86
131,248,109120,2,0,L|217:242,1,86
357,185,109380,2,0,L|271:179,1,86
342,102,109640,2,0,L|256:96,1,86
147,94,109899,6,0,P|154:135|181:169,1,86
131,248,110159,2,0,P|171:262|213:255,1,86
256,338,110418,2,0,P|288:310|303:270,1,86
396,274,110678,2,0,P|388:232|361:198,1,86
327,112,110937,6,0,P|369:105|410:120,1,86
268,187,111197,2,0,P|225:193|185:179,1,86
361,198,111457,2,0,L|357:300,1,86
442,343,111717,2,0,L|446:241,1,86
435,153,111977,5,2,0:0:0:0:
248,194,112107,1,0,0:0:0:0:
448,120,112237,1,8,0:0:0:0:
234,88,112367,1,0,0:0:0:0:
461,87,112496,2,0,P|466:151|457:204,1,86
225,286,112756,2,0,P|222:243|227:200,1,86
345,49,113016,5,2,0:0:0:0:
323,350,113146,1,2,0:0:0:0:
215,58,113535,5,2,0:0:0:0:
227,328,113665,1,2,0:0:0:0:
102,83,113925,6,0,B|81:81|58:93|58:93|64:111|91:124|91:124|71:146|90:163|90:163|84:183|94:197,1,172
134,303,114315,1,2,0:0:0:0:
409,297,114445,6,0,P|419:232|401:131,1,161.25
395,116,114834,6,0,P|329:168|249:146,1,172
102,83,115094,6,0,B|107:127|107:127|94:166|94:166|100:209,1,129
285,249,115353,1,8,0:0:0:0:
134,303,115483,1,0,0:0:0:0:
335,327,115613,2,0,P|377:281|374:218,1,129
189,44,115873,2,0,P|180:107|183:172,1,129
415,130,116132,6,0,P|351:123|297:155,1,129
102,83,116392,2,0,P|127:141|182:171,1,129
218,378,116652,2,0,P|256:326|255:263,1,129
189,44,116912,1,8,0:0:0:0:
134,303,117042,1,0,0:0:0:0:
374,218,117172,5,2,0:0:0:0:
247,137,117302,2,0,P|239:200|254:262,1,129
384,335,117561,1,0,0:0:0:0:
464,80,117691,2,0,P|400:89|335:110,1,129
128,192,117951,1,8,0:0:0:0:
387,238,118080,1,0,0:0:0:0:
191,351,118210,5,2,0:0:0:0:
220,54,118340,1,2,0:0:0:0:
371,311,118470,1,8,0:0:0:0:
97,191,118600,1,2,0:0:0:0:
413,120,118730,5,2,0:0:0:0:
66,190,118860,1,2,0:0:0:0:
317,362,118990,1,8,0:0:0:0:
296,47,119120,1,2,0:0:0:0:
83,323,119250,6,0,P|145:337|209:335,1,129
399,291,119509,1,8,0:0:0:0:
240,168,119639,1,0,0:0:0:0:
438,64,119769,2,0,L|433:192,1,129
202,246,120029,2,0,P|158:203|158:140,1,129
341,20,120288,6,0,L|336:148,1,129
333,306,120548,2,0,P|405:322|469:306,1,129
266,234,120808,2,0,P|234:289|248:351,1,129
439,188,121067,1,8,0:0:0:0:
168,221,121197,1,0,0:0:0:0:
280,72,121327,5,2,0:0:0:0:
71,51,121457,2,0,P|65:116|72:200,1,129
105,318,121717,1,0,0:0:0:0:
294,216,121847,2,0,P|210:209|150:228,1,129
279,342,122107,1,8,0:0:0:0:
208,115,122237,1,0,0:0:0:0:
354,64,122366,5,2,0:0:0:0:
335,327,122496,1,2,0:0:0:0:
196,93,122626,1,8,0:0:0:0:
216,326,122756,1,2,0:0:0:0:
369,43,122886,5,2,0:0:0:0:
349,345,123016,1,2,0:0:0:0:
184,69,123145,1,8,0:0:0:0:
197,341,123275,1,2,0:0:0:0:
434,169,123405,6,0,P|370:156|306:154,1,129
105,147,123665,1,8,0:0:0:0:
274,273,123795,1,0,0:0:0:0:
76,351,123925,2,0,P|71:286|78:222,1,129
174,49,124185,2,0,L|325:54,1,129
399,286,124445,6,0,P|334:290|273:272,1,129
426,75,124704,2,0,P|461:128|477:190,1,129
230,157,124964,2,0,P|258:99|304:54,1,129
484,279,125223,1,8,0:0:0:0:
222,323,125353,1,0,0:0:0:0:
352,148,125483,5,2,0:0:0:0:
348,339,125613,2,0,P|283:339|221:322,1,129
464,256,125873,1,0,0:0:0:0:
271,81,126002,2,0,P|250:142|266:203,1,129
366,360,126262,1,8,0:0:0:0:
373,130,126392,1,0,0:0:0:0:
160,195,126522,5,2,0:0:0:0:
471,219,126652,1,2,0:0:0:0:
197,314,126782,1,8,0:0:0:0:
464,256,126911,1,2,0:0:0:0:
250,53,127042,5,2,0:0:0:0:
329,364,127172,1,2,0:0:0:0:
464,77,127302,1,8,0:0:0:0:
137,182,127431,1,2,0:0:0:0:
430,334,127561,6,0,P|438:271|428:207,1,129
250,53,127821,2,0,P|206:122|286:142,1,193.5
353,61,128080,1,2,0:0:0:0:
464,256,128210,1,0,0:0:0:0:
228,327,128340,2,0,P|161:336|98:320,1,129
464,256,128600,6,0,P|402:271|339:263,1,129
123,202,128860,2,0,P|187:211|250:197,1,129
436,123,129120,2,0,P|372:133|310:119,1,129
156,35,129380,1,8,0:0:0:0:
212,221,129509,1,0,0:0:0:0:
248,40,129639,5,2,0:0:0:0:
123,202,129769,2,0,P|130:264|176:307,1,129
411,325,130029,1,0,0:0:0:0:
310,123,130159,1,2,0:0:0:0:
273,345,130288,1,0,0:0:0:0:
434,188,130418,1,8,0:0:0:0:
212,221,130548,1,0,0:0:0:0:
423,346,130678,5,12,0:0:0:0:
157,324,130808,1,2,0:0:0:0:
310,123,130937,5,8,0:0:0:0:
296,361,131067,1,2,0:0:0:0:
137,163,131197,5,8,0:0:0:0:
406,197,131327,1,2,0:0:0:0:
222,347,131457,2,0,P|210:284|211:220,1,129
248,71,131717,5,6,0:0:0:0:
85,101,135873,6,0,P|100:130|132:155,1,64.5
75,216,136132,2,0,P|102:233|142:239,1,64.5
123,320,136392,2,0,P|155:321|193:306,1,64.5
256,271,136652,2,0,L|256:198,1,64.5
326,311,136912,6,0,P|356:321|389:320,1,64.5
378,239,137172,2,0,P|410:233|437:216,1,64.5
388,150,137431,2,0,P|412:129|427:101,1,64.5
256,48,137691,2,0,L|256:121,1,64.5
182,173,137951,6,0,P|150:167|124:150,1,64.5
172,253,138210,2,0,P|204:255|235:245,1,64.5
388,150,138470,2,0,P|416:134|436:110,1,64.5
419,222,138730,2,0,P|389:232|357:232,1,64.5
182,173,138990,6,0,P|149:174|120:188,1,64.5
89,265,139185,1,2,0:0:0:0:
89,265,139250,1,0,0:0:0:0:
89,265,139315,2,0,P|63:246|46:220,2,64.5
155,314,139639,1,0,0:0:0:0:
163,300,139704,1,2,0:0:0:0:
169,285,139768,1,2,0:0:0:0:
172,269,139833,1,2,0:0:0:0:
172,253,139898,1,0,0:0:0:0:
128,112,140029,5,6,0:0:0:0:
128,112,140159,2,0,L|213:118,1,86
388,132,140418,1,0,0:0:0:0:
461,205,140548,2,0,P|465:250|456:302,1,86
361,324,140808,2,0,P|355:281|359:238,1,86
388,132,141067,5,2,0:0:0:0:
388,132,141197,2,0,L|302:138,1,86
128,152,141457,1,0,0:0:0:0:
210,89,141587,2,0,P|228:127|230:169,1,86
46,215,141847,2,0,P|27:176|25:134,1,86
110,63,142107,5,2,0:0:0:0:
110,63,142237,2,0,L|207:57,1,86
369,42,142496,1,0,0:0:0:0:
306,124,142626,2,0,P|303:166|318:206,1,86
388,349,142886,2,0,P|403:309|402:267,1,86
287,365,143145,6,0,L|182:356,1,86
325,280,143405,2,0,L|239:272,1,86
78,207,143665,2,0,L|164:200,1,86
40,123,143925,2,0,L|145:114,1,86
332,91,144185,5,6,0:0:0:0:
332,91,144315,2,0,P|332:153|318:197,1,86
232,326,144574,1,0,0:0:0:0:
329,362,144704,2,0,P|332:298|318:270,1,86
134,290,144964,2,0,P|126:331|138:372,1,86
116,187,145223,6,0,P|75:201|46:232,1,86
196,118,145483,2,0,P|163:91|122:81,1,86
212,221,145743,2,0,P|244:248|285:258,1,86
292,152,146002,2,0,P|332:138|362:107,1,86
463,90,146262,5,2,0:0:0:0:
463,90,146392,2,0,L|456:192,1,86
443,349,146652,1,0,0:0:0:0:
346,311,146782,2,0,P|287:303|244:312,1,86
170,358,147042,2,0,P|110:358|69:345,1,86
213,169,147302,6,0,P|272:168|313:181,1,86
430,315,147561,2,0,P|387:318|345:310,1,86
170,358,147821,2,0,P|212:360|254:352,1,86
473,212,148080,2,0,P|430:214|388:206,1,86
134,117,148340,5,6,0:0:0:0:
134,117,148470,2,0,P|119:171|132:214,1,86
206,264,148730,1,0,0:0:0:0:
302,228,148860,2,0,L|311:142,1,86
398,197,149120,2,0,L|407:111,1,86
215,178,149380,6,0,L|205:263,1,86
119,209,149640,2,0,L|109:294,1,86
53,140,149899,2,0,P|96:116|135:113,1,86
215,178,150159,2,0,P|258:200|295:208,1,86
398,197,150418,5,2,0:0:0:0:
398,197,150548,2,0,L|407:111,1,86
204,94,150808,1,0,0:0:0:0:
128,164,150937,2,0,P|129:204|159:246,1,86
248,284,151197,2,0,L|336:278,1,86
398,197,151457,6,0,P|385:131|358:99,1,86
333,278,151717,2,0,P|396:300|437:292,1,86
295,181,151977,2,0,P|244:224|230:264,1,86
206,340,152237,2,0,L|111:331,1,86
46,217,152496,6,0,L|131:208,1,86
183,83,152756,2,0,L|97:74,1,86
226,198,153016,2,0,L|311:189,1,86
363,100,153276,2,0,L|277:91,1,86
406,179,153535,5,2,0:0:0:0:
406,179,153665,2,0,P|414:228|404:268,1,86
338,340,153925,1,0,0:0:0:0:
256,276,154055,2,0,P|191:261|164:263,1,86
111,375,154315,2,0,P|153:373|194:360,1,86
256,276,154574,5,2,0:0:0:0:
256,276,154704,2,0,L|256:175,1,86
256,86,154964,1,0,0:0:0:0:
158,51,155094,2,0,P|156:117|168:140,1,86
348,133,155353,2,0,P|360:93|354:51,1,86
174,217,155613,6,0,P|128:231|76:228,1,86
338,217,155873,2,0,P|384:231|436:228,1,86
140,37,156132,2,0,L|148:134,1,86
364,122,156392,2,0,L|372:37,1,86
256,24,156652,6,0,L|256:56,30,32.25
192,144,157691,2,0,L|192:176,30,32.25
320,208,158730,6,0,L|320:240,14,32.25
256,327,159250,2,0,L|256:360,14,32.25
169,305,159769,6,0,P|153:307|137:312,4,32.25
343,305,160029,2,0,P|358:307|374:312,4,32.25
124,200,160288,6,0,P|153:217|185:220,1,64.5
388,200,160418,2,0,P|359:217|327:220,1,64.5
166,74,160548,6,0,L|182:145,1,64.5
346,74,160678,2,0,L|330:145,1,64.5
256,31,160808,6,0,L|256:64,1,32.25
256,63,161327,6,0,L|256:192,1,129
213,227,161587,6,0,P|256:134|297:228,1,258
256,304,161847,6,0,P|192:312|144:304,1,103.2
73,235,162042,1,0,0:0:0:0:
73,235,162107,2,0,L|68:132,1,103.2
224,25,162366,2,0,L|219:128,1,103.2
256,304,162626,1,8,0:0:0:0:
293,317,162690,1,0,0:0:0:0:
331,320,162755,1,0,0:0:0:0:
369,313,162820,1,0,0:0:0:0:
403,295,162886,6,0,L|408:172,1,103.2
408,88,163080,1,0,0:0:0:0:
408,88,163145,2,0,L|326:75,1,51.6
267,173,163275,2,0,L|317:164,1,51.6
268,64,163405,2,0,B|200:56|200:56|172:76,1,103.2
119,285,163665,1,8,0:0:0:0:
147,310,163730,1,0,0:0:0:0:
183,323,163795,1,0,0:0:0:0:
221,321,163860,1,0,0:0:0:0:
256,304,163925,6,0,P|303:286|359:283,1,103.2
457,303,164120,1,0,0:0:0:0:
457,303,164185,2,0,L|468:168,1,103.2
319,56,164445,2,0,L|330:191,1,103.2
192,231,164704,1,8,0:0:0:0:
193,193,164769,1,0,0:0:0:0:
194,154,164834,1,0,0:0:0:0:
195,115,164899,1,0,0:0:0:0:
197,77,164964,6,0,P|115:69|75:84,1,103.2
26,150,165159,1,0,0:0:0:0:
26,149,165223,2,0,P|24:201|32:252,1,103.2
186,334,165483,2,0,P|194:284|192:232,1,103.2
160,86,165743,1,8,0:0:0:0:
197,77,165807,1,0,0:0:0:0:
236,73,165872,1,0,0:0:0:0:
274,72,165937,1,0,0:0:0:0:
313,76,166002,5,2,0:0:0:0:
280,212,166132,1,0,0:0:0:0:
280,212,166197,1,0,0:0:0:0:
280,212,166262,2,0,P|216:205|200:197,2,51.6
437,213,166522,1,2,0:0:0:0:
444,250,166587,1,0,0:0:0:0:
442,288,166652,1,0,0:0:0:0:
429,325,166717,1,0,0:0:0:0:
408,357,166782,1,8,0:0:0:0:
372,341,166847,1,0,0:0:0:0:
339,361,166912,1,0,0:0:0:0:
304,346,166977,1,0,0:0:0:0:
273,368,167042,6,0,B|240:358|240:358|234:275,1,103.2
225,189,167237,1,0,0:0:0:0:
225,189,167302,2,0,P|193:192|161:204,1,51.6
66,272,167431,2,0,P|98:275|133:284,1,51.6
234,289,167561,2,0,P|283:274|318:236,1,103.2
191,59,167821,1,8,0:0:0:0:
175,93,167885,1,0,0:0:0:0:
176,131,167950,1,0,0:0:0:0:
193,166,168015,1,0,0:0:0:0:
225,189,168080,6,0,P|276:184|327:189,1,103.2
431,205,168275,1,0,0:0:0:0:
431,205,168340,2,0,L|437:153,1,51.6
354,90,168470,1,2,0:0:0:0:
437,304,168600,6,0,P|393:315|323:303,1,103.2
234,289,168795,1,0,0:0:0:0:
234,289,168860,2,0,P|208:288|182:291,1,51.6
81,315,168990,1,2,0:0:0:0:
47,101,169120,6,0,P|103:94|153:99,1,103.2
246,136,169315,1,0,0:0:0:0:
246,136,169380,2,0,L|241:200,1,51.6
234,289,169509,1,2,0:0:0:0:
407,221,169639,5,2,0:0:0:0:
142,224,169769,1,8,0:0:0:0:
320,84,169899,1,8,0:0:0:0:
308,336,170029,1,8,0:0:0:0:
161,140,170159,6,0,P|204:132|246:136,1,86
306,219,170418,2,0,L|297:323,1,86
461,163,170678,2,0,P|420:148|378:145,1,86
306,219,170937,1,8,0:0:0:0:
306,219,171067,1,0,0:0:0:0:
150,274,171197,6,0,P|190:288|233:291,1,86
404,244,171457,1,8,0:0:0:0:
207,193,171587,1,0,0:0:0:0:
378,146,171717,1,2,0:0:0:0:
233,291,171847,1,0,0:0:0:0:
391,327,171977,2,0,P|405:286|403:243,1,86
292,154,172237,6,0,L|380:145,1,86
311,66,172496,2,0,L|397:57,1,86
170,37,172756,2,0,P|161:79|165:121,1,86
228,206,173016,2,0,P|236:248|232:290,1,86
52,251,173275,6,0,P|94:242|136:246,1,86
232,290,173535,2,0,P|274:293|316:285,1,86
323,182,173795,2,0,L|328:96,1,86
416,150,174055,2,0,L|410:235,1,86
228,206,174315,6,0,L|233:120,1,86
137,242,174574,2,0,P|94:238|58:216,1,86
311,255,174834,2,0,P|353:258|392:242,1,86
315,133,175094,2,0,P|275:116|233:120,1,86
144,262,175353,5,2,0:0:0:0:
381,277,175483,1,0,0:0:0:0:
121,171,175613,1,8,0:0:0:0:
403,150,175743,1,0,0:0:0:0:
198,44,175873,2,0,L|202:145,1,86
314,340,176132,2,0,L|310:239,1,86
303,42,176392,5,2,0:0:0:0:
209,342,176522,1,2,0:0:0:0:
394,64,176912,5,2,0:0:0:0:
117,319,177042,1,2,0:0:0:0:
444,154,177302,6,0,B|423:165|391:153|391:153|377:169|346:175|324:166|324:166|303:180|282:182,1,172
68,230,177691,1,2,0:0:0:0:
423,306,177821,1,2,0:0:0:0:
450,284,178340,6,0,B|438:302|422:305|422:305|394:286|392:267|392:267|354:284|337:253|337:253|310:262|301:235|285:235,1,206.4
53,128,178730,1,2,0:0:0:0:
449,77,178860,1,2,0:0:0:0:
464,50,179380,5,2,0:0:0:0:
475,193,179509,6,0,P|397:237|329:230,1,137.6
95,211,179769,1,8,0:0:0:0:
317,96,179899,1,0,0:0:0:0:
370,308,180029,2,0,P|302:306|233:299,1,137.6
64,111,180288,2,0,P|132:104|201:102,1,137.6
412,86,180548,6,0,P|397:152|340:187,1,137.6
385,338,180808,2,0,P|301:323|257:275,1,137.6
131,339,181067,2,0,P|116:264|127:194,1,137.6
271,52,181327,1,8,0:0:0:0:
264,288,181457,1,0,0:0:0:0:
466,160,181587,5,2,0:0:0:0:
466,160,181717,2,0,P|407:129|341:144,1,137.6
110,207,181977,1,0,0:0:0:0:
399,359,182107,2,0,P|400:290|393:222,1,137.6
269,66,182366,1,8,0:0:0:0:
242,317,182496,1,0,0:0:0:0:
127,177,182626,5,8,0:0:0:0:
383,205,182756,1,2,0:0:0:0:
67,236,182886,5,8,0:0:0:0:
442,145,183016,1,2,0:0:0:0:
49,155,183145,5,8,0:0:0:0:
460,227,183275,1,8,0:0:0:0:
271,39,183405,1,8,0:0:0:0:
238,342,183535,1,2,0:0:0:0:
132,61,183665,6,0,P|200:60|269:65,1,137.6
328,306,183925,1,8,0:0:0:0:
174,175,184055,1,0,0:0:0:0:
391,76,184185,2,0,L|383:213,1,137.6
135,249,184445,2,0,P|92:199|102:133,1,137.6
271,39,184704,6,0,B|317:26|317:26|391:76,1,137.6
381,281,184964,2,0,B|369:327|369:327|288:366,1,137.6
115,255,185223,2,0,B|81:222|81:222|88:132,1,137.6
271,39,185483,1,8,0:0:0:0:
213,313,185613,1,0,0:0:0:0:
88,132,185743,5,2,0:0:0:0:
88,131,185873,2,0,P|161:121|243:131,1,137.6
451,152,186132,1,0,0:0:0:0:
348,316,186262,2,0,P|279:321|212:312,1,137.6
271,39,186522,1,8,0:0:0:0:
395,242,186651,1,0,0:0:0:0:
88,131,186782,5,8,0:0:0:0:
440,118,186912,1,2,0:0:0:0:
106,240,187042,1,8,0:0:0:0:
412,254,187171,1,2,0:0:0:0:
68,120,187302,5,8,0:0:0:0:
455,105,187432,1,2,0:0:0:0:
91,250,187562,1,8,0:0:0:0:
427,265,187691,1,2,0:0:0:0:
186,362,187821,6,0,P|170:294|194:228,1,137.6
357,69,188080,1,8,0:0:0:0:
278,300,188210,1,0,0:0:0:0:
125,60,188340,2,0,P|209:58|275:62,1,137.6
458,189,188600,2,0,P|374:191|308:187,1,137.6
90,200,188860,6,0,P|73:265|84:333,1,137.6
451,322,189120,2,0,P|468:256|457:188,1,137.6
256,55,189380,2,0,P|238:121|250:188,1,137.6
411,42,189639,1,8,0:0:0:0:
125,60,189769,1,0,0:0:0:0:
49,304,189899,5,2,0:0:0:0:
49,303,190029,2,0,P|124:308|203:278,1,137.6
256,55,190288,1,0,0:0:0:0:
463,303,190418,2,0,P|388:308|309:278,1,137.6
136,200,190678,1,8,0:0:0:0:
399,131,190807,1,0,0:0:0:0:
256,312,190937,5,8,0:0:0:0:
125,60,191067,1,2,0:0:0:0:
256,336,191197,5,8,0:0:0:0:
387,60,191327,1,2,0:0:0:0:
56,271,191457,5,8,0:0:0:0:
456,271,191587,1,8,0:0:0:0:
256,24,191717,1,8,0:0:0:0:
256,360,191847,1,2,0:0:0:0:
454,130,191977,6,0,P|388:103|323:126,1,137.6
68,245,192237,2,0,P|130:302|144:218,1,206.4
78,158,192496,1,2,0:0:0:0:
178,367,192626,1,0,0:0:0:0:
372,330,192756,2,0,P|386:263|384:194,1,137.6
103,38,193016,6,0,P|89:105|90:173,1,137.6
256,360,193275,2,0,L|256:216,1,137.6
409,38,193535,2,0,P|422:105|421:173,1,137.6
113,276,193795,1,8,0:0:0:0:
256,72,193925,1,0,0:0:0:0:
361,297,194055,5,2,0:0:0:0:
361,297,194185,2,0,P|295:311|227:300,1,137.6
93,114,194445,1,0,0:0:0:0:
352,166,194574,1,2,0:0:0:0:
113,276,194704,1,0,0:0:0:0:
241,46,194834,1,8,0:0:0:0:
272,307,194964,1,0,0:0:0:0:
78,137,195094,5,8,0:0:0:0:
415,120,195223,1,2,0:0:0:0:
90,260,195353,5,8,0:0:0:0:
386,281,195482,1,2,0:0:0:0:
258,33,195613,1,8,0:0:0:0:
210,360,195743,5,2,0:0:0:0:
430,205,195873,1,2,0:0:0:0:
78,137,196002,1,2,0:0:0:0:
86,161,196392,6,0,P|160:160|240:136,1,129
321,99,196652,6,0,P|322:203|242:138,1,258
344,83,196912,6,0,P|374:169|309:233,1,193.5
223,269,197172,6,0,B|190:282|190:282|287:311,1,137.6
459,337,197431,2,0,P|387:371|372:368,2,68.8
487,183,197691,2,0,P|409:183|344:206,1,137.6
209,64,197951,2,0,P|287:64|352:87,1,137.6
223,269,198210,6,0,P|156:304|84:282,1,137.6
133,68,198470,2,0,L|145:206,1,137.6
308,25,198730,2,0,L|296:162,1,137.6
464,114,198990,1,8,0:0:0:0:
455,147,199054,1,0,0:0:0:0:
447,180,199119,1,0,0:0:0:0:
439,214,199184,1,0,0:0:0:0:
431,247,199250,6,0,P|341:248|293:236,1,137.6
236,57,199509,1,8,0:0:0:0:
201,55,199573,1,0,0:0:0:0:
167,58,199638,1,0,0:0:0:0:
133,68,199703,1,0,0:0:0:0:
102,82,199769,2,0,L|112:233,1,137.6
289,339,200029,1,8,0:0:0:0:
291,304,200093,1,0,0:0:0:0:
293,270,200158,1,0,0:0:0:0:
295,236,200223,1,0,0:0:0:0:
298,201,200288,5,2,0:0:0:0:
309,58,200418,2,0,P|343:57|377:61,2,68.8
102,82,200678,1,0,0:0:0:0:
152,247,200808,1,2,0:0:0:0:
220,98,200937,2,0,P|214:62|220:28,2,68.8
291,304,201197,1,0,0:0:0:0:
448,168,201327,6,0,P|380:140|314:163,1,137.6
152,247,201587,2,0,P|140:214|136:180,2,68.8
371,368,201847,2,0,L|378:231,1,137.6
220,98,202107,2,0,L|226:235,1,137.6
447,167,202366,6,0,P|386:140|321:157,1,137.6
305,335,202626,2,0,P|360:296|378:231,1,137.6
231,127,202886,2,0,P|238:195|286:243,1,137.6
449,202,203145,1,8,0:0:0:0:
447,167,203210,1,0,0:0:0:0:
445,133,203275,1,0,0:0:0:0:
443,98,203340,1,0,0:0:0:0:
441,64,203405,6,0,P|366:52|299:52,1,137.6
117,130,203665,1,8,0:0:0:0:
115,164,203730,1,0,0:0:0:0:
113,199,203795,1,0,0:0:0:0:
111,233,203860,1,0,0:0:0:0:
109,268,203925,2,0,P|195:283|259:268,1,137.6
445,133,204185,1,8,0:0:0:0:
411,126,204249,1,0,0:0:0:0:
377,121,204314,1,0,0:0:0:0:
342,119,204379,1,0,0:0:0:0:
308,120,204445,5,2,0:0:0:0:
113,199,204574,1,2,0:0:0:0:
357,256,204704,1,8,0:0:0:0:
102,354,204834,1,8,0:0:0:0:
338,243,204964,5,2,0:0:0:0:
137,198,205094,1,2,0:0:0:0:
299,135,205223,2,0,B|304:207|295:243|295:243|326:228,1,137.6
442,160,205483,5,6,0:0:0:0:
216,122,205613,1,0,0:0:0:0:
216,122,205678,1,0,0:0:0:0:
216,122,205743,2,0,P|214:217|222:291,1,137.6
383,277,206002,1,2,0:0:0:0:
417,51,206132,1,0,0:0:0:0:
417,51,206197,1,0,0:0:0:0:
417,51,206262,2,0,P|333:39|266:55,1,137.6
72,89,206522,6,0,L|82:240,1,137.6
430,226,206782,2,0,L|440:89,1,137.6
190,279,207042,2,0,P|256:295|322:279,1,137.6
322,61,207302,1,8,0:0:0:0:
289,49,207366,1,0,0:0:0:0:
255,45,207431,1,0,0:0:0:0:
221,49,207496,1,0,0:0:0:0:
189,60,207561,6,0,L|180:198,1,137.6
351,151,207821,1,8,0:0:0:0:
354,186,207885,1,0,0:0:0:0:
356,220,207950,1,0,0:0:0:0:
358,254,208015,1,0,0:0:0:0:
361,289,208080,2,0,P|292:307|221:308,1,137.6
45,178,208340,1,8,0:0:0:0:
79,176,208405,1,0,0:0:0:0:
113,179,208470,1,0,0:0:0:0:
147,186,208535,1,0,0:0:0:0:
179,197,208600,6,0,P|226:226|318:215,1,137.6
351,151,208795,1,0,0:0:0:0:
351,151,208860,2,0,P|350:112|361:72,2,68.8
369,336,209120,2,0,P|301:322|212:323,1,137.6
151,337,209315,1,0,0:0:0:0:
151,337,209380,2,0,P|112:338|72:327,2,68.8
383,223,209639,6,0,P|401:288|382:354,1,137.6
230,250,209899,1,8,0:0:0:0:
216,219,209964,1,0,0:0:0:0:
211,185,210029,1,0,0:0:0:0:
215,151,210094,1,0,0:0:0:0:
229,120,210159,1,2,0:0:0:0:
434,156,210288,1,0,0:0:0:0:
369,336,210418,2,0,P|261:342|205:335,1,137.6
73,183,210678,6,0,P|67:75|81:20,1,137.6
439,46,210937,2,0,P|447:114|439:183,1,137.6
256,352,211197,2,0,L|256:200,1,137.6
93,84,211457,1,8,0:0:0:0:
90,119,211522,1,0,0:0:0:0:
90,153,211587,1,0,0:0:0:0:
96,187,211652,1,0,0:0:0:0:
105,221,211717,6,0,P|176:232|256:232,1,137.6
464,208,211977,1,8,0:0:0:0:
294,129,212107,1,0,0:0:0:0:
396,321,212237,1,2,0:0:0:0:
425,95,212366,2,0,P|357:102|294:129,1,137.6
105,221,212626,1,0,0:0:0:0:
417,331,212756,5,2,0:0:0:0:
82,211,212886,1,2,0:0:0:0:
405,105,213016,5,8,0:0:0:0:
59,201,213145,1,2,0:0:0:0:
308,356,213275,5,8,0:0:0:0:
322,53,213405,1,2,0:0:0:0:
111,297,213535,5,2,0:0:0:0:
426,242,213665,1,8,0:0:0:0:
103,148,213795,5,2,0:0:0:0:
212,344,213925,1,8,0:0:0:0:
298,40,214055,1,2,0:0:0:0:
407,234,214185,1,2,0:0:0:0:
16,117,214315,5,10,0:0:0:0:
494,265,214574,1,10,0:0:0:0:
256,192,214834,5,14,0:0:0:0:
256,192,214899,12,4,220288,0:0:0:0:
