osu file format v14

[General]
AudioFilename: ;w; .mp3
AudioLeadIn: 0
PreviewTime: 49633
Countdown: 0
SampleSet: Normal
StackLeniency: 0.7
Mode: 0
LetterboxInBreaks: 0
WidescreenStoryboard: 0

[Editor]
Bookmarks: 6947,23404,45347,50833,72776,78262,105690,127633,138604,161919,175633,198947
DistanceSpacing: 1.4
BeatDivisor: 4
GridSize: 4
TimelineZoom: 2.5

[Metadata]
Title:Okochama Sensou
TitleUnicode:おこちゃま戦争
Artist:kradness&Reol
ArtistUnicode:kradness&れをる
Creator:Kamio Misuzu
Version:wMw's Advanced
Source:
Tags:歌ってみた ギガ Giga Giga-P ギガP Mei Wing_My_Way Frey JJburstOwO
BeatmapID:847908
BeatmapSetID:369058

[Difficulty]
HPDrainRate:4
CircleSize:3.8
OverallDifficulty:5
ApproachRate:6
SliderMultiplier:1.4
SliderTickRate:1

[Events]
//Background and Video events
0,0,"BG.jpg",0,0
//Break Periods
2,72976,77212
2,127833,137554
2,173089,174583
//Storyboard Layer 0 (Background)
//Storyboard Layer 1 (Fail)
//Storyboard Layer 2 (Pass)
//Storyboard Layer 3 (Foreground)
//Storyboard Sound Samples

[TimingPoints]
1462,342.857142857143,4,2,1,50,1,0
3862,-100,4,2,3,50,0,0
3947,-100,4,2,1,50,0,0
23404,-100,4,2,2,70,0,0
45347,-100,4,2,1,70,0,0
50833,-100,4,1,0,80,0,1
72776,-100,4,1,0,80,0,0
78262,-100,4,2,2,60,0,0
100204,-100,4,2,1,60,0,0
105690,-100,4,1,0,80,0,1
127633,-100,4,2,2,70,0,0
161919,-100,4,2,1,60,0,0
175633,-100,4,1,0,80,0,1
198947,-100,4,1,0,80,0,0

[Colours]
Combo1 : 128,128,192
Combo2 : 250,203,61
Combo3 : 255,77,77

[HitObjects]
64,96,1462,6,0,B|112:104|112:104|144:132|144:132|212:140,1,140,8|0,0:0|0:0,0:0:0:0:
290,143,1976,1,8,0:0:0:0:
468,224,2490,1,2,0:0:0:0:
468,224,2833,6,0,P|471:261|452:315,1,70,8|0,0:0|0:0,0:0:0:0:
369,319,3176,2,0,P|350:295|309:276,1,70,0|8,0:0|0:0,0:0:0:0:
120,298,3690,2,0,L|130:218,1,70,2|2,0:0|0:0,0:0:0:0:
149,132,4033,1,8,0:0:0:0:
149,132,4204,6,0,P|207:157|296:109,1,140,8|8,0:0|0:0,0:0:0:0:
443,236,4890,2,0,P|417:350|281:301,1,280,8|8,0:0|0:0,0:0:0:0:
364,95,6947,6,0,P|300:119|212:103,1,140,4|0,0:3|0:0,0:0:0:0:
144,62,7462,1,0,0:0:0:0:
66,7,7633,2,0,P|50:47|58:91,1,70,2|0,0:0|0:0,0:0:0:0:
76,168,7976,2,0,P|104:199|147:212,1,70,2|0,0:0|0:0,0:0:0:0:
227,209,8319,6,0,L|296:207,1,70,4|0,0:3|0:0,0:0:0:0:
366,134,8662,2,0,L|421:216,1,70
499,215,9004,2,0,L|465:276,1,70,2|0,0:0|0:0,0:0:0:0:
385,334,9347,2,0,L|368:266,1,70,2|0,0:0|0:0,0:0:0:0:
287,324,9690,6,0,L|148:328,1,140,4|0,0:3|0:0,0:0:0:0:
48,336,10204,1,0,0:0:0:0:
16,240,10376,2,0,L|9:170,1,70,2|0,0:0|0:0,0:0:0:0:
112,112,10719,2,0,L|104:200,1,70,2|0,0:0|0:0,0:0:0:0:
188,232,11062,6,0,B|256:208|256:208|319:233,2,140,4|0|0,0:3|0:0|0:0,0:0:0:0:
170,329,11919,2,0,L|102:311,2,70
256,304,12433,5,4,0:0:0:0:
352,179,13804,6,0,L|356:324,1,140,4|2,0:0|0:0,0:0:0:0:
252,188,14490,1,0,0:0:0:0:
344,48,14833,1,0,0:0:0:0:
452,176,15176,5,4,0:0:0:0:
452,176,15862,2,0,P|376:192|304:160,1,140,2|0,0:0|0:0,0:0:0:0:
204,48,16547,5,4,0:0:0:0:
204,48,16890,2,0,L|120:32,1,70,2|0,0:0|0:0,0:0:0:0:
48,52,17233,2,0,B|32:96|32:96|52:196,2,140,2|0|4,0:0|0:0|0:0,0:0:0:0:
324,188,18604,5,4,0:0:0:0:
172,352,19290,1,4,0:0:0:0:
128,132,19976,1,4,0:0:0:0:
128,132,20662,6,0,L|138:278,1,140,4|0,0:0|0:0,0:0:0:0:
318,344,21347,2,0,B|374:333|374:333|398:309|398:309|446:301,1,140,2|0,0:0|0:0,0:0:0:0:
500,112,22033,2,0,B|474:116|446:96|446:96|418:115|378:137|378:137|340:123|314:142|314:142|284:109|220:125,1,280,8|0,0:0|0:0,0:0:0:0:
58,366,23404,6,0,B|30:321|30:321|50:218,1,140,6|8,0:0|0:0,0:0:0:0:
84,144,23919,2,0,P|147:158|225:133,1,140,2|8,0:0|0:0,0:0:0:0:
311,108,24433,2,0,L|324:198,1,70,8|2,0:0|0:0,0:0:0:0:
354,269,24776,6,0,B|414:346,2,70,2|0|8,0:0|0:0|0:0,0:0:0:0:
257,248,25290,2,0,B|231:286|231:286|243:400,1,140,2|0,0:0|0:0,0:0:0:0:
152,337,25804,2,0,L|140:262,1,70,8|8,0:0|0:0,0:0:0:0:
125,170,26147,5,2,0:0:0:0:
220,146,26319,2,0,L|237:198,2,35,0|0|8,0:0|0:0|0:0,0:0:0:0:
185,53,26662,1,2,0:0:0:0:
185,53,26833,2,0,P|237:27|335:36,1,140,8|8,0:0|0:0,0:0:0:0:
415,21,27347,6,0,B|422:65|407:94|407:94|435:115|437:149,1,140,2|0,0:0|0:0,0:0:0:0:
395,215,27862,1,8,0:0:0:0:
338,162,28033,1,2,0:0:0:0:
338,162,28204,2,0,P|268:160|188:193,1,140,0|8,0:0|0:0,0:0:0:0:
66,324,28890,6,0,B|58:176,1,140,2|8,0:0|0:0,0:0:0:0:
105,97,29404,2,0,P|143:87|195:87,1,70,2|8,0:0|0:0,0:0:0:0:
271,85,29747,1,8,0:0:0:0:
364,114,29919,2,0,P|370:145|359:209,1,70,8|0,0:0|0:0,0:0:0:0:
354,280,30262,6,0,P|335:308|289:323,1,70,2|0,0:0|0:0,0:0:0:0:
205,312,30604,1,8,0:0:0:0:
111,281,30776,2,0,P|93:255|89:192,1,70,2|0,0:0|0:0,0:0:0:0:
144,139,31119,2,0,L|228:102,2,70,2|8|0,0:0|0:0|0:0,0:0:0:0:
209,212,31633,5,2,0:0:0:0:
285,159,31804,2,0,L|294:107,2,35,8|0|8,0:0|0:0|0:0,0:0:0:0:
324,248,32147,1,2,0:0:0:0:
324,248,32319,2,0,P|395:257|473:224,1,140,0|8,0:0|0:0,0:0:0:0:
488,140,32833,1,0,0:0:0:0:
418,72,33004,6,0,P|356:49|265:49,1,140,2|8,0:0|0:0,0:0:0:0:
203,104,33519,2,0,P|222:172|207:244,1,140,2|0,0:0|0:0,0:0:0:0:
140,307,34033,1,4,0:0:0:0:
140,307,34204,1,0,0:0:0:0:
140,307,34376,6,0,P|64:317|-7:279,1,140,2|8,0:0|0:0,0:0:0:0:
109,124,35062,2,0,B|154:139|154:139|274:111,1,140,2|8,0:0|0:0,0:0:0:0:
398,238,35747,2,0,B|239:251,1,140,2|8,0:0|0:0,0:0:0:0:
216,338,36262,1,2,0:0:0:0:
216,338,36433,2,0,B|181:315|181:315|156:219,1,140,2|8,0:0|0:0,0:0:0:0:
242,173,36947,1,0,0:0:0:0:
242,173,37119,6,0,L|334:186,1,70,2|0,0:0|0:0,0:0:0:0:
407,163,37462,2,0,P|431:186|443:219,1,70,8|2,0:0|0:0,0:0:0:0:
413,313,37804,2,0,P|380:325|357:350,1,70
262,326,38147,2,0,P|227:331|195:318,1,70,8|0,0:0|0:0,0:0:0:0:
144,230,38490,6,0,P|55:182|116:263,1,280,2|8,0:0|0:0,0:0:0:0:
311,263,39519,1,4,0:0:0:0:
311,263,39862,6,0,P|382:281|457:263,1,140,2|8,0:0|0:0,0:0:0:0:
474,73,40547,2,0,P|399:58|316:72,1,140,2|8,0:0|0:0,0:0:0:0:
294,156,41062,1,2,0:0:0:0:
294,156,41233,2,0,P|217:170|146:132,1,140,2|8,0:0|0:0,0:0:0:0:
72,106,41747,2,0,P|36:166|56:250,1,140,2|2,0:0|0:0,0:0:0:0:
89,321,42262,2,0,P|103:289|131:269,1,70,8|0,0:0|0:0,0:0:0:0:
221,232,42604,6,0,L|233:74,1,140,2|8,0:0|0:0,0:0:0:0:
324,44,43119,2,0,L|315:198,1,140,2|0,0:0|0:0,0:0:0:0:
405,205,43633,2,0,P|401:244|380:277,1,70,8|0,0:0|0:0,0:0:0:0:
294,302,43976,6,0,B|252:306|222:346|222:346|166:314|166:314|139:333|106:318|106:318|86:334|43:329,1,280,10|8,0:0|0:0,0:0:0:0:
37,133,45004,2,0,L|49:213,1,70,4|0,0:0|0:0,0:0:0:0:
136,243,45347,6,0,B|299:222,1,140,2|0,0:0|0:0,0:0:0:0:
386,62,46033,2,0,P|321:94|327:165,1,140,2|0,0:0|0:0,0:0:0:0:
136,243,46719,6,0,P|140:186|110:96,1,140,2|0,0:0|0:0,0:0:0:0:
34,53,47233,1,0,0:0:0:0:
16,149,47404,2,0,B|5:197|5:197|32:285,1,140,2|0,0:0|0:0,0:0:0:0:
126,313,47919,1,0,0:0:0:0:
224,322,48090,5,10,0:0:0:0:
224,322,48433,1,2,0:0:0:0:
224,322,48776,2,0,P|258:319|304:294,1,70,2|0,0:0|0:0,0:0:0:0:
371,248,49119,2,0,P|386:215|390:171,1,70,2|0,0:0|0:0,0:0:0:0:
383,83,49462,5,2,0:0:0:0:
84,90,50833,6,0,P|151:110|240:83,1,140,6|8,0:0|0:0,0:0:0:0:
297,37,51347,1,0,0:0:0:0:
390,66,51519,2,0,B|398:150,1,70,8|2,0:0|0:0,0:0:0:0:
367,229,51862,1,8,0:0:0:0:
367,229,52033,1,2,0:0:0:0:
268,227,52204,6,0,L|254:147,1,70
241,60,52547,2,0,L|162:51,1,70
73,43,52890,1,4,3:0:0:0:
12,120,53062,2,0,L|32:208,1,70,2|0,0:0|0:0,0:0:0:0:
113,192,53404,1,2,0:0:0:0:
113,192,53576,6,0,B|141:193|167:208|167:208|201:198|221:184|221:184|259:192|287:209|287:209|310:190|331:180|349:193|375:191,1,280,6|8,0:0|3:0,0:0:0:0:
448,126,54433,2,0,P|470:153|478:205,1,70,2|8,0:0|0:0,0:0:0:0:
444,280,54776,6,0,B|414:285|385:271|385:271|344:312|314:317|314:317|283:301|228:326,1,210,6|2,0:0|0:0,0:0:0:0:
172,287,55462,1,0,0:0:0:0:
88,312,55633,2,0,L|96:228,1,70
172,182,55976,2,0,P|189:172|217:129,1,70,8|0,0:0|0:0,0:0:0:0:
168,46,56319,6,0,L|321:60,1,140,6|0,0:0|0:0,0:0:0:0:
402,84,56833,1,0,0:0:0:0:
347,160,57004,2,0,P|306:165|274:188,1,70,8|2,0:0|0:0,0:0:0:0:
272,268,57347,1,0,0:0:0:0:
272,268,57519,6,0,B|192:261|192:261|138:293|138:293|45:287,1,210,2|8,0:0|0:0,0:0:0:0:
48,192,58204,1,0,0:0:0:0:
144,176,58376,2,0,L|116:100,1,70,8|0,0:0|0:0,0:0:0:0:
212,80,58719,2,2,L|292:72,1,70
376,76,59062,6,0,P|461:174|406:314,1,280,4|8,0:0|3:0,0:0:0:0:
337,271,59919,1,0,3:0:0:0:
253,276,60090,1,4,3:0:0:0:
197,339,60262,6,0,B|165:267|165:267|177:207|177:207|141:131,1,210,6|0,0:0|0:0,0:0:0:0:
113,51,60947,1,2,0:0:0:0:
210,39,61119,2,0,L|294:31,1,70,8|0,0:0|0:0,0:0:0:0:
376,50,61462,2,0,B|360:78|360:78|364:94|364:94|348:126,1,70,8|0,0:0|0:0,0:0:0:0:
308,199,61804,6,0,P|368:239|352:315,1,140,6|0,0:0|0:0,0:0:0:0:
276,345,62319,1,0,0:0:0:0:
182,317,62490,2,0,L|172:219,1,70,0|2,0:0|0:0,0:0:0:0:
105,178,62833,2,0,L|161:130,1,70,0|2,0:0|0:0,0:0:0:0:
226,61,63176,6,0,B|289:38|289:38|355:64,1,140,8|0,0:0|0:0,0:0:0:0:
441,114,63690,1,2,0:0:0:0:
434,212,63862,2,0,B|424:357,1,140,8|0,0:0|0:0,0:0:0:0:
337,306,64376,1,0,0:0:0:0:
337,306,64547,6,0,L|257:294,1,70,4|2,3:0|0:0,0:0:0:0:
201,370,64890,2,0,L|145:298,1,70,8|2,3:0|0:0,0:0:0:0:
61,330,65233,2,0,L|53:246,1,70,4|2,3:0|0:0,0:0:0:0:
10,172,65576,2,0,L|58:108,1,70,8|2,3:0|0:0,0:0:0:0:
140,73,65919,6,0,B|196:77|196:77|212:101|212:101|292:109,1,140,6|0,0:0|0:0,0:0:0:0:
360,73,66433,1,0,0:0:0:0:
456,93,66604,2,0,L|424:165,1,70,8|2,0:0|0:0,0:0:0:0:
387,246,66947,2,0,L|454:225,1,70,8|2,0:0|0:0,0:0:0:0:
455,323,67290,6,0,L|291:311,1,140,6|0,0:0|0:0,0:0:0:0:
218,295,67804,1,0,0:0:0:0:
122,307,67976,2,0,B|126:255|154:223|154:223|144:186|154:155,1,140,8|0,0:0|0:0,0:0:0:0:
86,103,68490,6,0,P|166:167|270:103,1,210,6|4,0:0|3:0,0:0:0:0:
318,52,69176,1,0,0:0:0:0:
412,84,69347,2,0,L|430:175,1,70,8|2,0:0|0:0,0:0:0:0:
506,208,69690,2,0,L|487:310,1,70,8|2,0:0|0:0,0:0:0:0:
412,332,70033,6,0,B|364:332|332:288|332:288|286:348|286:348|234:327|158:348,2,280,4|4|4,0:0|0:0|0:0,0:0:0:0:
321,157,71747,2,0,P|286:172|239:170,1,70
156,168,72090,1,0,0:0:0:0:
66,126,72262,2,0,P|58:111|51:86,2,35
172,290,72776,5,4,0:0:0:0:
125,313,78262,6,0,B|168:304|168:304|208:328|208:328|256:316,1,140,4|8,3:0|0:0,0:0:0:0:
335,254,78776,2,0,B|404:232|404:232|460:272,1,140,2|0,0:0|0:0,0:0:0:0:
488,176,79290,2,0,L|500:84,1,70,8|0,0:0|0:0,0:0:0:0:
404,48,79633,6,0,L|411:118,1,70,4|0,3:0|0:0,0:0:0:0:
324,116,79976,2,0,P|288:124|259:143,1,70,8|2,0:0|0:0,0:0:0:0:
176,120,80319,2,0,P|178:80|167:27,1,70
66,27,80662,2,0,P|84:57|91:98,1,70,8|0,0:0|0:0,0:0:0:0:
35,171,81004,6,0,L|43:211,2,35,4|0|0,3:0|0:0|0:0,0:0:0:0:
126,206,81347,2,0,L|119:240,2,35,8|0|0,0:0|0:0|0:0,0:0:0:0:
54,273,81690,2,0,L|58:321,2,35,2|0|0,0:0|0:0|0:0,0:0:0:0:
143,313,82033,2,0,L|191:305,2,35,8|0|0,0:0|0:0|0:0,0:0:0:0:
204,235,82376,6,0,B|256:223|256:223|288:243|288:243|352:231,1,140,4|8,3:0|0:0,0:0:0:0:
412,192,82890,1,2,0:0:0:0:
412,192,83062,2,0,B|388:124|388:124|420:40,1,140,0|8,0:0|0:0,0:0:0:0:
220,16,83747,6,0,B|228:164,1,140,4|8,3:0|0:0,0:0:0:0:
228,256,84262,2,0,B|180:244|180:244|140:268|140:268|97:258,1,140,2|0,0:0|0:0,0:0:0:0:
120,164,84776,2,0,L|102:96,1,70,8|0,0:0|0:0,0:0:0:0:
184,40,85119,6,0,L|265:47,1,70,4|0,3:0|0:0,0:0:0:0:
312,125,85462,2,0,P|285:155|272:182,1,70,8|0,0:0|0:0,0:0:0:0:
309,271,85804,2,0,P|308:305|328:360,2,70,2|0|8,0:0|0:0|0:0,0:0:0:0:
378,201,86319,1,8,0:0:0:0:
473,223,86490,5,4,3:0:0:0:
473,223,86662,2,0,P|464:179|446:141,1,70,2|0,0:0|0:0,0:0:0:0:
279,66,87176,2,0,B|223:70|175:58|175:58|147:94,1,140,8|2,0:0|0:0,0:0:0:0:
112,175,87690,1,0,0:0:0:0:
45,103,87862,6,0,B|15:126|15:126|29:255,1,140,2|0,0:0|0:0,0:0:0:0:
116,264,88376,1,2,0:0:0:0:
124,360,88547,2,0,B|168:336|168:336|256:361,1,140,0|8,0:0|0:0,0:0:0:0:
262,164,89233,6,0,P|314:202|400:182,1,140,2|8,0:0|0:0,0:0:0:0:
456,126,89747,2,0,P|399:112|348:40,1,140,2|0,0:0|0:0,0:0:0:0:
256,21,90262,2,0,L|237:114,1,70,8|0,0:0|0:0,0:0:0:0:
172,159,90604,6,0,B|153:19,1,140,2|8,0:0|0:0,0:0:0:0:
80,88,91119,2,0,L|100:240,1,140,2|0,0:0|0:0,0:0:0:0:
108,326,91633,2,0,L|32:298,2,70,8|0|2,0:0|0:0|0:0,0:0:0:0:
216,164,92319,6,0,P|237:124|232:86,1,70,8|2,0:0|0:0,0:0:0:0:
292,208,92662,2,0,P|294:243|311:272,1,70
391,327,93004,2,0,P|426:332|458:319,1,70,8|0,0:0|0:0,0:0:0:0:
460,224,93347,6,0,P|379:231|466:182,1,280,2|2,0:0|0:0,0:0:0:0:
316,56,94376,2,0,B|229:47,1,70,4|0,0:0|0:0,0:0:0:0:
148,60,94719,6,0,B|136:104|136:104|176:212,1,140,2|8,0:0|0:0,0:0:0:0:
268,364,95404,2,0,P|224:309|148:296,1,140,2|8,0:0|0:0,0:0:0:0:
64,324,95920,1,8,0:0:0:0:
64,324,96090,6,0,B|64:263|64:263|76:258|76:258|76:172,1,140,2|8,0:0|0:0,0:0:0:0:
200,40,96776,2,0,P|206:109|271:165,1,140,2|8,0:0|0:0,0:0:0:0:
296,360,97462,6,0,P|276:264|156:232,1,210,2|2,0:0|0:0,0:0:0:0:
108,292,98147,2,0,P|68:308|28:304,1,70,8|0,0:0|0:0,0:0:0:0:
20,212,98490,2,0,P|32:184|28:140,1,70,8|0,0:0|0:0,0:0:0:0:
48,48,98833,6,0,B|90:52|120:92|120:92|176:60|176:60|208:92|208:92|247:70|306:76,1,280,2|2,0:0|0:0,0:0:0:0:
484,72,99862,2,0,P|488:116|472:152,1,70,8|0,0:0|0:0,0:0:0:0:
476,236,100204,6,0,B|452:276|452:276|344:296,1,140,2|0,0:0|0:0,0:0:0:0:
220,152,100890,1,2,0:0:0:0:
220,152,101062,1,2,0:0:0:0:
124,164,101233,2,0,P|132:200|156:228,1,70,2|0,0:0|0:0,0:0:0:0:
124,320,101576,6,0,P|176:276|252:288,1,140,2|0,0:0|0:0,0:0:0:0:
332,324,102090,1,0,0:0:0:0:
412,264,102262,2,0,B|386:227|386:227|396:128,1,140,2|0,0:0|0:0,0:0:0:0:
200,84,102947,5,8,0:0:0:0:
200,84,103290,1,0,0:0:0:0:
200,84,103633,2,0,P|160:84|120:112,1,70
44,56,103976,2,0,P|36:96|48:132,1,70
112,196,104319,5,2,0:0:0:0:
412,152,105690,6,0,P|352:192|368:268,1,140,6|8,0:0|0:0,0:0:0:0:
272,304,106204,1,0,0:0:0:0:
224,216,106376,1,4,3:0:0:0:
176,304,106547,2,0,B|120:320|120:320|104:344|104:344|32:360,1,140,2|2,0:0|0:0,0:0:0:0:
32,260,107062,6,0,B|7:194|7:194|35:130,1,140,6|8,0:0|0:0,0:0:0:0:
108,64,107576,1,0,0:0:0:0:
200,100,107747,2,0,B|256:88|256:88|284:128|332:124,1,140,4|0,3:0|0:0,0:0:0:0:
344,28,108262,1,2,0:0:0:0:
440,40,108433,6,0,L|432:128,1,70,4|0,0:0|0:0,0:0:0:0:
448,208,108776,2,0,L|416:288,1,70,8|0,0:0|0:0,0:0:0:0:
328,320,109119,2,0,L|320:236,1,70,2|0,0:0|0:0,0:0:0:0:
228,220,109462,2,0,L|158:223,1,70,8|0,0:0|0:0,0:0:0:0:
136,320,109804,6,0,B|80:324|80:324|64:348|64:348|-16:356,1,140,6|8,0:0|0:0,0:0:0:0:
16,256,110319,1,0,0:0:0:0:
16,256,110490,2,0,L|48:184,1,70,4|2,3:0|0:0,0:0:0:0:
4,104,110833,2,0,L|71:83,1,70,0|2,0:0|0:0,0:0:0:0:
160,44,111176,6,0,L|168:192,1,140,6|8,0:0|0:0,0:0:0:0:
200,276,111690,1,0,0:0:0:0:
288,324,111862,2,0,B|292:272|320:240|320:240|310:203|320:172,1,140,8|8,3:0|0:0,0:0:0:0:
239,127,112376,6,0,P|319:191|423:127,1,210,2|8,0:0|0:0,0:0:0:0:
496,107,113062,1,0,0:0:0:0:
489,204,113233,2,0,L|484:300,1,70,4|2,3:0|0:0,0:0:0:0:
397,329,113576,2,0,L|393:233,1,70,8|2,0:0|0:0,0:0:0:0:
296,264,113919,6,0,B|243:256|206:287|206:287|171:261|171:261|135:275|88:256,2,210,6|0|8,0:0|0:0|0:0,0:0:0:0:
229,191,115119,1,2,0:0:0:0:
307,132,115290,6,0,B|347:166|395:160|395:160|411:200|411:200|456:196|488:236,1,210,6|0,0:0|0:0,0:0:0:0:
412,296,115976,1,4,3:0:0:0:
320,328,116147,2,0,L|323:282,2,35
124,324,116662,6,0,L|134:157,1,140,6|8,0:0|0:0,0:0:0:0:
44,144,117176,1,0,0:0:0:0:
44,144,117347,2,0,B|63:109|106:87,1,70,4|0,3:0|0:0,0:0:0:0:
188,96,117690,1,8,0:0:0:0:
188,96,117862,6,0,B|220:120|224:152|224:152|212:192|224:223,1,140,2|0,0:0|0:0,0:0:0:0:
261,304,118376,2,0,P|302:312|344:294,1,70,8|0,0:0|0:0,0:0:0:0:
416,312,118719,1,4,3:0:0:0:
416,312,118890,2,0,L|416:236,1,70,2|0,0:0|0:0,0:0:0:0:
460,162,119233,1,2,0:0:0:0:
460,162,119404,6,0,L|383:135,1,70,6|0,0:0|0:0,0:0:0:0:
302,103,119747,2,0,L|218:127,1,70,8|0,0:0|0:0,0:0:0:0:
137,110,120090,2,0,L|116:198,1,70,4|0,3:0|0:0,0:0:0:0:
130,275,120433,1,8,0:0:0:0:
219,235,120604,6,0,B|276:223|276:223|362:266|362:266|373:323,1,210,2|8,0:0|0:0,0:0:0:0:
274,327,121290,1,0,0:0:0:0:
176,323,121462,2,0,L|107:331,1,70,4|2,3:0|0:0,0:0:0:0:
15,293,121804,2,0,L|9:354,2,35,8|0|2,0:0|0:0|0:0,0:0:0:0:
97,239,122147,6,0,L|113:89,1,140,6|8,0:0|0:0,0:0:0:0:
193,45,122662,1,0,0:0:0:0:
290,30,122833,2,0,B|299:68|299:68|283:114,1,70,8|2,0:0|0:0,0:0:0:0:
204,146,123176,1,8,0:0:0:0:
204,146,123347,6,0,B|283:134|283:134|339:162|339:162|431:150,1,210,2|8,0:0|0:0,0:0:0:0:
495,113,124033,1,0,0:0:0:0:
495,113,124204,2,0,L|494:215,2,70,4|0|8,3:0|0:0|0:0,0:0:0:0:
406,67,124719,1,2,0:0:0:0:
308,77,124890,6,0,B|268:77|240:57|240:57|188:85|188:85|152:73|152:73|112:84|112:84|83:60|21:64,1,280,6|8,0:0|0:0,0:0:0:0:
52,161,125747,1,2,0:0:0:0:
52,161,125919,2,0,L|134:172,1,70,8|2,0:0|0:0,0:0:0:0:
219,179,126262,5,4,0:0:0:0:
102,335,126604,1,4,0:0:0:0:
298,320,126947,2,0,L|214:303,1,70,4|0,0:0|0:0,0:0:0:0:
280,221,127290,2,0,B|296:193|296:193|292:177|292:177|308:145,1,70,2|0,0:0|0:0,0:0:0:0:
376,95,127633,1,4,0:0:0:0:
387,71,138604,6,0,B|353:88|353:88|238:69,1,140,6|8,0:0|0:0,0:0:0:0:
154,60,139119,2,0,B|142:202,1,140,2|0,0:0|0:0,0:0:0:0:
71,268,139633,2,0,L|91:358,1,70,8|0,0:0|0:0,0:0:0:0:
178,368,139976,2,0,L|191:299,1,70,2|0,0:0|0:0,0:0:0:0:
228,208,140319,2,0,P|264:216|293:235,1,70,8|2,0:0|0:0,0:0:0:0:
372,288,140662,1,2,0:0:0:0:
372,288,140833,2,0,L|356:380,2,70,0|8|0,0:0|0:0|0:0,0:0:0:0:
464,256,141347,6,0,P|469:200|460:180,1,70,2|0,0:0|0:0,0:0:0:0:
368,188,141690,2,0,P|362:132|372:112,1,70,8|0,0:0|0:0,0:0:0:0:
460,88,142033,2,0,P|442:57|413:39,1,70,2|0,0:0|0:0,0:0:0:0:
316,36,142376,2,0,P|284:60|272:100,1,70,8|0,0:0|0:0,0:0:0:0:
188,136,142719,6,0,B|152:108|152:108|40:128,1,140,2|8,0:0|0:0,0:0:0:0:
12,212,143233,1,2,0:0:0:0:
12,212,143404,2,0,P|18:281|61:359,1,140,2|8,0:0|0:0,0:0:0:0:
244,324,144090,6,0,P|305:298|389:309,1,140,2|8,0:0|0:0,0:0:0:0:
476,316,144604,2,0,P|487:245|461:163,1,140,2|0,0:0|0:0,0:0:0:0:
393,128,145119,2,0,P|357:127|323:141,1,70,8|0,0:0|0:0,0:0:0:0:
244,80,145462,6,0,P|212:72|172:72,1,70,2|0,0:0|0:0,0:0:0:0:
84,108,145804,2,0,L|96:188,1,70,8|0,0:0|0:0,0:0:0:0:
128,268,146147,1,2,0:0:0:0:
220,236,146319,2,0,L|204:152,2,70,0|8|0,0:0|0:0|0:0,0:0:0:0:
316,212,146833,6,0,P|368:204|392:216,1,70,2|0,0:0|0:0,0:0:0:0:
468,160,147176,2,0,L|484:252,1,70,8|0,0:0|0:0,0:0:0:0:
448,320,147519,2,0,P|396:328|372:316,1,70,2|0,0:0|0:0,0:0:0:0:
296,368,147862,2,0,L|280:276,1,70,8|0,0:0|0:0,0:0:0:0:
256,204,148204,6,0,P|265:134|250:39,1,140,2|8,0:0|0:0,0:0:0:0:
168,36,148719,1,2,0:0:0:0:
168,36,148890,2,0,P|75:37|26:62,1,140,0|8,0:0|0:0,0:0:0:0:
5,259,149576,6,0,P|70:254|99:327,1,140,2|8,0:0|0:0,0:0:0:0:
150,226,150090,2,0,P|207:228|254:159,1,140,2|0,0:0|0:0,0:0:0:0:
314,244,150604,2,0,P|314:288|338:316,1,70,8|0,0:0|0:0,0:0:0:0:
424,336,150947,6,0,B|462:308|462:308|479:190,1,140,2|8,0:0|0:0,0:0:0:0:
456,120,151462,2,0,L|344:226,1,140,2|0,0:0|0:0,0:0:0:0:
272,164,151976,2,0,L|288:79,1,70,8|0,0:0|0:0,0:0:0:0:
220,24,152319,6,0,L|124:32,1,70,2|0,0:0|0:0,0:0:0:0:
64,76,152662,2,0,P|52:112|56:160,1,70,8|0,0:0|0:0,0:0:0:0:
148,136,153004,2,0,P|152:160|140:216,1,70,2|0,0:0|0:0,0:0:0:0:
240,224,153347,2,0,P|272:223|318:241,1,70,8|0,0:0|0:0,0:0:0:0:
260,320,153690,2,0,B|104:344,2,140,0|8|0,0:0|0:0|0:0,0:0:0:0:
437,269,154719,2,0,B|425:364,1,70,8|0,0:0|0:0,0:0:0:0:
344,272,155062,6,0,B|316:120,1,140,2|8,0:0|0:0,0:0:0:0:
157,38,155747,2,0,P|99:59|70:135,1,140,2|8,0:0|0:0,0:0:0:0:
159,301,156433,2,0,B|157:270|159:240|159:240|147:235|147:235|154:224|152:195|154:151,1,140,2|8,0:0|0:0,0:0:0:0:
235,224,156947,1,2,0:0:0:0:
235,224,157119,2,0,L|385:211,1,140,0|8,0:0|0:0,0:0:0:0:
452,164,157804,6,0,P|374:81|280:136,1,210,2|2,0:0|0:0,0:0:0:0:
216,168,158490,2,0,P|252:196|292:204,1,70,8|0,0:0|0:0,0:0:0:0:
360,172,158833,2,0,P|365:201|393:236,1,70,8|0,0:0|0:0,0:0:0:0:
440,316,159176,6,0,P|405:332|353:327,1,70,10|0,0:0|0:0,0:0:0:0:
282,369,159519,2,0,P|245:355|212:315,1,70,10|0,0:0|0:0,0:0:0:0:
124,337,159862,2,0,P|105:302|108:250,1,70,10|0,0:0|0:0,0:0:0:0:
24,214,160204,2,0,P|24:175|50:130,1,70,10|0,0:0|0:0,0:0:0:0:
256,192,160547,12,0,161576,0:0:0:0:
71,78,161919,6,0,L|79:172,1,70,10|0,0:0|0:0,0:0:0:0:
158,92,162262,2,0,L|166:186,1,70,8|0,0:0|0:0,0:0:0:0:
245,106,162604,2,0,L|253:200,1,70,10|0,0:0|0:0,0:0:0:0:
332,120,162947,2,0,L|340:214,1,70,8|0,0:0|0:0,0:0:0:0:
331,287,163290,6,0,L|336:217,1,70,10|0,0:0|0:0,0:0:0:0:
244,301,163633,2,0,L|249:231,1,70,8|0,0:0|0:0,0:0:0:0:
157,315,163976,2,0,L|162:245,1,70,10|0,0:0|0:0,0:0:0:0:
69,329,164319,2,0,L|74:259,1,70,8|0,0:0|0:0,0:0:0:0:
14,179,164662,6,0,L|94:146,1,70,10|0,0:0|0:0,0:0:0:0:
100,57,165004,2,0,L|191:98,1,70,8|0,0:0|0:0,0:0:0:0:
260,66,165347,2,0,L|262:165,1,70,10|0,0:0|0:0,0:0:0:0:
355,162,165690,2,0,L|326:255,1,70,8|0,0:0|0:0,0:0:0:0:
389,309,166033,6,0,P|354:325|302:320,1,70,10|0,0:0|0:0,0:0:0:0:
225,336,166376,2,8,P|188:322|155:282,1,70,8|0,0:0|0:0,0:0:0:0:
69,286,166719,2,0,P|42:258|30:207,1,70,10|0,0:0|0:0,0:0:0:0:
8,134,167062,2,0,P|8:95|34:50,1,70,8|0,0:0|0:0,0:0:0:0:
105,115,167404,6,0,L|100:185,1,70,10|0,0:0|0:0,0:0:0:0:
193,101,167747,2,0,L|188:171,1,70,8|0,0:0|0:0,0:0:0:0:
280,87,168090,2,0,L|275:157,1,70,10|0,0:0|0:0,0:0:0:0:
367,73,168433,2,0,L|362:143,1,70,8|0,0:0|0:0,0:0:0:0:
394,236,168776,6,0,L|472:216,1,70,10|0,0:0|0:0,0:0:0:0:
447,315,169119,2,0,L|360:336,1,70,8|0,0:0|0:0,0:0:0:0:
303,267,169462,2,0,L|210:289,1,70,10|0,0:0|0:0,0:0:0:0:
248,186,169804,2,0,L|316:169,1,70,8|0,0:0|0:0,0:0:0:0:
394,110,170147,6,0,P|359:94|307:99,1,70,10|0,0:0|0:0,0:0:0:0:
288,3,170490,2,0,P|251:17|218:57,1,70,8|0,0:0|0:0,0:0:0:0:
135,6,170833,2,0,P|119:41|126:93,1,70,10|0,0:0|0:0,0:0:0:0:
30,112,171176,2,0,P|43:148|84:181,1,70,8|0,0:0|0:0,0:0:0:0:
162,188,171519,6,0,L|254:180,1,70,10|8,0:0|0:0,0:0:0:0:
297,255,171862,2,0,L|227:261,1,70,10|8,0:0|0:0,0:0:0:0:
129,267,172204,2,8,L|98:302,8,35,8|8|8|8|8|8|8|8|12,0:0|0:0|0:0|0:0|0:0|0:0|0:0|0:0|0:0,0:0:0:0:
396,67,175633,6,0,L|386:234,1,140,6|8,0:0|0:0,0:0:0:0:
310,146,176147,1,0,0:0:0:0:
310,146,176319,2,0,P|271:134|225:143,1,70,4|2,3:0|0:0,0:0:0:0:
207,60,176662,1,8,0:0:0:0:
146,115,176833,6,0,B|146:175|146:175|154:187|154:187|148:200|148:200|144:241|148:275,1,140,2|0,0:0|0:0,0:0:0:0:
112,333,177347,2,0,P|153:341|195:323,1,70,8|0,0:0|0:0,0:0:0:0:
276,316,177690,1,4,3:0:0:0:
364,360,177862,2,0,L|392:268,1,70,2|0,0:0|0:0,0:0:0:0:
416,200,178204,1,2,0:0:0:0:
321,199,178376,6,0,L|244:172,1,70,6|0,3:0|0:0,0:0:0:0:
177,115,178719,2,0,L|260:76,1,70,2|0,0:0|0:0,0:0:0:0:
328,44,179062,2,0,L|349:132,1,70,12|0,3:0|0:0,0:0:0:0:
321,199,179404,1,0,0:0:0:0:
321,199,179576,6,0,B|277:202|254:178|254:178|214:195|186:186|186:186|159:196|159:196|129:186|108:190,1,210,2|8,0:0|0:0,0:0:0:0:
63,108,180262,1,0,0:0:0:0:
35,201,180433,2,0,L|58:291,1,70,8|2,0:0|0:0,0:0:0:0:
136,320,180776,2,0,L|118:383,2,35,8|0|2,0:0|0:0|0:0,0:0:0:0:
194,241,181119,6,0,B|294:228|294:228|341:256,1,140,6|8,0:0|0:0,0:0:0:0:
361,340,181633,1,0,0:0:0:0:
446,292,181804,2,0,B|437:254|437:254|453:208,1,70,4|2,3:0|0:0,0:0:0:0:
500,142,182147,1,8,0:0:0:0:
500,142,182319,6,0,B|421:130|421:130|365:158|365:158|273:146,1,210,2|8,0:0|0:0,0:0:0:0:
204,176,183004,1,0,0:0:0:0:
204,176,183176,2,0,L|205:74,2,70,4|0|8,3:0|0:0|0:0,0:0:0:0:
156,262,183690,1,2,0:0:0:0:
250,295,183862,6,0,B|290:295|318:315|318:315|370:287|370:287|406:299|406:299|446:288|446:288|475:312|537:308,1,280,6|8,0:0|0:0,0:0:0:0:
508,210,184719,1,2,0:0:0:0:
508,210,184890,2,0,L|426:199,1,70,8|2,0:0|0:0,0:0:0:0:
342,181,185233,5,0,0:0:0:0:
510,82,185576,1,6,3:0:0:0:
314,78,185919,2,0,L|398:95,1,70,8|2,0:0|0:0,0:0:0:0:
342,181,186262,2,0,B|326:209|326:209|330:225|330:225|314:257,1,70,8|2,0:0|0:0,0:0:0:0:
238,297,186604,6,0,P|198:237|122:253,1,140,6|8,0:0|0:0,0:0:0:0:
44,274,187119,1,0,0:0:0:0:
30,176,187290,2,0,L|48:93,1,70,4|2,3:0|0:0,0:0:0:0:
134,68,187633,2,0,L|216:77,1,70
301,75,187976,6,0,B|326:141|326:141|298:205,1,140,6|8,0:0|0:0,0:0:0:0:
377,263,188490,1,0,0:0:0:0:
297,320,188662,2,0,P|244:284|165:296,1,140,4|8,3:0|0:0,0:0:0:0:
83,339,189176,1,2,0:0:0:0:
83,339,189347,6,0,L|91:251,1,70,6|0,0:0|0:0,0:0:0:0:
64,175,189690,2,0,L|116:95,1,70,8|0,0:0|0:0,0:0:0:0:
147,28,190033,2,0,L|224:18,1,70,4|2,3:0|0:0,0:0:0:0:
284,92,190376,2,0,L|205:102,1,70,8|2,0:0|0:0,0:0:0:0:
276,176,190719,6,0,B|372:162|372:162|418:183,1,140,6|8,0:0|0:0,0:0:0:0:
476,252,191233,1,0,0:0:0:0:
476,252,191404,2,0,P|472:296|444:324,1,70,4|2,3:0|0:0,0:0:0:0:
364,348,191747,2,0,B|334:342|334:342|323:351|323:351|271:346,1,70,8|0,0:0|0:0,0:0:0:0:
224,288,192090,6,0,B|208:232|208:232|224:200|224:200|208:136,1,140,6|8,0:0|0:0,0:0:0:0:
176,64,192604,1,0,0:0:0:0:
84,88,192776,2,0,P|28:140|48:212,1,140,4|8,3:0|0:0,0:0:0:0:
124,240,193290,6,0,P|216:202|293:265,1,210,2|8,0:0|0:0,0:0:0:0:
370,212,193976,1,0,0:0:0:0:
466,227,194147,2,0,L|482:323,1,70,4|2,3:0|0:0,0:0:0:0:
388,360,194490,2,0,L|392:264,1,70,8|2,0:0|0:0,0:0:0:0:
293,265,194833,6,0,B|259:279|223:265|223:265|188:291|188:291|151:260|98:268,2,210,6|0|8,3:0|0:0|0:0,0:0:0:0:
172,184,196204,6,0,P|113:138|210:119,1,210,6|0,0:0|0:0,0:0:0:0:
272,163,196890,1,8,0:0:0:0:
272,163,197062,2,0,L|328:149,2,35,2|0|8,0:0|0:0|0:0,0:0:0:0:
172,184,197404,1,2,0:0:0:0:
172,184,197576,6,0,L|175:284,1,70,6|0,0:0|0:0,0:0:0:0:
274,275,197919,2,0,L|326:260,2,35,8|0|0,0:0|0:0|0:0,0:0:0:0:
351,335,198262,1,0,0:0:0:0:
468,178,198604,2,0,P|471:101|423:30,1,140,10|4,0:0|0:0,0:0:0:0:
