osu file format v14

[General]
AudioFilename: ;w; .mp3
AudioLeadIn: 0
PreviewTime: 49633
Countdown: 0
SampleSet: Normal
StackLeniency: 0.7
Mode: 0
LetterboxInBreaks: 0
WidescreenStoryboard: 0

[Editor]
Bookmarks: 72776,78262,94890
DistanceSpacing: 1.2
BeatDivisor: 4
GridSize: 4
TimelineZoom: 2.5

[Metadata]
Title:Okochama Sensou
TitleUnicode:おこちゃま戦争
Artist:kradness&Reol
ArtistUnicode:kradness&れをる
Creator:Kamio Misuzu
Version:Mei's Normal
Source:
Tags:歌ってみた ギガ Giga Giga-P ギガP Mei Wing_My_Way Frey JJburstOwO
BeatmapID:837204
BeatmapSetID:369058

[Difficulty]
HPDrainRate:5
CircleSize:3
OverallDifficulty:4
ApproachRate:5
SliderMultiplier:0.899999999999999
SliderTickRate:1

[Events]
//Background and Video events
0,0,"BG.jpg",0,0
//Break Periods
2,12633,22204
2,72976,77062
2,161919,168947
//Storyboard Layer 0 (Background)
//Storyboard Layer 1 (Fail)
//Storyboard Layer 2 (Pass)
//Storyboard Layer 3 (Foreground)
//Storyboard Sound Samples

[TimingPoints]
1462,342.857142857143,4,1,0,40,1,0
6947,-100,4,1,0,60,0,0
45347,-100,4,2,0,60,0,0
50833,-100,4,1,0,70,0,1
72776,-100,4,1,0,60,0,0
104319,-100,4,2,0,40,0,0
105690,-100,4,1,0,70,0,1
127633,-100,4,1,0,60,0,0
175633,-100,4,1,0,70,0,1
198947,-100,4,1,0,60,0,0

[Colours]
Combo1 : 128,128,192
Combo2 : 250,203,61
Combo3 : 255,77,77

[HitObjects]
76,88,1462,6,0,P|123:65|216:92,2,135,0|0|8,0:0|0:0|0:0,0:0:0:0:
4,168,2833,2,0,P|9:189|8:264,1,89.9999999999999
4,312,3347,2,0,L|152:304,1,135,0|8,0:0|0:0,0:0:0:0:
256,192,4204,12,4,5576,0:0:0:0:
388,48,6947,6,0,P|412:84|328:164,1,180,4|0,0:0|0:0,0:0:0:0:
240,108,7976,1,8,0:0:0:0:
132,100,8319,2,0,L|24:96,1,89.9999999999999,0|8,0:0|0:0,0:0:0:0:
24,204,9004,2,0,L|113:207,1,89.9999999999999,0|8,0:0|0:0,0:0:0:0:
212,252,9690,6,0,L|400:248,1,180,0|0,0:0|0:0,0:0:0:0:
476,176,10719,1,8,0:0:0:0:
392,112,11062,2,0,P|388:72|376:16,1,89.9999999999999,0|8,0:0|0:0,0:0:0:0:
272,36,11747,2,0,P|224:32|168:20,1,89.9999999999999,0|8,0:0|0:0,0:0:0:0:
88,72,12433,5,4,0:0:0:0:
84,64,23404,6,0,L|96:168,1,89.9999999999999,4|8,0:0|0:0,0:0:0:0:
132,256,24090,1,0,0:0:0:0:
216,188,24433,2,0,P|264:168|392:184,1,180,8|8,0:0|0:0,0:0:0:0:
468,256,25462,2,0,P|436:280|372:288,1,89.9999999999999,0|8,0:0|0:0,0:0:0:0:
292,340,26147,6,0,L|192:332,1,89.9999999999999,0|8,0:0|0:0,0:0:0:0:
104,284,26833,2,0,P|88:328|100:380,2,89.9999999999999,0|8|0,0:0|0:0|0:0,0:0:0:0:
196,228,27862,2,0,P|228:216|260:88,1,180,8|8,0:0|0:0,0:0:0:0:
160,52,28890,6,0,L|64:48,2,89.9999999999999,0|8|0,0:0|0:0|0:0,0:0:0:0:
260,12,29919,2,0,L|360:8,1,89.9999999999999,8|0,0:0|0:0,0:0:0:0:
448,56,30604,2,0,B|488:84|488:84|472:224,1,180,8|8,0:0|0:0,0:0:0:0:
376,260,31633,6,0,L|388:356,1,89.9999999999999,0|8,0:0|0:0,0:0:0:0:
280,360,32319,2,0,L|268:270,1,89.9999999999999,0|8,0:0|0:0,0:0:0:0:
320,176,33004,2,0,P|264:164|168:232,1,180,0|0,0:0|0:0,0:0:0:0:
108,320,34033,1,8,0:0:0:0:
28,248,34376,6,0,L|24:152,1,89.9999999999999,0|8,0:0|0:0,0:0:0:0:
88,72,35062,1,0,0:0:0:0:
172,140,35404,2,0,P|212:156|348:116,1,180,8|8,0:0|0:0,0:0:0:0:
380,24,36433,1,0,0:0:0:0:
272,16,36776,2,0,L|168:12,1,89.9999999999999,8|0,0:0|0:0,0:0:0:0:
136,40,37290,1,0,0:0:0:0:
92,68,37462,6,0,L|92:256,1,180,8|8,0:0|0:0,0:0:0:0:
172,320,38490,2,0,P|208:328|264:324,1,89.9999999999999,0|8,0:0|0:0,0:0:0:0:
364,352,39176,2,0,P|408:355|452:347,1,89.9999999999999,0|8,0:0|0:0,0:0:0:0:
412,248,39862,6,0,P|368:236|312:240,1,89.9999999999999,0|8,0:0|0:0,0:0:0:0:
384,148,40547,2,0,P|428:149|472:137,1,89.9999999999999,0|8,0:0|0:0,0:0:0:0:
412,48,41233,1,0,0:0:0:0:
308,72,41576,2,0,L|128:56,1,180,8|8,0:0|0:0,0:0:0:0:
72,148,42604,5,0,0:0:0:0:
172,184,42947,2,0,L|352:168,1,180,8|8,0:0|0:0,0:0:0:0:
460,160,43976,2,0,P|464:212|464:256,1,89.9999999999999,0|8,0:0|0:0,0:0:0:0:
356,268,44662,2,0,P|360:320|360:364,1,89.9999999999999,0|8,0:0|0:0,0:0:0:0:
252,352,45347,5,2,0:0:0:0:
104,208,46033,1,2,0:0:0:0:
272,72,46719,2,0,L|372:60,2,89.9999999999999,2|0|0,0:0|0:0|0:0,0:0:0:0:
164,88,47747,1,0,0:0:0:0:
240,164,48090,6,0,P|252:196|248:256,1,89.9999999999999,2|0,0:0|0:0,0:0:0:0:
188,340,48776,2,0,P|144:344|80:360,2,89.9999999999999
0,208,50833,6,0,P|56:228|136:144,1,180,4|2,0:0|0:0,0:0:0:0:
192,52,51862,1,8,0:0:0:0:
240,80,52033,1,0,0:0:0:0:
284,112,52204,2,0,P|280:188|272:300,1,180,0|2,0:0|0:0,0:0:0:0:
368,340,53233,1,8,0:0:0:0:
408,240,53576,6,0,P|424:188|444:140,1,89.9999999999999,6|8,0:0|0:0,0:0:0:0:
396,56,54262,2,0,P|288:44|200:44,1,180,2|2,0:0|0:0,0:0:0:0:
116,84,55290,1,8,0:0:0:0:
128,136,55462,1,0,0:0:0:0:
144,188,55633,2,0,P|152:228|156:280,1,89.9999999999999,2|10,0:0|0:0,0:0:0:0:
248,336,56319,6,0,L|444:328,1,180,4|2,0:0|0:0,0:0:0:0:
488,240,57347,1,8,0:0:0:0:
436,228,57519,1,0,0:0:0:0:
384,216,57690,2,0,P|325:201|320:86,1,180,0|2,0:0|0:0,0:0:0:0:
256,4,58719,1,8,0:0:0:0:
172,56,59062,6,0,P|128:64|68:64,1,89.9999999999999,4|8,0:0|0:0,0:0:0:0:
12,148,59747,2,0,P|72:152|200:168,1,180,2|2,0:0|0:0,0:0:0:0:
236,264,60776,2,0,L|236:320,2,45,8|0|2,0:0|0:0|0:0,0:0:0:0:
332,212,61462,1,10,0:0:0:0:
440,224,61804,6,0,P|448:176|452:32,1,180,4|2,0:0|0:0,0:0:0:0:
340,48,62833,1,8,0:0:0:0:
304,88,63004,1,0,0:0:0:0:
268,128,63176,2,0,P|208:132|88:132,1,180,0|2,0:0|0:0,0:0:0:0:
32,224,64204,1,8,0:0:0:0:
124,280,64547,6,0,P|136:328|144:368,1,89.9999999999999,0|8,0:0|0:0,0:0:0:0:
260,340,65233,2,0,P|251:295|240:252,1,89.9999999999999,2|8,0:0|0:0,0:0:0:0:
152,192,65919,2,0,P|176:164|316:184,1,180,0|2,0:0|0:0,0:0:0:0:
392,236,66947,1,10,0:0:0:0:
452,328,67290,6,0,P|480:296|464:160,1,180,4|2,0:0|0:0,0:0:0:0:
396,92,68319,1,8,0:0:0:0:
344,84,68490,1,0,0:0:0:0:
292,76,68662,2,0,L|108:64,1,180,0|2,0:0|0:0,0:0:0:0:
28,136,69690,1,8,0:0:0:0:
124,184,70033,6,0,P|140:244|256:240,1,180,2|2,0:0|0:0,0:0:0:0:
344,212,71062,1,10,0:0:0:0:
256,148,71404,2,0,L|248:48,2,89.9999999999999,2|10|2,0:0|0:0|0:0,0:0:0:0:
364,132,72433,1,8,0:0:0:0:
460,180,72776,5,6,0:0:0:0:
172,92,78262,6,0,B|224:80|224:80|360:108,1,180,4|0,0:0|0:0,0:0:0:0:
424,184,79290,1,8,0:0:0:0:
368,276,79633,2,0,P|336:296|192:276,1,180,0|0,0:0|0:0,0:0:0:0:
128,200,80662,1,8,0:0:0:0:
216,136,81004,6,0,L|232:32,1,89.9999999999999,0|8,0:0|0:0,0:0:0:0:
336,36,81690,2,0,L|322:124,1,89.9999999999999,0|8,0:0|0:0,0:0:0:0:
300,232,82376,2,0,L|286:320,1,89.9999999999999,0|8,0:0|0:0,0:0:0:0:
393,310,83062,2,0,L|406:221,1,89.9999999999999,0|8,0:0|0:0,0:0:0:0:
424,116,83747,6,0,P|396:96|252:112,1,180,0|0,0:0|0:0,0:0:0:0:
156,144,84776,1,8,0:0:0:0:
224,228,85119,2,0,B|248:284|224:336|224:336|256:316|300:312,1,180,0|0,0:0|0:0,0:0:0:0:
392,340,86147,1,8,0:0:0:0:
488,288,86490,6,0,P|508:252|520:196,1,89.9999999999999,0|8,0:0|0:0,0:0:0:0:
428,148,87176,2,0,L|328:144,1,89.9999999999999,0|8,0:0|0:0,0:0:0:0:
380,244,87862,2,0,L|184:260,1,180,0|0,0:0|0:0,0:0:0:0:
100,220,88890,1,8,0:0:0:0:
192,164,89233,6,0,P|216:144|144:40,1,180,4|0,0:0|0:0,0:0:0:0:
52,36,90262,1,8,0:0:0:0:
4,132,90604,2,0,L|8:324,1,180,0|0,0:0|0:0,0:0:0:0:
104,364,91633,1,8,0:0:0:0:
200,316,91976,6,0,P|252:308|392:316,1,180,0|0,0:0|0:0,0:0:0:0:
480,352,93004,1,8,0:0:0:0:
496,244,93347,2,0,B|464:216|464:216|472:72,1,180,0|0,0:0|0:0,0:0:0:0:
376,24,94376,1,8,0:0:0:0:
292,92,94719,6,0,L|192:96,1,89.9999999999999,0|8,0:0|0:0,0:0:0:0:
260,188,95404,2,0,L|160:192,1,89.9999999999999,0|8,0:0|0:0,0:0:0:0:
108,280,96090,2,0,P|104:316|104:376,2,89.9999999999999,0|8|0,0:0|0:0|0:0,0:0:0:0:
16,220,97119,1,8,0:0:0:0:
112,168,97462,5,0,0:0:0:0:
24,104,97804,1,8,0:0:0:0:
116,44,98147,2,0,P|152:32|220:32,1,89.9999999999999,0|8,0:0|0:0,0:0:0:0:
240,132,98833,2,0,P|288:148|424:116,1,180
496,52,99862,1,8,0:0:0:0:
256,192,100204,12,0,102947,0:0:0:0:
356,60,104319,6,0,P|300:52|248:48,2,89.9999999999999,2|8|0,0:0|0:0|0:0,0:0:0:0:
464,72,105347,1,10,0:0:0:0:
460,180,105690,6,0,P|488:244|412:328,1,180,4|2,0:0|0:0,0:0:0:0:
320,332,106719,1,8,0:0:0:0:
272,308,106890,1,0,0:0:0:0:
228,276,107061,2,0,P|232:200|240:88,1,180,0|2,0:0|0:0,0:0:0:0:
144,44,108090,1,8,0:0:0:0:
104,144,108433,6,0,P|88:196|68:244,1,89.9999999999999,6|8,0:0|0:0,0:0:0:0:
116,328,109119,2,0,P|224:340|312:340,1,180,2|2,0:0|0:0,0:0:0:0:
396,300,110147,1,8,0:0:0:0:
368,196,110490,2,0,P|360:156|356:104,1,89.9999999999999,2|10,0:0|0:0,0:0:0:0:
264,48,111176,6,0,L|68:56,1,180,4|2,0:0|0:0,0:0:0:0:
24,144,112204,1,8,0:0:0:0:
72,172,112376,1,0,0:0:0:0:
120,196,112547,2,0,P|168:232|128:340,1,180,0|2,0:0|0:0,0:0:0:0:
240,372,113576,1,8,0:0:0:0:
340,328,113919,6,0,P|384:320|444:320,1,89.9999999999999,6|8,0:0|0:0,0:0:0:0:
500,236,114604,2,0,P|440:232|312:216,1,180,2|2,0:0|0:0,0:0:0:0:
276,120,115633,2,0,L|272:20,1,89.9999999999999,8|2,0:0|0:0,0:0:0:0:
164,12,116319,1,10,0:0:0:0:
96,96,116661,6,0,P|88:144|84:288,1,180,4|2,0:0|0:0,0:0:0:0:
172,336,117690,1,8,0:0:0:0:
208,296,117862,1,0,0:0:0:0:
244,256,118033,2,0,P|304:252|424:252,1,180,0|2,0:0|0:0,0:0:0:0:
480,160,119061,1,8,0:0:0:0:
388,104,119404,6,0,P|376:56|368:16,1,89.9999999999999,0|10,0:0|0:0,0:0:0:0:
260,36,120090,2,0,P|269:81|280:124,1,89.9999999999999,0|10,0:0|0:0,0:0:0:0:
368,188,120776,2,0,P|344:216|204:196,1,180,0|2,0:0|0:0,0:0:0:0:
124,148,121804,1,10,0:0:0:0:
64,60,122147,6,0,P|36:92|52:228,1,180,4|2,0:0|0:0,0:0:0:0:
120,300,123176,1,8,0:0:0:0:
172,304,123347,1,0,0:0:0:0:
228,308,123519,2,0,L|412:320,1,180,0|2,0:0|0:0,0:0:0:0:
488,244,124547,1,8,0:0:0:0:
388,200,124890,6,0,P|372:140|256:144,1,180,4|2,0:0|0:0,0:0:0:0:
164,96,125919,1,10,0:0:0:0:
176,204,126262,2,0,L|184:304,1,89.9999999999999,2|8,0:0|0:0,0:0:0:0:
284,260,126947,2,0,L|292:360,1,89.9999999999999,2|8,0:0|0:0,0:0:0:0:
184,376,127633,5,4,0:0:0:0:
92,316,127976,2,0,P|56:308|0:296,2,89.9999999999999,8|0|8,0:0|0:0|0:0,0:0:0:0:
184,256,129004,1,0,0:0:0:0:
292,240,129347,2,0,L|476:224,1,180,8|8,0:0|0:0,0:0:0:0:
488,116,130376,5,0,0:0:0:0:
392,72,130719,2,0,P|344:48|296:48,2,89.9999999999999,8|0|8,0:0|0:0|0:0,0:0:0:0:
320,152,131747,1,0,0:0:0:0:
231,207,132090,2,0,P|147:239|63:215,1,180,8|8,0:0|0:0,0:0:0:0:
40,108,133119,6,0,B|28:74|28:74|36:12,2,89.9999999999999,0|8|0,0:0|0:0|0:0,0:0:0:0:
64,216,134147,2,0,L|72:320,1,89.9999999999999,8|0,0:0|0:0,0:0:0:0:
176,332,134833,2,0,B|244:296|244:296|352:304,1,180,8|8,0:0|0:0,0:0:0:0:
440,248,135862,6,0,P|456:296|448:344,2,89.9999999999999,0|8|0,0:0|0:0|0:0,0:0:0:0:
336,216,136890,2,0,P|320:168|328:120,1,89.9999999999999,8|0,0:0|0:0,0:0:0:0:
416,72,137576,2,0,L|512:64,2,89.9999999999999,8|0|8,0:0|0:0|0:0,0:0:0:0:
312,40,138604,6,0,P|232:52|120:48,1,180,4|0,0:0|0:0,0:0:0:0:
80,144,139633,1,8,0:0:0:0:
144,232,139976,2,0,P|224:220|336:224,1,180,0|0,0:0|0:0,0:0:0:0:
408,292,141004,1,8,0:0:0:0:
436,188,141347,6,0,L|452:84,1,89.9999999999999,2|8,0:0|0:0,0:0:0:0:
344,120,142033,2,0,L|360:16,1,89.9999999999999,2|8,0:0|0:0,0:0:0:0:
252,44,142719,2,0,L|238:132,1,89.9999999999999,2|8,0:0|0:0,0:0:0:0:
312,211,143405,2,0,L|298:299,1,89.9999999999999,2|8,0:0|0:0,0:0:0:0:
196,332,144090,6,0,P|140:316|16:320,1,180,0|0,0:0|0:0,0:0:0:0:
8,212,145119,1,8,0:0:0:0:
48,112,145462,2,0,P|104:128|228:124,1,180,0|0,0:0|0:0,0:0:0:0:
308,56,146490,1,8,0:0:0:0:
416,76,146833,6,0,P|476:80|520:80,1,89.9999999999999,2|8,0:0|0:0,0:0:0:0:
504,188,147519,2,0,P|459:187|414:183,1,89.9999999999999,2|8,0:0|0:0,0:0:0:0:
308,188,148204,2,0,P|248:192|204:192,1,89.9999999999999,2|8,0:0|0:0,0:0:0:0:
220,300,148890,2,0,P|264:299|309:295,1,89.9999999999999,2|8,0:0|0:0,0:0:0:0:
412,332,149576,6,0,L|424:140,1,180,4|0,0:0|0:0,0:0:0:0:
352,72,150604,1,8,0:0:0:0:
248,48,150947,2,0,L|64:48,1,180,0|0,0:0|0:0,0:0:0:0:
20,144,151976,1,8,0:0:0:0:
116,196,152319,6,0,P|120:240|120:304,1,89.9999999999999,2|8,0:0|0:0,0:0:0:0:
224,256,153004,2,0,P|228:300|228:364,1,89.9999999999999,2|8,0:0|0:0,0:0:0:0:
336,328,153690,2,0,P|336:283|340:238,1,89.9999999999999,2|8,0:0|0:0,0:0:0:0:
444,268,154376,2,0,P|444:223|448:178,1,89.9999999999999,2|8,0:0|0:0,0:0:0:0:
376,100,155062,6,0,P|340:88|200:96,1,180,0|0,0:0|0:0,0:0:0:0:
112,156,156090,1,8,0:0:0:0:
172,244,156433,2,0,P|208:260|264:256,1,89.9999999999999,0|8,0:0|0:0,0:0:0:0:
356,212,157119,2,0,P|404:200|456:208,1,89.9999999999999,0|8,0:0|0:0,0:0:0:0:
496,300,157804,5,0,0:0:0:0:
400,352,158147,2,0,P|356:360|208:356,1,180,8|8,0:0|0:0,0:0:0:0:
160,268,159176,2,0,L|152:160,1,89.9999999999999,2|8,0:0|0:0,0:0:0:0:
256,148,159862,2,0,L|248:40,1,89.9999999999999,2|8,0:0|0:0,0:0:0:0:
144,28,160547,5,2,0:0:0:0:
256,192,170147,12,4,172890,2:0:0:0:
264,40,174433,6,0,P|272:32|400:136,1,225
392,220,175633,6,0,L|376:320,1,89.9999999999999,0|8,0:0|0:0,0:0:0:0:
284,360,176319,2,0,P|232:360|184:356,1,89.9999999999999,2|8,0:0|0:0,0:0:0:0:
144,332,176833,1,0,0:0:0:0:
108,292,177004,2,0,P|92:256|112:120,1,180,0|2,0:0|0:0,0:0:0:0:
196,52,178033,1,8,0:0:0:0:
296,88,178376,6,0,L|392:72,2,89.9999999999999,6|8|2,0:0|0:0|0:0,0:0:0:0:
208,152,179404,1,8,0:0:0:0:
304,200,179747,2,0,L|324:296,1,89.9999999999999,2|8,0:0|0:0,0:0:0:0:
408,356,180433,1,2,0:0:0:0:
496,292,180776,1,10,0:0:0:0:
472,188,181119,6,0,P|448:128|412:8,1,180,4|2,0:0|0:0,0:0:0:0:
316,68,182147,1,8,0:0:0:0:
264,52,182319,1,0,0:0:0:0:
216,28,182490,2,0,P|152:28|32:24,1,180,0|2,0:0|0:0,0:0:0:0:
20,132,183519,1,8,0:0:0:0:
116,180,183862,6,0,L|120:276,2,89.9999999999999,2|8|2,0:0|0:0|0:0,0:0:0:0:
208,124,184890,1,8,0:0:0:0:
300,184,185233,2,0,P|364:176|400:168,1,89.9999999999999,2|8,0:0|0:0,0:0:0:0:
468,244,185919,2,0,P|442:303|431:338,1,89.9999999999999,2|10,0:0|0:0,0:0:0:0:
328,348,186604,6,0,P|288:332|136:288,1,180,4|2,0:0|0:0,0:0:0:0:
52,264,187633,1,8,0:0:0:0:
88,224,187804,1,0,0:0:0:0:
124,184,187976,2,0,P|210:160|295:128,1,180,0|2,0:0|0:0,0:0:0:0:
368,48,189004,1,8,0:0:0:0:
448,120,189347,6,0,L|464:220,1,89.9999999999999,2|8,0:0|0:0,0:0:0:0:
356,204,190033,2,0,L|372:304,1,89.9999999999999,2|8,0:0|0:0,0:0:0:0:
272,340,190719,2,0,P|232:308|108:320,1,180,2|2,0:0|0:0,0:0:0:0:
16,264,191747,1,10,0:0:0:0:
100,196,192090,6,0,L|116:96,1,89.9999999999999,4|8,0:0|0:0,0:0:0:0:
204,48,192776,2,0,P|272:48|308:40,1,89.9999999999999,2|0,0:0|0:0,0:0:0:0:
400,36,193462,1,0,0:0:0:0:
436,76,193633,1,0,0:0:0:0:
472,116,193804,2,0,L|496:212,1,89.9999999999999,8|2,0:0|0:0,0:0:0:0:
424,284,194490,2,0,P|356:300|232:304,1,180,10|8,0:0|0:0,0:0:0:0:
168,232,195519,2,0,L|144:136,1,89.9999999999999,2|10,0:0|0:0,0:0:0:0:
224,72,196204,6,0,B|240:120|240:120|232:156|232:156|252:216,1,135
276,248,196890,2,0,L|264:340,1,89.9999999999999,8|10,0:0|0:0,0:0:0:0:
368,308,197576,2,0,L|380:204,2,89.9999999999999,0|8|0,0:0|0:0|0:0,0:0:0:0:
456,372,198604,1,10,0:0:0:0:
488,268,198947,5,4,0:0:0:0:
