osu file format v14

[General]
AudioFilename: ;w; .mp3
AudioLeadIn: 0
PreviewTime: 49633
Countdown: 0
SampleSet: Soft
StackLeniency: 0.7
Mode: 0
LetterboxInBreaks: 0
WidescreenStoryboard: 0

[Editor]
Bookmarks: 94890
DistanceSpacing: 0.3
BeatDivisor: 8
GridSize: 4
TimelineZoom: 3.999999

[Metadata]
Title:Okochama Sensou
TitleUnicode:おこちゃま戦争
Artist:kradness&Reol
ArtistUnicode:kradness&れをる
Creator:Kamio Misuzu
Version:Extra
Source:
Tags:歌ってみた ギガ Giga Giga-P ギガP Mei Wing_My_Way Frey JJburstOwO
BeatmapID:808983
BeatmapSetID:369058

[Difficulty]
HPDrainRate:6.5
CircleSize:4.3
OverallDifficulty:7.5
ApproachRate:9.2
SliderMultiplier:1.7
SliderTickRate:1

[Events]
//Background and Video events
0,0,"BG.jpg",0,0
//Break Periods
//Storyboard Layer 0 (Background)
//Storyboard Layer 1 (Fail)
//Storyboard Layer 2 (Pass)
//Storyboard Layer 3 (Foreground)
//Storyboard Sound Samples

[TimingPoints]
1462,342.857142857143,4,2,1,20,1,0
3776,-100,4,2,2,30,0,0
4204,-100,4,2,1,35,0,0
4547,-100,4,2,1,40,0,0
4890,-100,4,2,1,45,0,0
5404,-58.8235294117647,4,2,1,50,0,0
5576,-83.3333333333333,4,2,1,50,0,0
6947,-66.6666666666667,4,2,1,70,0,0
12433,-166.666666666667,4,2,1,50,0,0
20662,-125,4,2,1,60,0,0
21347,-100,4,2,1,60,0,0
22033,-66.6666666666667,4,2,1,60,0,0
23404,-83.3333333333333,4,2,2,70,0,0
41747,-125,4,2,2,70,0,0
42262,-76.9230769230769,4,2,2,70,0,0
42604,-100,4,2,2,70,0,0
43462,-71.4285714285714,4,2,2,70,0,0
44662,-100,4,2,2,70,0,0
45347,-125,4,2,2,50,0,0
49804,-83.3333333333333,4,2,2,70,0,0
50833,-76.9230769230769,4,2,1,80,0,1
71747,-90.9090909090909,4,2,1,80,0,1
72433,-66.6666666666667,4,2,1,80,0,1
72776,-76.9230769230769,4,2,1,70,0,0
78262,-100,4,2,2,60,0,0
86833,-125,4,2,2,60,0,0
87176,-111.111111111111,4,2,2,60,0,0
87862,-76.9230769230769,4,2,2,60,0,0
88890,-111.111111111111,4,2,2,60,0,0
89233,-66.6666666666667,4,2,2,60,0,0
89576,-76.9230769230769,4,2,2,60,0,0
94376,-66.6666666666667,4,2,2,60,0,0
94719,-76.9230769230769,4,2,2,60,0,0
96433,-66.6666666666667,4,2,2,60,0,0
96776,-76.9230769230769,4,2,2,60,0,0
97119,-66.6666666666667,4,2,2,60,0,0
97462,-76.9230769230769,4,2,2,60,0,0
100204,-125,4,2,2,50,0,0
104319,-76.9230769230769,4,2,2,70,0,0
105690,-76.9230769230769,4,2,1,80,0,1
126604,-90.9090909090909,4,2,1,80,0,1
126947,-66.6666666666667,4,2,1,80,0,0
127633,-66.6666666666667,4,2,2,70,0,0
133119,-58.8235294117647,4,2,2,70,0,0
133462,-66.6666666666667,4,2,2,70,0,0
138604,-100,4,2,2,60,0,0
141004,-83.3333333333333,4,2,2,60,0,0
144090,-100,4,2,2,60,0,0
146490,-83.3333333333333,4,2,2,60,0,0
149576,-100,4,2,2,60,0,0
151976,-83.3333333333333,4,2,2,60,0,0
155062,-100,4,2,2,60,0,0
157804,-83.3333333333333,4,2,2,60,0,0
160547,-83.3333333333333,4,2,1,60,0,0
161576,-83.3333333333333,4,2,2,60,0,0
161919,-76.9230769230769,4,2,1,60,0,0
172890,-142.857142857143,4,2,1,70,0,0
172976,-142.857142857143,4,2,1,20,0,0
174604,-83.3333333333333,4,2,1,20,0,0
175633,-71.4285714285714,4,2,1,80,0,1
198947,-71.4285714285714,4,2,1,80,0,0

[Colours]
Combo1 : 128,128,192
Combo2 : 250,203,61
Combo3 : 255,77,77

[HitObjects]
248,320,1462,5,2,0:0:0:0:
248,320,1976,1,2,0:0:0:0:
100,248,2490,1,0,0:0:0:0:
148,352,2833,5,2,0:0:0:0:
12,228,3004,2,0,P|64:165|145:175,1,170,0|2,0:0|0:0,0:0:0:0:
248,320,3690,2,0,P|247:342|244:388,1,42.5,2|0,0:0|0:0,0:0:0:0:
145,175,3862,2,0,P|136:133|137:91,1,85,2|0,0:0|0:0,0:0:0:0:
137,91,4204,6,0,P|203:97|241:111,1,85,2|0,0:0|0:0,0:0:0:0:
248,320,4547,2,0,P|290:318|331:310,1,85,2|0,0:0|0:0,0:0:0:0:
392,184,4890,2,0,P|350:174|308:172,1,85,2|0,0:0|0:0,0:0:0:0:
308,172,5233,1,2,0:0:0:0:
472,148,5404,6,0,P|504:100|460:24,1,144.500002756119,0|2,0:0|0:0,0:0:0:0:
308,172,5747,5,0,0:0:0:0:
308,172,5833,1,0,0:0:0:0:
308,172,5919,2,0,P|232:240|264:48,1,509.999984436036
308,172,6947,6,0,P|328:232|312:300,1,127.500004863739,4|0,0:0|0:0,0:0:0:0:
200,244,7290,1,8,0:0:0:0:
152,360,7462,1,0,0:0:0:0:
16,272,7633,2,0,L|7:144,1,127.500004863739,8|0,0:0|0:0,0:0:0:0:
148,20,7976,2,0,L|139:147,1,127.500004863739,8|0,0:0|0:0,0:0:0:0:
132,284,8319,5,8,0:0:0:0:
139,147,8490,1,0,0:0:0:0:
236,336,8662,1,8,0:0:0:0:
196,216,8833,1,0,0:0:0:0:
47,296,9004,2,0,P|72:352|132:369,1,127.500004863739,8|0,0:0|0:0,0:0:0:0:
132,369,9262,1,8,0:0:0:0:
132,369,9347,1,8,0:0:0:0:
320,356,9519,1,0,0:0:0:0:
311,128,9690,6,0,P|231:124|199:224,1,191.250007295609,8|0,0:0|0:0,0:0:0:0:
264,264,10033,2,0,L|408:248,1,127.500004863739,8|0,0:0|0:0,0:0:0:0:
496,240,10376,1,8,0:0:0:0:
332,332,10547,1,0,0:0:0:0:
416,152,10719,1,8,0:0:0:0:
456,344,10890,1,0,0:0:0:0:
312,216,11062,6,0,L|328:80,1,127.500004863739,8|0,0:0|0:0,0:0:0:0:
326,89,11404,1,8,0:0:0:0:
200,192,11576,1,0,0:0:0:0:
180,208,11662,1,0,0:0:0:0:
160,223,11747,2,0,P|72:232|48:148,1,191.250007295609,8|0,0:0|0:0,0:0:0:0:
108,84,12090,2,0,B|168:92|168:92|232:80|232:80|297:87,1,191.250007295609,8|0,0:0|0:0,0:0:0:0:
297,87,12433,6,0,P|370:106|412:48,1,152.999995330811,4|0,0:0|0:0,0:0:0:0:
297,87,13119,2,0,L|132:76,1,152.999995330811,8|0,0:3|0:0,0:0:0:0:
144,76,13804,6,0,B|152:136|152:136|176:160|176:160|184:232,1,152.999995330811,8|0,0:3|0:0,0:0:0:0:
136,344,14490,2,0,B|128:284|128:284|104:260|104:260|96:188,1,152.999995330811,4|0,0:3|0:0,0:0:0:0:
97,201,15176,6,0,B|201:213|201:213|265:197,1,152.999995330811,8|0,0:3|0:0,0:0:0:0:
334,167,15862,2,0,P|270:175|242:215,1,101.999996887207,4|8,0:3|0:3,0:0:0:0:
252,216,16319,5,8,0:3:0:0:
256,232,16433,5,4,0:3:0:0:
260,248,16547,6,0,L|244:336,1,67.9999979248048,8|0,0:3|0:0,0:0:0:0:
247,314,16890,1,0,0:0:0:0:
104,292,17062,1,0,0:0:0:0:
104,292,17233,2,0,L|116:376,1,67.9999979248048,4|0,0:3|0:0,0:0:0:0:
113,359,17576,1,8,0:3:0:0:
247,314,17747,1,8,0:3:0:0:
112,212,17919,6,0,P|48:228|28:316,1,152.999995330811,8|0,0:3|0:0,0:0:0:0:
200,184,18604,2,0,P|227:116|184:57,1,152.999995330811,8|0,0:3|0:0,0:0:0:0:
180,272,19290,2,0,P|268:310|334:241,1,203.999993774414,8|8,0:3|0:3,0:0:0:0:
334,241,20319,5,8,0:3:0:0:
334,241,20433,5,8,0:3:0:0:
334,241,20547,5,4,0:3:0:0:
334,241,20662,6,0,L|316:100,1,136,12|4,0:3|0:3,0:0:0:0:
178,39,21176,5,4,0:3:0:0:
178,39,21233,5,8,0:3:0:0:
178,39,21290,5,4,0:3:0:0:
177,38,21347,6,0,L|199:207,1,170,12|4,0:3|0:3,0:0:0:0:
297,295,21862,5,4,0:3:0:0:
297,295,21948,1,8,0:3:0:0:
296,295,22033,2,0,P|287:208|200:207,1,191.250007295609,12|0,0:3|0:0,0:0:0:0:
137,267,22376,2,0,L|149:343,1,63.7500024318696
201,207,22547,2,0,L|192:140,1,63.7500024318696
72,220,22719,5,2,0:0:0:0:
16,152,22890,1,2,0:0:0:0:
72,220,23062,1,8,0:0:0:0:
76,72,23233,1,10,0:0:0:0:
16,296,23404,6,0,B|68:308|68:308|112:300|112:300|165:312,1,152.999995330811,4|0,1:0|0:0,0:0:0:0:
316,316,23747,1,8,0:0:0:0:
244,212,23919,1,2,0:0:0:0:
165,312,24090,1,0,0:0:0:0:
61,184,24262,2,0,P|49:132|69:80,1,101.999996887207,0|8,0:0|0:0,0:0:0:0:
180,60,24604,1,0,0:0:0:0:
180,60,24776,6,0,L|288:76,1,101.999996887207,2|0,0:0|0:0,0:0:0:0:
368,16,25119,1,8,0:0:0:0:
336,240,25290,2,0,P|428:246|440:154,1,203.999993774414,2|0,0:0|0:0,0:0:0:0:
248,248,25804,6,0,L|152:264,1,50.9999984436036,8|0,0:0|0:0,0:0:0:0:
297,119,25976,2,0,L|348:112,1,50.9999984436036
437,223,26147,2,0,L|336:240,1,101.999996887207,2|0,0:0|0:0,0:0:0:0:
328,328,26404,1,0,0:0:0:0:
328,328,26490,2,0,L|192:344,1,101.999996887207,8|2,0:0|0:0,0:0:0:0:
128,352,26747,1,0,0:0:0:0:
127,351,26833,2,0,P|173:333|192:287,1,101.999996887207
148,160,27176,1,8,0:0:0:0:
112,272,27347,1,0,0:0:0:0:
280,280,27519,6,0,P|299:209|245:160,1,152.999995330811,2|0,0:0|0:0,0:0:0:0:
112,272,27862,2,0,L|108:360,1,50.9999984436036,8|0,0:0|0:0,0:0:0:0:
148,160,28033,2,0,L|176:224,1,50.9999984436036,2|0,0:0|0:0,0:0:0:0:
245,160,28204,2,0,L|312:184,1,50.9999984436036
392,56,28376,1,0,0:0:0:0:
284,52,28547,2,0,L|128:44,1,152.999995330811,8|0,0:0|0:0,0:0:0:0:
20,92,28890,6,0,L|180:72,1,152.999995330811,2|0,0:0|0:0,0:0:0:0:
284,52,29233,1,8,0:0:0:0:
184,208,29404,1,2,0:0:0:0:
308,192,29576,1,0,0:0:0:0:
288,320,29747,1,0,0:0:0:0:
412,304,29919,1,8,0:0:0:0:
256,296,30090,1,0,0:0:0:0:
479,356,30262,6,0,P|498:309|488:260,1,101.999996887207,2|0,0:0|0:0,0:0:0:0:
432,148,30604,1,8,0:0:0:0:
380,280,30776,1,2,0:0:0:0:
360,96,30947,1,0,0:0:0:0:
420,264,31119,1,0,0:0:0:0:
236,352,31290,2,0,L|96:328,1,101.999996887207,8|0,0:0|0:0,0:0:0:0:
20,232,31633,6,0,L|128:248,1,101.999996887207,2|0,0:0|0:0,0:0:0:0:
156,172,31890,1,0,0:0:0:0:
156,172,31976,2,0,L|284:192,1,101.999996887207,8|2,0:0|0:0,0:0:0:0:
288,112,32233,1,0,0:0:0:0:
288,112,32319,2,0,L|408:132,1,101.999996887207
496,152,32662,1,8,0:0:0:0:
384,44,32833,1,0,0:0:0:0:
364,256,33004,5,2,0:0:0:0:
296,332,33176,1,0,0:0:0:0:
196,324,33347,1,8,0:0:0:0:
260,244,33519,2,0,P|335:237|406:264,1,152.999995330811,2|0,0:0|0:0,0:0:0:0:
406,264,33862,1,0,0:0:0:0:
312,148,34033,2,0,P|292:104|292:40,1,101.999996887207,8|0,0:0|0:0,0:0:0:0:
200,176,34376,6,0,P|200:264|176:344,1,152.999995330811,4|0,1:0|0:0,0:0:0:0:
88,368,34719,2,0,P|76:308|80:252,1,101.999996887207,8|2,0:0|0:0,0:0:0:0:
183,326,35062,1,0,0:0:0:0:
200,176,35233,1,0,0:0:0:0:
320,328,35404,2,0,P|367:358|432:336,1,101.999996887207,8|0,0:0|0:0,0:0:0:0:
410,351,35747,5,2,0:0:0:0:
496,288,35919,1,0,0:0:0:0:
496,288,36004,1,0,0:0:0:0:
496,288,36090,2,0,L|484:180,1,101.999996887207,8|2,0:0|0:0,0:0:0:0:
360,96,36433,1,0,0:0:0:0:
376,200,36604,1,0,0:0:0:0:
252,280,36776,2,0,L|260:178,1,101.999996887207,8|0,0:0|0:0,0:0:0:0:
363,45,37119,5,2,0:0:0:0:
400,172,37290,2,0,L|340:156,1,50.9999984436036
288,216,37462,2,0,L|216:224,1,50.9999984436036,8|0,0:0|0:0,0:0:0:0:
176,168,37633,2,0,L|184:48,1,101.999996887207,2|0,0:0|0:0,0:0:0:0:
182,66,37976,1,0,0:0:0:0:
264,136,38147,1,8,0:0:0:0:
96,104,38319,1,0,0:0:0:0:
96,104,38404,1,0,0:0:0:0:
96,104,38490,6,0,P|46:108|10:143,1,101.999996887207,2|0,0:0|0:0,0:0:0:0:
104,288,38833,1,8,0:0:0:0:
84,184,39004,1,2,0:0:0:0:
20,288,39176,2,0,P|24:313|34:336,1,50.9999984436036
163,349,39347,2,0,P|179:330|192:308,1,50.9999984436036
126,136,39519,2,0,L|104:288,1,152.999995330811,8|0,0:0|0:0,0:0:0:0:
104,288,39862,6,0,L|-12:254,1,101.999996887207,2|0,0:0|0:0,0:0:0:0:
126,136,40204,2,0,L|238:164,1,101.999996887207,8|2,0:0|0:0,0:0:0:0:
376,232,40547,2,0,L|260:242,1,101.999996887207
300,44,40890,2,0,L|424:32,1,101.999996887207,8|0,0:0|0:0,0:0:0:0:
484,60,41147,1,0,0:0:0:0:
484,60,41233,6,0,L|404:68,1,50.9999984436036,2|0,0:0|0:0,0:0:0:0:
444,136,41404,2,0,L|356:144,1,50.9999984436036
404,212,41576,2,0,L|353:218,1,50.9999984436036,8|0,0:0|0:0,0:0:0:0:
364,288,41747,6,0,L|236:300,1,102,2|0,0:0|0:0,0:0:0:0:
208,364,42090,1,0,0:0:0:0:
208,364,42176,1,0,0:0:0:0:
208,364,42262,6,0,P|158:301|78:300,1,165.749992412568,8|0,0:0|0:0,0:0:0:0:
224,240,42604,6,0,P|248:152|244:112,1,127.5,2|0,0:0|0:0,0:0:0:0:
244,116,42947,1,8,0:0:0:0:
144,36,43119,2,0,P|92:76|104:136,1,127.5,2|0,0:0|0:0,0:0:0:0:
100,131,43462,6,0,P|16:208|68:304,1,237.999992736817
182,313,43976,2,0,B|106:295|106:295|54:305,1,118.999996368408,2|0,0:0|0:0,0:0:0:0:
96,220,44233,1,0,0:0:0:0:
95,219,44319,2,0,B|136:212|136:212|212:230,1,118.999996368408,8|2,0:0|0:0,0:0:0:0:
212,230,44662,2,0,L|200:40,1,170,0|8,0:0|0:0,0:0:0:0:
64,148,45347,6,0,L|172:128,1,102
164,129,45690,1,8,0:0:0:0:
216,208,45862,1,0,0:0:0:0:
216,208,46033,2,0,L|320:192,1,102
316,192,46376,1,8,0:0:0:0:
424,176,46547,1,0,0:0:0:0:
424,176,46633,1,0,0:0:0:0:
424,176,46719,6,0,L|408:264,1,68
316,192,47062,2,0,L|320:280,1,68,8|0,0:0|0:0,0:0:0:0:
216,208,47404,2,0,L|232:296,1,68
316,192,47747,2,0,B|312:128|312:128|316:90,1,102,8|0,0:0|0:0,0:0:0:0:
316,90,48090,5,2,0:0:0:0:
332,284,48433,1,8,0:0:0:0:
144,204,48776,5,8,0:0:0:0:
236,180,48947,1,0,0:0:0:0:
328,160,49119,1,8,0:0:0:0:
220,140,49290,5,0,0:0:0:0:
112,116,49462,1,8,0:0:0:0:
4,100,49633,1,2,0:0:0:0:
4,100,49719,1,0,0:0:0:0:
4,100,49804,6,0,P|41:55|44:124,1,152.999995330811,2|0,0:0|0:0,0:0:0:0:
160,72,50147,6,0,P|170:119|162:143,1,50.9999984436036,2|0,0:0|0:0,0:0:0:0:
292,128,50319,2,0,P|272:158|244:178,1,50.9999984436036,2|0,0:0|0:0,0:0:0:0:
312,288,50490,2,0,P|291:303|268:313,1,50.9999984436036,2|0,0:0|0:0,0:0:0:0:
148,320,50662,2,0,P|124:311|98:307,1,50.9999984436036,2|0,0:0|0:0,0:0:0:0:
268,313,50833,6,0,B|312:300|312:300|440:312,1,165.749992412568,4|0,1:0|0:0,0:0:0:0:
496,240,51176,2,0,P|504:180|464:124,1,110.499994941712,8|2,0:0|0:0,0:0:0:0:
464,52,51433,1,0,0:0:0:0:
464,52,51519,2,0,L|368:68,1,55.2499974708558,8|0,0:0|0:0,0:0:0:0:
391,143,51690,2,0,P|407:166|415:192,1,55.2499974708558,2|0,0:0|0:0,0:0:0:0:
348,264,51862,1,8,0:0:0:0:
200,268,52033,1,2,0:0:0:0:
264,124,52204,5,8,0:0:0:0:
312,252,52376,1,0,0:0:0:0:
284,244,52461,1,0,0:0:0:0:
256,236,52547,1,8,0:0:0:0:
139,196,52719,1,2,0:0:0:0:
248,204,52890,5,8,0:0:0:0:
88,304,53062,1,2,0:0:0:0:
84,92,53233,1,8,0:0:0:0:
248,204,53404,1,2,0:0:0:0:
88,304,53576,6,0,P|20:252|148:212,1,276.249987354279,4|0,3:0|0:0,0:0:0:0:
139,196,54090,2,0,P|92:232|72:228,1,55.2499974708558,8|0,0:0|0:0,0:0:0:0:
204,292,54262,2,0,P|196:344|196:368,1,55.2499974708558,2|0,3:0|0:0,0:0:0:0:
304,228,54433,2,0,P|320:280|332:296,1,55.2499974708558,2|0,3:0|0:0,0:0:0:0:
204,292,54604,2,0,B|228:172|228:172|220:116,1,165.749992412568,2|0,3:0|0:0,0:0:0:0:
140,120,54947,6,0,P|112:118|86:125,1,55.2499974708558,4|0,3:0|0:0,0:0:0:0:
40,52,55119,2,0,L|48:8,4,27.6249987354279
40,52,55462,1,8,0:0:0:0:
28,184,55633,2,0,L|36:264,1,55.2499974708558,2|0,3:0|0:0,0:0:0:0:
228,192,55804,2,0,L|228:260,1,55.2499974708558,8|0,3:0|0:0,0:0:0:0:
140,120,55976,2,0,L|148:200,1,55.2499974708558,2|0,3:0|0:0,0:0:0:0:
336,152,56147,2,0,L|332:232,1,55.2499974708558,4|0,3:0|0:0,0:0:0:0:
228,192,56319,6,0,L|220:16,1,165.749992412568,8|0,0:0|0:0,0:0:0:0:
300,72,56662,2,0,P|343:105|397:108,1,110.499994941712,8|2,0:0|0:0,0:0:0:0:
488,84,56919,1,0,0:0:0:0:
488,84,57004,2,0,L|492:8,1,55.2499974708558,8|0,0:0|0:0,0:0:0:0:
396,107,57176,2,0,L|406:162,1,55.2499974708558,2|0,0:0|0:0,0:0:0:0:
428,272,57347,1,8,0:0:0:0:
296,184,57519,1,2,0:0:0:0:
276,336,57690,5,8,0:0:0:0:
172,360,57862,1,0,0:0:0:0:
72,224,58033,1,8,0:0:0:0:
180,256,58205,1,2,0:0:0:0:
256,120,58376,5,8,0:0:0:0:
136,136,58547,1,2,0:0:0:0:
88,144,58633,1,0,0:0:0:0:
40,152,58719,1,8,0:0:0:0:
180,256,58890,1,2,0:0:0:0:
256,120,59062,6,0,B|268:60|232:4|232:4|164:24|124:76|124:76|156:92,1,276.249987354279,4|0,3:0|0:0,0:0:0:0:
256,120,59576,2,0,L|320:89,1,55.2499974708558,8|0,0:0|0:0,0:0:0:0:
428,48,59747,2,0,L|418:102,1,55.2499974708558,2|0,3:0|0:0,0:0:0:0:
388,232,59919,2,0,L|320:176,1,55.2499974708558,2|0,3:0|0:0,0:0:0:0:
472,260,60090,2,0,P|467:338|395:372,1,165.749992412568,2|0,3:0|0:0,0:0:0:0:
304,360,60433,6,0,P|276:354|249:352,1,55.2499974708558,4|0,1:0|0:0,0:0:0:0:
156,332,60604,2,0,L|156:380,4,27.6249987354279
156,332,60947,1,8,0:0:0:0:
136,228,61119,2,0,L|190:235,1,55.2499974708558,2|0,3:0|0:0,0:0:0:0:
268,256,61290,2,0,L|180:276,1,55.2499974708558,8|0,3:0|0:0,0:0:0:0:
48,200,61462,2,0,L|144:204,1,55.2499974708558,2|0,3:0|0:0,0:0:0:0:
360,280,61633,2,0,L|264:276,1,55.2499974708558,4|0,3:0|0:0,0:0:0:0:
48,200,61804,6,0,L|228:160,1,165.749992412568,12|0,0:0|0:0,0:0:0:0:
296,188,62147,2,0,P|348:224|408:216,1,110.499994941712,8|2,0:0|0:0,0:0:0:0:
488,72,62490,2,0,B|404:44|404:44|408:92,1,110.499994941712,8|2,0:0|0:0,0:0:0:0:
332,104,62747,1,0,0:0:0:0:
332,104,62833,2,0,L|128:88,1,165.749992412568,8|0,0:0|0:0,0:0:0:0:
44,116,63176,5,8,0:0:0:0:
108,16,63347,1,0,0:0:0:0:
164,196,63519,2,0,B|184:268|184:268|184:324,1,110.499994941712,8|2,0:0|0:0,0:0:0:0:
64,364,63776,1,0,0:0:0:0:
64,364,63862,2,0,P|71:309|84:255,1,110.499994941712,8|2,0:0|0:0,0:0:0:0:
136,116,64204,1,8,0:0:0:0:
232,296,64376,1,2,0:0:0:0:
304,212,64547,6,0,P|288:124|216:108,1,165.749992412568,8|0,0:0|0:0,0:0:0:0:
136,116,64890,2,0,P|127:152|124:184,1,55.2499974708558,8|0,0:0|0:0,0:0:0:0:
56,224,65062,2,0,P|29:198|-16:184,1,55.2499974708558,2|0,0:0|0:0,0:0:0:0:
80,312,65233,2,0,P|120:316|148:324,1,55.2499974708558,8|0,0:0|0:0,0:0:0:0:
232,296,65404,1,2,0:0:0:0:
268,276,65490,1,0,0:0:0:0:
316,280,65576,1,8,0:0:0:0:
484,352,65747,6,0,P|440:340|408:276,1,110.499994941712,2|8,0:0|0:0,0:0:0:0:
316,280,66004,1,0,0:0:0:0:
316,280,66090,2,0,P|348:200|324:152,1,110.499994941712,2|8,0:0|0:0,0:0:0:0:
256,20,66433,1,2,0:0:0:0:
256,20,66518,1,0,0:0:0:0:
255,19,66604,2,0,P|296:56|350:63,1,110.499994941712,8|4,0:0|3:0,0:0:0:0:
432,92,66862,1,0,0:0:0:0:
432,92,66947,2,0,L|442:37,1,55.2499974708558,8|2,3:0|3:0,0:0:0:0:
428,8,67290,6,0,L|448:192,1,165.749992412568,12|0,0:0|0:0,0:0:0:0:
464,272,67633,1,8,0:0:0:0:
500,116,67804,1,2,0:0:0:0:
500,116,67890,1,0,0:0:0:0:
500,116,67976,2,0,B|448:96|448:96|304:124,1,165.749992412568,8|2,0:0|0:0,0:0:0:0:
284,196,68319,2,0,P|226:194|181:162,1,110.499994941712,8|2,0:0|0:0,0:0:0:0:
32,152,68662,6,0,P|35:72|103:30,1,165.749992412568,8|0,0:0|0:0,0:0:0:0:
103,30,69004,1,8,0:0:0:0:
136,168,69176,1,2,0:0:0:0:
140,184,69262,1,0,0:0:0:0:
144,200,69347,1,8,0:0:0:0:
256,152,69519,1,2,0:0:0:0:
260,136,69605,1,0,0:0:0:0:
264,120,69690,1,8,0:0:0:0:
392,64,69862,2,0,L|408:120,1,55.2499974708558,2|0,0:0|0:0,0:0:0:0:
448,224,70033,6,2,L|232:180,1,220.999989883423,2|2,1:1|1:0,1:0:0:0:
143,199,70547,2,0,B|144:172|144:172|152:144,1,55.2499974708558,8|0,0:0|0:0,0:0:0:0:
231,179,70719,2,0,B|230:206|230:206|222:234,1,55.2499974708558,8|0,0:0|0:0,0:0:0:0:
72,328,70976,1,8,0:0:0:0:
72,328,71062,2,0,B|98:320|98:320|126:319,1,55.2499974708558
212,348,71233,2,0,B|238:340|238:340|266:339,1,55.2499974708558,8|0,0:0|0:0,0:0:0:0:
356,352,71404,6,0,B|420:312|420:312|516:336,1,165.749992412568,8|0,0:0|0:0,0:0:0:0:
484,244,71747,6,0,B|412:228|412:228|332:270,1,140.25000428009,8|0,0:0|0:0,0:0:0:0:
356,352,72090,1,8,0:0:0:0:
448,104,72262,5,2,0:0:0:0:
408,88,72347,1,0,0:0:0:0:
376,96,72433,2,0,P|396:160|512:144,1,191.250007295609,2|2,0:0|0:0,0:0:0:0:
288,100,72776,6,0,B|256:76|256:76|112:68,1,165.749992412568,4|0,0:0|0:0,0:0:0:0:
52,128,73119,2,0,L|72:276,1,110.499994941712,8|0,0:0|0:0,0:0:0:0:
184,264,73376,1,0,0:0:0:0:
184,264,73462,2,0,L|152:396,1,110.499994941712,8|0,0:0|0:0,0:0:0:0:
144,192,73804,2,0,P|196:180|256:216,1,110.499994941712,8|0,0:0|0:0,0:0:0:0:
380,112,74147,5,8,0:0:0:0:
420,248,74319,1,0,0:0:0:0:
248,240,74490,2,0,P|244:152|320:104,1,165.749992412568,8|0,0:0|0:0,0:0:0:0:
320,12,74833,2,0,B|396:28|396:28|436:20,1,110.499994941712,8|0,0:0|0:0,0:0:0:0:
488,107,75090,1,8,0:0:0:0:
488,107,75176,2,0,B|447:98|447:98|360:115,1,110.499994941712,8|0,0:0|0:0,0:0:0:0:
312,327,75519,6,0,P|390:320|419:247,1,165.749992412568,8|0,0:0|0:0,0:0:0:0:
352,188,75862,2,0,L|212:172,1,110.499994941712,8|0,0:0|0:0,0:0:0:0:
80,140,76204,1,8,0:0:0:0:
180,260,76376,1,0,0:0:0:0:
208,64,76547,1,8,0:0:0:0:
76,256,76719,1,0,0:0:0:0:
256,220,76890,6,0,P|216:182|163:175,1,110.499994941712,8|0,0:0|0:0,0:0:0:0:
36,332,77233,2,0,B|24:371|24:371|103:335|103:335|143:342,1,165.749992412568,8|0,0:0|0:0,0:0:0:0:
228,340,77576,2,0,P|268:292|260:224,1,110.499994941712,8|0,0:0|0:0,0:0:0:0:
180,260,77833,1,8,0:0:0:0:
180,260,77919,2,0,B|117:247|117:247|88:205|88:205|38:195,1,165.749992412568,8|0,0:0|0:0,0:0:0:0:
28,104,78262,6,0,L|168:132,1,127.5,4|0,1:0|0:0,0:0:0:0:
292,64,78604,5,8,0:0:0:0:
308,56,78719,5,0,0:0:0:0:
324,48,78833,5,0,0:0:0:0:
340,40,78947,6,0,B|396:64|396:64|476:48,1,127.5
448,144,79290,2,0,B|382:157|382:157|326:133,1,127.5,8|0,0:0|0:0,0:0:0:0:
264,256,79633,6,0,B|208:280|208:280|142:266,1,127.5,2|0,0:0|0:0,0:0:0:0:
48,180,79976,5,8,0:0:0:0:
64,172,80090,5,0,0:0:0:0:
80,164,80204,5,0,0:0:0:0:
96,156,80319,6,0,B|136:208|136:208|128:280,1,113.333333333333
69,345,80662,6,0,L|52:292,1,56.6666666666667,8|0,0:0|0:0,0:0:0:0:
52,292,80890,5,0,0:0:0:0:
200,160,81004,6,0,L|268:168,1,42.5,2|0,0:0|0:0,0:0:0:0:
316,128,81176,1,0,0:0:0:0:
316,128,81262,1,0,0:0:0:0:
316,128,81347,2,0,L|376:136,1,42.5,8|0,0:0|0:0,0:0:0:0:
436,104,81519,1,2,0:0:0:0:
436,104,81604,2,0,L|452:224,1,85
448,280,81862,2,0,L|380:264,1,42.5
320,256,82033,2,0,L|325:302,1,42.5,8|0,0:0|0:0,0:0:0:0:
248,344,82204,1,0,0:0:0:0:
248,344,82290,1,0,0:0:0:0:
248,344,82376,6,0,L|244:296,1,42.5,2|0,0:0|0:0,0:0:0:0:
252,152,82547,2,0,L|256:199,1,42.5
84,208,82719,2,0,L|100:156,1,42.5,8|0,0:0|0:0,0:0:0:0:
168,236,82890,2,0,L|160:304,1,42.5,2|0,0:0|0:0,0:0:0:0:
48,96,83062,2,0,L|156:64,1,85
224,112,83319,1,0,0:0:0:0:
248,124,83404,2,0,L|300:112,1,42.5,8|0,0:0|0:0,0:0:0:0:
408,84,83576,1,0,0:0:0:0:
408,84,83747,6,0,L|400:128,1,42.5,2|0,0:0|0:0,0:0:0:0:
368,232,83919,2,0,L|344:192,1,42.5
264,112,84090,2,0,L|272:212,1,85,8|2,0:0|0:0,0:0:0:0:
288,344,84433,1,0,0:0:0:0:
288,344,84604,6,0,L|300:292,1,42.5
376,236,84776,1,8,0:0:0:0:
404,244,84862,1,0,0:0:0:0:
436,252,84947,2,0,L|428:320,1,42.5
288,344,85119,6,0,L|232:336,1,42.5,2|0,0:0|0:0,0:0:0:0:
140,336,85290,1,0,0:0:0:0:
112,344,85376,1,0,0:0:0:0:
80,356,85462,2,0,L|100:256,1,85,0|2,0:0|0:0,0:0:0:0:
31,137,85804,6,0,B|28:120|28:120|28:96,1,42.5
109,104,85976,2,0,B|116:92|116:92|120:64,1,42.5
196,92,86147,2,0,L|296:80,1,85,8|0,0:0|0:0,0:0:0:0:
464,136,86490,5,2,0:0:0:0:
476,168,86576,1,0,0:0:0:0:
472,200,86662,1,0,0:0:0:0:
456,228,86747,1,0,0:0:0:0:
424,244,86833,2,0,L|328:228,1,68,8|2,0:0|0:0,0:0:0:0:
164,160,87176,6,0,B|157:180|157:180|156:200,1,38.2499988327027
72,200,87347,2,0,B|72:220|72:220|76:240,1,38.2499988327027
52,316,87519,2,0,L|144:308,1,76.4999976654053,8|0,0:0|0:0,0:0:0:0:
251,290,87776,1,0,0:0:0:0:
267,282,87862,6,0,L|139:250,1,110.499994941712,2|0,0:0|0:0,0:0:0:0:
52,316,88119,1,0,0:0:0:0:
52,316,88204,2,0,P|40:288|36:256,1,55.2499974708558,8|0,0:0|0:0,0:0:0:0:
24,128,88376,2,0,P|28:100|39:75,1,55.2499974708558,2|0,0:0|0:0,0:0:0:0:
160,256,88547,2,0,P|116:236|100:216,1,55.2499974708558,8|0,0:0|0:0,0:0:0:0:
107,144,88719,2,0,P|129:127|155:119,1,55.2499974708558,8|0,0:0|0:0,0:0:0:0:
324,184,88890,2,0,B|312:184|312:184|300:180|300:180|284:184|284:184|272:180|272:180|256:184|256:184|240:180|240:180|228:184|228:184|213:184,1,114.749996498108,8|0,0:0|0:0,0:0:0:0:
324,184,89233,6,0,L|472:184,1,127.500004863739,4|0,1:0|0:0,0:0:0:0:
488,40,89576,6,0,L|412:16,1,55.2499974708558,8|0,0:0|0:0,0:0:0:0:
364,72,89747,2,0,L|312:56,1,55.2499974708558,2|0,0:0|0:0,0:0:0:0:
220,24,89919,2,0,L|227:78,1,55.2499974708558
96,60,90090,2,0,L|102:114,1,55.2499974708558
201,177,90262,2,0,L|208:232,1,55.2499974708558,8|0,0:0|0:0,0:0:0:0:
84,232,90433,2,0,L|68:372,1,110.499994941712,0|2,0:0|0:0,0:0:0:0:
71,341,90690,6,0,L|7:333,2,55.2499974708558
184,316,90947,2,0,L|238:322,1,55.2499974708558,8|0,0:0|0:0,0:0:0:0:
184,316,91119,2,0,L|201:179,1,110.499994941712,2|0,0:0|0:0,0:0:0:0:
264,140,91376,1,0,0:0:0:0:
264,140,91462,2,0,L|316:168,1,55.2499974708558
392,132,91633,2,0,P|445:123|477:80,1,110.499994941712,8|0,0:0|0:0,0:0:0:0:
264,140,91976,5,2,0:0:0:0:
248,180,92062,1,0,0:0:0:0:
248,224,92147,1,0,0:0:0:0:
264,264,92233,1,0,0:0:0:0:
300,292,92319,2,0,L|354:297,1,55.2499974708558,8|0,0:0|0:0,0:0:0:0:
448,296,92490,1,2,0:0:0:0:
448,296,92576,1,0,0:0:0:0:
448,296,92662,2,0,L|432:164,1,110.499994941712
360,16,93004,2,0,L|332:92,1,55.2499974708558,8|0,0:0|0:0,0:0:0:0:
260,152,93176,2,0,L|256:92,1,55.2499974708558
168,84,93347,6,0,L|92:96,1,55.2499974708558,2|0,0:0|0:0,0:0:0:0:
0,136,93519,2,0,L|34:147,2,36.8333316472372
76,156,93690,2,0,B|68:116|68:116|76:84|76:84|68:44,1,110.499994941712,8|2,0:0|0:0,0:0:0:0:
68,47,94033,1,0,0:0:0:0:
172,212,94204,1,0,0:0:0:0:
328,150,94376,2,0,B|284:126|229:140|229:140|170:124|166:76,1,191.250007295609,8|0,0:0|0:0,0:0:0:0:
166,83,94719,6,0,P|219:64|274:60,1,110.499994941712,2|0,0:0|0:0,0:0:0:0:
468,164,95062,2,0,P|440:168|413:164,1,55.2499974708558,8|0,0:0|0:0,0:0:0:0:
368,248,95233,2,0,P|336:240|312:224,1,55.2499974708558,2|0,0:0|0:0,0:0:0:0:
240,284,95404,2,0,P|220:264|207:240,1,55.2499974708558
164,120,95576,1,0,0:0:0:0:
328,150,95747,1,8,0:0:0:0:
124,276,95919,1,0,0:0:0:0:
92,272,96004,1,0,0:0:0:0:
60,264,96090,6,0,P|16:208|48:112,1,165.749992412568,2|0,0:0|0:0,0:0:0:0:
100,64,96433,2,0,B|184:88|184:88|192:108|192:108|304:140,1,191.250007295609,8|0,0:0|0:0,0:0:0:0:
340,84,96776,2,0,P|271:43|202:82,1,165.749992412568,2|0,0:0|0:0,0:0:0:0:
148,213,97119,2,0,P|239:212|268:121,1,191.250007295609,8|0,0:0|0:0,0:0:0:0:
152,44,97462,5,2,0:0:0:0:
108,36,97547,1,0,0:0:0:0:
64,28,97633,2,0,B|8:16|8:16|40:96,1,110.499994941712,0|8,0:0|0:0,0:0:0:0:
213,197,97976,5,2,0:0:0:0:
241,162,98061,1,0,0:0:0:0:
270,128,98147,2,0,B|308:85|308:85|223:73,1,110.499994941712
52,164,98490,5,8,0:0:0:0:
64,206,98575,1,0,0:0:0:0:
80,248,98661,2,0,B|97:302|97:302|150:234,1,110.499994941712,0|2,0:0|0:0,0:0:0:0:
253,301,99004,5,0,0:0:0:0:
253,301,99090,2,0,P|294:264|348:255,1,110.499994941712
432,304,99347,2,0,L|428:364,1,55.2499974708558,2|0,0:0|0:0,0:0:0:0:
349,256,99519,2,0,L|335:203,1,55.2499974708558
424,76,99690,2,0,L|456:140,1,55.2499974708558
499,222,99862,2,0,L|335:203,1,165.749992412568,8|0,0:0|0:0,0:0:0:0:
288,120,100204,6,0,L|140:140,1,136,4|0,0:0|0:0,0:0:0:0:
153,138,100719,1,0,0:0:0:0:
168,304,100890,6,0,L|20:284,1,136
33,285,101405,1,0,0:0:0:0:
72,272,101490,1,0,0:0:0:0:
112,260,101576,5,0,0:0:0:0:
256,324,101747,1,0,0:0:0:0:
384,200,101919,5,8,0:0:0:0:
232,224,102090,1,0,0:0:0:0:
128,96,102262,5,0,0:0:0:0:
280,120,102433,1,0,0:0:0:0:
416,32,102604,5,8,0:0:0:0:
216,60,102776,1,0,0:0:0:0:
196,56,102947,5,2,0:0:0:0:
176,52,103290,5,0,0:0:0:0:
156,48,103633,5,0,0:0:0:0:
136,44,103804,1,0,0:0:0:0:
116,39,103976,2,0,P|82:76|82:126,1,102
152,180,104319,6,0,L|292:164,1,110.499994941712,2|0,0:0|0:0,0:0:0:0:
348,144,104576,1,0,0:0:0:0:
348,144,104662,2,0,P|348:200|344:216,1,55.2499974708558,8|0,0:0|0:0,0:0:0:0:
328,328,104833,2,0,P|316:302|311:275,1,55.2499974708558,2|0,0:0|0:0,0:0:0:0:
400,276,105004,2,0,L|480:284,1,55.2499974708558,2|2,0:0|0:0,0:0:0:0:
328,328,105176,2,0,L|190:315,1,110.499994941712,2|8,0:0|0:0,0:0:0:0:
112,328,105433,1,0,0:0:0:0:
96,332,105519,2,0,L|72:288,3,27.6249987354279,2|2|2|2,0:0|0:0|0:0|0:0,0:0:0:0:
60,280,105690,6,0,P|138:288|178:221,1,165.749992412568,12|0,0:0|0:0,0:0:0:0:
240,148,106033,2,0,B|168:124|168:124|128:132,1,110.499994941712,8|2,0:0|0:0,0:0:0:0:
12,88,106376,2,0,B|84:112|84:112|124:104,1,110.499994941712,8|2,0:0|0:0,0:0:0:0:
272,64,106719,1,8,0:0:0:0:
96,24,106890,1,2,0:0:0:0:
140,192,107062,5,8,0:0:0:0:
272,64,107233,1,0,0:0:0:0:
296,60,107319,1,0,0:0:0:0:
320,56,107404,1,8,0:0:0:0:
340,272,107576,1,2,0:0:0:0:
140,192,107747,5,8,0:0:0:0:
280,164,107919,1,2,0:0:0:0:
156,360,108090,1,8,0:0:0:0:
52,196,108262,2,0,B|53:172|53:172|69:144,1,55.2499974708558,2|0,0:0|0:0,0:0:0:0:
140,192,108433,6,0,B|192:172|192:172|268:200|276:296|276:296|312:256|312:216,1,276.249987354279,4|0,3:0|0:0,0:0:0:0:
392,244,108947,2,0,P|385:217|373:192,1,55.2499974708558,8|0,0:0|0:0,0:0:0:0:
448,144,109119,2,0,P|424:120|396:100,1,55.2499974708558,2|0,3:0|0:0,0:0:0:0:
452,32,109290,2,0,P|428:17|401:13,1,55.2499974708558,2|0,3:0|0:0,0:0:0:0:
328,72,109462,2,0,L|148:64,1,165.749992412568,2|0,3:0|0:0,0:0:0:0:
76,56,109804,6,0,L|96:148,1,55.2499974708558,4|0,3:0|0:0,0:0:0:0:
104,216,109976,2,0,L|60:200,4,27.6249987354279
104,216,110319,1,8,0:0:0:0:
216,128,110490,2,0,P|232:96|232:68,1,55.2499974708558,2|0,3:0|0:0,0:0:0:0:
91,162,110662,2,0,P|94:189|103:215,1,55.2499974708558,8|0,3:0|0:0,0:0:0:0:
208,328,110833,2,0,P|268:340|288:336,1,55.2499974708558,2|0,3:0|0:0,0:0:0:0:
328,216,111004,2,0,P|300:214|273:217,1,55.2499974708558,4|0,3:0|0:0,0:0:0:0:
119,340,111176,6,0,P|58:290|76:213,1,165.749992412568,4|0,0:0|0:0,0:0:0:0:
152,160,111519,2,0,B|200:176|236:160|236:160|258:169,1,110.499994941712,8|2,0:0|0:0,0:0:0:0:
372,300,111862,2,0,L|256:320,1,110.499994941712,8|2,0:0|0:0,0:0:0:0:
119,340,112204,1,8,0:0:0:0:
164,196,112376,1,2,0:0:0:0:
263,318,112547,5,8,0:0:0:0:
372,300,112719,1,0,0:0:0:0:
404,293,112805,1,0,0:0:0:0:
436,287,112890,1,8,0:0:0:0:
340,192,113062,1,2,0:0:0:0:
496,216,113233,5,8,0:0:0:0:
440,96,113404,1,2,0:0:0:0:
372,300,113576,1,8,0:0:0:0:
496,216,113747,2,0,L|504:160,1,55.2499974708558,2|0,0:0|0:0,0:0:0:0:
440,96,113919,6,0,B|397:53|337:81|337:81|321:49|321:49|257:85|198:51,1,276.249987354279,4|0,3:0|0:0,0:0:0:0:
116,76,114433,2,0,P|126:101|145:121,1,55.2499974708558,8|0,0:0|0:0,0:0:0:0:
104,200,114604,2,0,P|160:216|188:216,1,55.2499974708558,2|0,3:0|0:0,0:0:0:0:
160,300,114776,2,0,P|187:299|214:292,1,55.2499974708558,2|0,3:0|0:0,0:0:0:0:
344,224,114947,2,0,P|319:159|228:192,1,165.749992412568,2|0,3:0|0:0,0:0:0:0:
168,240,115290,6,0,P|140:234|115:224,1,55.2499974708558,4|0,3:0|0:0,0:0:0:0:
48,168,115462,2,0,L|50:140,4,27.6249987354279
48,168,115804,1,8,0:0:0:0:
112,44,115976,2,0,B|140:32|140:32|192:36,1,55.2499974708558,2|0,3:0|0:0,0:0:0:0:
160,188,116147,2,0,B|188:196|188:196|214:194,1,55.2499974708558,8|0,3:0|0:0,0:0:0:0:
268,64,116319,2,0,L|352:52,1,55.2499974708558,2|0,3:0|0:0,0:0:0:0:
332,160,116490,2,0,L|392:164,1,55.2499974708558,4|0,3:0|0:0,0:0:0:0:
488,156,116662,6,0,L|464:340,1,165.749992412568,4|0,1:0|0:0,0:0:0:0:
388,360,117004,2,0,P|336:324|276:332,1,110.499994941712,8|2,0:0|0:0,0:0:0:0:
96,352,117347,2,0,P|148:352|197:323,1,110.499994941712,8|2,0:0|0:0,0:0:0:0:
252,260,117604,1,0,0:0:0:0:
252,260,117690,2,0,B|266:199|227:154|227:154|240:104,1,165.749992412568,8|0,0:0|0:0,0:0:0:0:
240,103,118033,5,8,0:0:0:0:
168,224,118204,1,0,0:0:0:0:
328,116,118376,2,0,P|323:62|284:24,1,110.499994941712,8|2,0:0|0:0,0:0:0:0:
176,44,118633,1,0,0:0:0:0:
176,44,118719,2,0,P|120:32|64:28,1,110.499994941712,8|2,0:0|0:0,0:0:0:0:
8,164,119061,1,8,0:0:0:0:
112,116,119233,1,2,0:0:0:0:
66,259,119404,6,0,P|93:332|172:340,1,165.749992412568,8|0,0:0|0:0,0:0:0:0:
260,340,119747,2,0,P|263:312|271:286,1,55.2499974708558,8|0,0:0|0:0,0:0:0:0:
352,236,119919,2,0,P|325:210|280:196,1,55.2499974708558,2|0,0:0|0:0,0:0:0:0:
216,224,120090,2,0,P|188:218|161:216,1,55.2499974708558,8|0,0:0|0:0,0:0:0:0:
309,202,120261,1,2,0:0:0:0:
340,168,120347,1,0,0:0:0:0:
348,128,120433,1,8,0:0:0:0:
396,244,120604,6,0,B|380:304|380:304|395:349,1,110.499994941712,2|8,0:0|0:0,0:0:0:0:
472,300,120862,1,0,0:0:0:0:
472,300,120947,2,0,B|484:240|484:240|460:192,1,110.499994941712,0|8,0:0|0:0,0:0:0:0:
340,168,121290,1,2,0:0:0:0:
340,168,121375,1,0,0:0:0:0:
341,167,121461,2,0,L|220:184,1,110.499994941712,8|4,0:0|3:0,0:0:0:0:
145,199,121719,1,0,0:0:0:0:
145,199,121804,2,0,L|155:144,1,55.2499974708558,8|2,3:0|3:0,0:0:0:0:
323,2,122147,6,0,L|343:186,1,165.749992412568,4|0,0:0|0:0,0:0:0:0:
352,272,122490,1,8,0:0:0:0:
145,199,122661,1,2,0:0:0:0:
145,199,122747,1,0,0:0:0:0:
145,199,122833,2,0,B|197:179|197:179|341:207,1,165.749992412568,8|2,0:0|0:0,0:0:0:0:
392,196,123176,2,0,P|421:150|422:95,1,110.499994941712,8|2,0:0|0:0,0:0:0:0:
280,20,123519,6,0,P|220:72|230:151,1,165.749992412568,8|0,0:0|0:0,0:0:0:0:
352,272,123861,1,8,0:0:0:0:
308,140,124033,1,2,0:0:0:0:
304,124,124119,1,0,0:0:0:0:
300,108,124204,1,8,0:0:0:0:
145,199,124376,1,2,0:0:0:0:
149,183,124462,1,0,0:0:0:0:
153,167,124547,1,8,0:0:0:0:
264,284,124719,2,0,L|248:230,1,55.2499974708558,2|0,0:0|0:0,0:0:0:0:
204,96,124890,6,2,L|216:332,1,220.999989883423,2|2,1:0|1:0,1:0:0:0:
132,336,125404,2,0,B|104:328|104:328|77:327,1,55.2499974708558,8|0,0:0|0:0,0:0:0:0:
16,240,125576,2,0,B|40:248|40:248|71:249,1,55.2499974708558,8|0,0:0|0:0,0:0:0:0:
194,150,125833,1,8,0:0:0:0:
194,150,125919,2,0,B|202:124|202:124|203:96,1,55.2499974708558
128,52,126090,2,0,B|120:78|120:78|119:106,1,55.2499974708558,8|0,0:0|0:0,0:0:0:0:
288,112,126262,6,0,L|472:88,1,165.749992412568,8|0,0:0|0:0,0:0:0:0:
512,168,126604,6,0,L|360:190,1,140.25000428009,8|0,0:0|0:0,0:0:0:0:
284,200,126947,5,8,0:0:0:0:
436,292,127119,1,4,3:0:0:0:
392,104,127290,1,8,3:0:0:0:
320,320,127462,1,4,3:0:0:0:
144,216,127633,6,0,B|280:196|280:196|340:224,1,191.250007295609,4|0,0:0|0:0,0:0:0:0:
320,320,127976,2,0,B|256:288|256:288|152:304,1,127.500004863739,10|0,0:0|0:0,0:0:0:0:
327,218,128319,2,0,P|341:189|350:158,1,63.7500024318696,2|0,0:0|0:0,0:0:0:0:
420,100,128490,2,0,P|436:156|520:172,1,127.500004863739,0|10,0:0|0:0,0:0:0:0:
327,218,128833,2,0,B|300:204|300:204|254:202,1,63.7500024318696
118,137,129004,6,0,P|174:209|266:201,1,191.250007295609,2|0,0:0|0:0,0:0:0:0:
266,201,129347,2,0,B|304:116|304:116|299:81,1,127.500004863739,10|0,0:0|0:0,0:0:0:0:
299,81,129690,1,2,0:0:0:0:
118,137,129862,1,0,0:0:0:0:
118,137,129947,1,0,0:0:0:0:
118,137,130033,2,0,L|128:216,1,63.7500024318696,10|0,0:0|0:0,0:0:0:0:
212,56,130204,2,0,L|200:140,1,63.7500024318696
299,81,130376,6,0,B|312:180|312:180|296:292,1,191.250007295609,2|0,0:0|0:0,0:0:0:0:
196,308,130719,2,0,B|212:216|212:216|208:179,1,127.500004863739,10|0,0:0|0:0,0:0:0:0:
118,137,131062,2,0,L|124:200,1,63.7500024318696,2|0,0:0|0:0,0:0:0:0:
208,182,131233,2,0,B|244:178|244:178|296:196|296:196|332:192,1,127.500004863739,0|10,0:0|0:0,0:0:0:0:
496,176,131576,1,0,0:0:0:0:
376,84,131747,6,0,L|315:104,2,63.7500024318696,2|0|0,0:0|0:0|0:0,0:0:0:0:
172,56,132090,2,0,L|84:40,1,63.7500024318696,10|0,0:0|0:0,0:0:0:0:
117,136,132262,2,0,L|54:133,1,63.7500024318696
160,224,132433,2,0,L|-8:260,1,127.500004863739,2|0,0:0|0:0,0:0:0:0:
24,336,132690,1,0,0:0:0:0:
24,336,132776,2,0,B|72:328|72:328|160:352,1,127.500004863739,10|0,0:0|0:0,0:0:0:0:
280,356,133119,6,0,P|304:340|208:304,1,216.750004134178,2|0,0:0|0:0,0:0:0:0:
212,281,133462,2,0,B|248:272|248:272|356:296,1,127.500004863739,2|0,0:0|0:0,0:0:0:0:
480,200,133804,2,0,L|500:288,1,63.7500024318696,2|0,0:0|0:0,0:0:0:0:
424,348,133976,2,0,L|420:256,1,63.7500024318696
337,291,134147,2,0,B|248:272|248:272|212:281,1,127.500004863739,10|0,0:0|0:0,0:0:0:0:
60,240,134490,6,0,P|50:150|129:107,1,191.250007295609,2|0,0:0|0:0,0:0:0:0:
208,152,134833,2,0,L|344:136,1,127.500004863739,10|0,0:0|0:0,0:0:0:0:
460,128,135176,1,2,0:0:0:0:
296,104,135347,1,0,0:0:0:0:
448,236,135519,1,10,0:0:0:0:
388,56,135690,1,0,0:0:0:0:
305,296,135862,6,0,P|394:309|447:235,1,191.250007295609,2|0,0:0|0:0,0:0:0:0:
388,56,136204,2,0,B|384:92|384:92|396:120,1,63.7500024318696,10|0,0:0|0:0,0:0:0:0:
447,235,136376,1,0,0:0:0:0:
296,104,136547,2,0,L|168:96,1,127.500004863739,2|0,0:0|0:0,0:0:0:0:
80,188,136804,1,0,0:0:0:0:
80,188,136890,2,0,L|224:172,1,127.500004863739,10|0,0:0|0:0,0:0:0:0:
305,296,137233,6,0,L|279:354,3,63.7500024318696,2|0|0|0,0:0|0:0|0:0|0:0,0:0:0:0:
76,251,137576,2,0,L|80:179,3,63.7500024318696,10|0|0|0,0:0|0:0|0:0|0:0,0:0:0:0:
240,48,137919,2,0,P|328:32|372:120,1,191.250007295609,2|0,0:0|0:0,0:0:0:0:
264,232,138262,2,0,B|184:216|184:216|308:156,1,191.250007295609,10|0,0:0|0:0,0:0:0:0:
360,120,138604,6,0,P|313:49|232:84,1,170,4|8,0:0|0:0,0:0:0:0:
140,36,139119,1,0,0:0:0:0:
60,96,139290,2,0,L|72:192,1,85,2|0,0:0|0:0,0:0:0:0:
4,260,139633,2,0,L|64:336,1,85,8|0,0:0|0:0,0:0:0:0:
128,272,139976,6,0,P|196:205|276:224,1,170,2|8,0:0|0:0,0:0:0:0:
296,312,140490,1,0,0:0:0:0:
296,312,140576,1,0,0:0:0:0:
296,312,140662,2,0,L|196:284,1,85,2|0,0:0|0:0,0:0:0:0:
263,215,141004,2,0,B|304:208|304:208|336:220|336:220|364:212|364:212|412:214,1,152.999995330811,8|0,0:0|0:0,0:0:0:0:
488,260,141347,6,0,P|497:189|432:128,1,152.999995330811,2|0,0:0|0:0,0:0:0:0:
412,214,141690,2,0,P|476:180|475:107,1,152.999995330811,8|0,0:0|0:0,0:0:0:0:
408,52,142033,2,0,L|252:76,1,152.999995330811,2|0,0:0|0:0,0:0:0:0:
172,68,142376,2,0,L|196:224,1,152.999995330811,8|0,0:0|0:0,0:0:0:0:
120,260,142719,6,0,P|47:255|15:189,1,152.999995330811,2|0,0:0|0:0,0:0:0:0:
92,144,143062,2,0,B|204:164|204:164|156:196,1,152.999995330811,8|0,0:0|0:0,0:0:0:0:
120,260,143404,2,0,L|284:244,1,152.999995330811,2|0,0:0|0:0,0:0:0:0:
366,261,143747,2,0,B|262:209|262:209|278:265,1,152.999995330811,8|0,0:0|0:0,0:0:0:0:
452,272,144090,6,0,P|472:192|380:172,1,170,2|8,0:0|0:0,0:0:0:0:
366,261,144604,1,0,0:0:0:0:
256,280,144776,2,0,L|176:252,1,85,2|0,0:0|0:0,0:0:0:0:
64,256,145119,2,0,L|84:360,1,85,8|0,0:0|0:0,0:0:0:0:
175,251,145462,6,0,B|176:160|176:160|160:44,1,170,2|8,0:0|0:0,0:0:0:0:
64,40,145976,1,0,0:0:0:0:
64,40,146062,1,0,0:0:0:0:
64,40,146147,2,0,L|80:136,1,85,2|0,0:0|0:0,0:0:0:0:
52,252,146490,2,0,B|100:232|100:232|140:232|140:232|200:208,1,152.999995330811,8|0,0:0|0:0,0:0:0:0:
208,120,146833,6,0,B|132:148|132:148|56:92,1,152.999995330811,2|0,0:0|0:0,0:0:0:0:
144,56,147176,2,0,B|220:28|220:28|296:84,1,152.999995330811,8|0,0:0|0:0,0:0:0:0:
349,223,147519,2,0,L|173:207,1,152.999995330811,2|0,0:0|0:0,0:0:0:0:
277,70,147862,2,0,L|436:80,1,152.999995330811,8|0,0:0|0:0,0:0:0:0:
434,217,148204,6,0,B|342:269|342:269|350:209,1,152.999995330811,2|0,0:0|0:0,0:0:0:0:
264,204,148547,2,0,L|108:188,1,152.999995330811,8|0,0:0|0:0,0:0:0:0:
32,224,148890,2,0,L|20:52,1,152.999995330811,2|0,0:0|0:0,0:0:0:0:
112,28,149233,2,0,L|100:116,1,50.9999984436036,8|0,0:0|0:0,0:0:0:0:
192,84,149404,2,0,L|192:135,1,50.9999984436036,8|0,0:0|0:0,0:0:0:0:
111,188,149576,6,0,L|120:344,1,127.5,2|0,0:0|0:0,0:0:0:0:
118,315,149919,1,8,0:0:0:0:
260,340,150090,2,0,P|280:262|215:215,1,170
117,314,150604,2,0,L|33:305,1,85,8|0,0:0|0:0,0:0:0:0:
46,197,150947,6,0,L|230:217,1,170,2|8,0:0|0:0,0:0:0:0:
384,184,151462,1,0,0:0:0:0:
288,136,151633,2,0,L|299:220,1,85,2|0,0:0|0:0,0:0:0:0:
385,336,151976,2,0,B|389:253|389:253|381:157,1,152.999995330811,8|0,0:0|0:0,0:0:0:0:
288,136,152319,6,0,B|240:160|240:160|136:144,1,152.999995330811,2|0,0:0|0:0,0:0:0:0:
12,108,152662,2,0,B|60:132|60:132|164:116,1,152.999995330811,8|0,0:0|0:0,0:0:0:0:
184,36,153004,2,0,L|340:72,1,152.999995330811,2|0,0:0|0:0,0:0:0:0:
464,40,153347,2,0,L|300:96,1,152.999995330811,8|0,0:0|0:0,0:0:0:0:
300,268,153690,6,0,B|380:340|380:340|384:268,1,152.999995330811,2|0,0:0|0:0,0:0:0:0:
468,228,154033,2,0,B|388:156|388:156|384:228,1,152.999995330811,8|0,0:0|0:0,0:0:0:0:
300,268,154376,2,0,L|136:296,1,152.999995330811,2|0,0:0|0:0,0:0:0:0:
64,276,154719,2,0,B|48:228|48:228|70:182,1,101.999996887207,8|0,0:0|0:0,0:0:0:0:
224,244,155062,6,0,P|236:164|156:116,1,170,2|8,0:0|0:0,0:0:0:0:
70,182,155576,1,0,0:0:0:0:
70,182,155747,2,0,L|154:193,1,85,2|0,0:0|0:0,0:0:0:0:
254,128,156090,2,0,L|164:115,1,85,8|0,0:0|0:0,0:0:0:0:
88,80,156433,6,0,L|100:260,1,170,2|8,0:0|0:0,0:0:0:0:
192,340,156947,1,0,0:0:0:0:
192,340,157033,1,0,0:0:0:0:
192,340,157119,2,0,L|204:228,1,85,2|0,0:0|0:0,0:0:0:0:
280,184,157462,1,8,0:0:0:0:
396,308,157633,1,0,0:0:0:0:
432,204,157804,6,0,L|300:260,1,101.999996887207,2|0,0:0|0:0,0:0:0:0:
232,168,158147,2,0,L|352:216,1,101.999996887207,8|0,0:0|0:0,0:0:0:0:
484,88,158490,2,0,L|352:144,1,101.999996887207,2|0,0:0|0:0,0:0:0:0:
236,28,158833,2,0,L|356:76,1,101.999996887207,8|0,0:0|0:0,0:0:0:0:
204,112,159176,6,0,B|136:92|136:92|28:96,1,152.999995330811,2|0,1:0|0:0,0:0:0:0:
53,95,159519,2,0,B|96:151|96:151|185:211,1,152.999995330811,2|0,1:0|0:0,0:0:0:0:
164,196,159862,6,0,P|77:215|48:292,1,152.999995330811,2|0,1:0|0:0,0:0:0:0:
48,267,160204,2,0,P|114:325|194:303,1,152.999995330811,2|0,1:0|2:0,0:0:0:0:
284,240,160547,5,2,0:0:0:0:
292,224,160890,5,2,0:0:0:0:
300,208,161233,5,2,0:0:0:0:
312,188,161576,6,0,L|328:152,6,25.4999992218018,10|2|2|2|2|2|2,0:0|2:0|2:0|2:0|2:0|2:0|2:0,0:0:0:0:
392,228,161919,6,0,L|504:208,1,110.499994941712,8|0,0:0|0:0,0:0:0:0:
500,208,162176,1,0,0:0:0:0:
500,208,162262,1,8,0:0:0:0:
440,316,162433,1,0,0:0:0:0:
392,228,162604,1,8,0:0:0:0:
288,304,162776,1,0,0:0:0:0:
440,316,162947,1,8,0:0:0:0:
376,128,163119,1,0,0:0:0:0:
268,195,163290,6,0,L|288:304,1,110.499994941712,8|0,0:0|0:0,0:0:0:0:
288,304,163547,1,0,0:0:0:0:
288,304,163633,1,8,0:0:0:0:
184,244,163804,1,0,0:0:0:0:
152,352,163976,1,8,0:0:0:0:
88,256,164147,1,0,0:0:0:0:
16,336,164319,1,8,0:0:0:0:
152,352,164490,1,0,0:0:0:0:
124,172,164662,6,0,L|104:40,1,110.499994941712,8|0,0:0|0:0,0:0:0:0:
107,62,164919,1,0,0:0:0:0:
107,62,165004,1,8,0:0:0:0:
208,132,165176,1,0,0:0:0:0:
328,140,165347,1,8,0:0:0:0:
436,88,165519,1,0,0:0:0:0:
336,20,165690,1,8,0:0:0:0:
328,140,165862,1,0,0:0:0:0:
430,218,166033,6,0,L|420:328,1,110.499994941712,8|0,0:0|0:0,0:0:0:0:
420,328,166290,1,0,0:0:0:0:
420,328,166376,1,8,0:0:0:0:
328,252,166547,1,0,0:0:0:0:
208,232,166719,1,8,0:0:0:0:
100,288,166890,1,0,0:0:0:0:
12,204,167062,6,0,L|188:228,1,165.749992412568,8|0,0:0|0:0,0:0:0:0:
208,232,167404,6,0,L|192:120,1,110.499994941712,10|0,0:0|0:0,0:0:0:0:
272,40,167662,1,0,0:0:0:0:
272,40,167747,2,0,L|294:171,1,110.499994941712,10|0,0:0|0:0,0:0:0:0:
377,214,168004,1,0,0:0:0:0:
377,214,168090,2,0,L|388:104,1,110.499994941712,10|0,0:0|0:0,0:0:0:0:
484,64,168347,1,0,0:0:0:0:
484,64,168433,2,0,L|473:173,1,110.499994941712,10|0,0:0|0:0,0:0:0:0:
448,340,168690,5,0,0:0:0:0:
448,340,168776,2,0,L|300:320,1,110.499994941712,10|0,0:0|0:0,0:0:0:0:
184,264,169033,1,0,0:0:0:0:
184,264,169119,2,0,L|324:248,1,110.499994941712,10|0,0:0|0:0,0:0:0:0:
396,192,169376,1,0,0:0:0:0:
396,192,169462,2,0,L|380:348,1,110.499994941712,10|0,0:0|0:0,0:0:0:0:
248,360,169719,1,0,0:0:0:0:
248,360,169805,2,0,L|264:204,1,110.499994941712,10|0,0:0|0:0,0:0:0:0:
192,156,170062,5,0,0:0:0:0:
192,156,170148,2,0,P|133:149|83:178,1,110.499994941712,10|0,0:0|0:0,0:0:0:0:
8,72,170404,1,0,0:0:0:0:
8,72,170490,2,0,P|37:117|90:129,1,110.499994941712,10|0,0:0|0:0,0:0:0:0:
168,48,170747,1,0,0:0:0:0:
168,48,170833,2,0,L|296:40,1,110.499994941712,10|0,0:0|0:0,0:0:0:0:
368,152,171090,1,0,0:0:0:0:
368,152,171176,2,0,L|228:140,1,110.499994941712,10|0,0:0|0:0,0:0:0:0:
364,248,171433,5,0,0:0:0:0:
364,248,171519,2,0,L|496:240,1,110.499994941712,10|8,0:0|0:0,0:0:0:0:
474,241,171862,2,0,L|460:184,1,55.2499974708558,10|0,0:0|0:0,0:0:0:0:
268,172,172033,2,0,L|264:240,1,55.2499974708558,10|0,0:0|0:0,0:0:0:0:
368,152,172204,2,0,L|358:97,3,55.2499974708558,10|8|8|8,0:0|0:0|0:0|0:0,0:0:0:0:
278,41,172547,1,8,0:0:0:0:
230,29,172633,1,8,0:0:0:0:
182,45,172719,1,8,0:0:0:0:
158,89,172804,1,8,0:0:0:0:
177,138,172890,6,0,B|208:200|168:260|168:260|213:209|284:156|384:196|404:292|356:368,1,475.999985473633
216,360,174433,1,0,0:0:0:0:
216,360,174519,1,0,0:0:0:0:
216,360,174604,2,0,P|128:368|264:300,1,560.999982879639
268,277,175633,6,0,B|239:293|239:293|135:269|135:269|99:285,1,178.499994552612,12|0,0:0|0:0,0:0:0:0:
36,348,175976,2,0,P|11:299|44:216,1,118.999996368408,8|2,0:0|0:0,0:0:0:0:
88,176,176233,1,0,0:0:0:0:
88,176,176319,2,0,L|176:192,1,59.4999981842042,8|0,0:0|0:0,0:0:0:0:
212,128,176490,2,0,P|228:151|240:188,1,59.4999981842042,2|0,0:0|0:0,0:0:0:0:
244,284,176662,1,8,0:0:0:0:
320,160,176833,1,2,0:0:0:0:
392,300,177004,5,8,0:0:0:0:
268,368,177176,1,0,0:0:0:0:
260,340,177262,1,0,0:0:0:0:
252,312,177347,1,8,0:0:0:0:
220,204,177519,1,2,0:0:0:0:
348,276,177690,5,8,0:0:0:0:
164,332,177862,1,2,0:0:0:0:
260,172,178033,1,8,0:0:0:0:
244,284,178204,1,2,0:0:0:0:
164,204,178376,6,0,B|128:172|132:92|184:48|240:48|240:48|280:84|280:84|312:88,1,297.499990921021,4|0,3:0|0:0,0:0:0:0:
340,168,178890,2,0,P|365:153|384:130,1,59.4999981842042,8|0,0:0|0:0,0:0:0:0:
440,64,179062,2,0,P|408:52|380:44,1,59.4999981842042,2|0,3:0|0:0,0:0:0:0:
464,152,179233,2,0,P|476:200|496:224,1,59.4999981842042,2|0,3:0|0:0,0:0:0:0:
476,348,179404,2,0,P|452:280|348:264,1,178.499994552612,2|0,3:0|0:0,0:0:0:0:
244,344,179747,6,0,L|148:336,1,59.4999981842042,4|0,3:0|0:0,0:0:0:0:
88,312,179919,2,0,L|80:360,4,29.7499990921021
88,312,180262,1,8,0:0:0:0:
184,339,180433,2,0,L|176:272,1,59.4999981842042,2|0,3:0|0:0,0:0:0:0:
88,312,180604,2,0,L|88:236,1,59.4999981842042,8|0,3:0|0:0,0:0:0:0:
264,248,180776,2,0,L|256:172,1,59.4999981842042,2|0,3:0|0:0,0:0:0:0:
168,204,180947,2,0,L|168:136,1,59.4999981842042,4|0,3:0|0:0,0:0:0:0:
72,232,181119,6,0,L|64:40,1,178.499994552612,12|0,0:0|0:0,0:0:0:0:
148,40,181462,2,0,P|191:73|276:64,1,118.999996368408,8|2,0:0|0:0,0:0:0:0:
336,84,181719,1,0,0:0:0:0:
336,84,181804,2,0,L|340:4,1,59.4999981842042,8|0,0:0|0:0,0:0:0:0:
420,64,181976,2,0,L|432:124,1,59.4999981842042,2|0,0:0|0:0,0:0:0:0:
512,64,182147,5,8,0:0:0:0:
420,64,182319,1,2,0:0:0:0:
448,248,182490,1,8,0:0:0:0:
500,176,182662,1,0,0:0:0:0:
312,184,182833,1,8,0:0:0:0:
340,272,183005,1,2,0:0:0:0:
416,164,183176,5,8,0:0:0:0:
240,128,183347,1,2,0:0:0:0:
196,136,183433,1,0,0:0:0:0:
156,144,183519,1,8,0:0:0:0:
56,108,183690,1,2,0:0:0:0:
208,36,183862,6,0,B|291:54|291:54|323:30|323:30|339:90|339:90|375:70|375:70|443:82,1,297.499990921021,4|0,3:0|0:0,0:0:0:0:
473,177,184376,2,0,L|387:157,1,59.4999981842042,8|0,0:0|0:0,0:0:0:0:
332,176,184547,2,0,L|264:216,1,59.4999981842042,2|0,3:0|0:0,0:0:0:0:
444,256,184719,2,0,L|385:243,1,59.4999981842042,2|0,3:0|0:0,0:0:0:0:
304,284,184890,2,0,B|216:344|216:344|188:328|146:332,1,178.499994552612,2|0,3:0|0:0,0:0:0:0:
20,320,185233,6,0,P|48:311|74:296,1,59.4999981842042,4|0,3:0|0:0,0:0:0:0:
120,220,185404,2,0,L|112:165,4,29.7499990921021
120,220,185747,1,8,0:0:0:0:
40,84,185919,2,0,L|28:144,1,59.4999981842042,2|0,3:0|0:0,0:0:0:0:
216,172,186090,2,0,L|208:88,1,59.4999981842042,8|0,3:0|0:0,0:0:0:0:
120,36,186262,2,0,L|124:120,1,59.4999981842042,2|0,3:0|0:0,0:0:0:0:
296,120,186433,2,0,L|296:52,1,59.4999981842042,4|0,3:0|0:0,0:0:0:0:
480,28,186604,6,0,P|488:90|388:152,1,178.499994552612,12|0,0:0|0:0,0:0:0:0:
320,180,186947,2,0,P|322:121|360:77,1,118.999996368408,8|2,0:0|0:0,0:0:0:0:
488,188,187290,2,0,P|450:233|393:245,1,118.999996368408,8|2,0:0|0:0,0:0:0:0:
312,232,187547,1,0,0:0:0:0:
312,232,187633,2,0,B|194:213|194:213|232:268,1,178.499994552612,8|0,0:0|0:0,0:0:0:0:
228,263,187976,5,8,0:0:0:0:
224,116,188147,1,0,0:0:0:0:
112,184,188319,2,0,B|136:328,1,118.999996368408,8|2,0:0|0:0,0:0:0:0:
48,252,188576,1,0,0:0:0:0:
48,252,188662,2,0,L|72:104,1,118.999996368408,8|2,0:0|0:0,0:0:0:0:
224,116,189004,1,8,0:0:0:0:
112,184,189176,1,2,0:0:0:0:
184,40,189347,6,0,P|274:43|308:120,1,178.499994552612,8|0,0:0|0:0,0:0:0:0:
308,113,189690,2,0,P|320:88|348:52,1,59.4999981842042,8|0,0:0|0:0,0:0:0:0:
467,120,189862,2,0,P|485:144|496:172,1,59.4999981842042,2|0,0:0|0:0,0:0:0:0:
392,236,190033,2,0,P|384:208|386:178,1,59.4999981842042,8|0,0:0|0:0,0:0:0:0:
456,40,190204,1,2,0:0:0:0:
472,76,190290,1,0,0:0:0:0:
467,120,190376,1,8,0:0:0:0:
308,113,190547,6,0,L|158:91,1,118.999996368408,2|8,0:0|0:0,0:0:0:0:
72,148,190804,1,0,0:0:0:0:
60,164,190890,2,0,L|192:132,1,118.999996368408,0|8,0:0|0:0,0:0:0:0:
296,212,191233,1,2,0:0:0:0:
308,228,191318,1,0,0:0:0:0:
320,244,191404,2,0,L|164:224,1,118.999996368408,8|4,0:0|3:0,0:0:0:0:
124,264,191662,1,0,0:0:0:0:
124,264,191747,2,0,L|132:336,1,59.4999981842042,8|2,3:0|3:0,0:0:0:0:
220,156,192090,6,0,L|244:364,1,178.499994552612,12|0,0:0|0:0,0:0:0:0:
240,333,192433,1,8,0:0:0:0:
384,348,192604,1,2,0:0:0:0:
396,336,192690,1,0,0:0:0:0:
412,324,192776,2,0,P|417:245|332:228,1,178.499994552612,8|0,0:0|0:0,0:0:0:0:
256,252,193119,2,0,L|108:228,1,118.999996368408,8|2,0:0|0:0,0:0:0:0:
16,116,193462,6,0,P|48:37|133:31,1,178.499994552612,8|0,0:0|0:0,0:0:0:0:
133,31,193804,1,8,0:0:0:0:
116,172,193976,1,2,0:0:0:0:
108,140,194061,1,0,0:0:0:0:
100,108,194147,1,8,0:0:0:0:
24,296,194319,1,2,0:0:0:0:
28,256,194404,1,0,0:0:0:0:
32,212,194490,1,8,0:0:0:0:
204,152,194662,2,0,L|198:211,1,59.4999981842042,2|0,0:0|0:0,0:0:0:0:
180,316,194833,6,2,L|444:280,1,237.999992736817,0|0,0:0|0:0,1:0:0:0:
392,96,195347,2,0,B|384:124|384:124|383:154,1,59.4999981842042
476,128,195519,2,0,B|484:96|484:96|485:66,1,59.4999981842042,8|0,0:0|0:0,0:0:0:0:
304,108,195776,1,8,0:0:0:0:
304,108,195862,2,0,B|224:96,1,59.4999981842042
228,184,196033,6,0,B|48:160,1,178.499994552612,8|0,0:0|0:0,0:0:0:0:
4,88,196376,2,0,B|136:56|136:56|116:128,1,178.499994552612,8|0,0:0|0:0,0:0:0:0:
136,248,196719,2,0,B|124:289|124:289|256:257,1,178.499994552612,8|0,0:0|0:0,0:0:0:0:
264,112,197062,2,0,B|399:122|399:122|358:184,1,178.499994552612,8|0,0:0|0:0,0:0:0:0:
368,252,197404,6,0,L|448:260,1,59.4999981842042,8|0,0:0|0:0,0:0:0:0:
356,344,197576,2,0,L|296:337,1,59.4999981842042,8|0,0:0|0:0,0:0:0:0:
212,248,197747,2,0,L|300:256,1,59.4999981842042,8|0,0:0|0:0,0:0:0:0:
204,344,197919,5,8,0:0:0:0:
155,338,198004,1,8,0:0:0:0:
107,333,198090,1,8,0:0:0:0:
59,329,198176,1,8,0:0:0:0:
12,323,198262,1,8,0:0:0:0:
260,240,198604,6,2,P|300:176|228:232,1,237.999992736817,2|14,1:0|0:0,1:0:0:0:
