osu file format v14

[General]
AudioFilename: Children.mp3
AudioLeadIn: 0
PreviewTime: 50839
Countdown: 0
SampleSet: Normal
StackLeniency: 0.6
Mode: 0
LetterboxInBreaks: 1
WidescreenStoryboard: 1

[Editor]
Bookmarks: 11935,45353,171524
DistanceSpacing: 0.7
BeatDivisor: 4
GridSize: 32
TimelineZoom: 3.499999

[Metadata]
Title:Okochama Sensou
TitleUnicode:おこちゃま戦争
Artist:kradness&Reol
ArtistUnicode:kradness&れをる
Creator:Kalindraz
Version:Trynna's Dark Insane
Source:
Tags:Giga-p Len Rin Kagamine Marianna TG Children's War Tarrasky Trynna Ataraxia Seto Net0 BR
BeatmapID:1219214
BeatmapSetID:155252

[Difficulty]
HPDrainRate:6
CircleSize:4.1
OverallDifficulty:8.5
ApproachRate:9
SliderMultiplier:1.8
SliderTickRate:1

[Events]
//Background and Video events
0,0,"BG.png",0,0
//Break Periods
//Storyboard Layer 0 (Background)
//Storyboard Layer 1 (Fail)
//Storyboard Layer 2 (Pass)
//Storyboard Layer 3 (Foreground)
//Storyboard Sound Samples

[TimingPoints]
5582,342.857142857143,4,1,3,50,1,0
6953,-90.9090909090909,4,1,3,50,0,0
12439,-133.333333333333,4,1,3,50,0,0
23410,-100,4,1,3,50,0,0
28553,-83.3333333333333,4,1,3,50,0,0
28896,-100,4,1,3,50,0,0
39524,-83.3333333333333,4,1,3,50,0,0
39867,-100,4,1,3,50,0,0
45353,-133.333333333333,4,1,3,40,0,0
48096,-133.333333333333,4,1,3,50,0,0
49467,-100,4,1,3,50,0,0
50839,-83.3333333333333,4,1,3,65,0,1
53582,-100,4,1,3,50,0,0
56324,-83.3333333333333,4,1,3,65,0,1
59067,-100,4,1,3,50,0,0
61810,-83.3333333333333,4,1,3,65,0,1
70039,-100,4,1,3,65,0,1
72782,-90.9090909090909,4,1,3,50,0,0
78267,-100,4,1,3,50,0,0
94382,-71.4285714285714,4,1,3,50,0,0
94724,-100,4,1,3,50,0,0
98839,-90.9090909090909,4,1,3,50,0,0
99867,-76.9230769230769,4,1,3,50,0,0
100210,-133.333333333333,4,1,3,40,0,0
102953,-133.333333333333,4,1,3,50,0,0
104324,-100,4,1,3,50,0,0
105696,-83.3333333333333,4,1,3,65,0,1
108439,-100,4,1,3,50,0,0
111182,-83.3333333333333,4,1,3,65,0,1
113924,-100,4,1,3,50,0,0
116667,-83.3333333333333,4,1,3,65,0,1
124896,-100,4,1,3,65,0,1
127124,-90.9090909090909,4,1,3,65,0,1
127639,-90.9090909090909,4,1,3,50,0,0
133124,-76.9230769230769,4,1,3,50,0,0
133810,-90.9090909090909,4,1,3,50,0,0
138610,-100,4,1,3,50,0,0
160553,-100,4,1,3,20,0,0
161582,-76.9230769230769,4,1,3,50,0,0
161924,-125,4,1,3,50,0,0
172210,-100,4,1,3,50,0,0
172896,-166.666666666667,4,1,3,30,0,0
174439,-100,4,1,3,50,0,0
175639,-83.3333333333333,4,1,3,65,0,1
178382,-100,4,1,3,50,0,0
181124,-83.3333333333333,4,1,3,65,0,1
183867,-100,4,1,3,50,0,0
186610,-83.3333333333333,4,1,3,65,0,1
194839,-100,4,1,3,65,0,1
198267,-133.333333333333,4,1,3,65,0,1
198610,-100,4,1,3,65,0,1
198953,-90.9090909090909,4,1,3,50,0,0

[Colours]
Combo1 : 185,0,185
Combo2 : 255,128,64
Combo3 : 255,255,0
Combo4 : 190,190,190
Combo5 : 255,0,0
Combo6 : 128,0,0

[HitObjects]
116,100,5581,5,8,0:0:0:0:
180,192,5753,1,0,0:0:0:0:
176,224,5839,1,0,0:0:0:0:
172,256,5924,1,2,0:0:0:0:
360,192,6096,1,0,0:0:0:0:
272,144,6267,2,0,P|262:187|272:240,1,90,2|0,0:0|0:0,0:0:0:0:
448,232,6610,2,0,P|457:188|448:136,1,90,2|0,0:0|0:0,0:0:0:0:
360,56,6953,6,0,L|360:160,1,99.0000030212403,12|0,0:0|0:0,0:0:0:0:
440,260,7296,1,0,0:0:0:0:
284,216,7467,1,2,0:0:0:0:
244,352,7639,2,0,P|290:357|348:344,1,99.0000030212403,8|2,0:0|0:0,0:0:0:0:
364,240,7981,1,0,0:0:0:0:
200,272,8153,1,2,0:0:0:0:
144,120,8324,5,8,0:0:0:0:
144,120,8410,1,0,0:0:0:0:
144,120,8496,2,0,L|196:116,1,49.5000015106202,2|0,0:0|0:0,0:0:0:0:
264,52,8667,2,0,P|316:52|368:72,1,99.0000030212403,10|0,0:0|0:0,0:0:0:0:
432,192,9010,6,0,P|444:240|428:296,1,99.0000030212403,10|0,0:0|0:0,0:0:0:0:
364,336,9267,1,0,0:0:0:0:
292,288,9353,2,0,P|280:240|296:184,1,99.0000030212403,10|0,0:0|0:0,0:0:0:0:
364,96,9696,6,0,L|264:104,1,99.0000030212403,10|0,0:0|0:0,0:0:0:0:
124,24,10039,2,0,L|224:32,1,99.0000030212403,0|2,0:0|0:0,0:0:0:0:
256,188,10382,1,8,0:0:0:0:
112,160,10553,1,2,0:0:0:0:
176,300,10724,2,0,P|223:307|272:295,1,99.0000030212403,0|2,0:0|0:0,0:0:0:0:
400,268,11067,5,8,0:0:0:0:
396,232,11153,1,0,0:0:0:0:
392,196,11239,2,0,L|448:200,1,49.5000015106202,2|0,0:0|0:0,0:0:0:0:
360,88,11410,2,0,P|316:112|288:156,1,99.0000030212403,10|0,0:0|0:0,0:0:0:0:
184,152,11753,2,0,P|156:111|113:88,1,99.0000030212403,10|0,0:0|0:0,0:0:0:0:
44,140,12010,1,0,0:0:0:0:
76,220,12096,2,0,L|132:216,1,49.5000015106202,2|0,0:0|0:0,0:0:0:0:
60,240,12267,2,0,L|116:236,1,49.5000015106202
208,328,12439,5,4,0:0:0:0:
260,320,12553,1,0,0:0:0:0:
300,284,12667,1,0,0:0:0:0:
312,232,12782,2,0,L|304:136,1,90.0000034332277,8|0,0:0|0:0,0:0:0:0:
392,88,13124,2,0,L|399:177,1,90.0000034332277
224,124,13467,2,0,P|245:82|292:55,1,90.0000034332277,8|0,0:0|0:0,0:0:0:0:
268,208,13810,5,2,0:0:0:0:
216,216,13924,1,0,0:0:0:0:
164,196,14039,1,0,0:0:0:0:
140,148,14153,2,0,B|144:104|144:104|132:60,1,90.0000034332277,8|0,0:0|0:0,0:0:0:0:
56,116,14496,2,0,L|52:212,1,90.0000034332277
144,284,14839,2,0,P|191:278|238:250,1,90.0000034332277,8|0,0:0|0:0,0:0:0:0:
328,192,15182,5,6,0:0:0:0:
324,244,15296,1,0,0:0:0:0:
320,296,15410,1,0,0:0:0:0:
312,348,15524,2,0,L|404:344,1,90.0000034332277,8|0,0:0|0:0,0:0:0:0:
432,264,15867,2,0,L|342:267,1,90.0000034332277
248,160,16210,2,0,P|279:122|320:112,1,90.0000034332277,8|0,0:0|0:0,0:0:0:0:
436,40,16553,5,2,0:0:0:0:
456,92,16667,1,0,0:0:0:0:
456,148,16782,1,0,0:0:0:0:
432,196,16896,2,0,B|388:204|388:204|340:196,1,90.0000034332277,8|0,0:0|0:0,0:0:0:0:
248,160,17239,2,0,B|204:152|204:152|156:160,1,90.0000034332277,8|0,0:0|0:0,0:0:0:0:
32,280,17582,2,0,P|71:252|89:211,1,90.0000034332277,2|0,0:0|0:0,0:0:0:0:
56,48,17924,6,0,B|94:63|124:60|124:44|152:40|192:56,1,135.000005149842,14|0,0:0|0:0,0:0:0:0:
296,24,18439,1,0,0:0:0:0:
296,24,18610,2,0,P|316:88|296:164,1,135.000005149842,12|10,0:0|0:0,0:0:0:0:
216,360,19296,6,0,P|196:296|216:220,1,135.000005149842,14|0,0:0|0:0,0:0:0:0:
300,292,19810,1,0,0:0:0:0:
300,292,19982,2,0,L|368:288,1,67.5000025749208,12|0,0:0|0:0,0:0:0:0:
424,204,20324,2,0,L|356:200,1,67.5000025749208,10|0,0:0|0:0,0:0:0:0:
284,104,20667,6,0,B|232:104|232:104|184:84|184:84|136:124|136:124|88:104|88:104|32:104,2,270.000010299683,14|8|8,0:0|0:0|0:0,0:0:0:0:
388,68,22382,6,0,L|388:148,1,67.5000025749208,2|0,0:0|0:0,0:0:0:0:
404,88,22724,2,0,L|404:168,1,67.5000025749208,2|0,0:0|0:0,0:0:0:0:
464,232,23067,1,0,0:0:0:0:
296,272,23239,1,0,0:0:0:0:
396,380,23410,6,0,P|407:312|396:240,1,135,4|0,0:0|0:0,0:0:0:0:
380,252,23753,1,8,0:0:0:0:
205,307,23924,2,0,P|203:263|216:220,1,90,2|0,0:0|0:0,0:0:0:0:
124,208,24267,2,0,P|144:168|176:136,1,90,2|8,0:0|0:0,0:0:0:0:
232,40,24610,2,0,L|140:40,1,90,2|0,0:0|0:0,0:0:0:0:
276,144,24953,1,0,0:0:0:0:
380,48,25124,1,8,0:0:0:0:
288,164,25296,2,0,L|284:260,1,90,2|0,0:0|0:0,0:0:0:0:
388,344,25639,1,0,0:0:0:0:
280,336,25810,2,0,L|283:358,1,22.5,10|0,0:0|0:0,0:0:0:0:
172,324,25982,1,0,0:0:0:0:
76,244,26153,6,0,L|80:144,1,90,2|0,0:0|0:0,0:0:0:0:
100,140,26410,1,0,0:0:0:0:
120,128,26496,1,8,0:0:0:0:
216,64,26667,1,2,0:0:0:0:
196,52,26753,1,0,0:0:0:0:
176,40,26839,1,0,0:0:0:0:
196,192,27010,1,2,0:0:0:0:
336,128,27182,1,8,0:0:0:0:
304,328,27353,6,0,L|300:232,1,90,2|0,0:0|0:0,0:0:0:0:
396,356,27696,1,0,0:0:0:0:
392,196,27867,1,10,0:0:0:0:
212,364,28039,1,0,0:0:0:0:
208,212,28210,1,2,0:0:0:0:
356,280,28382,1,0,0:0:0:0:
164,292,28553,6,0,P|128:236|152:144,1,161.999995056153,10|0,0:0|0:0,0:0:0:0:
164,128,28896,5,2,0:0:0:0:
228,40,29067,1,0,0:0:0:0:
120,24,29239,1,8,0:0:0:0:
252,128,29410,2,0,L|364:112,1,90,2|0,0:0|0:0,0:0:0:0:
424,16,29753,2,0,L|312:32,1,90,2|8,0:0|0:0,0:0:0:0:
364,200,30096,6,0,P|416:160|428:112,1,90,2|0,0:0|0:0,0:0:0:0:
252,160,30439,1,0,0:0:0:0:
276,280,30610,1,8,0:0:0:0:
364,200,30782,1,2,0:0:0:0:
164,240,30953,1,0,0:0:0:0:
288,360,31124,1,0,0:0:0:0:
252,137,31296,2,0,L|252:173,1,22.5,10|0,0:0|0:0,0:0:0:0:
148,97,31467,1,0,0:0:0:0:
44,57,31639,6,0,L|52:161,1,90,2|0,0:0|0:0,0:0:0:0:
40,169,31896,1,0,0:0:0:0:
28,189,31982,1,8,0:0:0:0:
32,300,32153,1,2,0:0:0:0:
44,320,32238,1,0,0:0:0:0:
56,340,32324,1,0,0:0:0:0:
164,260,32496,1,2,0:0:0:0:
256,352,32667,2,0,P|276:312|276:268,1,90,8|2,0:0|0:0,0:0:0:0:
348,196,33010,6,0,P|328:156|328:112,1,90
396,32,33353,1,8,0:0:0:0:
252,68,33524,2,0,L|156:68,1,90,2|0,0:0|0:0,0:0:0:0:
76,192,33867,1,0,0:0:0:0:
40,92,34039,1,10,0:0:0:0:
168,168,34210,2,0,P|166:209|148:257,1,90,0|6,0:0|0:0,0:0:0:0:
88,352,34553,5,0,0:0:0:0:
224,304,34724,1,8,0:0:0:0:
176,192,34896,1,0,0:0:0:0:
312,240,35067,1,0,0:0:0:0:
404,116,35239,1,2,0:0:0:0:
415,227,35410,1,8,0:0:0:0:
427,339,35582,2,0,P|379:347|337:358,1,90,2|0,0:0|0:0,0:0:0:0:
256,184,35924,5,0,0:0:0:0:
268,164,36010,1,0,0:0:0:0:
280,144,36096,1,8,0:0:0:0:
116,100,36267,1,0,0:0:0:0:
196,264,36439,1,0,0:0:0:0:
216,60,36610,1,2,0:0:0:0:
112,208,36782,2,0,L|84:208,1,22.5,8|0,0:0|0:0,0:0:0:0:
292,124,36953,2,0,P|336:120|388:132,1,90,0|2,0:0|0:0,0:0:0:0:
284,304,37296,5,0,0:0:0:0:
456,280,37467,1,8,0:0:0:0:
328,212,37639,1,0,0:0:0:0:
352,368,37810,1,0,0:0:0:0:
424,188,37982,1,2,0:0:0:0:
312,232,38153,1,8,0:0:0:0:
224,148,38324,2,0,B|192:136|192:136|136:136,1,90,2|0,0:0|0:0,0:0:0:0:
348,40,38667,5,0,0:0:0:0:
356,176,38839,1,8,0:0:0:0:
232,124,39010,1,0,0:0:0:0:
432,132,39182,2,0,P|440:176|432:224,1,90,0|2,0:0|0:0,0:0:0:0:
340,312,39524,6,0,B|293:293|260:304|260:316|224:332|180:312,1,161.999995056153,8|0,0:0|0:0,0:0:0:0:
164,328,39867,6,0,L|168:236,1,90,2|0,0:0|0:0,0:0:0:0:
64,120,40210,2,0,L|67:209,1,90,8|0,0:0|0:0,0:0:0:0:
248,280,40553,2,0,L|252:188,1,90,0|2,0:0|0:0,0:0:0:0:
148,72,40896,2,0,L|151:161,1,90,8|2,0:0|0:0,0:0:0:0:
172,152,41153,5,0,0:0:0:0:
192,144,41239,1,0,0:0:0:0:
280,80,41410,1,0,0:0:0:0:
300,88,41496,1,0,0:0:0:0:
320,96,41582,1,8,0:0:0:0:
428,176,41753,6,0,P|436:220|428:268,1,90
272,268,42096,2,0,P|264:224|272:176,1,90,2|8,0:0|0:0,0:0:0:0:
352,224,42439,2,0,L|352:276,1,45
244,344,42610,6,0,L|152:340,1,90,2|0,0:0|0:0,0:0:0:0:
84,268,42953,1,8,0:0:0:0:
184,144,43124,2,0,P|184:191|176:236,1,90
68,92,43467,2,0,P|60:136|60:184,1,90,2|8,0:0|0:0,0:0:0:0:
220,56,43810,1,2,0:0:0:0:
288,120,43982,6,0,L|380:116,1,90
424,208,44324,2,0,L|334:211,1,90,8|0,0:0|0:0,0:0:0:0:
272,292,44667,2,0,P|276:336|271:381,1,90,0|2,0:0|0:0,0:0:0:0:
176,336,45010,2,0,P|170:291|175:246,1,90,10|0,0:0|0:0,0:0:0:0:
128,164,45353,6,0,P|148:80|252:48,1,202.500007724762,12|2,0:0|0:0,0:0:0:0:
320,124,46039,2,0,B|316:165|308:192|308:192|332:248|332:248|322:282|324:336,1,202.500007724762,8|2,0:0|0:0,0:0:0:0:
412,288,46724,6,0,L|420:212,1,67.5000025749208,8|2,0:0|0:0,0:0:0:0:
484,156,47067,2,0,L|476:80,1,67.5000025749208,8|2,0:0|0:0,0:0:0:0:
396,40,47410,1,8,0:0:0:0:
340,108,47582,1,2,0:0:0:0:
252,108,47753,1,10,0:0:0:0:
200,36,47924,1,0,0:0:0:0:
144,152,48096,5,10,0:0:0:0:
144,152,48439,1,0,0:0:0:0:
144,152,48782,1,8,0:0:0:0:
132,256,48953,1,2,0:0:0:0:
144,152,49124,1,0,0:0:0:0:
48,92,49296,1,2,0:0:0:0:
144,152,49467,6,0,L|240:144,1,90,10|0,0:0|0:0,0:0:0:0:
228,124,49724,1,0,0:0:0:0:
224,104,49810,1,0,0:0:0:0:
316,32,49982,1,0,0:0:0:0:
380,140,50153,2,0,L|376:232,1,90,8|0,0:0|0:0,0:0:0:0:
468,108,50496,2,0,L|464:200,1,90
396,328,50839,6,0,B|368:336|344:332|344:320|320:316|288:324,1,107.999996704102,12|2,0:0|0:0,0:0:0:0:
180,356,51182,1,0,0:0:0:0:
220,244,51353,1,2,0:0:0:0:
96,160,51524,2,0,L|104:272,1,107.999996704102,8|0,0:0|0:0,0:0:0:0:
220,244,51867,1,0,0:0:0:0:
176,100,52039,6,0,P|129:66|76:60,1,107.999996704102,2|8,0:0|0:0,0:0:0:0:
24,188,52382,1,2,0:0:0:0:
52,184,52468,1,0,0:0:0:0:
80,180,52553,1,0,0:0:0:0:
56,316,52724,1,2,0:0:0:0:
216,280,52896,2,0,P|224:224|216:172,1,107.999996704102,8|0,0:0|0:0,0:0:0:0:
84,208,53239,2,0,P|76:264|84:316,1,107.999996704102,0|2,0:0|0:0,0:0:0:0:
216,360,53582,6,0,B|268:340|268:340|352:340,1,135,10|0,0:0|0:0,0:0:0:0:
404,276,53924,2,0,P|395:231|400:176,1,90,2|0,0:0|0:0,0:0:0:0:
420,176,54182,1,0,0:0:0:0:
440,164,54267,2,0,P|448:119|444:64,1,90,2|0,0:0|0:0,0:0:0:0:
368,36,54610,2,0,L|320:36,1,45
272,120,54782,2,0,L|224:120,1,45,2|0,0:0|0:0,0:0:0:0:
164,48,54953,6,0,L|80:48,1,67.5,10|0,0:0|0:0,0:0:0:0:
72,72,55124,2,0,L|44:72,4,22.5,0|0|0|0|2,0:0|0:0|0:0|0:0|0:0,0:0:0:0:
112,216,55467,1,0,0:0:0:0:
208,244,55639,2,0,P|208:196|196:152,1,90,2|0,0:0|0:0,0:0:0:0:
20,184,55982,2,0,P|20:232|32:276,1,90
148,352,56324,6,0,B|204:360|204:360|256:352,1,107.999996704102,12|2,0:0|0:0,0:0:0:0:
356,300,56667,1,0,0:0:0:0:
436,380,56839,1,2,0:0:0:0:
484,256,57010,2,0,L|480:144,1,107.999996704102,8|0,0:0|0:0,0:0:0:0:
376,72,57353,1,0,0:0:0:0:
272,200,57524,6,0,P|323:203|384:192,1,107.999996704102,2|8,0:0|0:0,0:0:0:0:
240,100,57867,1,2,0:0:0:0:
204,264,58039,1,0,0:0:0:0:
84,148,58210,1,2,0:0:0:0:
120,312,58382,2,0,P|176:308|224:280,1,107.999996704102,8|0,0:0|0:0,0:0:0:0:
372,228,58724,2,0,P|324:202|271:199,1,107.999996704102,0|2,0:0|0:0,0:0:0:0:
276,360,59067,6,0,B|324:360|324:360|364:344|364:344|408:344,1,135,10|0,0:0|0:0,0:0:0:0:
464,288,59410,2,0,L|464:184,1,90,2|0,0:0|0:0,0:0:0:0:
448,180,59667,1,0,0:0:0:0:
432,164,59753,2,0,L|432:72,1,90,2|0,0:0|0:0,0:0:0:0:
304,44,60096,2,0,L|308:108,1,45
228,132,60267,2,0,L|224:68,1,45,2|0,0:0|0:0,0:0:0:0:
136,44,60439,6,0,L|140:112,1,67.5,10|0,0:0|0:0,0:0:0:0:
124,140,60610,2,0,L|124:180,4,22.5,0|0|0|0|2,0:0|0:0|0:0|0:0|0:0,0:0:0:0:
36,232,60953,1,0,0:0:0:0:
80,352,61124,2,0,P|123:344|163:325,1,90,2|0,0:0|0:0,0:0:0:0:
272,336,61467,2,0,P|264:268|276:204,1,135
300,212,61810,5,12,0:0:0:0:
152,152,61982,1,2,0:0:0:0:
272,48,62153,1,0,0:0:0:0:
220,212,62324,1,2,0:0:0:0:
84,108,62496,2,0,L|84:60,1,26.9999991760254,8|0,0:0|0:0,0:0:0:0:
24,240,62667,2,0,P|49:285|98:315,1,107.999996704102
276,244,63010,6,0,L|168:240,1,107.999996704102,2|8,0:0|0:0,0:0:0:0:
104,148,63353,1,2,0:0:0:0:
180,48,63524,2,0,P|215:85|230:143,1,107.999996704102,0|2,0:0|0:0,0:0:0:0:
304,248,63867,2,0,L|304:284,1,26.9999991760254,8|0,0:0|0:0,0:0:0:0:
428,108,64039,2,0,L|320:100,1,107.999996704102
400,232,64382,6,0,P|408:284|400:348,1,107.999996704102,2|8,0:0|0:0,0:0:0:0:
256,344,64724,1,0,0:0:0:0:
208,228,64896,2,0,B|264:220|264:220|316:228,1,107.999996704102,0|2,0:0|0:0,0:0:0:0:
180,312,65239,2,0,B|124:320|124:320|72:312,1,107.999996704102,8|0,0:0|0:0,0:0:0:0:
36,204,65582,1,0,0:0:0:0:
200,104,65753,6,0,L|188:216,1,107.999996704102,2|8,0:0|0:0,0:0:0:0:
120,48,66096,2,0,L|108:160,1,107.999996704102,2|0,0:0|0:0,0:0:0:0:
280,176,66439,1,2,0:0:0:0:
268,36,66610,1,8,0:0:0:0:
424,180,66782,1,0,0:0:0:0:
436,40,66953,1,0,0:0:0:0:
436,40,67039,2,0,P|384:56|356:100,1,107.999996704102
332,88,67296,6,0,L|336:216,1,107.999996704102,14|2,0:0|0:0,0:0:0:0:
416,296,67639,1,0,0:0:0:0:
276,264,67810,1,2,0:0:0:0:
436,284,67982,1,8,0:0:0:0:
296,372,68153,2,0,P|245:363|188:368,1,107.999996704102
116,276,68496,6,0,L|124:156,1,107.999996704102,2|10,0:0|0:0,0:0:0:0:
192,36,68839,1,0,0:0:0:0:
200,188,69010,1,2,0:0:0:0:
60,128,69182,1,0,0:0:0:0:
240,112,69353,2,0,B|284:124|320:112|320:100|356:93|400:108,1,161.999995056153,10|0,0:0|0:0,0:0:0:0:
416,96,69696,1,2,0:0:0:0:
504,228,69867,1,0,0:0:0:0:
360,364,70039,6,0,B|362:313|362:313|352:280|352:280|356:216,1,135,10|0,0:0|0:0,0:0:0:0:
376,216,70382,1,0,0:0:0:0:
264,200,70553,1,0,0:0:0:0:
152,184,70724,2,0,B|152:228|152:228|168:272,1,90,8|0,0:0|0:0,0:0:0:0:
272,176,71067,2,0,B|272:132|272:132|256:88,1,90
152,32,71410,5,10,0:0:0:0:
148,48,71753,1,8,0:0:0:0:
144,64,72096,1,10,0:0:0:0:
32,136,72267,1,0,0:0:0:0:
44,156,72353,1,0,0:0:0:0:
56,176,72439,2,0,B|76:200|76:200|136:212,1,90,8|0,0:0|0:0,0:0:0:0:
200,320,72782,6,0,L|100:308,1,99.0000030212403,12|2,0:0|0:0,0:0:0:0:
256,228,73124,2,0,L|156:216,1,99.0000030212403,0|2,0:0|0:0,0:0:0:0:
216,112,73467,1,8,0:0:0:0:
340,196,73639,2,0,P|344:248|324:292,1,99.0000030212403
444,348,73982,1,2,0:0:0:0:
440,224,74153,5,8,0:0:0:0:
444,204,74239,1,0,0:0:0:0:
448,184,74324,2,0,L|456:136,1,49.5000015106202,2|0,0:0|0:0,0:0:0:0:
388,52,74496,2,0,P|340:44|292:60,1,99.0000030212403
208,132,74839,6,0,L|216:232,1,99.0000030212403,8|0,0:0|0:0,0:0:0:0:
148,280,75096,1,0,0:0:0:0:
80,228,75182,2,0,L|88:128,1,99.0000030212403
194,51,75524,6,0,L|298:59,1,99.0000030212403,8|2,0:0|0:0,0:0:0:0:
328,148,75867,2,0,L|224:156,1,99.0000030212403,0|2,0:0|0:0,0:0:0:0:
376,68,76210,1,8,0:0:0:0:
436,184,76382,2,0,P|444:232|436:284,1,99.0000030212403
340,340,76724,6,0,B|316:348|292:340|292:332|264:328|244:336,1,99.0000030212403,2|8,0:0|0:0,0:0:0:0:
120,356,77067,1,2,0:0:0:0:
80,240,77239,2,0,P|128:232|176:244,1,99.0000030212403
248,140,77582,6,0,B|252:88|252:88|240:40,1,99.0000030212403,8|0,0:0|0:0,0:0:0:0:
160,16,77839,1,0,0:0:0:0:
92,64,77924,2,0,B|88:116|88:116|100:164,1,99.0000030212403
188,264,78267,6,0,L|324:260,1,135,12|0,0:0|0:0,0:0:0:0:
340,276,78610,2,0,P|344:306|340:340,2,60,2|0|0,0:0|0:0|0:0,0:0:0:0:
376,204,78953,2,0,P|372:148|396:80,1,120,2|0,0:0|0:0,0:0:0:0:
328,36,79296,2,0,L|204:36,1,120
144,120,79639,6,0,B|128:156|136:188|148:184|156:212|140:252,1,135,8|0,0:0|0:0,0:0:0:0:
124,272,79982,2,0,L|56:268,2,60,2|0|0,0:0|0:0|0:0,0:0:0:0:
168,340,80324,2,0,L|292:332,1,120,2|0,0:0|0:0,0:0:0:0:
332,256,80667,2,0,P|335:221|332:192,2,60
236,220,81010,6,0,L|244:108,1,90,8|0,0:0|0:0,0:0:0:0:
260,116,81267,1,0,0:0:0:0:
276,100,81353,1,2,0:0:0:0:
128,32,81524,1,0,0:0:0:0:
149,60,81609,1,0,0:0:0:0:
157,95,81695,1,2,0:0:0:0:
150,130,81781,1,0,0:0:0:0:
128,158,81866,1,0,0:0:0:0:
39,281,82039,1,0,0:0:0:0:
46,246,82125,1,0,0:0:0:0:
68,218,82210,1,0,0:0:0:0:
176,280,82382,5,8,0:0:0:0:
204,284,82467,1,0,0:0:0:0:
232,288,82553,1,0,0:0:0:0:
260,284,82639,1,0,0:0:0:0:
288,280,82724,2,0,B|280:236|280:236|288:188,1,90,2|0,0:0|0:0,0:0:0:0:
316,196,82982,1,0,0:0:0:0:
344,200,83067,1,2,0:0:0:0:
456,108,83239,1,0,0:0:0:0:
428,112,83324,1,0,0:0:0:0:
400,116,83410,1,0,0:0:0:0:
372,112,83496,1,0,0:0:0:0:
344,108,83581,1,0,0:0:0:0:
248,40,83753,6,0,L|204:52,1,45,10|0,0:0|0:0,0:0:0:0:
160,120,83924,2,0,L|108:116,1,45
56,60,84096,1,0,0:0:0:0:
36,176,84267,1,0,0:0:0:0:
48,198,84353,1,0,0:0:0:0:
60,220,84439,1,2,0:0:0:0:
172,240,84610,1,0,0:0:0:0:
188,260,84696,2,0,L|288:260,1,90
292,284,84953,2,0,L|288:328,1,45
372,368,85124,6,0,L|376:320,1,45,10|0,0:0|0:0,0:0:0:0:
452,296,85296,2,0,L|444:252,1,45
500,196,85467,2,0,B|500:148|500:148|484:108,1,90,2|0,0:0|0:0,0:0:0:0:
460,100,85724,1,0,0:0:0:0:
432,92,85810,1,0,0:0:0:0:
376,16,85982,1,0,0:0:0:0:
352,24,86068,1,0,0:0:0:0:
328,32,86153,2,0,B|281:36|281:36|236:32,1,90
88,96,86496,6,0,L|88:144,1,45,10|2,0:0|0:0,0:0:0:0:
144,196,86667,2,0,L|144:244,1,45
96,308,86839,2,0,P|140:320|184:312,1,90
364,248,87182,6,0,P|354:227|344:208,1,45,2|0,0:0|0:0,0:0:0:0:
264,212,87353,2,0,P|252:231|243:252,1,45
264,328,87524,2,0,P|306:336|352:328,1,90
468,248,87867,6,0,L|464:152,1,90,10|0,0:0|0:0,0:0:0:0:
392,64,88211,1,2,0:0:0:0:
358,77,88296,1,0,0:0:0:0:
322,80,88382,1,0,0:0:0:0:
287,72,88468,1,0,0:0:0:0:
256,54,88553,2,0,L|228:52,1,22.5
192,124,88682,2,0,L|160:124,1,22.5
104,212,88896,2,0,P|176:228|240:216,1,135
252,236,89239,6,0,P|296:228|344:236,1,90,14|0,0:0|0:0,0:0:0:0:
384,344,89582,1,0,0:0:0:0:
360,348,89667,1,0,0:0:0:0:
336,352,89753,1,0,0:0:0:0:
464,276,89924,2,0,P|471:224|468:180,1,90,2|0,0:0|0:0,0:0:0:0:
464,164,90182,1,0,0:0:0:0:
456,140,90267,2,0,P|436:136|412:136,1,45
364,72,90439,2,0,P|344:78|323:90,1,45
252,52,90610,5,10,0:0:0:0:
244,72,90696,1,0,0:0:0:0:
240,96,90782,1,0,0:0:0:0:
240,120,90867,2,0,P|239:163|248:208,1,90
180,240,91124,2,0,P|164:172|168:108,1,135
120,48,91467,2,0,L|76:44,1,45
24,104,91639,2,0,B|8:144|8:144|8:196,1,90
24,208,91896,1,0,0:0:0:0:
40,224,91982,6,0,L|40:284,1,45,10|0,0:0|0:0,0:0:0:0:
116,200,92153,2,0,L|116:260,1,45
196,224,92324,2,0,L|196:269,1,45
276,244,92496,2,0,P|282:195|276:152,1,90,0|10,0:0|0:0,0:0:0:0:
356,72,92839,2,0,L|404:72,1,45
416,92,93010,2,0,B|408:136|408:136|416:180,1,90
452,320,93353,5,10,0:0:0:0:
448,303,93439,1,0,0:0:0:0:
462,295,93524,1,0,0:0:0:0:
474,305,93610,1,0,0:0:0:0:
466,320,93696,2,0,P|408:329|372:324,1,90,2|0,0:0|0:0,0:0:0:0:
252,228,94039,2,0,L|256:256,1,22.5,8|0,0:0|0:0,0:0:0:0:
380,156,94210,2,0,L|376:184,1,22.5
236,80,94382,6,0,B|188:69|188:69|108:80,1,125.999996154785
16,180,94724,5,10,0:0:0:0:
52,324,94896,1,0,0:0:0:0:
128,224,95067,1,0,0:0:0:0:
152,224,95153,1,0,0:0:0:0:
176,224,95239,2,0,L|220:224,1,45
260,144,95410,2,0,L|216:144,1,45,2|0,0:0|0:0,0:0:0:0:
216,308,95582,2,0,L|260:308,1,45
340,208,95753,1,0,0:0:0:0:
376,352,95924,1,0,0:0:0:0:
440,212,96096,6,0,P|422:146|367:111,1,135,10|0,0:0|0:0,0:0:0:0:
360,92,96439,2,0,B|296:108|296:108|224:92,1,135,2|0,0:0|0:0,0:0:0:0:
216,76,96782,6,0,L|208:212,1,135
192,228,97124,2,0,B|148:216|148:216|104:216,1,90,2|0,0:0|0:0,0:0:0:0:
256,352,97467,5,10,0:0:0:0:
336,260,97639,1,0,0:0:0:0:
392,368,97810,1,0,0:0:0:0:
496,192,97982,5,0,0:0:0:0:
496,192,98067,1,0,0:0:0:0:
496,192,98152,1,2,0:0:0:0:
308,168,98325,1,0,0:0:0:0:
440,56,98496,5,0,0:0:0:0:
440,56,98581,1,0,0:0:0:0:
440,56,98666,1,0,0:0:0:0:
396,236,98839,6,0,P|348:280|264:276,1,148.50000453186,10|0,0:0|0:0,0:0:0:0:
252,296,99182,1,2,0:0:0:0:
140,280,99353,1,0,0:0:0:0:
28,268,99524,1,2,0:0:0:0:
88,372,99696,1,0,0:0:0:0:
192,188,99867,6,0,L|192:60,1,116.999994644165,2|0,0:0|0:0,0:0:0:0:
316,28,100210,6,0,B|317:65|324:96|324:96|300:156|300:156|305:184|304:228,1,202.500007724762,12|2,0:0|0:0,0:0:0:0:
408,312,100896,2,0,B|272:304|272:304|302:321|328:360,1,202.500007724762,8|2,0:0|0:0,0:0:0:0:
192,312,101582,6,0,P|197:279|212:248,1,67.5000025749208,8|2,0:0|0:0,0:0:0:0:
140,212,101924,2,0,P|160:186|189:166,1,67.5000025749208,0|2,0:0|0:0,0:0:0:0:
140,104,102267,5,8,0:0:0:0:
264,128,102439,1,2,0:0:0:0:
336,32,102610,1,2,0:0:0:0:
212,56,102782,1,0,0:0:0:0:
288,244,102953,5,10,0:0:0:0:
300,264,103296,2,0,L|300:292,1,16.8750006437302
312,296,103639,1,10,0:0:0:0:
380,340,103810,1,0,0:0:0:0:
428,276,103982,2,0,L|428:196,1,67.5000025749208
464,120,104324,6,0,P|416:116|372:132,1,90,10|0,0:0|0:0,0:0:0:0:
364,112,104582,1,0,0:0:0:0:
352,96,104667,1,0,0:0:0:0:
272,180,104839,1,0,0:0:0:0:
164,48,105010,1,10,0:0:0:0:
204,52,105096,1,0,0:0:0:0:
244,56,105182,1,0,0:0:0:0:
160,172,105353,2,0,L|68:168,1,90
124,320,105696,5,14,0:0:0:0:
232,256,105867,1,2,0:0:0:0:
304,376,106039,2,0,B|256:384|256:384|196:376,1,107.999996704102,0|2,0:0|0:0,0:0:0:0:
320,284,106382,1,8,0:0:0:0:
416,340,106553,2,0,P|432:284|420:232,1,107.999996704102
336,56,106896,1,2,0:0:0:0:
336,56,107067,6,0,B|328:112|328:112|336:168,1,107.999996704102,8|2,0:0|0:0,0:0:0:0:
364,160,107324,1,0,0:0:0:0:
392,156,107410,1,0,0:0:0:0:
248,76,107582,1,2,0:0:0:0:
200,228,107753,2,0,P|256:244|308:240,1,107.999996704102,8|0,0:0|0:0,0:0:0:0:
169,139,108096,2,0,P|115:136|64:152,1,107.999996704102,0|2,0:0|0:0,0:0:0:0:
16,304,108439,6,0,B|32:308|52:304|52:304|80:320|80:320|108:304|108:304|128:308|148:304,1,135,10|0,0:0|0:0,0:0:0:0:
208,348,108782,2,0,B|252:340|252:340|312:348,1,90,2|0,0:0|0:0,0:0:0:0:
312,328,109039,1,0,0:0:0:0:
324,308,109124,2,0,B|368:316|368:316|428:308,1,90,2|0,0:0|0:0,0:0:0:0:
468,236,109467,2,0,L|464:192,1,45
376,136,109639,2,0,L|380:180,1,45,2|0,0:0|0:0,0:0:0:0:
284,240,109810,6,0,L|212:240,1,67.5,10|0,0:0|0:0,0:0:0:0:
196,220,109982,2,0,L|168:220,4,22.5,0|0|0|0|2,0:0|0:0|0:0|0:0|0:0,0:0:0:0:
128,328,110324,1,0,0:0:0:0:
52,204,110496,2,0,L|60:108,1,90,2|0,0:0|0:0,0:0:0:0:
156,60,110839,2,0,L|148:156,1,90
264,92,111182,6,0,B|292:80|320:88|316:96|344:104|372:92,1,107.999996704102,12|2,0:0|0:0,0:0:0:0:
448,208,111524,1,0,0:0:0:0:
288,188,111696,1,2,0:0:0:0:
368,344,111867,2,0,P|384:288|372:236,1,107.999996704102,8|0,0:0|0:0,0:0:0:0:
196,288,112210,1,0,0:0:0:0:
196,288,112382,6,0,L|316:288,1,107.999996704102,2|8,0:0|0:0,0:0:0:0:
232,192,112724,1,2,0:0:0:0:
120,332,112896,1,0,0:0:0:0:
236,376,113067,1,2,0:0:0:0:
124,236,113239,2,0,P|72:256|36:292,1,107.999996704102,8|0,0:0|0:0,0:0:0:0:
208,204,113582,2,0,P|216:148|203:99,1,107.999996704102,0|2,0:0|0:0,0:0:0:0:
336,40,113924,6,0,B|320:92|320:92|324:180,1,135,10|0,0:0|0:0,0:0:0:0:
372,288,114267,2,0,P|324:280|276:284,1,90,2|0,0:0|0:0,0:0:0:0:
268,304,114524,1,0,0:0:0:0:
256,324,114610,2,0,P|206:327|160:320,1,90,2|0,0:0|0:0,0:0:0:0:
92,256,114953,2,0,L|96:196,1,45
24,152,115124,2,0,L|20:92,1,45,2|0,0:0|0:0,0:0:0:0:
104,40,115296,6,0,L|176:40,1,67.5,10|0,0:0|0:0,0:0:0:0:
188,60,115467,2,0,L|220:60,4,22.5,0|0|0|0|2,0:0|0:0|0:0|0:0|0:0,0:0:0:0:
94,211,115810,1,0,0:0:0:0:
264,156,115982,2,0,L|168:152,1,90,2|0,0:0|0:0,0:0:0:0:
320,252,116324,2,0,L|180:244,1,135
188,272,116667,5,12,0:0:0:0:
280,136,116839,1,2,0:0:0:0:
288,328,117010,1,0,0:0:0:0:
168,172,117182,1,2,0:0:0:0:
348,252,117353,2,0,L|384:252,1,26.9999991760254,8|0,0:0|0:0,0:0:0:0:
188,300,117524,2,0,B|132:304|132:304|80:288,1,107.999996704102
80,124,117867,6,0,P|119:84|169:69,1,107.999996704102,2|8,0:0|0:0,0:0:0:0:
256,152,118210,1,2,0:0:0:0:
284,32,118382,2,0,L|276:144,1,107.999996704102,0|2,0:0|0:0,0:0:0:0:
344,244,118724,2,0,L|371:244,1,26.9999991760254,8|0,0:0|0:0,0:0:0:0:
192,316,118896,2,0,B|183:251|183:251|192:209,1,107.999996704102
300,128,119239,6,0,L|416:136,1,107.999996704102,2|8,0:0|0:0,0:0:0:0:
448,240,119582,1,0,0:0:0:0:
396,344,119753,2,0,P|360:320|335:249,1,107.999996704102,0|2,0:0|0:0,0:0:0:0:
220,264,120096,2,0,P|202:314|159:346,1,107.999996704102,8|0,0:0|0:0,0:0:0:0:
72,272,120439,1,0,0:0:0:0:
152,156,120610,6,0,L|136:36,1,107.999996704102,2|8,0:0|0:0,0:0:0:0:
252,188,120953,2,0,L|236:68,1,107.999996704102,2|0,0:0|0:0,0:0:0:0:
344,32,121296,1,2,0:0:0:0:
444,184,121467,1,8,0:0:0:0:
280,128,121639,1,0,0:0:0:0:
464,96,121810,1,0,0:0:0:0:
464,96,121896,2,0,L|464:248,1,107.999996704102
476,228,122153,6,0,B|432:216|432:216|368:224,1,107.999996704102,8|2,0:0|0:0,0:0:0:0:
252,296,122496,1,0,0:0:0:0:
272,160,122667,1,2,0:0:0:0:
136,108,122839,2,0,L|144:220,1,107.999996704102,8|0,0:0|0:0,0:0:0:0:
32,316,123182,1,0,0:0:0:0:
32,316,123353,6,0,L|40:204,1,107.999996704102,2|10,0:0|0:0,0:0:0:0:
152,328,123696,1,0,0:0:0:0:
252,320,123867,1,2,0:0:0:0:
352,308,124039,1,0,0:0:0:0:
464,352,124210,2,0,P|470:295|456:244,1,107.999996704102,10|0,0:0|0:0,0:0:0:0:
348,176,124553,2,0,P|334:227|341:281,1,107.999996704102
420,88,124896,6,0,B|396:88|368:73|368:73|325:87|280:84,1,135,10|0,0:0|0:0,0:0:0:0:
276,104,125239,1,0,0:0:0:0:
184,40,125410,1,0,0:0:0:0:
132,156,125582,2,0,L|152:264,1,90,2|0,0:0|0:0,0:0:0:0:
32,224,125924,2,0,L|15:135,1,90
172,256,126267,5,10,0:0:0:0:
184,252,126610,1,0,0:0:0:0:
196,248,126953,1,10,0:0:0:0:
288,216,127124,6,0,L|288:156,1,49.5000015106202
376,144,127296,2,0,L|376:204,1,49.5000015106202,10|0,0:0|0:0,0:0:0:0:
208,140,127467,2,0,L|208:88,1,49.5000015106202
356,48,127639,6,0,P|416:56|472:184,1,198.000006042481,14|0,0:0|0:0,0:0:0:0:
420,260,128153,1,0,0:0:0:0:
504,340,128324,1,10,0:0:0:0:
480,344,128410,1,0,0:0:0:0:
456,348,128496,1,2,0:0:0:0:
340,376,128667,1,0,0:0:0:0:
400,260,128839,1,2,0:0:0:0:
252,180,129010,6,0,P|266:226|260:280,1,99.0000030212403,10|0,0:0|0:0,0:0:0:0:
244,296,129267,2,0,L|136:288,1,99.0000030212403,2|0,0:0|0:0,0:0:0:0:
124,304,129524,2,0,P|48:325|-12:272,1,148.50000453186,2|0,0:0|0:0,0:0:0:0:
8,268,129867,1,2,0:0:0:0:
16,244,129953,1,0,0:0:0:0:
16,220,130039,1,10,0:0:0:0:
12,196,130124,1,0,0:0:0:0:
4,172,130210,1,2,0:0:0:0:
80,92,130382,6,0,L|184:104,1,99.0000030212403,10|0,0:0|0:0,0:0:0:0:
176,128,130639,2,0,L|274:116,1,99.0000030212403
268,92,130896,1,2,0:0:0:0:
212,224,131067,2,0,P|204:248|204:280,1,49.5000015106202,10|0,0:0|0:0,0:0:0:0:
284,372,131239,2,0,P|267:353|239:337,1,49.5000015106202
120,356,131410,2,0,P|144:350|172:334,1,49.5000015106202,2|0,0:0|0:0,0:0:0:0:
212,224,131582,2,0,P|204:248|204:280,1,49.5000015106202
344,312,131753,5,10,0:0:0:0:
344,288,131839,1,0,0:0:0:0:
344,264,131924,1,0,0:0:0:0:
448,136,132096,2,0,P|432:156|408:172,1,49.5000015106202
344,64,132267,2,0,L|344:113,1,49.5000015106202,2|0,0:0|0:0,0:0:0:0:
244,132,132439,2,0,P|260:152|284:168,1,49.5000015106202,8|0,0:0|0:0,0:0:0:0:
148,220,132610,1,0,0:0:0:0:
156,196,132696,1,0,0:0:0:0:
160,172,132782,1,2,0:0:0:0:
68,100,132953,1,0,0:0:0:0:
20,256,133124,6,0,P|37:305|96:348,1,116.999994644165,14|0,0:0|0:0,0:0:0:0:
180,288,133467,2,0,B|192:292|192:292|219:288|219:288|236:280|236:280|252:288|252:288|280:292|280:292|292:288,1,116.999994644165,2|0,0:0|0:0,0:0:0:0:
392,340,133810,5,10,0:0:0:0:
400,320,133896,1,0,0:0:0:0:
464,284,133982,1,2,0:0:0:0:
456,264,134068,1,0,0:0:0:0:
400,216,134153,2,0,P|392:168|404:120,1,99.0000030212403
328,64,134496,6,0,L|300:64,1,24.7500007553101,10|10,0:0|0:0,0:0:0:0:
212,144,134667,2,0,L|240:144,1,24.7500007553101,2|0,0:0|0:0,0:0:0:0:
144,48,134839,1,0,0:0:0:0:
164,228,135010,1,0,0:0:0:0:
8,160,135182,1,10,0:0:0:0:
174,124,135353,2,0,L|278:124,1,99.0000030212403,2|0,0:0|0:0,0:0:0:0:
356,200,135696,1,0,0:0:0:0:
460,100,135867,6,0,L|476:200,1,99.0000030212403,10|0,0:0|0:0,0:0:0:0:
473,222,136124,1,0,0:0:0:0:
469,246,136210,1,2,0:0:0:0:
368,336,136382,1,0,0:0:0:0:
288,204,136553,2,0,L|344:200,1,49.5000015106202,10|0,0:0|0:0,0:0:0:0:
232,288,136724,2,0,L|284:284,1,49.5000015106202
140,288,136896,2,0,L|88:284,1,49.5000015106202,2|0,0:0|0:0,0:0:0:0:
84,204,137068,2,0,L|32:200,1,49.5000015106202
188,120,137239,5,10,0:0:0:0:
192,100,137324,1,0,0:0:0:0:
192,76,137410,1,2,0:0:0:0:
188,52,137496,1,0,0:0:0:0:
104,24,137582,5,0,0:0:0:0:
111,40,137668,1,0,0:0:0:0:
114,59,137754,1,2,0:0:0:0:
114,79,137840,1,0,0:0:0:0:
80,152,137924,6,0,P|77:197|92:248,1,99.0000030212403,10|2,0:0|0:0,0:0:0:0:
112,240,138182,1,0,0:0:0:0:
132,232,138267,1,0,0:0:0:0:
216,312,138439,1,2,0:0:0:0:
312,220,138610,6,0,P|319:144|300:88,1,135,14|0,0:0|0:0,0:0:0:0:
288,68,138953,1,0,0:0:0:0:
408,132,139124,1,2,0:0:0:0:
240,184,139296,2,0,L|148:180,1,90,2|0,0:0|0:0,0:0:0:0:
72,92,139639,2,0,L|164:88,1,90
88,248,139982,6,0,P|100:328|188:356,1,180,10|0,0:0|0:0,0:0:0:0:
320,284,140496,1,2,0:0:0:0:
316,260,140582,1,0,0:0:0:0:
312,236,140667,1,2,0:0:0:0:
408,336,140839,1,0,0:0:0:0:
224,280,141010,1,2,0:0:0:0:
376,160,141182,1,0,0:0:0:0:
184,96,141353,6,0,L|188:192,1,90,14|0,0:0|0:0,0:0:0:0:
84,64,141696,2,0,L|80:160,1,90
203,201,142039,6,0,L|200:112,1,90,8|0,0:0|0:0,0:0:0:0:
64,137,142382,2,0,L|68:48,1,90
336,96,142724,6,0,L|332:192,1,90,8|0,0:0|0:0,0:0:0:0:
436,64,143067,2,0,L|440:160,1,90
317,201,143410,6,0,L|320:111,1,90,8|0,0:0|0:0,0:0:0:0:
456,137,143753,2,0,L|452:47,1,90
488,288,144096,6,0,B|440:268|440:268|356:288,1,135,14|0,0:0|0:0,0:0:0:0:
364,308,144439,1,0,0:0:0:0:
256,216,144610,1,2,0:0:0:0:
176,352,144782,2,0,L|80:344,1,90,2|0,0:0|0:0,0:0:0:0:
152,264,145124,2,0,L|56:256,1,90,2|0,0:0|0:0,0:0:0:0:
16,128,145467,6,0,P|68:72|176:88,1,180,10|0,0:0|0:0,0:0:0:0:
280,160,145982,1,2,0:0:0:0:
276,184,146067,1,0,0:0:0:0:
272,208,146153,1,2,0:0:0:0:
180,96,146324,1,0,0:0:0:0:
368,136,146496,1,2,0:0:0:0:
232,272,146667,1,0,0:0:0:0:
320,64,146839,6,0,P|360:52|408:60,1,90,14|0,0:0|0:0,0:0:0:0:
460,156,147182,2,0,P|420:168|372:160,1,90
308,47,147524,6,0,P|350:35|394:43,1,90,8|0,0:0|0:0,0:0:0:0:
471,172,147867,2,0,P|429:184|385:176,1,90
192,64,148210,6,0,P|152:52|104:60,1,90,8|0,0:0|0:0,0:0:0:0:
52,156,148553,2,0,P|92:168|140:160,1,90
203,47,148895,6,0,P|161:35|117:43,1,90,8|0,0:0|0:0,0:0:0:0:
40,172,149238,2,0,P|82:184|126:176,1,90
208,324,149582,6,0,L|208:228,1,90,14|0,0:0|0:0,0:0:0:0:
312,160,149924,1,2,0:0:0:0:
392,284,150096,2,0,P|344:292|300:284,1,90,2|0,0:0|0:0,0:0:0:0:
416,184,150439,1,2,0:0:0:0:
400,364,150610,1,2,0:0:0:0:
488,252,150782,1,0,0:0:0:0:
316,304,150953,6,0,B|268:244|276:176|276:176|320:192,1,180,10|0,0:0|0:0,0:0:0:0:
376,96,151467,1,2,0:0:0:0:
244,48,151639,2,0,P|198:70|166:109,1,90,2|0,0:0|0:0,0:0:0:0:
76,56,151982,2,0,P|59:104|64:153,1,90,2|0,0:0|0:0,0:0:0:0:
116,232,152324,6,0,B|160:224|160:224|204:232,1,90,14|0,0:0|0:0,0:0:0:0:
136,332,152667,2,0,B|92:340|92:340|48:332,1,90
216,212,153010,6,0,B|172:204|172:204|128:212,1,90,8|0,0:0|0:0,0:0:0:0:
40,352,153353,2,0,B|84:360|84:360|128:352,1,90
396,232,153696,6,0,B|352:224|352:224|308:232,1,90,8|0,0:0|0:0,0:0:0:0:
376,332,154039,2,0,B|420:340|420:340|464:332,1,90
296,212,154382,6,0,B|340:204|340:204|384:212,1,90,8|0,0:0|0:0,0:0:0:0:
472,352,154725,2,0,B|428:360|428:360|384:352,1,90,2|0,0:0|0:0,0:0:0:0:
256,276,155067,6,0,L|256:140,1,135,14|0,0:0|0:0,0:0:0:0:
276,128,155410,1,0,0:0:0:0:
184,88,155582,1,0,0:0:0:0:
92,48,155753,2,0,L|96:140,1,90,2|0,0:0|0:0,0:0:0:0:
48,232,156096,2,0,P|87:251|132:253,1,90,2|0,0:0|0:0,0:0:0:0:
232,300,156439,6,0,P|156:288|88:356,1,180,10|0,0:0|0:0,0:0:0:0:
256,320,156953,1,2,0:0:0:0:
252,296,157039,1,0,0:0:0:0:
248,272,157124,2,0,L|256:180,1,90,2|0,0:0|0:0,0:0:0:0:
352,144,157467,2,0,L|344:236,1,90,2|0,0:0|0:0,0:0:0:0:
208,72,157810,5,14,0:0:0:0:
380,148,157982,1,0,0:0:0:0:
244,228,158153,1,0,0:0:0:0:
320,56,158325,1,0,0:0:0:0:
348,260,158496,5,10,0:0:0:0:
152,172,158667,1,0,0:0:0:0:
352,140,158839,1,0,0:0:0:0:
244,320,159010,1,0,0:0:0:0:
68,200,159182,6,0,P|68:156|88:112,1,90,14|0,0:0|0:0,0:0:0:0:
236,144,159524,2,0,P|236:188|216:232,1,90,2|0,0:0|0:0,0:0:0:0:
172,56,159867,2,0,L|276:48,1,90,10|0,0:0|0:0,0:0:0:0:
320,260,160210,2,0,L|216:252,1,90,2|0,0:0|0:0,0:0:0:0:
384,104,160553,5,10,0:0:0:0:
392,120,160896,1,0,0:0:0:0:
400,136,161239,1,2,0:0:0:0:
408,152,161582,6,0,B|400:184|408:213|415:213|424:236|408:280,1,116.999994644165,8|0,0:0|0:0,0:0:0:0:
352,336,161924,5,14,0:0:0:0:
328,348,162010,1,0,0:0:0:0:
304,352,162096,1,0,0:0:0:0:
280,348,162182,1,0,0:0:0:0:
260,336,162267,2,0,L|212:336,3,36
96,260,162610,5,8,0:0:0:0:
120,272,162696,1,0,0:0:0:0:
144,276,162782,1,0,0:0:0:0:
168,272,162868,1,0,0:0:0:0:
188,260,162953,2,0,L|236:260,3,36,2|0|0|0,0:0|0:0|0:0|0:0,0:0:0:0:
356,200,163296,5,10,0:0:0:0:
352,176,163382,1,0,0:0:0:0:
348,152,163467,1,0,0:0:0:0:
344,128,163553,1,0,0:0:0:0:
340,104,163639,2,0,L|336:68,3,36
223,128,163982,5,8,0:0:0:0:
219,152,164068,1,0,0:0:0:0:
215,176,164153,1,0,0:0:0:0:
211,200,164239,1,0,0:0:0:0:
207,224,164325,2,0,L|203:260,3,36,2|0|0|0,0:0|0:0|0:0|0:0,0:0:0:0:
20,240,164667,5,10,0:0:0:0:
24,216,164753,1,0,0:0:0:0:
28,192,164839,1,0,0:0:0:0:
44,176,164924,1,0,0:0:0:0:
64,160,165010,2,0,L|108:160,3,36
204,56,165353,5,8,0:0:0:0:
200,80,165439,1,0,0:0:0:0:
196,104,165525,1,0,0:0:0:0:
180,120,165610,1,0,0:0:0:0:
160,136,165696,2,0,L|116:136,3,36,2|0|0|0,0:0|0:0|0:0|0:0,0:0:0:0:
208,256,166039,5,10,0:0:0:0:
232,256,166124,1,0,0:0:0:0:
256,252,166210,1,0,0:0:0:0:
280,244,166296,1,0,0:0:0:0:
308,244,166382,2,0,L|348:244,3,36
452,144,166724,5,8,0:0:0:0:
428,144,166809,1,0,0:0:0:0:
404,140,166895,1,0,0:0:0:0:
380,132,166981,1,0,0:0:0:0:
352,132,167067,2,0,L|312:132,3,36,2|0|0|0,0:0|0:0|0:0|0:0,0:0:0:0:
256,252,167410,6,0,L|268:340,1,72,14|0,0:0|0:0,0:0:0:0:
168,236,167667,1,0,0:0:0:0:
168,236,167753,2,0,L|176:308,1,72,8|0,0:0|0:0,0:0:0:0:
87,180,168010,5,0,0:0:0:0:
87,180,168096,2,0,L|75:268,1,72,8|0,0:0|0:0,0:0:0:0:
175,164,168353,1,0,0:0:0:0:
175,164,168439,2,0,L|167:236,1,72,10|0,0:0|0:0,0:0:0:0:
276,284,168696,5,0,0:0:0:0:
276,284,168782,2,0,P|308:288|352:284,1,72,10|0,0:0|0:0,0:0:0:0:
400,200,169038,1,0,0:0:0:0:
400,200,169124,2,0,P|368:196|324:200,1,72,8|0,0:0|0:0,0:0:0:0:
188,96,169381,5,0,0:0:0:0:
188,95,169467,2,0,P|223:91|259:95,1,72,8|0,0:0|0:0,0:0:0:0:
312,180,169723,1,0,0:0:0:0:
311,180,169809,2,0,P|276:184|240:180,1,72,10|0,0:0|0:0,0:0:0:0:
160,284,170067,5,0,0:0:0:0:
160,284,170153,2,0,L|72:284,1,72,10|0,0:0|0:0,0:0:0:0:
184,200,170410,1,0,0:0:0:0:
184,200,170496,2,0,L|272:200,1,72,8|0,0:0|0:0,0:0:0:0:
308,328,170753,5,0,0:0:0:0:
308,328,170839,2,0,L|220:328,1,72,8|0,0:0|0:0,0:0:0:0:
332,244,171096,1,0,0:0:0:0:
332,244,171182,2,0,L|420:244,1,72,10|0,0:0|0:0,0:0:0:0:
472,168,171439,5,0,0:0:0:0:
472,168,171524,2,0,L|472:112,1,36,10|0,0:0|0:0,0:0:0:0:
400,80,171696,2,0,L|400:24,1,36,8|0,0:0|0:0,0:0:0:0:
456,152,171867,2,0,L|456:96,1,36,8|0,0:0|0:0,0:0:0:0:
384,64,172039,2,0,L|384:8,1,36,8|0,0:0|0:0,0:0:0:0:
300,148,172210,5,8,0:0:0:0:
272,164,172296,1,0,0:0:0:0:
240,164,172382,1,8,0:0:0:0:
212,152,172467,1,0,0:0:0:0:
196,124,172553,2,0,L|164:124,7,22.5,10|0|0|0|0|0|0|0,0:0|0:0|0:0|0:0|0:0|0:0|0:0|0:0,0:0:0:0:
132,52,172896,6,2,P|104:80|304:252,1,431.999986816407,4|10,0:0|0:0,0:0:0:0:
412,192,174439,5,0,0:0:0:0:
416,168,174524,1,0,0:0:0:0:
420,144,174610,1,0,0:0:0:0:
476,272,174782,1,0,0:0:0:0:
324,168,174953,2,0,P|278:157|232:168,1,90,2|0,0:0|0:0,0:0:0:0:
232,316,175296,2,0,P|277:326|324:316,1,90
264,240,175639,6,0,L|156:236,1,107.999996704102,12|2,0:0|0:0,0:0:0:0:
60,336,175982,2,0,P|68:273|60:228,1,107.999996704102,0|2,0:0|0:0,0:0:0:0:
40,104,176324,1,8,0:0:0:0:
176,160,176496,1,0,0:0:0:0:
152,8,176667,1,0,0:0:0:0:
188,180,176839,6,0,L|296:176,1,107.999996704102,2|8,0:0|0:0,0:0:0:0:
368,100,177182,1,2,0:0:0:0:
364,72,177267,1,0,0:0:0:0:
360,44,177353,1,0,0:0:0:0:
476,128,177524,1,2,0:0:0:0:
428,248,177696,2,0,P|384:284|336:293,1,107.999996704102,8|0,0:0|0:0,0:0:0:0:
192,324,178039,2,0,P|244:334|284:369,1,107.999996704102,0|2,0:0|0:0,0:0:0:0:
88,336,178382,6,0,B|96:292|76:268|76:268|68:232|88:200,1,135,10|0,0:0|0:0,0:0:0:0:
152,140,178724,2,0,L|252:148,1,90,2|0,0:0|0:0,0:0:0:0:
252,168,178982,1,0,0:0:0:0:
264,188,179067,2,0,L|353:180,1,90,2|0,0:0|0:0,0:0:0:0:
464,132,179410,2,0,P|466:113|464:88,1,45
368,200,179582,2,0,P|366:219|368:244,1,45,2|2,0:0|0:0,0:0:0:0:
456,336,179753,6,0,L|384:332,1,67.5,10|0,0:0|0:0,0:0:0:0:
376,352,179924,2,0,L|336:356,4,22.5,0|0|0|0|2,0:0|0:0|0:0|0:0|0:0,0:0:0:0:
256,364,180267,1,0,0:0:0:0:
184,280,180439,2,0,P|183:233|196:176,1,90,2|0,0:0|0:0,0:0:0:0:
84,208,180782,2,0,P|94:164|113:123,1,90
196,44,181124,6,0,B|224:52|252:48|252:40|277:34|304:44,1,107.999996704102,12|2,0:0|0:0,0:0:0:0:
376,120,181467,1,0,0:0:0:0:
456,24,181639,1,2,0:0:0:0:
420,200,181810,2,0,P|364:208|316:188,1,107.999996704102,8|0,0:0|0:0,0:0:0:0:
476,128,182153,1,0,0:0:0:0:
472,300,182324,6,0,L|364:308,1,107.999996704102,2|8,0:0|0:0,0:0:0:0:
260,256,182667,1,2,0:0:0:0:
196,360,182839,2,0,B|248:372|248:372|304:368,1,107.999996704102,0|2,0:0|0:0,0:0:0:0:
168,260,183182,2,0,P|112:299|91:359,1,107.999996704102,8|0,0:0|0:0,0:0:0:0:
12,236,183524,2,0,L|12:124,1,107.999996704102,0|2,0:0|0:0,0:0:0:0:
112,52,183867,6,0,B|195:43|195:43|248:60,1,135,10|0,0:0|0:0,0:0:0:0:
312,124,184210,2,0,B|301:167|301:167|304:216,1,90,2|0,0:0|0:0,0:0:0:0:
312,236,184467,1,0,0:0:0:0:
300,256,184553,2,0,B|288:300|288:300|292:348,1,90,2|0,0:0|0:0,0:0:0:0:
412,380,184896,2,0,P|408:357|400:336,1,45
472,292,185067,2,0,P|457:274|439:259,1,45,2|2,0:0|0:0,0:0:0:0:
492,168,185239,6,0,L|420:168,1,67.5,10|0,0:0|0:0,0:0:0:0:
408,152,185410,2,0,L|376:152,4,22.5,0|0|0|0|2,0:0|0:0|0:0|0:0|0:0,0:0:0:0:
468,60,185753,1,0,0:0:0:0:
316,16,185924,2,0,L|324:108,1,90,2|0,0:0|0:0,0:0:0:0:
264,220,186267,2,0,P|256:152|204:116,1,135
184,132,186610,5,12,0:0:0:0:
344,120,186782,1,2,0:0:0:0:
160,224,186953,1,0,0:0:0:0:
388,208,187124,1,2,0:0:0:0:
272,320,187296,2,0,L|272:368,1,26.9999991760254,8|0,0:0|0:0,0:0:0:0:
308,176,187467,2,0,L|296:68,1,107.999996704102
116,68,187810,6,0,P|92:120|108:196,1,107.999996704102,2|8,0:0|0:0,0:0:0:0:
160,264,188153,1,2,0:0:0:0:
296,148,188324,2,0,L|184:160,1,107.999996704102,0|2,0:0|0:0,0:0:0:0:
280,288,188667,2,0,L|280:336,1,26.9999991760254,8|0,0:0|0:0,0:0:0:0:
392,356,188839,2,0,P|402:299|392:248,1,107.999996704102
404,120,189182,6,0,B|364:108|364:108|296:120,1,107.999996704102,2|8,0:0|0:0,0:0:0:0:
200,56,189524,1,0,0:0:0:0:
172,180,189696,2,0,L|176:68,1,107.999996704102,0|2,0:0|0:0,0:0:0:0:
76,144,190039,2,0,L|72:32,1,107.999996704102,8|0,0:0|0:0,0:0:0:0:
192,168,190382,1,0,0:0:0:0:
140,288,190553,6,0,P|84:292|28:272,1,107.999996704102,2|8,0:0|0:0,0:0:0:0:
208,192,190896,2,0,P|264:188|320:208,1,107.999996704102
376,304,191239,1,2,0:0:0:0:
432,136,191410,1,8,0:0:0:0:
492,280,191582,1,0,0:0:0:0:
316,180,191753,1,0,0:0:0:0:
316,180,191839,2,0,P|308:120|319:72,1,107.999996704102
308,52,192096,6,0,L|200:60,1,107.999996704102,8|2,0:0|0:0,0:0:0:0:
144,204,192439,1,0,0:0:0:0:
212,80,192610,1,2,0:0:0:0:
60,28,192782,2,0,P|52:79|64:140,1,107.999996704102,8|0,0:0|0:0,0:0:0:0:
132,224,193124,1,0,0:0:0:0:
264,120,193296,6,0,B|212:112|212:112|156:120,1,107.999996704102,2|8,0:0|0:0,0:0:0:0:
224,224,193639,2,0,B|276:232|276:232|332:224,1,107.999996704102,2|0,0:0|0:0,0:0:0:0:
376,132,193982,1,2,0:0:0:0:
232,256,194153,2,0,L|124:252,1,107.999996704102,8|0,0:0|0:0,0:0:0:0:
208,360,194496,1,0,0:0:0:0:
316,344,194667,1,2,0:0:0:0:
424,324,194839,6,0,B|415:290|415:290|420:236,1,90,8|0,0:0|0:0,0:0:0:0:
484,148,195182,1,0,0:0:0:0:
364,112,195353,1,2,0:0:0:0:
340,116,195439,1,0,0:0:0:0:
320,120,195524,1,8,0:0:0:0:
428,28,195696,1,0,0:0:0:0:
244,72,195867,2,0,P|235:116|244:172,1,90,0|2,0:0|0:0,0:0:0:0:
136,304,196382,5,10,0:0:0:0:
136,304,196724,1,2,0:0:0:0:
136,304,197067,1,10,0:0:0:0:
136,304,197410,1,2,0:0:0:0:
236,296,197582,5,8,0:0:0:0:
300,372,197753,1,2,0:0:0:0:
372,260,197924,1,8,0:0:0:0:
368,236,198010,1,0,0:0:0:0:
364,212,198096,1,2,0:0:0:0:
360,188,198182,1,0,0:0:0:0:
356,164,198267,6,0,P|304:152|252:168,1,101.250003862381,8|0,0:0|0:0,0:0:0:0:
268,188,198610,6,0,B|212:200|212:200|128:188,1,135
144,164,198953,5,14,0:0:0:0:
72,276,199124,1,0,0:0:0:0:
80,300,199210,1,0,0:0:0:0:
88,324,199296,1,2,0:0:0:0:
244,328,199467,1,0,0:0:0:0:
252,304,199553,1,0,0:0:0:0:
260,280,199639,2,0,P|300:260|372:264,1,99.0000030212403,10|0,0:0|0:0,0:0:0:0:
424,364,199982,2,0,P|374:363|330:343,1,99.0000030212403
356,180,200324,5,10,0:0:0:0:
356,156,200410,1,0,0:0:0:0:
356,132,200496,1,0,0:0:0:0:
356,108,200582,1,0,0:0:0:0:
356,84,200667,2,0,B|400:64|400:64|460:64,1,99.0000030212403,2|0,0:0|0:0,0:0:0:0:
332,168,201010,2,0,L|224:168,1,99.0000030212403,10|0,0:0|0:0,0:0:0:0:
120,96,201353,1,0,0:0:0:0:
164,224,201524,1,0,0:0:0:0:
56,300,201696,5,10,0:0:0:0:
52,276,201782,1,0,0:0:0:0:
48,252,201867,1,0,0:0:0:0:
44,228,201953,1,0,0:0:0:0:
60,208,202039,5,2,0:0:0:0:
56,184,202124,1,0,0:0:0:0:
52,160,202210,1,0,0:0:0:0:
48,136,202296,1,0,0:0:0:0:
108,80,202382,5,10,0:0:0:0:
132,88,202467,1,0,0:0:0:0:
156,88,202553,1,0,0:0:0:0:
180,80,202639,1,0,0:0:0:0:
200,92,202724,5,0,0:0:0:0:
224,84,202809,1,0,0:0:0:0:
248,84,202895,1,0,0:0:0:0:
272,92,202981,1,0,0:0:0:0:
332,148,203067,6,0,L|380:136,2,49.5000015106202,10|0|0,0:0|0:0|0:0,0:0:0:0:
260,304,203410,1,2,0:0:0:0:
260,280,203495,1,0,0:0:0:0:
260,256,203581,1,0,0:0:0:0:
260,232,203667,1,0,0:0:0:0:
260,208,203753,2,0,P|211:196|160:204,1,99.0000030212403,10|0,0:0|0:0,0:0:0:0:
60,256,204010,1,0,0:0:0:0:
60,256,204096,2,0,L|60:144,1,99.0000030212403,2|0,0:0|0:0,0:0:0:0:
208,44,204439,6,0,L|324:52,1,99.0000030212403,10|0,0:0|0:0,0:0:0:0:
376,180,204782,1,0,0:0:0:0:
432,32,204953,1,0,0:0:0:0:
288,132,205124,2,0,P|276:184|288:228,1,99.0000030212403,10|0,0:0|0:0,0:0:0:0:
464,224,205467,2,0,P|476:172|464:128,1,99.0000030212403
376,320,205810,5,10,0:0:0:0:
352,328,205896,1,0,0:0:0:0:
328,336,205982,2,0,L|276:332,1,49.5000015106202
200,272,206153,2,0,P|152:264|100:272,1,99.0000030212403,2|0,0:0|0:0,0:0:0:0:
16,160,206496,6,0,L|28:52,1,99.0000030212403,10|0,0:0|0:0,0:0:0:0:
104,24,206753,1,0,0:0:0:0:
168,80,206839,2,0,L|156:188,1,99.0000030212403
364,124,207182,6,0,P|312:119|265:124,1,99.0000030212403,10|0,0:0|0:0,0:0:0:0:
415,232,207524,2,0,P|366:236|317:232,1,99.0000030212403
464,104,207867,1,10,0:0:0:0:
428,256,208039,1,0,0:0:0:0:
352,108,208210,1,0,0:0:0:0:
512,252,208382,6,0,P|497:301|448:340,1,99.0000030212403,0|10,0:0|0:0,0:0:0:0:
284,348,208724,2,0,B|332:340|332:340|383:348,1,99.0000030212403
240,232,209067,1,2,0:0:0:0:
176,368,209239,1,10,0:0:0:0:
176,368,209324,1,0,0:0:0:0:
176,368,209410,1,0,0:0:0:0:
100,200,209582,1,4,0:0:0:0:
