osu file format v14

[General]
AudioFilename: Children.mp3
AudioLeadIn: 0
PreviewTime: 50839
Countdown: 0
SampleSet: Normal
StackLeniency: 0.2
Mode: 0
LetterboxInBreaks: 1
WidescreenStoryboard: 1

[Editor]
Bookmarks: 59753,60439,61124,78267,90267,90610,91639,91982,93010,93353,94382,94724,97810,98324,98839,106382,107067,107753,108267,138610,141353,144096,146839,149582,152324,168782,170153,171524,172210,193296,193639,201353,202382,202724,203410,204096
DistanceSpacing: 1.2
BeatDivisor: 4
GridSize: 32
TimelineZoom: 3.799998

[Metadata]
Title:Okochama Sensou
TitleUnicode:おこちゃま戦争
Artist:kradness&Reol
ArtistUnicode:kradness&れをる
Creator:Kalindraz
Version:Net0's Reading Sensou
Source:
Tags:Giga-p,Len,Rin Kagamine,Marianna,TG,Children's War
BeatmapID:1192179
BeatmapSetID:155252

[Difficulty]
HPDrainRate:4
CircleSize:3.2
OverallDifficulty:7
ApproachRate:9
SliderMultiplier:2.5
SliderTickRate:1

[Events]
//Background and Video events
0,0,"BG.png",0,0
//Break Periods
//Storyboard Layer 0 (Background)
//Storyboard Layer 1 (Fail)
//Storyboard Layer 2 (Pass)
//Storyboard Layer 3 (Foreground)
//Storyboard Sound Samples

[TimingPoints]
5582,342.857142857143,4,1,3,73,1,0
5582,-500,4,1,3,73,0,0
5753,-200,4,1,3,73,0,0
6781,-66.6666666666667,4,1,3,73,0,0
6910,-66.6666666666667,4,1,3,73,0,0
6953,-100,4,1,3,73,0,0
10039,-66.6666666666667,4,1,3,73,0,0
10167,-100,4,1,3,73,0,0
10210,-100,4,1,3,73,0,0
12096,-66.6666666666667,4,1,3,73,0,0
12210,-66.6666666666667,4,1,3,73,0,0
12267,-52.6315789473684,4,1,3,73,0,0
12382,-52.6315789473684,4,1,3,73,0,0
12439,-100,4,1,2,75,0,0
17924,-500,4,1,0,75,0,0
18524,-200,4,2,2,5,0,0
18610,-370,4,1,0,74,0,0
19210,-166.666666666667,4,2,2,5,0,0
19296,-225.857142857143,4,1,0,73,0,0
19896,-142.857142857143,4,2,2,5,0,0
19982,-138.857142857143,4,1,0,76,0,0
20582,-125,4,2,2,5,0,0
20667,-125,4,1,3,72,0,0
22896,-100,4,3,0,82,0,0
23410,-100,4,1,3,82,0,0
28211,-100,4,3,0,94,0,0
28810,-100,4,3,0,94,0,0
28896,-100,4,1,3,77,0,0
33011,-100,4,1,3,49,0,0
33868,-100,4,3,0,84,0,0
34210,-66.6666666666667,4,3,0,84,0,0
34382,-100,4,1,3,77,0,0
35410,-62.5,4,1,19,86,0,0
35753,-100,4,1,2,83,0,0
35924,-100,4,1,3,83,0,0
36782,-62.5,4,1,19,83,0,0
37124,-100,4,1,2,83,0,0
38153,-100,4,1,19,83,0,0
38324,-100,4,1,3,83,0,0
39696,-100,4,2,1,83,0,0
39867,-100,4,1,3,83,0,0
44839,-83.3333333333333,4,3,0,83,0,0
45353,-200,4,1,3,73,0,0
50667,-66.6666666666667,4,1,3,73,0,0
50753,-66.6666666666667,4,1,3,73,0,0
50839,-76.9230769230769,4,1,2,74,0,1
53410,-62.5,4,1,2,74,0,1
53582,-133.333333333333,4,3,0,74,0,0
54267,-66.6666666666667,4,3,0,74,0,0
54353,-133.333333333333,4,3,0,74,0,0
54953,-66.6666666666667,4,3,0,74,0,0
55039,-133.333333333333,4,3,0,74,0,0
55639,-66.6666666666667,4,3,0,74,0,0
55724,-133.333333333333,4,3,0,74,0,0
56324,-76.9230769230769,4,1,2,75,0,1
58896,-62.5,4,1,2,75,0,1
59067,-133.333333333333,4,3,0,76,0,0
59753,-66.6666666666667,4,3,0,76,0,0
59839,-133.333333333333,4,3,0,76,0,0
60439,-66.6666666666667,4,3,0,76,0,0
60524,-133.333333333333,4,3,0,76,0,0
61124,-66.6666666666667,4,3,0,76,0,0
61210,-133.333333333333,4,3,0,76,0,0
61810,-90.9090909090909,4,1,2,76,0,1
70039,-100,4,1,3,76,0,0
72267,-71.4285714285714,4,1,0,76,0,0
72782,-100,4,1,3,83,0,1
72824,-100,4,1,3,71,0,0
81010,-90.9090909090909,4,2,0,73,0,0
83753,-100,4,1,3,76,0,0
88896,-76.9230769230769,4,1,3,76,0,0
89239,-100,4,1,3,76,0,0
90267,-76.9230769230769,4,1,3,76,0,0
90610,-100,4,1,3,76,0,0
91639,-76.9230769230769,4,1,3,76,0,0
91982,-100,4,1,3,76,0,0
93010,-76.9230769230769,4,1,3,76,0,0
93353,-100,4,1,3,76,0,0
94382,-76.9230769230769,4,1,3,76,0,0
94724,-100,4,1,3,76,0,0
96096,-166.666666666667,4,1,3,76,0,0
96439,-125,4,1,3,76,0,0
96782,-100,4,1,3,76,0,0
97124,-83.3333333333333,4,1,3,76,0,0
97382,-95.2380952380951,4,1,0,5,0,0
97467,-100,4,1,3,74,0,0
100210,-200,4,1,3,76,0,0
105524,-66.6666666666667,4,1,3,76,0,0
105696,-76.9230769230769,4,1,3,66,0,1
105739,-76.9230769230769,4,1,2,66,0,1
108267,-62.5,4,1,2,66,0,1
108439,-133.333333333333,4,3,0,66,0,0
109124,-66.6666666666667,4,3,0,66,0,0
109210,-133.333333333333,4,3,0,66,0,0
109810,-66.6666666666667,4,3,0,66,0,0
109896,-133.333333333333,4,3,0,66,0,0
110496,-66.6666666666667,4,3,0,66,0,0
110582,-133.333333333333,4,3,0,66,0,0
111182,-76.9230769230769,4,1,3,66,0,1
113753,-62.5,4,1,3,66,0,1
113924,-133.333333333333,4,3,0,69,0,0
114610,-66.6666666666667,4,3,0,69,0,0
114696,-133.333333333333,4,3,0,69,0,0
115296,-66.6666666666667,4,3,0,69,0,0
115382,-133.333333333333,4,3,0,69,0,0
115982,-66.6666666666667,4,3,0,69,0,0
116067,-133.333333333333,4,3,0,69,0,0
116667,-76.9230769230769,4,1,3,66,0,1
116710,-76.9230769230769,4,1,2,66,0,1
122153,-76.9230769230769,4,1,3,66,0,1
122196,-76.9230769230769,4,1,2,66,0,1
124896,-100,4,1,3,66,0,0
127124,-62.5,4,1,3,66,0,0
127639,-66.6666666666667,4,1,3,66,0,1
127682,-66.6666666666667,4,1,3,66,0,0
127982,-71.4285714285714,4,1,3,66,0,0
129010,-100,4,1,3,66,0,0
130382,-66.6666666666667,4,1,3,66,0,0
133124,-72.992700729927,4,1,3,66,0,0
133382,-100,4,1,3,66,0,0
134324,-133.333333333333,4,1,3,66,0,0
134839,-100,4,1,3,66,0,0
138610,-125,4,1,2,66,0,0
138953,-125,4,1,2,83,0,0
139296,-125,4,1,2,51,0,0
139982,-125,4,1,2,83,0,0
140153,-125,4,1,2,51,0,0
140496,-125,4,1,2,83,0,0
141267,-125,4,1,2,51,0,0
141439,-125,4,1,2,83,0,0
141524,-125,4,1,2,51,0,0
142639,-125,4,1,2,83,0,0
142810,-125,4,1,2,51,0,0
144010,-125,4,1,2,83,0,0
144267,-125,4,1,2,51,0,0
145296,-125,4,1,2,83,0,0
146753,-125,4,1,2,83,0,0
146924,-125,4,1,2,51,0,0
148296,-125,4,1,2,52,0,0
149582,-125,4,1,2,83,0,0
149924,-125,4,1,2,51,0,0
150096,-125,4,1,2,81,0,0
150610,-125,4,1,2,81,0,0
150953,-125,4,1,2,51,0,0
152239,-125,4,1,2,81,0,0
152410,-125,4,1,2,51,0,0
153610,-125,4,1,2,81,0,0
153782,-125,4,1,2,51,0,0
154982,-125,4,1,2,81,0,0
155153,-125,4,1,2,51,0,0
156353,-125,4,1,2,81,0,0
156524,-125,4,1,2,51,0,0
157724,-125,4,1,2,81,0,0
157896,-125,4,1,2,51,0,0
159182,-125,4,1,2,73,0,0
160724,-125,4,2,2,5,0,0
160896,-125,4,1,2,73,0,0
161067,-125,4,2,2,5,0,0
161239,-125,4,1,2,73,0,0
161410,-125,4,2,2,5,0,0
161582,-100,4,1,3,66,0,0
161753,-100,4,1,3,66,0,0
161839,-100,4,1,3,5,0,0
161924,-74.0740740740741,4,1,3,70,0,0
167410,-76.9230769230769,4,1,3,70,0,0
172896,-500,4,2,0,70,0,0
174267,-100,4,2,0,5,0,0
174439,-100,4,1,3,75,0,0
175467,-66.6666666666667,4,1,3,75,0,0
175639,-76.9230769230769,4,1,3,70,0,1
178210,-62.5,4,1,3,70,0,1
178382,-133.333333333333,4,1,3,80,0,1
179067,-66.6666666666667,4,1,3,80,0,1
179153,-133.333333333333,4,1,3,80,0,1
179753,-66.6666666666667,4,1,3,80,0,1
179839,-133.333333333333,4,1,3,80,0,1
180439,-66.6666666666667,4,1,3,80,0,1
180524,-133.333333333333,4,1,3,80,0,1
181124,-76.9230769230769,4,1,3,70,0,1
181167,-76.9230769230769,4,1,2,70,0,1
183696,-62.5,4,1,2,70,0,1
183867,-133.333333333333,4,1,3,70,0,1
183910,-133.333333333333,4,1,2,70,0,1
184553,-66.6666666666667,4,1,2,70,0,1
184639,-133.333333333333,4,1,2,70,0,1
185239,-66.6666666666667,4,1,3,70,0,1
185282,-66.6666666666667,4,1,2,70,0,1
185324,-133.333333333333,4,1,2,70,0,1
185924,-66.6666666666667,4,1,2,70,0,1
186267,-57.1428571428571,4,1,2,70,0,1
186610,-83.3333333333333,4,1,3,70,0,1
186653,-76.9230769230769,4,1,2,70,0,1
194839,-76.9230769230769,4,1,3,90,0,0
195182,-100,4,1,3,90,0,0
196210,-100,4,1,2,90,0,0
198267,-200,4,1,3,76,0,0
198610,-200,4,1,3,90,0,0
198953,-100,4,1,3,70,0,1
204439,-100,4,1,3,70,0,0

[Colours]
Combo1 : 185,0,185
Combo2 : 255,128,64
Combo3 : 255,255,0
Combo4 : 190,190,190
Combo5 : 255,0,0
Combo6 : 128,0,0

[HitObjects]
254,195,5581,6,0,L|237:257,1,62.5,8|8,0:0|0:0,0:0:0:0:
390,234,5753,1,2,0:0:0:0:
387,146,5839,1,0,0:0:0:0:
333,77,5924,1,2,0:0:0:0:
118,155,6096,1,0,0:0:0:0:
175,312,6267,1,10,0:0:0:0:
203,54,6439,1,0,0:0:0:0:
32,255,6610,1,10,0:0:0:0:
293,303,6781,2,0,B|320:236|320:236|339:166,1,140.625005364418,0|0,0:0|0:0,0:0:0:0:
357,105,6953,6,0,B|317:246,1,125,8|0,0:0|0:0,0:0:0:0:
215,331,7296,2,0,B|74:291,1,125,0|0,0:0|0:0,0:0:0:0:
322,225,7639,2,0,B|357:105,1,125,8|0,0:0|0:0,0:0:0:0:
94,296,7981,1,0,0:0:0:0:
322,225,8153,1,0,0:0:0:0:
94,171,8324,6,0,B|94:305,1,125,8|0,0:0|0:0,0:0:0:0:
322,350,8667,2,0,B|322:216,1,125,0|0,0:0|0:0,0:0:0:0:
36,119,9010,1,8,0:0:0:0:
149,350,9182,1,0,0:0:0:0:
293,137,9353,2,0,B|323:221|323:221|321:270,1,125,8|0,0:0|0:0,0:0:0:0:
94,296,9696,5,8,0:0:0:0:
321,256,9867,1,0,0:0:0:0:
150,84,10039,2,0,B|204:212,1,140.625005364418,0|0,0:0|0:0,0:0:0:0:
230,273,10210,2,0,B|179:155,1,125,2|0,0:0|0:0,0:0:0:0:
295,60,10553,6,0,L|327:136,1,62.5,2|0,0:0|0:0,0:0:0:0:
355,188,10724,1,0,0:0:0:0:
94,296,10896,1,2,0:0:0:0:
261,344,11067,1,8,0:0:0:0:
200,201,11239,2,0,B|175:143,1,62.5,0|0,0:0|0:0,0:0:0:0:
145,73,11410,5,8,0:0:0:0:
0,287,11582,1,0,0:0:0:0:
272,255,11753,1,8,0:0:0:0:
145,73,11924,1,8,0:0:0:0:
272,255,12096,2,0,L|317:122,1,125.000004768372,8|0,0:0|0:0,0:0:0:0:
318,122,12267,2,0,L|260:291,1,158.333329105377,0|0,0:0|0:0,0:0:0:0:
260,291,12439,5,8,0:0:0:0:
260,291,13124,1,10,0:0:0:0:
197,107,13810,1,8,0:0:0:0:
134,291,14496,1,10,0:0:0:0:
71,107,15182,5,8,0:0:0:0:
134,291,15524,1,0,0:0:0:0:
45,35,15867,1,10,0:0:0:0:
160,363,16210,1,10,0:0:0:0:
275,35,16553,6,0,B|241:19|241:19|195:18,2,83.3333333333333,8|0|0,0:0|0:0|0:0,0:0:0:0:
437,106,16896,1,0,0:0:0:0:
275,177,17010,1,0,0:0:0:0:
437,248,17124,1,0,0:0:0:0:
275,319,17239,1,10,0:0:0:0:
437,106,17582,1,10,0:0:0:0:
113,248,17924,6,0,B|113:291|113:291|124:335,1,87.5,6|0,0:0|0:0,0:0:0:0:
101,173,18610,6,0,B|113:218|113:218|113:293,1,118.243243243243,6|0,0:0|0:0,0:0:0:0:
146,111,19296,6,0,B|101:173|101:173|113:218|113:218|113:294,1,193.70651112495,4|0,0:0|0:0,0:0:0:0:
102,49,19982,6,0,B|145:109|145:109|101:174|101:174|112:217|112:217|112:282|112:282|124:333,1,315.072006568689,4|0,0:0|0:0,0:0:0:0:
512,192,20667,1,12,0:0:0:0:
256,192,20753,12,0,21782,0:0:0:0:
256,207,21867,6,0,L|236:139,1,50,0|0,0:0|0:0,0:0:0:0:
239,145,22039,1,4,0:0:0:0:
213,61,22382,1,8,0:0:0:0:
367,111,22553,1,0,0:0:0:0:
213,61,22724,1,8,0:0:0:0:
118,191,22896,5,8,0:0:0:0:
293,339,23067,1,12,0:0:0:0:
298,61,23239,1,14,0:0:0:0:
163,315,23410,6,0,L|115:181,1,125,12|0,0:0|0:0,0:0:0:0:
352,128,23753,1,0,0:0:0:0:
163,315,23924,1,0,0:0:0:0:
352,128,24096,2,0,L|394:245,1,125,8|0,0:0|0:0,0:0:0:0:
163,315,24439,1,0,0:0:0:0:
260,221,24610,1,0,0:0:0:0:
131,184,24782,6,0,L|161:306,1,125,0|0,0:0|0:0,0:0:0:0:
283,350,25124,1,0,0:0:0:0:
131,184,25296,1,0,0:0:0:0:
383,265,25467,1,8,0:0:0:0:
229,91,25639,1,0,0:0:0:0:
483,175,25810,1,0,0:0:0:0:
329,1,25982,1,0,0:0:0:0:
257,221,26153,6,0,L|237:282,1,62.5,8|0,0:0|0:0,0:0:0:0:
218,339,26324,2,0,L|237:279,1,62.5,0|0,0:0|0:0,0:0:0:0:
257,221,26496,1,8,0:0:0:0:
148,91,26667,5,0,0:0:0:0:
204,157,26753,1,0,0:0:0:0:
294,152,26839,1,8,0:0:0:0:
510,304,27010,5,0,0:0:0:0:
483,175,27182,1,0,0:0:0:0:
366,116,27353,1,0,0:0:0:0:
347,222,27524,6,0,L|404:333,1,125,8|0,0:0|0:0,0:0:0:0:
204,157,27867,1,0,0:0:0:0:
236,279,28039,1,0,0:0:0:0:
347,222,28210,2,0,L|236:279,1,125,2|12,0:0|0:0,0:0:0:0:
141,369,28553,2,0,L|120:182,1,187.5,14|0,0:0|0:0,0:0:0:0:
118,172,28896,6,0,L|137:328,1,125,12|0,0:0|0:0,0:0:0:0:
141,369,29239,1,0,0:0:0:0:
229,81,29410,2,0,L|234:238,1,125,8|0,0:0|0:0,0:0:0:0:
235,279,29753,1,0,0:0:0:0:
149,116,29924,1,0,0:0:0:0:
340,0,30096,2,0,L|331:156,1,125,8|0,0:0|0:0,0:0:0:0:
325,249,30439,6,0,L|332:124,1,125,8|0,0:0|0:0,0:0:0:0:
470,208,30782,1,8,0:0:0:0:
353,318,30953,2,0,B|292:303|292:303|231:278,1,125,8|0,0:0|0:0,0:0:0:0:
340,0,31296,1,8,0:0:0:0:
470,208,31467,1,8,0:0:0:0:
224,216,31639,5,10,0:0:0:0:
169,247,31724,1,0,0:0:0:0:
115,278,31810,1,0,0:0:0:0:
332,124,31982,1,10,0:0:0:0:
277,93,32067,1,0,0:0:0:0:
223,62,32153,1,0,0:0:0:0:
357,263,32324,5,10,0:0:0:0:
277,93,32496,1,2,0:0:0:0:
169,247,32667,1,0,0:0:0:0:
89,77,32839,1,2,0:0:0:0:
0,361,33010,5,8,0:0:0:0:
169,309,33182,1,2,0:0:0:0:
169,184,33353,2,0,L|169:246,1,62.5,0|0,0:0|0:0,0:0:0:0:
52,228,33524,2,0,L|169:184,1,125,2|8,0:0|0:0,0:0:0:0:
270,150,33867,1,4,0:0:0:0:
350,196,34039,1,10,0:0:0:0:
388,282,34210,2,0,B|349:193,1,93.7500035762788,14|0,0:0|0:0,0:0:0:0:
471,188,34382,6,0,L|387:282,1,125,14|0,0:0|0:0,0:0:0:0:
287,364,34724,1,0,0:0:0:0:
169,309,34896,1,0,0:0:0:0:
158,180,35067,1,8,0:0:0:0:
404,88,35239,1,0,0:0:0:0:
104,104,35410,1,8,0:0:0:0:
350,196,35582,1,0,0:0:0:0:
66,314,35753,6,0,L|66:173,1,125,12|0,0:0|0:0,0:0:0:0:
84,59,36096,1,2,0:0:0:0:
209,21,36268,1,0,0:0:0:0:
303,110,36439,1,8,0:0:0:0:
375,373,36610,1,2,0:0:0:0:
404,88,36781,1,8,0:0:0:0:
287,364,36953,1,2,0:0:0:0:
207,26,37124,6,0,L|173:165,1,125,12|0,0:0|0:0,0:0:0:0:
66,314,37467,1,4,0:0:0:0:
178,148,37639,1,0,0:0:0:0:
265,327,37810,1,8,0:0:0:0:
73,198,37982,1,0,0:0:0:0:
273,212,38153,1,8,0:0:0:0:
273,212,38324,1,0,0:0:0:0:
160,377,38496,6,0,L|189:255,1,125,8|10,0:0|0:0,0:0:0:0:
238,133,38839,1,2,0:0:0:0:
369,126,39011,1,0,0:0:0:0:
438,236,39182,1,8,0:0:0:0:
25,225,39524,2,0,L|24:162,1,62.5,2|0,0:0|0:0,0:0:0:0:
26,288,39696,2,0,L|25:225,1,62.5,0|0,0:0|0:0,0:0:0:0:
26,351,39867,6,0,L|26:210,1,125,14|0,0:0|0:0,0:0:0:0:
238,133,40210,1,10,0:0:0:0:
380,308,40382,1,0,0:0:0:0:
157,344,40553,2,0,L|157:203,1,125,10|0,0:0|0:0,0:0:0:0:
369,126,40896,1,10,0:0:0:0:
207,204,41067,1,10,0:0:0:0:
220,24,41239,6,0,L|361:24,1,125,8|0,0:0|0:0,0:0:0:0:
438,236,41582,1,0,0:0:0:0:
226,329,41753,1,0,0:0:0:0:
438,236,41924,1,8,0:0:0:0:
226,329,42096,2,0,L|87:329,1,125,0|0,0:0|0:0,0:0:0:0:
2,182,42439,1,0,0:0:0:0:
226,329,42610,5,8,0:0:0:0:
125,372,42782,1,0,0:0:0:0:
38,308,42953,1,0,0:0:0:0:
2,182,43124,1,0,0:0:0:0:
94,90,43295,1,8,0:0:0:0:
363,211,43467,2,0,L|298:329,1,125,0|0,0:0|0:0,0:0:0:0:
94,90,43810,1,0,0:0:0:0:
91,222,43982,5,8,0:0:0:0:
116,278,44068,1,0,0:0:0:0:
166,315,44153,1,0,0:0:0:0:
308,238,44324,1,0,0:0:0:0:
363,211,44410,1,0,0:0:0:0:
425,214,44495,1,0,0:0:0:0:
354,376,44667,2,0,L|286:351,1,62.5,8|0,0:0|0:0,0:0:0:0:
116,278,44839,1,6,0:0:0:0:
319,120,45010,2,0,L|318:274,1,149.999995422363,14|0,0:0|0:0,0:0:0:0:
94,90,45353,5,10,0:0:0:0:
157,274,46039,5,10,0:0:0:0:
220,90,46553,1,2,0:0:0:0:
220,90,46639,1,0,0:0:0:0:
220,90,46724,1,10,0:0:0:0:
157,274,46896,1,0,0:0:0:0:
220,90,47067,5,2,0:0:0:0:
157,274,47239,1,0,0:0:0:0:
220,90,47410,1,10,0:0:0:0:
347,238,47582,1,10,0:0:0:0:
30,128,47753,1,10,0:0:0:0:
157,274,47924,1,10,0:0:0:0:
347,238,48096,5,10,0:0:0:0:
30,128,48439,1,8,0:0:0:0:
347,18,48782,1,8,0:0:0:0:
30,348,49124,1,8,0:0:0:0:
93,18,49467,5,8,0:0:0:0:
157,274,49639,1,10,0:0:0:0:
207,344,49725,1,0,0:0:0:0:
291,371,49810,1,10,0:0:0:0:
425,186,49982,1,10,0:0:0:0:
290,87,50153,1,8,0:0:0:0:
411,317,50325,1,10,0:0:0:0:
441,55,50496,1,8,0:0:0:0:
197,161,50667,2,0,B|207:209|207:209|223:257,1,93.7500035762788,8|0,0:0|0:0,0:0:0:0:
221,251,50839,6,0,B|207:210|207:210|187:90,1,162.499992561341,8|0,0:0|0:0,0:0:0:0:
356,27,51182,1,8,0:0:0:0:
496,141,51353,1,0,0:0:0:0:
468,320,51524,1,8,0:0:0:0:
299,384,51696,1,0,0:0:0:0:
187,91,51867,1,0,0:0:0:0:
496,141,52039,6,0,B|508:217|508:217|508:302,2,162.499992561341,8|0|0,0:0|0:0|0:0,0:0:0:0:
356,26,52553,1,8,0:0:0:0:
187,89,52724,1,0,0:0:0:0:
157,267,52896,1,8,0:0:0:0:
297,382,53067,1,0,0:0:0:0:
490,140,53239,1,0,0:0:0:0:
187,89,53410,6,0,B|132:89|132:89|84:96,2,100,0|0|10,0:0|0:0|0:0,0:0:0:0:
404,201,53753,1,8,0:0:0:0:
350,273,53924,1,8,0:0:0:0:
261,328,54096,2,0,L|261:265,1,46.8750017881394,8|0,0:0|0:0,0:0:0:0:
306,189,54267,6,0,L|356:285,1,93.7500035762788,10|0,0:0|0:0,0:0:0:0:
185,374,54439,1,8,0:0:0:0:
172,189,54610,1,8,0:0:0:0:
291,57,54782,1,8,0:0:0:0:
487,157,54953,6,0,L|391:207,1,93.7500035762788,10|0,0:0|0:0,0:0:0:0:
306,189,55124,1,8,0:0:0:0:
299,121,55210,1,0,0:0:0:0:
291,57,55296,1,8,0:0:0:0:
443,5,55467,2,0,L|467:48,1,46.8750017881394,8|0,0:0|0:0,0:0:0:0:
487,157,55639,6,0,L|403:200,1,93.7500035762788,10|0,0:0|0:0,0:0:0:0:
291,57,55810,1,8,0:0:0:0:
487,157,55982,1,8,0:0:0:0:
302,276,56153,1,8,0:0:0:0:
308,269,56324,6,0,B|329:231|329:231|372:117,1,162.499992561341,8|0,0:0|0:0,0:0:0:0:
218,23,56667,1,8,0:0:0:0:
59,108,56838,1,0,0:0:0:0:
52,289,57009,1,8,0:0:0:0:
206,384,57181,1,0,0:0:0:0:
371,118,57352,1,0,0:0:0:0:
59,108,57524,6,0,B|32:180|32:180|16:263,2,162.499992561341,8|0|0,0:0|0:0|0:0,0:0:0:0:
218,22,58038,1,8,0:0:0:0:
372,116,58209,1,0,0:0:0:0:
367,296,58381,1,8,0:0:0:0:
208,383,58552,1,0,0:0:0:0:
65,108,58724,1,8,0:0:0:0:
372,116,58896,6,0,B|425:126|425:126|471:142,2,100,0|0|14,0:0|0:0|0:0,0:0:0:0:
99,213,59239,1,0,0:0:0:0:
165,274,59410,1,0,0:0:0:0:
262,313,59582,2,0,L|251:251,1,46.8750017881394,2|0,0:0|0:0,0:0:0:0:
194,184,59753,6,0,L|161:287,1,93.7500035762788,10|0,0:0|0:0,0:0:0:0:
345,345,59925,1,2,0:0:0:0:
326,160,60096,1,10,0:0:0:0:
185,51,60268,1,2,0:0:0:0:
10,184,60439,6,0,L|113:216,1,93.7500035762788,14|0,0:0|0:0,0:0:0:0:
194,184,60610,1,0,0:0:0:0:
189,116,60696,1,0,0:0:0:0:
185,51,60782,1,0,0:0:0:0:
27,26,60953,2,0,L|11:73,1,46.8750017881394,10|0,0:0|0:0,0:0:0:0:
10,184,61124,6,0,L|113:216,1,93.7500035762788,8|0,0:0|0:0,0:0:0:0:
185,51,61296,1,10,0:0:0:0:
10,184,61468,1,8,0:0:0:0:
213,269,61639,1,10,0:0:0:0:
223,274,61810,6,0,L|199:137,1,137.500004196167,14|8,0:0|0:0,0:0:0:0:
106,34,62153,1,0,0:0:0:0:
199,138,62324,1,0,0:0:0:0:
261,159,62410,1,0,0:0:0:0:
326,139,62495,1,8,0:0:0:0:
419,35,62667,1,0,0:0:0:0:
357,247,62839,1,0,0:0:0:0:
199,138,63010,1,8,0:0:0:0:
63,162,63182,5,0,0:0:0:0:
222,272,63353,1,0,0:0:0:0:
357,247,63524,2,0,L|222:271,1,137.500004196167,8|0,0:0|0:0,0:0:0:0:
63,162,63867,1,8,0:0:0:0:
357,247,64039,2,0,L|381:382,1,137.500004196167,0|0,0:0|0:0,0:0:0:0:
233,338,64382,2,0,L|220:266,1,68.7500020980836,8|0,0:0|0:0,0:0:0:0:
208,202,64553,6,0,L|232:337,1,137.500004196167,0|0,0:0|0:0,0:0:0:0:
199,138,64896,2,0,L|223:273,1,137.500004196167,8|0,0:0|0:0,0:0:0:0:
442,159,65239,1,8,0:0:0:0:
183,66,65410,1,0,0:0:0:0:
232,337,65582,1,10,0:0:0:0:
264,167,65753,6,0,B|240:102|240:102|162:53,1,137.500004196167,0|10,0:0|0:0,0:0:0:0:
441,158,66096,2,0,B|405:216|405:216|340:240,1,137.500004196167,0|10,0:0|0:0,0:0:0:0:
182,65,66439,1,0,0:0:0:0:
109,289,66610,1,10,0:0:0:0:
340,240,66782,1,8,0:0:0:0:
109,289,66953,1,8,0:0:0:0:
109,289,67039,2,0,L|109:204,1,68.7500020980836,0|8,0:0|0:0,0:0:0:0:
340,102,67296,6,0,L|340:272,1,137.500004196167,14|0,0:0|0:0,0:0:0:0:
238,330,67639,1,0,0:0:0:0:
131,212,67810,1,0,0:0:0:0:
181,63,67982,1,8,0:0:0:0:
440,146,68153,1,0,0:0:0:0:
238,330,68324,1,0,0:0:0:0:
42,180,68496,6,0,L|0:31,2,137.500004196167,8|0|0,0:0|0:0|0:0,0:0:0:0:
162,330,69010,1,8,0:0:0:0:
232,150,69182,1,0,0:0:0:0:
309,327,69353,1,8,0:0:0:0:
379,147,69524,1,0,0:0:0:0:
456,324,69696,1,8,0:0:0:0:
232,150,69866,1,8,0:0:0:0:
495,44,70039,6,0,B|441:114|441:114|378:147|378:147|343:247,1,250,12|0,0:0|0:0,0:0:0:0:
238,330,70553,2,0,L|239:229,1,62.5,0|0,0:0|0:0,0:0:0:0:
232,150,70724,2,0,B|170:166|170:166|119:227,1,125,8|0,0:0|0:0,0:0:0:0:
58,215,70982,1,0,0:0:0:0:
88,148,71067,2,0,B|127:101|127:101|189:85,1,125,8|0,0:0|0:0,0:0:0:0:
494,150,71410,5,8,0:0:0:0:
363,246,71582,2,0,L|363:177,1,62.5,8|0,0:0|0:0,0:0:0:0:
363,54,71753,1,8,0:0:0:0:
232,150,71924,2,0,L|232:212,1,62.5,8|0,0:0|0:0,0:0:0:0:
232,342,72096,1,8,0:0:0:0:
363,246,72267,2,0,B|385:219|385:219|402:166,1,87.499997329712,0|0,0:0|0:0,0:0:0:0:
363,54,72439,2,0,B|347:97|347:97|315:133|315:133|299:184|299:184|252:221|229:286,1,262.499991989136,2|0,0:0|0:0,0:0:0:0:
111,327,72782,6,0,B|77:275|77:275|56:211,1,125,14|0,0:0|0:0,0:0:0:0:
98,67,73124,1,0,0:0:0:0:
246,30,73296,1,8,0:0:0:0:
320,129,73467,2,0,B|337:161|337:161|345:199,1,62.5,0|0,0:0|0:0,0:0:0:0:
384,304,73639,1,8,0:0:0:0:
504,162,73810,1,0,0:0:0:0:
320,129,73982,1,8,0:0:0:0:
206,177,74153,6,0,L|149:225,1,62.5,0|0,0:0|0:0,0:0:0:0:
63,297,74325,1,8,0:0:0:0:
183,360,74496,2,0,L|279:278,1,125,8|0,0:0|0:0,0:0:0:0:
320,129,74839,2,0,L|368:185,1,62.5,8|0,0:0|0:0,0:0:0:0:
484,267,75010,1,8,0:0:0:0:
484,267,75096,1,0,0:0:0:0:
484,267,75182,2,0,L|484:134,1,125,8|8,0:0|0:0,0:0:0:0:
205,52,75524,6,0,L|205:185,1,125,12|0,0:0|0:0,0:0:0:0:
360,176,75867,1,0,0:0:0:0:
205,52,76039,1,2,0:0:0:0:
360,176,76210,2,0,L|428:232,1,62.5,8|0,0:0|0:0,0:0:0:0:
484,267,76382,1,2,0:0:0:0:
339,323,76553,1,0,0:0:0:0:
484,267,76724,1,8,0:0:0:0:
501,115,76896,6,0,L|418:145,1,62.5,0|0,0:0|0:0,0:0:0:0:
360,176,77068,1,0,0:0:0:0:
214,313,77239,2,0,L|339:323,1,125,0|0,0:0|0:0,0:0:0:0:
484,267,77582,2,0,L|498:180,1,62.5,8|0,0:0|0:0,0:0:0:0:
501,114,77754,1,8,0:0:0:0:
501,114,77839,1,0,0:0:0:0:
501,114,77924,2,0,L|356:103,1,125,8|0,0:0|0:0,0:0:0:0:
114,68,78267,6,0,L|101:238,1,166.666666666667,8|0,0:0|0:0,0:0:0:0:
154,341,78610,1,0,0:0:0:0:
221,241,78724,2,0,L|227:155,1,83.3333333333333,0|0,0:0|0:0,0:0:0:0:
363,86,78953,2,0,L|350:256,1,166.666666666667,10|2,0:0|0:0,0:0:0:0:
275,358,79296,2,0,L|189:352,2,83.3333333333333,2|0|0,0:0|0:0|0:0,0:0:0:0:
469,258,79639,6,0,L|482:92,1,166.666666666667,10|0,0:0|2:0,0:0:0:0:
363,86,79982,1,0,0:0:0:0:
350,252,80096,2,0,L|355:168,1,83.3333333333333,0|2,0:0|0:0,0:0:0:0:
233,74,80324,2,0,L|220:244,1,166.666666666667,8|0,0:0|0:0,0:0:0:0:
154,341,80667,2,0,L|68:335,2,83.3333333333333,10|0|0,0:0|0:0|0:0,0:0:0:0:
421,294,81010,6,0,L|421:214,1,68.7500020980836,6|0,0:0|0:0,0:0:0:0:
421,156,81182,2,0,L|421:224,1,68.7500020980836,0|0,0:0|0:0,0:0:0:0:
421,294,81353,2,0,L|421:225,1,68.7500020980836,2|0,0:0|0:0,0:0:0:0:
421,156,81524,2,0,L|421:224,1,68.7500020980836,0|0,0:0|0:0,0:0:0:0:
397,323,81696,1,6,0:0:0:0:
361,343,81782,1,0,0:0:0:0:
320,336,81867,1,0,0:0:0:0:
294,304,81953,1,0,0:0:0:0:
283,214,82039,1,2,0:0:0:0:
270,174,82125,1,0,0:0:0:0:
235,151,82210,1,0,0:0:0:0:
194,157,82296,1,0,0:0:0:0:
36,247,82382,6,0,L|107:305,1,68.7500020980836,6|0,0:0|0:0,0:0:0:0:
194,157,82553,2,0,L|122:98,1,68.7500020980836,0|0,0:0|0:0,0:0:0:0:
50,265,82724,2,0,L|134:303,1,68.7500020980836,2|0,0:0|0:0,0:0:0:0:
180,138,82896,2,0,L|96:100,1,68.7500020980836,0|0,0:0|0:0,0:0:0:0:
51,137,83067,6,0,L|12:221,1,68.7500020980836,6|0,0:0|0:0,0:0:0:0:
178,267,83238,2,0,L|216:182,1,68.7500020980836,0|0,0:0|0:0,0:0:0:0:
37,155,83410,2,0,L|15:242,1,68.7500020980836,2|0,0:0|0:0,0:0:0:0:
192,248,83582,2,0,L|208:156,1,68.7500020980836,0|0,0:0|0:0,0:0:0:0:
257,73,83753,5,12,0:0:0:0:
319,78,83838,1,0,0:0:0:0:
381,83,83924,1,0,0:0:0:0:
432,95,84010,1,0,0:0:0:0:
421,156,84096,2,0,L|394:266,1,62.5,0|0,0:0|0:0,0:0:0:0:
307,297,84267,2,0,L|321:357,2,62.5,0|0|8,0:0|0:0|0:0,0:0:0:0:
189,119,84610,1,0,0:0:0:0:
189,119,84696,1,0,0:0:0:0:
189,119,84782,2,0,L|215:229,1,62.5,0|0,0:0|0:0,0:0:0:0:
480,233,84953,1,0,0:0:0:0:
480,233,85039,1,0,0:0:0:0:
480,233,85124,6,0,L|494:172,1,62.5,8|0,0:0|0:0,0:0:0:0:
291,155,85296,2,0,L|276:215,1,62.5,0|0,0:0|0:0,0:0:0:0:
24,347,85467,2,0,L|24:266,1,62.5,8|0,0:0|0:0,0:0:0:0:
128,81,85639,1,0,0:0:0:0:
291,155,85811,1,8,0:0:0:0:
210,118,85982,1,0,0:0:0:0:
373,192,86153,1,8,0:0:0:0:
291,155,86324,1,0,0:0:0:0:
447,29,86496,5,12,0:0:0:0:
489,73,86581,1,0,0:0:0:0:
463,127,86667,1,2,0:0:0:0:
487,176,86753,1,0,0:0:0:0:
454,229,86839,2,0,L|454:313,2,62.5,2|0|2,0:0|0:0|0:0,0:0:0:0:
299,356,87182,5,12,0:0:0:0:
256,311,87267,1,0,0:0:0:0:
282,257,87353,1,2,0:0:0:0:
258,208,87439,1,0,0:0:0:0:
291,155,87524,2,0,L|291:71,2,62.5,2|0|2,0:0|0:0|0:0,0:0:0:0:
91,67,87867,2,0,B|81:127|81:127|91:193,1,125,10|0,0:0|0:0,0:0:0:0:
200,381,88210,2,0,B|210:321|210:321|200:255,1,125,10|0,0:0|0:0,0:0:0:0:
147,218,88467,5,0,0:0:0:0:
90,190,88553,1,10,0:0:0:0:
46,234,88639,1,0,0:0:0:0:
75,291,88724,1,0,0:0:0:0:
136,280,88810,1,0,0:0:0:0:
147,218,88896,6,0,B|181:153|244:146|244:146|309:139|341:76,1,243.749988842011,10|2,0:0|0:0,0:0:0:0:
237,37,89239,6,0,L|288:133,1,62.5,12|0,0:0|0:0,0:0:0:0:
325,202,89410,2,0,L|281:119,1,62.5,0|0,0:0|0:0,0:0:0:0:
237,37,89582,1,0,0:0:0:0:
341,227,89753,1,0,0:0:0:0:
454,42,89924,1,8,0:0:0:0:
341,227,90095,1,0,0:0:0:0:
121,145,90267,2,0,P|52:195|169:284,1,243.749988842011,0|0,0:0|0:0,0:0:0:0:
311,229,90610,6,0,L|202:225,1,62.5,0|0,0:0|0:0,0:0:0:0:
124,222,90781,2,0,L|217:225,1,62.5,0|0,0:0|0:0,0:0:0:0:
311,229,90953,1,0,0:0:0:0:
95,224,91124,1,0,0:0:0:0:
207,39,91296,1,8,0:0:0:0:
95,224,91467,1,0,0:0:0:0:
308,305,91639,2,0,P|390:233|317:152,1,243.749988842011,0|0,0:0|0:0,0:0:0:0:
311,229,91982,6,0,L|368:136,1,62.5,14|0,0:0|0:0,0:0:0:0:
410,70,92153,2,0,L|360:149,1,62.5,2|0,0:0|0:0,0:0:0:0:
311,229,92324,1,2,0:0:0:0:
422,43,92496,1,2,0:0:0:0:
206,40,92667,1,10,0:0:0:0:
422,43,92839,1,0,0:0:0:0:
375,273,93010,2,0,P|268:296|246:189,1,243.749988842011,2|0,0:0|0:0,0:0:0:0:
181,150,93353,6,0,L|124:243,1,62.5,10|0,0:0|0:0,0:0:0:0:
82,309,93524,2,0,L|132:230,1,62.5,0|0,0:0|0:0,0:0:0:0:
181,150,93695,1,0,0:0:0:0:
70,336,93867,1,2,0:0:0:0:
286,339,94038,1,10,0:0:0:0:
70,336,94210,1,2,0:0:0:0:
117,106,94382,2,0,P|223:82|245:189,1,243.749988842011,8|0,0:0|0:0,0:0:0:0:
244,189,94724,6,0,L|187:282,1,62.5,12|0,0:0|0:0,0:0:0:0:
145,348,94896,2,0,L|202:255,1,62.5,0|0,0:0|0:0,0:0:0:0:
244,189,95067,1,0,0:0:0:0:
302,211,95152,1,0,0:0:0:0:
362,199,95238,1,0,0:0:0:0:
407,155,95324,1,0,0:0:0:0:
422,94,95410,1,8,0:0:0:0:
407,34,95496,1,0,0:0:0:0:
450,19,95582,1,2,0:0:0:0:
491,36,95667,1,0,0:0:0:0:
511,74,95753,1,2,0:0:0:0:
512,119,95839,1,0,0:0:0:0:
501,161,95924,1,2,0:0:0:0:
399,368,96096,6,0,L|511:368,1,112.499996566773,14|0,0:0|0:0,0:0:0:0:
512,367,96439,6,0,B|455:318|455:318|398:366,1,150,8|0,0:0|0:0,0:0:0:0:
399,367,96782,6,0,B|431:334|456:292|456:292|481:333|511:367,1,187.5,8|0,0:0|0:0,0:0:0:0:
512,367,97124,6,0,B|477:321|457:269|457:269|435:321|399:365,1,224.999993133545,10|0,0:0|0:0,0:0:0:0:
286,339,97467,5,14,0:0:0:0:
507,219,97639,2,0,P|504:188|495:159,1,62.5,0|0,0:0|0:0,0:0:0:0:
234,68,97810,1,0,0:0:0:0:
286,339,97982,1,10,0:0:0:0:
494,158,98153,2,0,P|475:133|453:112,1,62.5,0|0,0:0|0:0,0:0:0:0:
173,81,98324,1,0,0:0:0:0:
286,339,98496,1,10,0:0:0:0:
452,111,98667,2,0,P|424:98|394:92,1,62.5,0|0,0:0|0:0,0:0:0:0:
127,122,98839,1,14,0:0:0:0:
286,339,99010,5,0,0:0:0:0:
327,310,99096,1,0,0:0:0:0:
354,271,99182,2,0,L|354:183,1,62.5,12|0,0:0|0:0,0:0:0:0:
156,124,99353,1,0,0:0:0:0:
115,153,99439,1,0,0:0:0:0:
88,192,99525,2,0,L|88:280,1,62.5,8|0,0:0|0:0,0:0:0:0:
354,208,99696,2,0,L|397:132,1,62.5,2|0,0:0|0:0,0:0:0:0:
88,254,99867,2,0,L|57:307,2,62.5,10|0|10,0:0|0:0|0:0,0:0:0:0:
382,78,100210,5,14,0:0:0:0:
331,265,100896,5,10,0:0:0:0:
255,86,101410,1,2,0:0:0:0:
255,86,101496,1,0,0:0:0:0:
255,86,101581,1,10,0:0:0:0:
331,265,101753,1,0,0:0:0:0:
255,86,101924,5,10,0:0:0:0:
331,265,102096,1,0,0:0:0:0:
255,86,102267,1,10,0:0:0:0:
139,242,102439,1,10,0:0:0:0:
331,265,102610,1,8,0:0:0:0:
447,111,102781,1,8,0:0:0:0:
139,242,102953,5,12,0:0:0:0:
447,111,103296,1,8,0:0:0:0:
124,23,103639,1,8,0:0:0:0:
463,330,103981,1,8,0:0:0:0:
377,5,104324,5,8,0:0:0:0:
331,265,104496,1,10,0:0:0:0:
286,339,104582,1,0,0:0:0:0:
204,371,104667,1,10,0:0:0:0:
57,196,104839,1,8,0:0:0:0:
266,103,105010,1,10,0:0:0:0:
348,135,105096,1,0,0:0:0:0:
393,209,105182,1,10,0:0:0:0:
204,371,105353,1,8,0:0:0:0:
184,113,105524,2,0,L|149:47,1,46.8750017881394,2|0,0:0|0:0,0:0:0:0:
206,107,105610,2,0,L|184:65,1,46.8750017881394,0|0,0:0|0:0,0:0:0:0:
202,137,105696,6,0,B|232:213|232:213|319:282,1,162.499992561341,6|0,0:0|0:0,0:0:0:0:
415,336,106039,1,8,0:0:0:0:
462,221,106210,1,0,0:0:0:0:
415,107,106382,1,8,0:0:0:0:
301,60,106553,1,0,0:0:0:0:
118,297,106724,1,0,0:0:0:0:
415,336,106896,6,0,B|479:284|479:284|510:207,2,162.499992561341,8|0|0,0:0|0:0|0:0,0:0:0:0:
301,383,107410,1,8,0:0:0:0:
186,336,107582,1,0,0:0:0:0:
139,221,107753,1,8,0:0:0:0:
186,107,107924,1,0,0:0:0:0:
482,145,108096,1,0,0:0:0:0:
139,221,108267,2,0,L|37:238,2,100,8|0|12,0:0|0:0|0:0,0:0:0:0:
428,173,108610,5,0,0:0:0:0:
275,261,108782,1,2,0:0:0:0:
387,280,108953,2,0,L|357:224,1,46.8750017881394,10|0,0:0|0:0,0:0:0:0:
292,168,109124,6,0,L|270:290,1,93.7500035762788,2|0,0:0|0:0,0:0:0:0:
425,346,109296,1,10,0:0:0:0:
500,148,109467,1,2,0:0:0:0:
316,41,109639,1,10,0:0:0:0:
179,202,109810,2,0,L|275:260,1,93.7500035762788,14|0,0:0|0:0,0:0:0:0:
377,296,109982,5,0,0:0:0:0:
431,235,110068,1,0,0:0:0:0:
431,153,110154,1,6,0:0:0:0:
218,98,110324,1,10,0:0:0:0:
218,308,110496,2,0,L|314:366,1,93.7500035762788,6|0,0:0|0:0,0:0:0:0:
427,378,110667,1,10,0:0:0:0:
218,308,110839,1,6,0:0:0:0:
248,119,111010,1,10,0:0:0:0:
239,125,111182,6,0,B|208:202|208:202|120:272,1,162.499992561341,12|0,0:0|0:0,0:0:0:0:
3,241,111524,1,8,0:0:0:0:
34,120,111695,1,0,0:0:0:0:
138,55,111867,1,8,0:0:0:0:
259,84,112038,1,0,0:0:0:0:
267,383,112209,1,0,0:0:0:0:
3,241,112382,6,0,B|-17:162|-17:162|1:81,2,162.499992561341,8|0|0,0:0|0:0|0:0,0:0:0:0:
69,345,112895,1,8,0:0:0:0:
189,376,113067,1,0,0:0:0:0:
294,310,113238,1,8,0:0:0:0:
324,190,113409,1,0,0:0:0:0:
62,47,113581,1,8,0:0:0:0:
294,310,113753,2,0,L|433:344,2,100,8|0|12,0:0|0:0|0:0,0:0:0:0:
123,264,114096,5,0,0:0:0:0:
194,103,114268,1,8,0:0:0:0:
90,151,114439,2,0,L|146:179,1,46.8750017881394,10|0,0:0|0:0,0:0:0:0:
234,188,114610,6,0,L|182:75,1,93.7500035762788,8|0,0:0|0:0,0:0:0:0:
23,119,114782,1,10,0:0:0:0:
75,326,114953,1,8,0:0:0:0:
286,307,115125,1,10,0:0:0:0:
307,95,115296,2,0,L|195:102,1,93.7500035762788,14|0,0:0|0:0,0:0:0:0:
90,133,115468,5,0,0:0:0:0:
80,213,115554,1,0,0:0:0:0:
126,280,115640,1,2,0:0:0:0:
334,204,115810,1,10,0:0:0:0:
214,31,115982,6,0,L|102:38,1,93.7500035762788,2|0,0:0|0:0,0:0:0:0:
4,94,116153,1,10,0:0:0:0:
214,31,116325,1,2,0:0:0:0:
298,203,116496,1,10,0:0:0:0:
344,269,116667,6,0,P|378:202|325:127,1,162.499992561341,14|0,0:0|0:0,0:0:0:0:
153,110,117010,1,8,0:0:0:0:
336,132,117182,1,0,0:0:0:0:
391,118,117268,1,0,0:0:0:0:
432,78,117353,1,8,0:0:0:0:
508,5,117524,1,0,0:0:0:0:
506,190,117696,1,8,0:0:0:0:
336,132,117867,1,8,0:0:0:0:
197,196,118039,5,0,0:0:0:0:
367,254,118210,1,8,0:0:0:0:
470,128,118382,2,0,L|366:253,1,162.499992561341,8|0,0:0|0:0,0:0:0:0:
197,196,118724,1,8,0:0:0:0:
344,24,118896,2,0,L|470:128,1,162.499992561341,0|8,0:0|0:0,0:0:0:0:
423,196,119239,2,0,L|364:254,1,81.2499962806703,8|0,0:0|0:0,0:0:0:0:
308,310,119410,6,0,L|422:195,1,162.499992561341,0|0,0:0|0:0,0:0:0:0:
250,368,119753,2,0,L|364:253,1,162.499992561341,8|0,0:0|0:0,0:0:0:0:
186,132,120096,1,8,0:0:0:0:
250,368,120267,1,0,0:0:0:0:
422,195,120439,1,8,0:0:0:0:
139,258,120610,6,0,P|69:195|53:124,1,162.499992561341,0|10,0:0|0:0,0:0:0:0:
309,118,120953,2,0,P|371:48|443:32,1,162.499992561341,0|10,0:0|0:0,0:0:0:0:
376,367,121296,2,0,P|352:290|289:240,1,162.499992561341,0|10,0:0|0:0,0:0:0:0:
139,258,121639,1,0,0:0:0:0:
309,118,121810,1,10,0:0:0:0:
309,118,121896,2,0,L|290:233,1,81.2499962806703,0|10,0:0|0:0,0:0:0:0:
282,278,122153,6,0,L|308:118,1,162.499992561341,12|0,0:0|0:0,0:0:0:0:
442,46,122496,1,0,0:0:0:0:
512,192,122667,1,0,0:0:0:0:
442,339,122839,1,8,0:0:0:0:
283,375,123010,1,0,0:0:0:0:
239,85,123182,1,0,0:0:0:0:
512,192,123353,6,0,B|525:272|525:272|526:378,2,162.499992561341,0|8|0,0:0|0:0|0:0,0:0:0:0:
331,14,123867,1,8,0:0:0:0:
397,193,124039,1,0,0:0:0:0:
161,93,124210,1,8,0:0:0:0:
227,272,124382,1,0,0:0:0:0:
415,84,124553,1,8,0:0:0:0:
136,202,124724,1,8,0:0:0:0:
378,384,124896,6,0,B|336:330|336:330|334:270|334:270|281:223|289:150,1,250,12|0,0:0|0:0,0:0:0:0:
354,32,125410,2,0,L|378:93,1,62.5,0|0,0:0|0:0,0:0:0:0:
412,174,125582,2,0,L|248:226,1,125,8|0,0:0|0:0,0:0:0:0:
217,194,125839,1,0,0:0:0:0:
257,127,125924,2,0,L|376:89,1,125,8|0,0:0|0:0,0:0:0:0:
122,81,126267,5,8,0:0:0:0:
241,305,126439,2,0,L|274:247,1,62.5,0|0,0:0|0:0,0:0:0:0:
376,89,126610,1,8,0:0:0:0:
496,314,126782,2,0,L|429:314,1,62.5,8|0,0:0|0:0,0:0:0:0:
241,305,126953,1,8,0:0:0:0:
173,176,127124,5,2,0:0:0:0:
370,236,127296,1,2,0:0:0:0:
219,377,127467,1,2,0:0:0:0:
105,47,127639,6,0,B|105:114|105:114|61:174|104:236|104:236|104:342,1,281.250010728836,12|0,0:0|0:0,0:0:0:0:
173,176,127982,2,0,L|83:176,1,87.499997329712,0|0,0:0|0:0,0:0:0:0:
104,318,128153,2,0,L|196:318,1,87.499997329712,0|0,0:0|0:0,0:0:0:0:
289,149,128324,1,10,0:0:0:0:
289,149,128410,1,0,0:0:0:0:
289,149,128496,1,2,0:0:0:0:
64,246,128667,1,0,0:0:0:0:
36,19,128839,1,0,0:0:0:0:
36,19,128924,1,0,0:0:0:0:
36,19,129010,6,0,B|64:75|64:75|64:138,1,125,10|0,0:0|0:0,0:0:0:0:
64,246,129267,1,10,0:0:0:0:
64,246,129353,2,0,B|64:307|64:307|92:364,1,125,0|10,0:0|0:0,0:0:0:0:
195,357,129610,1,0,0:0:0:0:
195,357,129696,2,0,B|224:363|224:363|255:356,1,62.5,0|0,0:0|0:0,0:0:0:0:
350,338,129867,1,10,0:0:0:0:
383,310,129952,1,0,0:0:0:0:
413,281,130038,1,10,0:0:0:0:
388,241,130124,1,0,0:0:0:0:
371,196,130209,1,10,0:0:0:0:
370,149,130295,1,0,0:0:0:0:
368,101,130382,6,0,P|422:70|474:66,1,93.7500035762788,10|0,0:0|0:0,0:0:0:0:
509,125,130553,1,0,0:0:0:0:
491,284,130724,1,8,0:0:0:0:
509,125,130896,1,2,0:0:0:0:
283,183,131067,2,0,B|370:220|370:220|455:180,1,187.500007152558,10|2,0:0|0:0,0:0:0:0:
368,101,131410,1,2,0:0:0:0:
491,284,131582,1,2,0:0:0:0:
368,101,131753,6,0,P|320:79|246:70,1,93.7500035762788,10|0,0:0|0:0,0:0:0:0:
93,190,131924,1,0,0:0:0:0:
213,377,132096,2,0,L|213:257,1,93.7500035762788,10|0,1:0|0:0,0:0:0:0:
213,111,132267,1,10,0:0:0:0:
101,333,132439,1,10,0:0:0:0:
350,319,132610,1,10,0:0:0:0:
350,319,132696,1,0,0:0:0:0:
350,319,132782,1,10,0:0:0:0:
213,111,132953,2,0,L|109:171,1,93.7500035762788,10|0,0:0|0:0,0:0:0:0:
63,196,133124,6,0,L|220:105,1,171.250004834175,10|0,0:0|0:0,0:0:0:0:
368,38,133467,6,0,L|368:104,1,62.5,10|0,0:0|0:0,0:0:0:0:
368,126,133639,5,10,0:0:0:0:
346,163,133724,1,0,0:0:0:0:
389,163,133810,1,10,0:0:0:0:
409,127,133896,5,0,0:0:0:0:
326,126,133981,1,10,0:0:0:0:
367,198,134067,1,0,0:0:0:0:
367,102,134153,6,0,L|367:39,1,62.5,10|0,0:0|0:0,0:0:0:0:
270,28,134324,2,0,L|212:28,1,46.8750017881394,10|0,0:0|0:0,0:0:0:0:
126,39,134496,6,0,B|118:61|118:61|129:85|129:85|119:109|119:109|126:138,1,93.7500035762788,0|0,0:0|0:0,0:0:0:0:
256,204,134839,1,10,0:0:0:0:
389,282,135010,2,0,L|389:211,1,62.5,2|0,0:0|0:0,0:0:0:0:
389,81,135182,1,0,0:0:0:0:
123,126,135353,2,0,L|123:197,1,62.5,2|0,0:0|0:0,0:0:0:0:
123,327,135524,1,10,0:0:0:0:
281,348,135696,1,0,0:0:0:0:
281,348,135782,1,0,0:0:0:0:
281,348,135867,6,0,L|260:223,1,125,10|2,0:0|0:0,0:0:0:0:
243,122,136124,1,2,0:0:0:0:
243,122,136210,2,0,P|313:135|352:176,1,125,2|0,0:0|0:0,0:0:0:0:
453,171,136467,1,0,0:0:0:0:
453,171,136553,2,0,P|438:123|396:86,1,62.5,10|0,0:0|0:0,0:0:0:0:
334,37,136724,1,2,0:0:0:0:
334,37,136810,1,0,0:0:0:0:
334,37,136896,1,10,0:0:0:0:
188,187,137067,1,2,0:0:0:0:
380,356,137239,5,10,0:0:0:0:
379,319,137324,1,0,0:0:0:0:
376,281,137410,1,2,0:0:0:0:
370,244,137496,1,0,0:0:0:0:
362,208,137582,1,10,0:0:0:0:
346,164,137668,1,0,0:0:0:0:
307,144,137754,1,2,0:0:0:0:
260,143,137839,1,0,0:0:0:0:
228,173,137925,1,10,0:0:0:0:
210,216,138010,1,0,0:0:0:0:
228,257,138096,1,10,0:0:0:0:
210,300,138182,1,0,0:0:0:0:
168,316,138267,2,0,B|133:279|133:279|82:282|50:232,2,125,10|10|10,0:0|0:0|0:0,0:0:0:0:
124,195,141353,5,10,0:0:0:0:
308,135,141524,1,0,0:0:0:0:
124,75,141696,1,0,0:0:0:0:
238,232,141867,1,0,0:0:0:0:
238,38,142039,1,8,0:0:0:0:
238,232,142210,1,0,0:0:0:0:
124,75,142382,1,0,0:0:0:0:
238,232,142553,1,0,0:0:0:0:
317,55,142724,5,10,0:0:0:0:
431,212,142896,1,0,0:0:0:0:
510,35,143067,2,0,L|411:62,1,100,0|0,0:0|0:0,0:0:0:0:
202,130,143410,1,8,0:0:0:0:
413,199,143582,1,0,0:0:0:0:
282,19,143753,2,0,L|284:139,1,100,0|0,0:0|0:0,0:0:0:0:
282,241,144096,5,14,0:0:0:0:
388,189,146839,5,10,0:0:0:0:
204,249,147010,1,0,0:0:0:0:
388,309,147182,1,0,0:0:0:0:
274,152,147353,1,0,0:0:0:0:
274,346,147525,1,8,0:0:0:0:
274,152,147696,1,0,0:0:0:0:
388,309,147868,1,0,0:0:0:0:
274,152,148039,1,0,0:0:0:0:
195,329,148210,6,0,L|193:209,1,100,10|0,0:0|0:0,0:0:0:0:
81,172,148553,1,0,0:0:0:0:
98,322,148724,1,0,0:0:0:0:
310,254,148896,2,0,L|211:227,1,100,8|0,0:0|0:0,0:0:0:0:
99,185,149239,1,0,0:0:0:0:
230,365,149410,1,0,0:0:0:0:
230,143,149582,5,14,0:0:0:0:
155,125,152324,5,10,0:0:0:0:
311,237,152495,1,0,0:0:0:0:
251,54,152667,1,0,0:0:0:0:
191,238,152838,1,0,0:0:0:0:
348,124,153010,1,8,0:0:0:0:
191,238,153181,1,0,0:0:0:0:
251,54,153353,1,0,0:0:0:0:
191,238,153524,1,0,0:0:0:0:
381,198,153695,5,10,0:0:0:0:
321,383,153867,1,0,0:0:0:0:
511,342,154039,1,0,0:0:0:0:
321,360,154210,1,0,0:0:0:0:
253,149,154381,1,8,0:0:0:0:
433,279,154553,1,0,0:0:0:0:
390,149,154724,2,0,L|294:221,1,100,0|0,0:0|0:0,0:0:0:0:
210,279,155067,5,10,0:0:0:0:
200,289,155753,5,8,0:0:0:0:
190,299,156096,5,0,0:0:0:0:
178,311,156439,6,0,B|219:276|219:276|201:229|218:179|218:179|179:144,1,200,10|0,0:0|0:0,0:0:0:0:
110,231,156953,1,0,0:0:0:0:
110,231,157039,1,0,0:0:0:0:
110,231,157124,2,0,L|212:231,1,100,8|0,0:0|0:0,0:0:0:0:
310,231,157467,2,0,L|210:231,1,100,0|0,0:0|0:0,0:0:0:0:
210,57,157810,6,0,L|310:57,1,100,10|0,0:0|0:0,0:0:0:0:
110,231,158153,1,0,0:0:0:0:
259,356,158325,1,0,0:0:0:0:
410,231,158496,2,0,L|310:231,1,100,8|0,0:0|0:0,0:0:0:0:
310,57,158839,2,0,L|410:57,1,100,0|0,0:0|0:0,0:0:0:0:
510,231,159182,5,10,0:0:0:0:
336,331,159353,1,0,0:0:0:0:
236,157,159524,1,8,0:0:0:0:
410,57,159695,1,0,0:0:0:0:
358,251,159867,5,8,0:0:0:0:
164,198,160038,1,0,0:0:0:0:
216,4,160209,1,8,0:0:0:0:
410,57,160380,1,0,0:0:0:0:
164,198,160553,5,8,0:0:0:0:
164,198,160896,1,8,0:0:0:0:
164,198,161239,1,8,0:0:0:0:
141,270,161582,6,0,P|222:248|224:155,1,187.5,0|0,0:0|0:0,0:0:0:0:
256,192,161924,12,8,167067,0:0:0:0:
184,165,167410,5,8,0:0:0:0:
179,191,167495,1,0,0:0:0:0:
183,218,167581,1,0,0:0:0:0:
197,241,167667,1,0,0:0:0:0:
218,258,167752,1,8,0:0:0:0:
243,267,167838,1,0,0:0:0:0:
270,267,167924,1,0,0:0:0:0:
295,258,168010,1,0,0:0:0:0:
316,240,168095,1,8,0:0:0:0:
329,217,168181,1,0,0:0:0:0:
333,190,168267,1,0,0:0:0:0:
328,164,168352,1,0,0:0:0:0:
314,141,168438,1,8,0:0:0:0:
293,124,168524,1,0,0:0:0:0:
268,113,168610,2,0,P|227:120|186:172,1,81.2499962806703,8|0,0:0|0:0,0:0:0:0:
361,234,168782,5,8,0:0:0:0:
366,199,168867,1,0,0:0:0:0:
361,164,168953,1,0,0:0:0:0:
343,134,169039,1,0,0:0:0:0:
316,112,169124,1,8,0:0:0:0:
283,101,169210,1,0,0:0:0:0:
248,101,169296,1,0,0:0:0:0:
216,112,169382,1,0,0:0:0:0:
188,136,169467,1,8,0:0:0:0:
172,166,169553,1,0,0:0:0:0:
166,201,169639,1,0,0:0:0:0:
173,234,169724,1,0,0:0:0:0:
191,264,169810,1,8,0:0:0:0:
218,286,169896,1,0,0:0:0:0:
252,298,169982,2,0,P|293:291|333:239,1,81.2499962806703,8|0,0:0|0:0,0:0:0:0:
121,116,170153,5,0,0:0:0:0:
115,161,170238,1,0,0:0:0:0:
121,207,170324,1,8,0:0:0:0:
145,246,170410,1,0,0:0:0:0:
180,274,170495,1,8,0:0:0:0:
223,289,170581,1,0,0:0:0:0:
268,289,170667,1,0,0:0:0:0:
310,274,170753,1,0,0:0:0:0:
346,243,170838,1,8,0:0:0:0:
367,204,170924,1,0,0:0:0:0:
375,159,171010,1,0,0:0:0:0:
365,116,171095,1,0,0:0:0:0:
342,77,171181,1,8,0:0:0:0:
307,48,171267,1,0,0:0:0:0:
263,33,171353,2,0,P|210:42|156:109,1,81.2499962806703,0|0,0:0|0:0,0:0:0:0:
426,263,171524,5,8,0:0:0:0:
434,205,171609,1,0,0:0:0:0:
426,145,171695,1,8,0:0:0:0:
395,94,171781,1,0,0:0:0:0:
349,58,171866,1,8,0:0:0:0:
294,38,171952,1,0,0:0:0:0:
235,38,172038,1,8,0:0:0:0:
180,57,172124,1,0,0:0:0:0:
133,91,172210,1,8,0:0:0:0:
108,146,172295,1,8,0:0:0:0:
99,208,172381,1,8,0:0:0:0:
117,267,172466,1,8,0:0:0:0:
151,319,172552,1,8,0:0:0:0:
200,356,172638,1,8,0:0:0:0:
263,373,172724,2,0,P|306:366|351:337,1,81.2499962806703,8|8,0:0|0:0,0:0:0:0:
394,229,172896,6,0,P|330:212|392:234,1,200,12|0,0:0|0:0,0:0:0:0:
122,150,174439,5,10,0:0:0:0:
125,238,174525,1,0,0:0:0:0:
179,307,174610,1,10,0:0:0:0:
394,229,174782,1,2,0:0:0:0:
337,72,174953,1,8,0:0:0:0:
309,330,175125,1,2,0:0:0:0:
480,129,175296,1,8,0:0:0:0:
219,81,175467,2,0,B|200:125|200:125|188:172,1,93.7500035762788,0|0,0:0|0:0,0:0:0:0:
171,236,175639,6,0,B|200:128|200:128|219:81,1,162.499992561341,8|0,0:0|0:0,0:0:0:0:
480,129,175982,1,8,0:0:0:0:
218,177,176153,1,0,0:0:0:0:
480,225,176324,1,10,0:0:0:0:
218,273,176496,1,0,0:0:0:0:
480,321,176667,1,0,0:0:0:0:
218,369,176839,6,0,B|192:287|248:219|248:219|303:145|284:49,1,324.999985122681,10|0,0:0|0:0,0:0:0:0:
24,15,177353,1,8,0:0:0:0:
286,63,177524,1,0,0:0:0:0:
24,111,177696,1,8,0:0:0:0:
286,159,177867,1,0,0:0:0:0:
24,207,178039,1,8,0:0:0:0:
286,255,178210,6,0,B|323:292|323:292|385:318,2,100,8|0|12,0:0|0:0|0:0,0:0:0:0:
114,53,178553,1,0,0:0:0:0:
24,207,178724,1,8,0:0:0:0:
140,203,178896,2,0,L|199:146,1,46.8750017881394,0|0,0:0|0:0,0:0:0:0:
257,106,179067,6,0,P|222:75|149:65,1,93.7500035762788,8|0,0:0|0:0,0:0:0:0:
24,207,179239,1,8,0:0:0:0:
228,359,179410,1,8,0:0:0:0:
257,106,179582,1,8,0:0:0:0:
78,62,179753,6,0,P|69:106|96:176,1,93.7500035762788,12|0,0:0|0:0,0:0:0:0:
154,278,179924,1,0,0:0:0:0:
212,239,180009,1,0,0:0:0:0:
251,181,180095,1,8,0:0:0:0:
78,62,180267,1,0,0:0:0:0:
257,106,180439,6,0,P|300:91|346:32,1,93.7500035762788,8|0,0:0|0:0,0:0:0:0:
246,2,180610,1,8,0:0:0:0:
286,255,180782,1,8,0:0:0:0:
80,152,180953,1,0,0:0:0:0:
80,152,181124,6,0,B|78:234|78:234|118:303,1,162.499992561341,12|0,0:0|0:0,0:0:0:0:
284,366,181467,1,8,0:0:0:0:
424,253,181638,1,0,0:0:0:0:
397,74,181809,1,8,0:0:0:0:
228,11,181981,1,0,0:0:0:0:
116,303,182152,1,0,0:0:0:0:
424,253,182324,6,0,B|398:75|398:75|257:6,1,324.999985122681,8|0,0:0|0:0,0:0:0:0:
64,77,182839,1,8,0:0:0:0:
38,255,183010,1,0,0:0:0:0:
180,368,183181,1,8,0:0:0:0:
347,298,183353,1,0,0:0:0:0:
229,9,183524,1,8,0:0:0:0:
38,255,183696,6,0,B|26:305|26:305|37:372,2,100,8|0|14,0:0|0:0|0:0,0:0:0:0:
278,70,184039,1,0,0:0:0:0:
368,224,184210,1,8,0:0:0:0:
252,220,184382,2,0,L|193:163,1,46.8750017881394,8|0,0:0|0:0,0:0:0:0:
135,123,184553,6,0,P|170:92|243:82,1,93.7500035762788,8|0,0:0|0:0,0:0:0:0:
368,224,184725,1,8,0:0:0:0:
164,376,184896,1,8,0:0:0:0:
135,123,185068,1,8,0:0:0:0:
314,79,185239,6,0,P|323:123|296:193,1,93.7500035762788,12|0,0:0|0:0,0:0:0:0:
238,295,185410,1,0,0:0:0:0:
180,256,185495,1,0,0:0:0:0:
141,198,185581,1,8,0:0:0:0:
314,79,185753,1,8,0:0:0:0:
135,123,185925,6,0,P|92:108|46:49,1,93.7500035762788,8|0,0:0|0:0,0:0:0:0:
312,169,186096,2,0,P|321:213|294:283,1,93.7500035762788,8|0,0:0|0:0,0:0:0:0:
135,123,186267,6,0,P|115:81|124:7,1,93.7500035762788,10|0,0:0|0:0,0:0:0:0:
314,79,186439,1,0,0:0:0:0:
106,272,186610,6,0,L|192:172,1,81.2499962806703,12|0,0:0|0:0,0:0:0:0:
212,148,186781,6,0,L|158:209,1,81.2499962806703,0|0,0:0|0:0,0:0:0:0:
106,272,186953,1,8,0:0:0:0:
309,165,187124,1,8,0:0:0:0:
277,85,187210,1,0,0:0:0:0:
190,61,187296,1,8,0:0:0:0:
106,272,187467,1,8,0:0:0:0:
138,352,187553,1,0,0:0:0:0:
225,376,187639,1,0,0:0:0:0:
326,293,187810,2,0,L|269:236,1,81.2499962806703,8|0,0:0|0:0,0:0:0:0:
163,214,187982,6,0,L|105:271,1,81.2499962806703,0|0,0:0|0:0,0:0:0:0:
63,113,188153,1,8,0:0:0:0:
220,156,188324,2,0,L|334:270,1,162.499992561341,8|8,0:0|0:0,0:0:0:0:
415,156,188667,1,8,0:0:0:0:
334,41,188839,2,0,L|219:155,1,162.499992561341,8|4,0:0|0:0,0:0:0:0:
89,40,189182,6,0,L|170:40,1,81.2499962806703,0|0,0:0|0:0,0:0:0:0:
334,41,189353,6,0,L|171:40,1,162.499992561341,8|0,0:0|0:0,0:0:0:0:
416,40,189696,2,0,L|253:39,1,162.499992561341,8|0,0:0|0:0,0:0:0:0:
261,321,190039,1,8,0:0:0:0:
416,38,190210,1,0,0:0:0:0:
93,46,190382,1,8,0:0:0:0:
420,224,190553,6,0,P|430:136|414:32,1,162.499992561341,10|0,0:0|0:0,0:0:0:0:
99,70,190896,2,0,P|89:158|105:262,1,162.499992561341,10|0,0:0|0:0,0:0:0:0:
261,345,191239,1,8,0:0:0:0:
420,224,191410,1,8,0:0:0:0:
261,345,191582,1,0,0:0:0:0:
420,305,191753,1,8,0:0:0:0:
420,305,191839,2,0,L|420:224,1,81.2499962806703,0|0,0:0|0:0,0:0:0:0:
324,78,192096,6,0,P|259:36|190:73,1,162.499992561341,8|0,0:0|0:0,0:0:0:0:
97,231,192439,1,8,0:0:0:0:
255,324,192610,1,8,0:0:0:0:
256,110,192782,1,8,0:0:0:0:
255,324,192953,1,8,0:0:0:0:
97,231,193124,1,0,0:0:0:0:
107,83,193296,6,0,B|173:35|173:35|278:28,2,162.499992561341,8|0|8,0:0|0:0|0:0,0:0:0:0:
20,227,193810,1,8,0:0:0:0:
255,324,193982,1,8,0:0:0:0:
457,169,194153,2,0,P|499:112|398:139,1,243.749988842011,8|0,0:0|0:0,0:0:0:0:
382,262,194496,1,8,0:0:0:0:
190,73,194667,1,0,0:0:0:0:
512,8,194839,6,0,B|436:53|436:53|394:124|394:124|323:157|303:254,1,324.999985122681,12|8,0:0|0:0,0:0:0:0:
123,335,195353,2,0,L|91:280,1,62.5,0|0,0:0|0:0,0:0:0:0:
41,190,195524,2,0,P|107:177|159:201,1,125,8|0,0:0|0:0,0:0:0:0:
211,288,195782,1,0,0:0:0:0:
123,335,195867,2,0,L|48:203,1,125,8|0,0:0|0:0,0:0:0:0:
235,180,196210,5,0,0:0:0:0:
310,310,196382,2,0,L|407:253,1,62.5,8|0,0:0|0:0,0:0:0:0:
472,128,196553,1,0,0:0:0:0:
235,180,196724,2,0,L|291:277,1,62.5,8|0,0:0|0:0,0:0:0:0:
415,343,196896,1,0,0:0:0:0:
364,105,197067,2,0,L|266:161,1,62.5,8|0,0:0|0:0,0:0:0:0:
201,286,197239,1,0,0:0:0:0:
439,235,197410,2,0,L|382:137,1,62.5,8|0,0:0|0:0,0:0:0:0:
258,71,197582,5,8,0:0:0:0:
203,102,197753,1,8,0:0:0:0:
149,133,197924,1,8,0:0:0:0:
124,169,198010,1,8,0:0:0:0:
116,212,198095,1,8,0:0:0:0:
124,255,198181,1,8,0:0:0:0:
149,292,198267,6,0,P|119:237|198:108,1,218.75,12|0,0:0|0:0,0:0:0:0:
321,55,198953,6,0,L|368:118,1,62.5,12|0,0:0|0:0,0:0:0:0:
364,320,199124,2,0,L|317:257,1,62.5,0|0,0:0|0:0,0:0:0:0:
187,111,199296,1,8,0:0:0:0:
149,292,199467,1,0,0:0:0:0:
149,292,199553,1,0,0:0:0:0:
149,292,199639,1,8,0:0:0:0:
302,149,199810,1,0,0:0:0:0:
95,191,199982,1,10,0:0:0:0:
276,307,200153,2,0,L|339:260,1,62.5,2|0,0:0|0:0,0:0:0:0:
385,193,200324,5,8,0:0:0:0:
393,132,200409,1,0,0:0:0:0:
362,79,200495,1,8,0:0:0:0:
306,56,200581,1,0,0:0:0:0:
247,73,200666,1,8,0:0:0:0:
170,133,200839,2,0,L|219:178,1,62.5,8|0,0:0|0:0,0:0:0:0:
326,269,201010,1,8,0:0:0:0:
68,143,201182,2,0,L|117:188,1,62.5,8|0,0:0|0:0,0:0:0:0:
224,279,201353,1,8,0:0:0:0:
224,279,201439,1,0,0:0:0:0:
224,279,201524,1,0,0:0:0:0:
428,319,201696,6,0,P|443:287|449:248,1,62.5,10|0,0:0|0:0,0:0:0:0:
454,217,201867,1,0,0:0:0:0:
456,173,201953,1,0,0:0:0:0:
446,130,202038,1,10,0:0:0:0:
423,93,202124,1,0,0:0:0:0:
389,65,202210,1,0,0:0:0:0:
348,48,202295,1,0,0:0:0:0:
304,45,202382,1,10,0:0:0:0:
297,75,202467,1,0,0:0:0:0:
290,106,202553,1,0,0:0:0:0:
284,136,202639,1,0,0:0:0:0:
277,167,202724,1,10,0:0:0:0:
271,197,202810,1,0,0:0:0:0:
264,228,202896,1,0,0:0:0:0:
257,258,202982,1,0,0:0:0:0:
249,287,203067,6,0,L|204:331,1,62.5,8|0,0:0|0:0,0:0:0:0:
76,269,203239,1,0,0:0:0:0:
76,269,203324,1,0,0:0:0:0:
76,269,203410,2,0,L|75:172,1,62.5,8|0,0:0|0:0,0:0:0:0:
204,122,203582,1,0,0:0:0:0:
204,122,203667,1,0,0:0:0:0:
204,122,203753,6,0,L|248:77,1,62.5,10|0,0:0|0:0,0:0:0:0:
380,152,203924,2,0,L|308:225,1,62.5,10|0,0:0|0:0,0:0:0:0:
277,225,204096,2,0,L|203:153,1,62.5,10|0,0:0|0:0,0:0:0:0:
307,49,204267,2,0,L|352:93,1,62.5,10|0,0:0|0:0,0:0:0:0:
378,368,204439,6,0,B|422:324|422:324|455:265,1,125,12|0,0:0|0:0,0:0:0:0:
444,116,204781,1,8,0:0:0:0:
307,49,204953,1,10,0:0:0:0:
214,130,205124,2,0,B|190:157|190:157|174:193,1,62.5,0|0,0:0|0:0,0:0:0:0:
116,287,205296,1,10,0:0:0:0:
28,123,205467,1,0,0:0:0:0:
214,130,205639,1,10,0:0:0:0:
315,200,205810,6,0,L|360:258,1,62.5,0|0,0:0|0:0,0:0:0:0:
431,347,205982,1,8,0:0:0:0:
300,383,206153,2,0,L|223:282,1,125,8|0,0:0|0:0,0:0:0:0:
214,130,206496,2,0,L|155:174,1,62.5,8|0,0:0|0:0,0:0:0:0:
25,231,206667,1,8,0:0:0:0:
25,231,206753,1,0,0:0:0:0:
25,231,206839,2,0,L|52:100,1,125,8|8,0:0|0:0,0:0:0:0:
342,78,207181,6,0,L|314:208,1,125,12|0,0:0|0:0,0:0:0:0:
166,167,207524,1,8,0:0:0:0:
342,78,207696,1,8,0:0:0:0:
166,167,207867,2,0,L|87:207,1,62.5,8|0,0:0|0:0,0:0:0:0:
25,231,208039,1,8,0:0:0:0:
155,315,208210,1,8,0:0:0:0:
25,231,208381,1,12,0:0:0:0:
41,78,208553,6,0,L|115:124,1,62.5,0|0,0:0|0:0,0:0:0:0:
166,167,208725,1,8,0:0:0:0:
280,331,208896,2,0,L|155:314,1,125,0|8,0:0|0:0,0:0:0:0:
25,231,209239,2,0,L|29:142,1,62.5,8|0,0:0|0:0,0:0:0:0:
40,78,209411,1,0,0:0:0:0:
156,314,209582,1,4,0:0:0:0:
