osu file format v14

[General]
AudioFilename: Children.mp3
AudioLeadIn: 0
PreviewTime: 50839
Countdown: 0
SampleSet: Normal
StackLeniency: 0.8
Mode: 0
LetterboxInBreaks: 1
WidescreenStoryboard: 1

[Editor]
DistanceSpacing: 0.9
BeatDivisor: 2
GridSize: 4
TimelineZoom: 1.9

[Metadata]
Title:Okochama Sensou
TitleUnicode:おこちゃま戦争
Artist:kradness&Reol
ArtistUnicode:kradness&れをる
Creator:Kalindraz
Version:Marianna's Normal
Source:
Tags:Giga-p Len Rin Kagamine Marianna TG Children's War Tarrasky Trynna Ataraxia Seto Net0 BR
BeatmapID:732327
BeatmapSetID:155252

[Difficulty]
HPDrainRate:4
CircleSize:3.5
OverallDifficulty:5
ApproachRate:4
SliderMultiplier:1
SliderTickRate:1

[Events]
//Background and Video events
0,0,"BG.png",0,0
//Break Periods
2,45553,46776
2,72982,76947
2,127839,137290
2,161924,172896
//Storyboard Layer 0 (Background)
//Storyboard Layer 1 (Fail)
//Storyboard Layer 2 (Pass)
//Storyboard Layer 3 (Foreground)
//Storyboard Sound Samples

[TimingPoints]
5582,342.857142857143,4,1,0,50,1,0
22039,-100,4,1,2,50,0,0
22210,-100,4,1,0,50,0,0
48096,-100,4,1,0,50,0,0
50839,-100,4,1,2,60,0,1
53582,-100,4,3,0,60,0,1
56324,-100,4,1,2,60,0,1
59067,-100,4,3,0,60,0,1
61810,-100,4,1,2,60,0,1
72782,-100,4,1,2,60,0,0
78278,-100,4,1,0,60,0,0
105696,-100,4,1,2,60,0,1
108449,-100,4,3,0,60,0,1
111182,-100,4,1,2,60,0,1
113935,-100,4,3,0,60,0,1
116667,-100,4,1,2,60,0,1
127639,-100,4,1,2,60,0,0
160553,-100,4,1,2,5,0,0
161582,-76.9230769230769,4,1,2,65,0,0
175639,-100,4,1,2,65,0,1
198953,-100,4,1,2,65,0,0

[Colours]
Combo1 : 185,0,185
Combo2 : 255,128,64
Combo3 : 255,255,0
Combo4 : 190,190,190
Combo5 : 255,0,0
Combo6 : 128,0,0

[HitObjects]
84,96,6953,6,0,P|112:84|184:96,1,100,2|8,0:0|0:0,0:0:0:0:
244,156,7639,2,0,P|272:168|344:156,1,100,2|8,0:0|0:0,0:0:0:0:
404,100,8324,2,0,B|440:136|424:192|424:192|484:256|452:324,2,200,2|2|2,0:0|0:0|0:0,0:0:0:0:
320,68,10039,6,0,L|208:40,1,100,8|2,0:0|0:0,0:0:0:0:
164,112,10724,2,0,L|261:136,1,100,8|2,0:0|0:0,0:0:0:0:
324,200,11410,1,8,0:0:0:0:
256,260,11753,2,0,P|200:276|148:260,1,100,2|8,0:0|0:0,0:0:0:0:
80,228,12439,6,0,B|68:180|96:128|96:128|152:48,1,200,4|0,0:0|0:0,0:0:0:0:
236,76,13467,1,2,0:0:0:0:
327,81,13810,2,0,B|339:129|311:181|311:181|255:261,1,200,2|0,0:0|0:0,0:0:0:0:
188,320,14839,1,2,0:0:0:0:
144,240,15182,6,0,B|192:180|100:104|152:36,1,200,2|0,0:0|0:0,0:0:0:0:
232,20,16210,1,2,0:0:0:0:
312,60,16553,2,0,L|320:168,1,100,2|0,0:0|0:0,0:0:0:0:
288,244,17239,2,0,L|296:352,1,100,0|2,0:0|0:0,0:0:0:0:
384,332,17924,5,6,0:0:0:0:
444,164,18610,1,4,0:0:0:0:
288,244,19296,1,6,0:0:0:0:
468,268,19982,1,6,0:0:0:0:
328,156,20667,1,6,0:0:0:0:
256,192,21010,12,0,22039,0:0:0:0:
80,256,23410,6,0,P|152:264|228:204,2,150,6|2|8,0:0|0:0|0:0,0:0:0:0:
56,168,24782,2,0,P|118:128|191:136,2,150,2|2|8,0:0|0:0|0:0,0:0:0:0:
80,256,26153,6,0,L|68:360,1,100,2|8,0:0|0:0,0:0:0:0:
156,332,26839,2,0,B|169:233|169:233|192:232|232:216,2,150,2|2|8,0:0|0:0|0:0,0:0:0:0:
244,348,28210,2,0,P|292:360|348:340,1,100,2|8,0:0|0:0,0:0:0:0:
344,256,28896,6,0,B|328:192|360:160|360:160|424:192,2,150,2|2|8,0:0|0:0|0:0,0:0:0:0:
256,276,30267,2,0,L|148:304,1,100,2|8,0:0|0:0,0:0:0:0:
184,216,30953,2,0,L|76:244,1,100,2|8,0:0|0:0,0:0:0:0:
44,164,31639,6,0,P|20:104|112:16,1,200,2|2,0:0|0:0,0:0:0:0:
192,36,32667,1,8,0:0:0:0:
276,68,33010,2,0,B|304:108|304:164|304:164|304:276,1,200,2|2,0:0|0:0,0:0:0:0:
248,332,34039,1,8,0:0:0:0:
164,296,34382,6,0,P|120:280|36:344,2,150,6|2|8,0:0|0:0|0:0,0:0:0:0:
236,244,35753,2,0,P|280:260|364:196,2,150,2|2|8,0:0|0:0|0:0,0:0:0:0:
156,204,37124,2,0,L|56:160,1,100,2|8,0:0|0:0,0:0:0:0:
132,100,37810,2,0,L|223:140,1,100,2|8,0:0|0:0,0:0:0:0:
304,184,38496,6,0,P|356:216|448:128,1,200,2|2,0:0|0:0,0:0:0:0:
440,48,39524,1,8,0:0:0:0:
356,20,39867,6,0,L|252:28,1,100,0|2,0:0|0:0,0:0:0:0:
204,100,40553,2,0,L|100:108,1,100,0|2,0:0|0:0,0:0:0:0:
68,192,41239,2,0,P|56:264|160:344,2,200
104,107,42953,6,0,B|136:84|136:84|176:12,1,100,8|0,0:0|0:0,0:0:0:0:
212,108,43639,2,0,B|241:55|241:55|273:32,1,100,8|2,0:0|0:0,0:0:0:0:
364,44,44324,2,0,B|432:104|296:168|368:232,1,200,8|8,0:0|0:0,0:0:0:0:
424,292,45353,5,2,0:0:0:0:
376,136,48096,6,0,L|360:24,1,100,2|0,0:0|0:0,0:0:0:0:
276,68,48782,2,0,L|290:166,1,100
212,208,49467,1,2,0:0:0:0:
256,192,49639,12,8,50839,0:0:0:0:
68,116,51524,5,4,0:0:0:0:
236,49,52210,2,0,P|284:37|344:57,2,100,8|4|4,0:0|0:0|0:0,0:0:0:0:
160,96,53239,1,8,0:0:0:0:
68,116,53582,6,0,P|36:208|92:304,1,200,6|8,0:0|0:0,0:0:0:0:
248,228,54953,2,0,P|280:136|224:40,1,200,2|8,0:0|0:0,0:0:0:0:
152,16,55982,1,2,0:0:0:0:
100,92,56324,6,0,P|96:144|104:204,1,100,2|8,0:0|0:0,0:0:0:0:
176,240,57010,2,0,P|180:292|172:352,1,100,4|8,0:0|0:0,0:0:0:0:
84,344,57696,2,0,L|288:336,1,200,4|4,0:0|0:0,0:0:0:0:
348,276,58724,1,8,0:0:0:0:
356,188,59067,6,0,P|320:132|396:24,1,200,6|0,0:0|0:0,0:0:0:0:
456,192,60439,2,0,P|492:248|416:356,1,200,2|0,0:0|0:0,0:0:0:0:
340,364,61467,1,8,0:0:0:0:
260,324,61810,6,0,P|200:316|160:340,2,100,2|4|8,0:0|0:0|0:0,0:0:0:0:
332,268,62839,1,0,0:0:0:0:
308,180,63182,2,0,L|312:76,1,100,4|4,0:0|0:0,0:0:0:0:
232,36,63867,2,0,L|228:135,1,100,8|4,0:0|0:0,0:0:0:0:
148,180,64553,6,0,P|80:188|40:168,2,100,4|4|0,0:0|0:0|0:0,0:0:0:0:
228,135,65582,1,8,0:0:0:0:
308,96,65924,2,0,P|388:80|464:128,2,150,2|0|8,0:0|0:0|0:0,0:0:0:0:
228,136,67296,6,0,P|128:156|76:64,1,200,2|4,0:0|0:0,0:0:0:0:
164,76,68324,1,8,0:0:0:0:
252,60,68667,2,0,P|292:92|304:152,1,100,4|4,0:0|0:0,0:0:0:0:
268,220,69353,2,0,P|232:252|216:312,1,100,4|8,0:0|0:0,0:0:0:0:
292,352,70039,6,0,L|88:292,1,200,4|4,0:0|0:0,0:0:0:0:
64,120,71410,2,0,L|52:0,2,100,8|4|8,0:0|0:0|0:0,0:0:0:0:
128,184,72439,1,2,0:0:0:0:
212,212,72782,1,4,0:0:0:0:
140,120,78267,6,0,L|300:100,2,150,6|0|8,0:0|0:0|0:0,0:0:0:0:
188,196,79639,2,0,L|39:214,2,150,2|0|8,0:0|0:0|0:0,0:0:0:0:
260,252,81010,6,0,P|348:280|424:216,1,200,2|2,0:0|0:0,0:0:0:0:
460,136,82039,1,8,0:0:0:0:
388,84,82382,2,0,P|300:56|224:120,1,200,2|2,0:0|0:0,0:0:0:0:
184,200,83410,1,8,0:0:0:0:
104,244,83753,6,0,P|52:252|0:232,2,100,2|2|0,0:0|0:0|0:0,0:0:0:0:
184,200,84782,1,8,0:0:0:0:
256,148,85124,2,0,B|292:136|300:92|300:92|352:36|412:72,1,200,2|2,0:0|0:0,0:0:0:0:
448,152,86153,1,8,0:0:0:0:
432,244,86496,6,0,B|400:276|412:336|412:336|352:320|312:356,1,200,2|2,0:0|0:0,0:0:0:0:
232,320,87524,1,8,0:0:0:0:
144,336,87867,2,0,P|88:340|32:316,1,100,2|8,0:0|0:0,0:0:0:0:
52,236,88553,2,0,P|108:232|164:256,1,100,2|2,0:0|0:0,0:0:0:0:
236,220,89239,6,0,P|256:152|224:76,2,150,6|2|8,0:0|0:0|0:0,0:0:0:0:
148,208,90610,2,0,L|312:232,2,150,0|2|8,0:0|0:0|0:0,0:0:0:0:
136,120,91982,2,0,L|100:80,2,50,2|2|8,0:0|0:0|0:0,0:0:0:0:
224,100,92667,2,0,L|257:137,2,50,0|2|10,0:0|0:0|0:0,0:0:0:0:
308,68,93353,2,0,B|356:52|404:76|404:76|456:176,1,200,2|2,0:0|0:0,0:0:0:0:
396,236,94382,1,8,0:0:0:0:
312,268,94724,6,0,B|264:320|168:224|120:276,1,200,2|2,0:0|0:0,0:0:0:0:
52,328,95753,1,8,0:0:0:0:
36,240,96096,2,0,L|8:136,1,100,2|2,0:0|0:0,0:0:0:0:
72,80,96782,2,0,L|97:176,1,100,0|2,0:0|0:0,0:0:0:0:
184,192,97467,6,0,L|256:208,2,50,2|0|2,0:0|0:0|0:0,0:0:0:0:
232,116,98153,2,0,L|304:132,2,50,0|2|0,0:0|0:0|0:0,0:0:0:0:
296,52,98839,1,2,0:0:0:0:
376,92,99182,2,0,P|376:168|436:280,1,200,2|2,0:0|0:0,0:0:0:0:
368,340,100210,6,0,L|252:364,1,100,6|8,0:0|0:0,0:0:0:0:
224,284,100896,2,0,L|108:308,1,100,2|8,0:0|0:0,0:0:0:0:
60,240,101582,2,0,P|32:148|100:64,1,200,2|2,0:0|0:0,0:0:0:0:
172,40,102610,1,8,0:0:0:0:
236,104,102953,6,0,B|248:96|248:96|292:112|336:96,1,100,2|0,0:0|0:0,0:0:0:0:
332,188,103639,2,0,B|292:173|248:189|248:189|236:181,1,100,0|2,0:0|0:0,0:0:0:0:
156,140,104324,1,2,0:0:0:0:
256,192,104496,12,4,105696,0:0:0:0:
48,144,106382,5,8,0:0:0:0:
212,72,107067,2,0,L|340:52,1,100,4|4,0:0|0:0,0:0:0:0:
368,128,107753,2,0,L|269:143,1,100,8|4,0:0|0:0,0:0:0:0:
180,164,108439,6,0,P|116:188|24:100,1,200,6|8,0:0|0:0,0:0:0:0:
192,48,109810,2,0,P|256:24|348:112,1,200,2|8,0:0|0:0,0:0:0:0:
372,188,110839,1,2,0:0:0:0:
292,228,111182,6,0,P|260:244|192:216,1,100,2|8,0:0|0:0,0:0:0:0:
128,176,111867,2,0,P|96:160|28:188,1,100,4|8,0:0|0:0,0:0:0:0:
32,268,112553,2,0,L|48:52,1,200,4|4,0:0|0:0,0:0:0:0:
124,20,113582,1,8,0:0:0:0:
200,64,113924,6,0,P|292:88|412:44,1,200,6|0,0:0|0:0,0:0:0:0:
256,180,115296,2,0,P|164:156|44:200,1,200,2|0,0:0|0:0,0:0:0:0:
12,256,116324,1,2,0:0:0:0:
92,296,116667,6,0,B|144:304|144:304|200:296,1,100,2|8,0:0|0:0,0:0:0:0:
280,280,117353,2,0,B|332:272|332:272|388:280,1,100,4|8,0:0|0:0,0:0:0:0:
456,324,118039,2,0,L|464:224,1,100
386,179,118724,2,0,L|378:279,1,100,0|8,0:0|0:0,0:0:0:0:
312,340,119410,6,0,L|176:348,1,100,2|8,0:0|0:0,0:0:0:0:
224,256,120096,2,0,L|88:264,1,100,0|8,0:0|0:0,0:0:0:0:
68,192,120782,2,0,L|56:8,2,150,2|4|8,0:0|0:0|0:0,0:0:0:0:
160,192,122153,6,0,P|196:180|260:192,1,100,2|8,0:0|0:0,0:0:0:0:
304,268,122839,2,0,P|268:280|204:268,1,100,4|8,0:0|0:0,0:0:0:0:
120,284,123524,2,0,L|16:276,2,100,4|4|4,0:0|0:0|0:0,0:0:0:0:
180,352,124553,1,8,0:0:0:0:
232,276,124896,6,0,P|308:244|448:284,1,200,4|8,0:0|0:0,0:0:0:0:
456,88,126267,2,0,P|412:64|356:72,1,100,4|4,0:0|0:0,0:0:0:0:
284,112,126953,2,0,P|240:136|184:128,1,100,4|2,0:0|0:0,0:0:0:0:
108,96,127639,1,8,0:0:0:0:
300,108,138610,6,0,B|348:76|412:148|468:100,2,150,4|4|8,0:0|0:0|0:0,0:0:0:0:
208,108,139982,2,0,B|160:76|96:148|40:100,2,150,4|4|8,0:0|0:0|0:0,0:0:0:0:
188,196,141353,2,0,L|152:308,1,100,2|4,0:0|0:0,0:0:0:0:
244,312,142039,2,0,L|274:216,1,100,4|8,0:0|0:0,0:0:0:0:
324,140,142724,6,0,P|304:84|320:36,1,100,4|4,0:0|0:0,0:0:0:0:
392,92,143410,2,0,P|412:148|396:196,1,100,4|8,0:0|0:0,0:0:0:0:
324,232,144096,2,0,B|288:268|216:200|168:248,2,150,4|4|8,0:0|0:0|0:0,0:0:0:0:
296,148,145467,2,0,B|332:112|404:180|452:132,2,150,4|4|8,0:0|0:0|0:0,0:0:0:0:
212,116,146839,6,0,P|136:96|40:168,1,200,2|2,0:0|0:0,0:0:0:0:
20,248,147867,1,8,0:0:0:0:
96,300,148210,2,0,P|172:320|268:248,1,200,4|4,0:0|0:0,0:0:0:0:
284,164,149239,1,8,0:0:0:0:
264,76,149582,6,0,B|312:56|364:56|364:56|432:56,2,150,4|4|8,0:0|0:0|0:0,0:0:0:0:
312,152,150953,2,0,B|264:172|212:172|212:172|144:172,2,150,2|4|8,0:0|0:0|0:0,0:0:0:0:
404,152,152324,6,0,L|416:216,2,50,2|0|8,0:0|0:0|0:0,0:0:0:0:
356,76,153010,2,0,L|346:26,2,50,0|0|8,0:0|0:0|0:0,0:0:0:0:
268,88,153696,2,0,L|277:137,2,50,4|8|8,0:0|0:0|0:0,0:0:0:0:
184,52,154382,1,0,0:0:0:0:
104,92,154724,1,8,0:0:0:0:
120,180,155067,6,0,L|152:352,2,150,4|4|8,0:0|0:0|0:0,0:0:0:0:
208,196,156439,2,0,L|180:48,2,150,4|4|8,0:0|0:0|0:0,0:0:0:0:
292,232,157810,2,0,P|344:252|408:232,1,100,4|4,0:0|0:0,0:0:0:0:
448,176,158496,2,0,P|396:156|332:176,1,100,4|8,0:0|0:0,0:0:0:0:
264,156,159182,6,0,B|224:212|112:96|64:160,1,200,2|2,0:0|0:0,0:0:0:0:
12,216,160210,1,2,0:0:0:0:
88,264,160553,2,0,P|120:272|192:260,1,100,4|4,0:0|0:0,0:0:0:0:
276,252,161239,2,0,P|308:244|380:256,1,100,4|2,0:0|0:0,0:0:0:0:
256,192,174267,12,4,175639,0:0:0:0:
80,80,176324,5,8,0:0:0:0:
160,40,176667,2,0,P|212:28|280:48,1,100,0|4,0:0|0:0,0:0:0:0:
264,128,177353,2,0,P|215:136|166:124,1,100,4|8,0:0|0:0,0:0:0:0:
104,188,178039,1,0,0:0:0:0:
176,240,178382,6,0,P|228:240|304:376,2,200,2|8|2,0:0|0:0|0:0,0:0:0:0:
32,348,180439,2,0,L|16:240,1,100,8|4,0:0|0:0,0:0:0:0:
84,188,181124,6,0,L|68:80,1,100,2|8,0:0|0:0,0:0:0:0:
156,60,181810,2,0,B|180:28|240:28|240:28|324:28,2,150,4|4|8,0:0|0:0|0:0,0:0:0:0:
152,152,183182,2,0,L|128:268,1,100,4|8,0:0|0:0,0:0:0:0:
200,308,183867,6,0,B|244:348|344:248|404:308,1,200,2|8,0:0|0:0,0:0:0:0:
280,156,185239,2,0,B|236:196|136:96|76:156,1,200,2|8,0:0|0:0,0:0:0:0:
40,224,186267,1,2,0:0:0:0:
92,300,186610,6,0,P|148:312|208:296,1,100,4|4,0:0|0:0,0:0:0:0:
260,248,187296,2,0,P|316:236|376:252,1,100,4|8,0:0|0:0,0:0:0:0:
416,312,187982,2,0,L|424:140,2,150,4|4|8,0:0|0:0|0:0,0:0:0:0:
328,328,189353,6,0,P|264:340|216:328,1,100,2|8,0:0|0:0,0:0:0:0:
148,296,190039,2,0,P|84:284|36:296,1,100,0|8,0:0|0:0,0:0:0:0:
40,200,190724,2,0,P|24:108|100:24,1,200,2|2,0:0|0:0,0:0:0:0:
172,52,191753,1,8,0:0:0:0:
260,48,192096,6,0,P|312:56|368:44,1,100,4|8,0:0|0:0,0:0:0:0:
428,104,192782,2,0,L|444:236,1,100,4|8,0:0|0:0,0:0:0:0:
360,248,193467,2,0,L|347:148,1,100,4|8,0:0|0:0,0:0:0:0:
272,100,194153,2,0,P|208:92|148:108,1,100,4|8,0:0|0:0,0:0:0:0:
169,188,194839,6,0,P|261:204|349:144,1,200,4|8,0:0|0:0,0:0:0:0:
192,56,196210,2,0,L|124:56,1,50,0|4,0:0|0:0,0:0:0:0:
68,108,196724,1,4,0:0:0:0:
56,196,197067,1,4,0:0:0:0:
92,280,197410,6,0,L|112:332,1,50,4|2,0:0|0:0,0:0:0:0:
156,328,197753,2,0,L|176:380,1,50,4|4,0:0|0:0,0:0:0:0:
264,364,198267,1,8,0:0:0:0:
312,288,198610,1,2,0:0:0:0:
256,220,198953,5,12,0:0:0:0:
