osu file format v14

[General]
AudioFilename: Children.mp3
AudioLeadIn: 0
PreviewTime: 50839
Countdown: 0
SampleSet: Normal
StackLeniency: 0.8
Mode: 0
LetterboxInBreaks: 1
WidescreenStoryboard: 1

[Editor]
DistanceSpacing: 0.9
BeatDivisor: 2
GridSize: 4
TimelineZoom: 1.8

[Metadata]
Title:Okochama Sensou
TitleUnicode:おこちゃま戦争
Artist:kradness&Reol
ArtistUnicode:kradness&れをる
Creator:Kalindraz
Version:Marianna's Easy
Source:
Tags:Giga-p Len Rin Kagamine Marianna TG Children's War Tarrasky Trynna Ataraxia Seto Net0 BR
BeatmapID:732326
BeatmapSetID:155252

[Difficulty]
HPDrainRate:3
CircleSize:3
OverallDifficulty:2
ApproachRate:3
SliderMultiplier:0.7
SliderTickRate:1

[Events]
//Background and Video events
0,0,"BG.png",0,0
//Break Periods
2,45553,48199
2,72982,76827
2,127839,137170
2,161924,172896
//Storyboard Layer 0 (Background)
//Storyboard Layer 1 (Fail)
//Storyboard Layer 2 (Pass)
//Storyboard Layer 3 (Foreground)
//Storyboard Sound Samples

[TimingPoints]
5582,342.857142857143,4,1,0,50,1,0
22039,-100,4,1,2,50,0,0
22210,-100,4,1,0,50,0,0
50839,-100,4,1,2,60,0,1
53582,-100,4,3,0,60,0,1
56324,-100,4,1,2,60,0,1
59067,-100,4,3,0,60,0,1
61810,-100,4,1,2,60,0,1
72782,-100,4,1,2,60,0,0
78267,-100,4,1,2,60,0,0
78278,-100,4,1,0,60,0,0
105696,-100,4,1,2,60,0,1
108439,-100,4,1,2,60,0,1
108449,-100,4,3,0,60,0,1
111182,-100,4,1,2,60,0,1
113924,-100,4,1,2,60,0,1
113935,-100,4,3,0,60,0,1
116667,-100,4,1,2,60,0,1
127639,-100,4,1,2,60,0,0
160553,-100,4,1,2,5,0,0
161582,-76.9230769230769,4,1,2,65,0,0
175639,-100,4,1,2,65,0,1
198953,-100,4,1,2,65,0,0

[Colours]
Combo1 : 185,0,185
Combo2 : 255,128,64
Combo3 : 255,255,0
Combo4 : 190,190,190
Combo5 : 255,0,0
Combo6 : 128,0,0

[HitObjects]
160,44,6953,6,0,B|156:116|156:116|196:180,1,140,2|2,0:0|0:0,0:0:0:0:
320,172,8324,2,0,B|355:114|355:114|351:42,1,140,2|2,0:0|0:0,0:0:0:0:
456,116,9696,6,0,L|472:260,1,140,2|2,0:0|0:0,0:0:0:0:
348,288,11067,2,0,L|332:148,1,140,2|2,0:0|0:0,0:0:0:0:
236,64,12439,6,0,P|168:48|88:80,2,140,4|0|2,0:0|0:0|0:0,0:0:0:0:
172,172,14496,2,0,P|168:208|160:240,1,70,0|2,0:0|0:0,0:0:0:0:
148,304,15182,2,0,B|200:308|200:308|232:300|232:300|296:304,1,140,2|0,0:0|0:0,0:0:0:0:
400,244,16553,2,0,P|416:176|400:104,1,140,2|0,0:0|0:0,0:0:0:0:
280,80,17924,6,0,B|212:72|212:100|140:84,2,140,6|4|6,0:0|0:0|0:0,0:0:0:0:
401,108,19982,1,6,0:0:0:0:
256,192,20667,12,0,22039,0:0:0:0:
76,80,23410,6,0,P|64:144|80:192,1,105,6|2,0:0|0:0,0:0:0:0:
148,244,24439,1,8,0:0:0:0:
208,228,24782,2,0,L|316:224,1,105,2|2,0:0|0:0,0:0:0:0:
392,176,25810,1,8,0:0:0:0:
432,128,26153,6,0,P|440:80|416:24,2,105,2|0|0,0:0|0:0|0:0,0:0:0:0:
376,240,27867,2,0,L|360:316,2,70,8|2|8,0:0|0:0|0:0,0:0:0:0:
324,204,28896,6,0,P|260:180|208:192,1,105,2|2,0:0|0:0,0:0:0:0:
140,224,29924,1,8,0:0:0:0:
116,168,30267,2,0,B|112:124|112:124|116:100|116:100|112:56,1,105,2|0,0:0|0:0,0:0:0:0:
204,36,31296,1,8,0:0:0:0:
260,64,31639,6,0,P|312:76|368:64,1,105,2|0,0:0|0:0,0:0:0:0:
424,136,32667,1,8,0:0:0:0:
452,192,33010,2,0,B|456:244|440:244|444:300,2,105,2|0|8,0:0|0:0|0:0,0:0:0:0:
424,136,34382,6,0,P|372:124|320:132,1,105,6|2,0:0|0:0,0:0:0:0:
244,184,35410,1,8,0:0:0:0:
184,208,35753,2,0,L|68:220,1,105,2|2,0:0|0:0,0:0:0:0:
28,140,36782,1,8,0:0:0:0:
64,88,37124,6,0,P|108:60|172:64,1,105,2|0,0:0|0:0,0:0:0:0:
248,96,38153,1,8,0:0:0:0:
296,140,38496,2,0,B|388:148|388:148|440:128,1,140,2|2,0:0|0:0,0:0:0:0:
440,256,39867,6,0,L|448:328,1,70,0|2,0:0|0:0,0:0:0:0:
328,360,40896,1,2,0:0:0:0:
280,320,41239,2,0,P|232:304|196:304,1,70,0|0,0:0|0:0,0:0:0:0:
88,324,42267,1,0,0:0:0:0:
76,264,42610,6,0,L|56:156,1,105,0|0,0:0|0:0,0:0:0:0:
112,84,43639,1,8,0:0:0:0:
164,116,43982,2,0,P|220:132|304:92,1,140,2|0,0:0|0:0,0:0:0:0:
404,40,45353,5,2,0:0:0:0:
256,192,49639,12,8,50839,0:0:0:0:
60,88,52210,6,0,B|128:96|128:64|208:84,1,140,8|4,0:0|0:0,0:0:0:0:
324,104,53582,2,0,L|464:136,1,140,6|8,0:0|0:0,0:0:0:0:
472,260,54953,2,0,L|335:228,1,140,2|8,0:0|0:0,0:0:0:0:
216,272,56324,6,0,B|136:280|136:280|96:284|72:248,1,140,2|4,0:0|0:0,0:0:0:0:
60,136,57696,2,0,B|140:128|140:128|180:124|204:160,1,140,4|4,0:0|0:0,0:0:0:0:
292,224,59067,2,0,B|400:232|400:232|384:204,1,140,6|0,0:0|0:0,0:0:0:0:
288,124,60439,2,0,B|180:116|180:116|196:144,1,140,2|0,0:0|0:0,0:0:0:0:
128,252,61810,6,0,L|116:324,2,70,2|4|8,0:0|0:0|0:0,0:0:0:0:
195,143,63182,2,0,L|206:73,2,70,4|4|8,0:0|0:0|0:0,0:0:0:0:
280,236,64553,2,0,P|344:260|416:240,1,140,4|0,0:0|0:0,0:0:0:0:
352,132,65924,2,0,L|328:52,2,70,2|0|0,0:0|0:0|0:0,0:0:0:0:
232,164,67296,6,0,B|188:24,1,140,2|4,0:0|0:0,0:0:0:0:
92,112,68667,2,0,B|133:245,1,140,4|4,0:0|0:0,0:0:0:0:
232,324,70039,5,4,0:0:0:0:
356,348,70724,1,4,0:0:0:0:
312,232,71410,1,8,0:0:0:0:
232,324,72096,1,8,0:0:0:0:
356,348,72782,5,4,0:0:0:0:
96,72,78267,6,0,B|144:76|144:60|200:68,1,105,6|0,0:0|0:0,0:0:0:0:
276,128,79296,1,8,0:0:0:0:
320,172,79639,2,0,L|428:176,1,105,2|0,0:0|0:0,0:0:0:0:
476,256,80667,1,8,0:0:0:0:
436,308,81010,6,0,B|336:348|336:280|228:312,1,210,2|8,0:0|0:0,0:0:0:0:
168,324,82382,2,0,P|88:324|64:212,1,210,2|8,0:0|0:0,0:0:0:0:
116,184,83753,6,0,L|124:76,1,105,2|0,0:0|0:0,0:0:0:0:
208,40,84782,1,8,0:0:0:0:
256,80,85124,2,0,P|304:104|368:96,1,105,2|0,0:0|0:0,0:0:0:0:
440,64,86153,1,8,0:0:0:0:
468,120,86496,6,0,B|472:188|472:188|452:256|452:256|460:336,1,210,2|8,0:0|0:0,0:0:0:0:
400,348,87867,2,0,B|296:320|296:368|192:340,1,210,2|2,0:0|0:0,0:0:0:0:
172,280,89239,6,0,P|160:232|168:176,1,105,6|2,0:0|0:0,0:0:0:0:
240,120,90267,1,8,0:0:0:0:
300,136,90610,2,0,L|416:152,1,105,0|2,0:0|0:0,0:0:0:0:
448,68,91639,1,8,0:0:0:0:
384,68,91982,6,0,B|300:56|300:56|276:40|276:40|176:32,1,210,2|10,0:0|0:0,0:0:0:0:
120,52,93353,2,0,B|88:144|148:144|104:260,1,210,2|8,0:0|0:0,0:0:0:0:
112,320,94724,6,0,B|244:372|388:324,2,280,2|2|2,0:0|0:0|0:0,0:0:0:0:
52,208,98153,1,0,0:0:0:0:
96,92,98839,1,2,0:0:0:0:
216,60,99524,2,0,L|296:76,2,70,0|2|6,0:0|0:0|0:0,0:0:0:0:
56,76,102953,6,0,L|148:64,1,70,2|0,0:0|0:0,0:0:0:0:
184,88,103639,2,0,L|276:76,1,70,0|2,0:0|0:0,0:0:0:0:
312,104,104324,1,2,0:0:0:0:
256,192,104496,12,4,105696,0:0:0:0:
88,56,107067,6,0,B|72:108|72:108|76:140|76:140|64:192,1,140,4|8,0:0|0:0,0:0:0:0:
132,300,108439,2,0,P|196:320|268:312,1,140,6|8,0:0|0:0,0:0:0:0:
332,204,109810,2,0,P|268:184|196:192,1,140,2|8,0:0|0:0,0:0:0:0:
144,76,111182,6,0,B|212:64|212:96|284:80,1,140,2|4,0:0|0:0,0:0:0:0:
404,120,112553,2,0,L|420:272,1,140,4|4,0:0|0:0,0:0:0:0:
320,336,113924,2,0,B|264:332|264:332|236:340|236:340|168:336,1,140,6|0,0:0|0:0,0:0:0:0:
116,228,115296,2,0,B|172:232|172:232|200:224|200:224|268:228,1,140,2|0,0:0|0:0,0:0:0:0:
376,196,116667,6,0,L|392:124,1,70,2|8,0:0|0:0,0:0:0:0:
368,68,117353,1,4,0:0:0:0:
244,40,118039,2,0,P|208:36|164:44,1,70,4|0,0:0|0:0,0:0:0:0:
120,72,118724,1,0,0:0:0:0:
84,192,119410,6,0,L|72:276,1,70,2|8,0:0|0:0,0:0:0:0:
84,324,120096,2,0,P|140:336|196:324,2,105,0|0|0,0:0|0:0|0:0,0:0:0:0:
74,261,121467,1,0,0:0:0:0:
168,180,122153,6,0,L|180:100,1,70,2|8,0:0|0:0,0:0:0:0:
216,60,122839,1,4,0:0:0:0:
312,144,123524,2,0,P|356:152|388:144,1,70,4|4,0:0|0:0,0:0:0:0:
432,108,124210,1,4,0:0:0:0:
436,232,124896,6,0,P|376:268|344:336,1,140,4|8,0:0|0:0,0:0:0:0:
220,336,126267,2,0,L|140:320,1,70,4|4,0:0|0:0,0:0:0:0:
112,272,126953,1,4,0:0:0:0:
176,164,127639,1,8,0:0:0:0:
336,128,138610,6,0,P|396:120|448:132,2,105,4|4|8,0:0|0:0|0:0,0:0:0:0:
276,148,139982,2,0,P|208:164|128:144,1,140,4|0,0:0|0:0,0:0:0:0:
44,68,141353,5,2,0:0:0:0:
32,192,142039,1,4,0:0:0:0:
68,312,142724,1,4,0:0:0:0:
192,340,143410,2,0,L|280:324,1,70,4|8,0:0|0:0,0:0:0:0:
308,284,144096,6,0,L|416:260,2,105,4|4|8,0:0|0:0|0:0,0:0:0:0:
268,236,145467,2,0,P|248:168|264:100,1,140,4|0,0:0|0:0,0:0:0:0:
368,36,146839,1,2,0:0:0:0:
436,144,147524,1,2,0:0:0:0:
408,264,148210,1,4,0:0:0:0:
296,324,148896,2,0,L|220:336,1,70,4|8,0:0|0:0,0:0:0:0:
164,320,149582,6,0,L|44:336,2,105,4|4|8,0:0|0:0|0:0,0:0:0:0:
188,260,150953,2,0,P|200:204|172:116,1,140,2|0,0:0|0:0,0:0:0:0:
72,56,152324,1,2,0:0:0:0:
196,44,153010,1,0,0:0:0:0:
320,36,153696,1,4,0:0:0:0:
260,148,154382,2,0,P|248:188|252:220,1,70,0|8,0:0|0:0,0:0:0:0:
284,268,155067,6,0,L|396:276,2,105,4|4|8,0:0|0:0|0:0,0:0:0:0:
232,300,156439,2,0,L|88:296,1,140,4|0,0:0|0:0,0:0:0:0:
64,172,157810,2,0,P|84:116|220:104,1,210,4|8,0:0|0:0,0:0:0:0:
272,132,159182,6,0,P|308:136|344:132,1,70,2|0,0:0|0:0,0:0:0:0:
392,96,159867,2,0,P|428:92|464:96,2,70,2|2|4,0:0|0:0|0:0,0:0:0:0:
256,192,174439,12,4,175639,0:0:0:0:
92,60,177010,6,0,B|68:152|68:152|72:200,1,140,4|8,0:0|0:0,0:0:0:0:
180,260,178382,2,0,P|248:276|320:248,1,140,2|8,0:0|0:0,0:0:0:0:
308,128,179753,2,0,P|240:112|168:140,1,140,2|8,0:0|0:0,0:0:0:0:
78,58,181124,6,0,B|70:110|70:110|78:142|78:142|70:210,1,140,2|4,0:0|0:0,0:0:0:0:
148,296,182496,2,0,P|216:316|284:300,1,140,0|4,0:0|0:0,0:0:0:0:
368,208,183867,2,0,B|372:152|372:152|384:128|384:128|388:56,1,140,2|8,0:0|0:0,0:0:0:0:
268,36,185239,2,0,B|264:92|264:92|252:116|252:116|248:188,1,140,2|8,0:0|0:0,0:0:0:0:
176,276,186610,6,0,P|128:284|96:276,1,70,4|4,0:0|0:0,0:0:0:0:
56,244,187296,1,4,0:0:0:0:
128,140,187982,2,0,L|172:72,1,70,4|0,0:0|0:0,0:0:0:0:
224,52,188667,1,0,0:0:0:0:
288,160,189353,2,0,P|288:196|300:232,1,70,2|8,0:0|0:0,0:0:0:0:
328,284,190039,6,0,P|376:292|444:272,2,105,0|0|0,0:0|0:0|0:0,0:0:0:0:
272,312,191410,1,2,0:0:0:0:
168,240,192096,6,0,L|160:164,1,70,4|8,0:0|0:0,0:0:0:0:
172,108,192782,1,4,0:0:0:0:
296,100,193467,2,0,P|340:112|384:104,1,70,4|8,0:0|0:0,0:0:0:0:
420,84,194153,1,4,0:0:0:0:
384,204,194839,2,0,P|324:224|272:284,1,140,4|8,0:0|0:0,0:0:0:0:
156,328,196210,5,0,0:0:0:0:
156,328,197582,2,0,L|144:248,1,70,2|4,0:0|0:0,0:0:0:0:
100,216,198267,2,0,L|88:136,1,70,8|2,0:0|0:0,0:0:0:0:
44,100,198953,5,12,0:0:0:0:
