osu file format v14

[General]
AudioFilename: Children.mp3
AudioLeadIn: 0
PreviewTime: 50839
Countdown: 0
SampleSet: Normal
StackLeniency: 0.3
Mode: 0
LetterboxInBreaks: 1
WidescreenStoryboard: 1

[Editor]
DistanceSpacing: 1.4
BeatDivisor: 4
GridSize: 4
TimelineZoom: 1.8

[Metadata]
Title:Okochama Sensou
TitleUnicode:おこちゃま戦争
Artist:kradness&Reol
ArtistUnicode:kradness&れをる
Creator:Kalindraz
Version:Marianna's Divine Edition
Source:
Tags:Giga-p Len Rin Kagamine Marianna TG Children's War Tarrasky Trynna Ataraxia Seto Net0 BR
BeatmapID:1201583
BeatmapSetID:155252

[Difficulty]
HPDrainRate:3
CircleSize:4.5
OverallDifficulty:9
ApproachRate:10
SliderMultiplier:1.8
SliderTickRate:1

[Events]
//Background and Video events
0,0,"BG.png",0,0
//Break Periods
2,72982,77817
2,103153,103874
2,127839,138160
//Storyboard Layer 0 (Background)
//Storyboard Layer 1 (Fail)
//Storyboard Layer 2 (Pass)
//Storyboard Layer 3 (Foreground)
//Storyboard Sound Samples

[TimingPoints]
5582,342.857142857143,4,1,0,50,1,0
12439,-133.333333333333,4,1,0,50,0,0
19982,-181.818181818181,4,1,0,50,0,0
20667,-200,4,1,0,50,0,0
22039,-100,4,1,2,50,0,0
23410,-100,4,1,0,50,0,0
39867,-83.3333333333333,4,1,0,50,0,0
40210,-133.333333333333,4,1,0,50,0,0
40553,-83.3333333333333,4,1,0,50,0,0
40896,-133.333333333333,4,1,0,50,0,0
41239,-100,4,1,0,50,0,0
45353,-200,4,1,0,50,0,0
50839,-100,4,1,2,60,0,1
53410,-133.333333333333,4,2,1,60,0,1
55982,-66.6666666666667,4,2,1,60,0,1
56324,-100,4,1,2,60,0,1
58896,-133.333333333333,4,2,1,60,0,1
61467,-50,4,2,1,60,0,1
61810,-100,4,1,2,60,0,1
66953,-25,4,1,2,60,0,1
67124,-200,4,1,2,5,0,1
67296,-66.6666666666667,4,1,2,60,0,1
70039,-200,4,2,1,60,0,1
72782,-100,4,1,2,60,0,0
78267,-133.333333333333,4,2,0,60,0,0
89239,-200,4,2,0,60,0,0
97982,-133.333333333333,4,2,0,60,0,0
98496,-100,4,2,0,60,0,0
99010,-200,4,2,0,60,0,0
102953,-200,4,1,2,60,0,0
104324,-133.333333333333,4,2,2,60,0,0
105696,-200,4,1,2,60,0,1
108439,-100,4,2,1,60,0,1
110839,-66.6666666666667,4,2,1,60,0,1
111182,-200,4,1,2,60,0,1
113924,-100,4,2,1,60,0,1
116324,-50,4,2,1,60,0,1
116667,-200,4,1,2,60,0,1
125582,-133.333333333333,4,1,2,60,0,1
126267,-100,4,1,2,60,0,1
127124,-100,4,2,1,60,0,1
127639,-100,4,1,2,60,0,0
138610,-133.333333333333,4,2,1,60,0,0
141353,-66.6666666666667,4,2,1,60,0,0
141439,-66.6666666666667,4,2,1,5,0,0
141524,-66.6666666666667,4,2,1,60,0,0
141610,-66.6666666666667,4,2,1,5,0,0
141696,-66.6666666666667,4,2,1,60,0,0
141782,-66.6666666666667,4,2,1,5,0,0
141867,-66.6666666666667,4,2,1,60,0,0
141953,-66.6666666666667,4,2,1,5,0,0
142039,-66.6666666666667,4,2,1,60,0,0
142124,-66.6666666666667,4,2,1,5,0,0
142210,-66.6666666666667,4,2,1,60,0,0
142296,-66.6666666666667,4,2,1,5,0,0
142382,-66.6666666666667,4,2,1,60,0,0
142467,-66.6666666666667,4,2,1,5,0,0
142553,-66.6666666666667,4,2,1,60,0,0
142639,-66.6666666666667,4,2,1,5,0,0
142724,-66.6666666666667,4,2,1,60,0,0
142810,-66.6666666666667,4,2,1,5,0,0
142896,-66.6666666666667,4,2,1,60,0,0
142982,-66.6666666666667,4,2,1,5,0,0
143067,-66.6666666666667,4,2,1,60,0,0
143153,-66.6666666666667,4,2,1,5,0,0
143239,-66.6666666666667,4,2,1,60,0,0
143324,-66.6666666666667,4,2,1,5,0,0
143410,-66.6666666666667,4,2,1,60,0,0
143496,-66.6666666666667,4,2,1,5,0,0
143582,-66.6666666666667,4,2,1,60,0,0
143667,-66.6666666666667,4,2,1,5,0,0
143753,-66.6666666666667,4,2,1,60,0,0
143839,-66.6666666666667,4,2,1,5,0,0
143924,-66.6666666666667,4,2,1,60,0,0
144010,-66.6666666666667,4,2,1,5,0,0
144096,-133.333333333333,4,2,1,60,0,0
146839,-66.6666666666667,4,2,1,60,0,0
146924,-66.6666666666667,4,2,1,5,0,0
147010,-66.6666666666667,4,2,1,60,0,0
147096,-66.6666666666667,4,2,1,5,0,0
147182,-66.6666666666667,4,2,1,60,0,0
147267,-66.6666666666667,4,2,1,5,0,0
147353,-66.6666666666667,4,2,1,60,0,0
147353,-66.6666666666667,4,2,1,60,0,0
147439,-66.6666666666667,4,2,1,5,0,0
147524,-66.6666666666667,4,2,1,60,0,0
147610,-66.6666666666667,4,2,1,5,0,0
147696,-66.6666666666667,4,2,1,60,0,0
147782,-66.6666666666667,4,2,1,5,0,0
147867,-66.6666666666667,4,2,1,60,0,0
147953,-66.6666666666667,4,2,1,5,0,0
148039,-66.6666666666667,4,2,1,60,0,0
148124,-66.6666666666667,4,2,1,5,0,0
148210,-66.6666666666667,4,2,1,60,0,0
148296,-66.6666666666667,4,2,1,5,0,0
148382,-66.6666666666667,4,2,1,60,0,0
148467,-66.6666666666667,4,2,1,5,0,0
148553,-66.6666666666667,4,2,1,60,0,0
148639,-66.6666666666667,4,2,1,5,0,0
148724,-66.6666666666667,4,2,1,60,0,0
148810,-66.6666666666667,4,2,1,5,0,0
148896,-66.6666666666667,4,2,1,60,0,0
148982,-66.6666666666667,4,2,1,5,0,0
149067,-66.6666666666667,4,2,1,60,0,0
149153,-66.6666666666667,4,2,1,5,0,0
149239,-66.6666666666667,4,2,1,60,0,0
149324,-66.6666666666667,4,2,1,5,0,0
149410,-66.6666666666667,4,2,1,60,0,0
149496,-66.6666666666667,4,2,1,5,0,0
149582,-133.333333333333,4,2,1,60,0,0
152324,-66.6666666666667,4,2,1,60,0,0
152410,-66.6666666666667,4,2,1,5,0,0
152496,-66.6666666666667,4,2,1,60,0,0
152582,-66.6666666666667,4,2,1,5,0,0
152667,-66.6666666666667,4,2,1,60,0,0
152753,-66.6666666666667,4,2,1,5,0,0
152839,-66.6666666666667,4,2,1,60,0,0
152924,-66.6666666666667,4,2,1,5,0,0
153010,-66.6666666666667,4,2,1,60,0,0
153096,-66.6666666666667,4,2,1,5,0,0
153182,-66.6666666666667,4,2,1,60,0,0
153267,-66.6666666666667,4,2,1,5,0,0
153353,-66.6666666666667,4,2,1,60,0,0
153439,-66.6666666666667,4,2,1,5,0,0
153524,-66.6666666666667,4,2,1,60,0,0
153610,-66.6666666666667,4,2,1,5,0,0
153696,-66.6666666666667,4,2,1,60,0,0
153782,-66.6666666666667,4,2,1,5,0,0
153867,-66.6666666666667,4,2,1,60,0,0
153953,-66.6666666666667,4,2,1,5,0,0
154039,-66.6666666666667,4,2,1,60,0,0
154124,-66.6666666666667,4,2,1,5,0,0
154210,-66.6666666666667,4,2,1,60,0,0
154296,-66.6666666666667,4,2,1,5,0,0
154382,-66.6666666666667,4,2,1,60,0,0
154467,-66.6666666666667,4,2,1,5,0,0
154553,-66.6666666666667,4,2,1,60,0,0
154639,-66.6666666666667,4,2,1,5,0,0
154724,-66.6666666666667,4,2,1,60,0,0
154810,-66.6666666666667,4,2,1,5,0,0
154896,-66.6666666666667,4,2,1,60,0,0
154982,-66.6666666666667,4,2,1,5,0,0
155067,-133.333333333333,4,2,1,60,0,0
160553,-100,4,1,2,5,0,0
161582,-76.9230769230769,4,1,2,65,0,0
167067,-76.9230769230769,4,2,1,5,0,0
167410,-76.9230769230769,4,2,1,70,0,0
175639,-100,4,1,2,65,0,1
178210,-100,4,2,1,65,0,1
180782,-66.6666666666667,4,2,1,65,0,1
181124,-100,4,1,2,65,0,1
183696,-100,4,2,1,65,0,1
186267,-50,4,2,1,65,0,1
186610,-100,4,1,2,65,0,1
191753,-25,4,1,2,60,0,1
191924,-200,4,1,2,65,0,1
192096,-66.6666666666667,4,1,2,65,0,1
194839,-200,4,2,1,65,0,1
198953,-100,4,1,2,65,0,0

[Colours]
Combo1 : 185,0,185
Combo2 : 255,128,64
Combo3 : 255,255,0
Combo4 : 190,190,190
Combo5 : 255,0,0
Combo6 : 128,0,0

[HitObjects]
176,24,5581,5,4,0:0:0:0:
288,276,5753,6,0,L|284:232,2,45,0|2|2,0:0|0:0|0:0,0:0:0:0:
332,136,6096,1,0,0:0:0:0:
208,212,6267,1,2,0:0:0:0:
352,212,6439,1,0,0:0:0:0:
232,136,6610,1,2,0:0:0:0:
288,276,6782,1,0,0:0:0:0:
300,40,6953,6,0,P|256:32|212:40,1,90,4|2,0:0|0:0,0:0:0:0:
212,184,7296,2,0,P|256:192|300:184,1,90,8|2,0:0|0:0,0:0:0:0:
300,40,7639,1,2,0:0:0:0:
212,184,7810,1,0,0:0:0:0:
340,112,7982,1,8,0:0:0:0:
176,112,8153,1,2,0:0:0:0:
300,183,8324,5,2,0:0:0:0:
211,40,8496,1,2,0:0:0:0:
320,212,8667,2,0,L|320:304,1,90,4|0,0:0|0:0,0:0:0:0:
408,188,9010,1,2,0:0:0:0:
216,288,9182,1,0,0:0:0:0:
193,286,9267,1,2,0:0:0:0:
171,284,9353,2,0,L|80:284,1,90,0|2,0:0|0:0,0:0:0:0:
204,360,9696,5,2,0:0:0:0:
144,192,9867,1,0,0:0:0:0:
81,284,10039,1,0,0:0:0:0:
252,224,10210,5,2,0:0:0:0:
192,92,10382,1,0,0:0:0:0:
171,284,10553,5,2,0:0:0:0:
336,192,10724,1,0,0:0:0:0:
76,156,10896,5,2,0:0:0:0:
344,104,11067,5,0,0:0:0:0:
228,320,11239,5,2,0:0:0:0:
176,28,11410,1,2,0:0:0:0:
412,232,11753,5,2,0:0:0:0:
112,196,11924,1,2,0:0:0:0:
308,24,12096,1,2,0:0:0:0:
324,240,12439,5,0,0:0:0:0:
281,253,12553,1,0,0:0:0:0:
236,255,12667,1,0,0:0:0:0:
192,244,12782,1,0,0:0:0:0:
256,40,13124,1,0,0:0:0:0:
256,40,13467,1,0,0:0:0:0:
344,236,13810,5,0,0:0:0:0:
289,256,13924,1,0,0:0:0:0:
231,257,14039,1,0,0:0:0:0:
176,238,14153,1,0,0:0:0:0:
256,40,14496,1,0,0:0:0:0:
256,40,14839,1,0,0:0:0:0:
364,228,15182,5,0,0:0:0:0:
295,249,15296,1,0,0:0:0:0:
223,249,15410,1,0,0:0:0:0:
154,229,15524,1,0,0:0:0:0:
256,40,15867,1,0,0:0:0:0:
256,40,16210,1,0,0:0:0:0:
384,212,16553,5,0,0:0:0:0:
298,239,16667,1,0,0:0:0:0:
209,241,16782,1,0,0:0:0:0:
123,215,16896,1,0,0:0:0:0:
256,40,17239,1,0,0:0:0:0:
256,40,17582,1,0,0:0:0:0:
408,192,17924,6,0,P|416:300|336:264,1,236.250009012223
104,192,18610,6,0,P|96:300|176:264,1,236.250009012223
328,100,19296,6,0,P|250:24|184:104,1,236.250009012223
256,240,19982,6,0,B|256:200|244:172|244:172|268:172|268:172|256:132|256:88,1,173.250005287171
188,240,20667,6,0,B|140:276|160:332|212:360|256:312|256:312|292:352|368:336|368:264|324:240,1,360
326,241,22724,5,0,0:0:0:0:
336,317,22896,1,2,0:2:0:0:
255,312,23067,1,2,0:2:0:0:
176,318,23239,1,2,0:2:0:0:
187,240,23410,2,0,L|188:148,1,90
172,128,23667,1,0,0:0:0:0:
152,108,23753,1,0,0:0:0:0:
272,28,23924,2,0,L|368:28,1,90
464,128,24267,2,0,L|374:128,1,90
352,140,24524,1,0,0:0:0:0:
336,152,24610,1,0,0:0:0:0:
432,44,24782,5,0,0:0:0:0:
456,204,24953,1,0,0:0:0:0:
332,72,25124,1,0,0:0:0:0:
504,120,25296,1,0,0:0:0:0:
332,172,25467,2,0,L|236:168,1,90
212,152,25724,1,0,0:0:0:0:
184,132,25810,1,0,0:0:0:0:
240,256,25982,1,0,0:0:0:0:
288,72,26153,5,0,0:0:0:0:
144,240,26324,1,0,0:0:0:0:
145,271,26410,1,0,0:0:0:0:
146,302,26496,1,0,0:0:0:0:
290,134,26667,1,0,0:0:0:0:
289,103,26753,1,0,0:0:0:0:
288,72,26839,1,0,0:0:0:0:
144,240,27010,5,0,0:0:0:0:
290,134,27182,1,0,0:0:0:0:
52,176,27353,1,0,0:0:0:0:
29,174,27439,1,0,0:0:0:0:
7,172,27524,5,0,0:0:0:0:
144,96,27696,5,0,0:0:0:0:
148,120,27867,1,0,0:0:0:0:
228,24,28039,1,0,0:0:0:0:
224,48,28210,1,0,0:0:0:0:
308,268,28382,1,0,0:0:0:0:
284,244,28553,6,0,B|232:251|188:237|188:237|196:256|216:272,1,135
316,244,28896,6,0,B|312:148|312:148|336:188,1,135
232,168,29239,1,0,0:0:0:0:
404,228,29410,5,0,0:0:0:0:
416,216,29753,1,0,0:0:0:0:
432,200,30096,1,0,0:0:0:0:
448,184,30439,1,0,0:0:0:0:
464,168,30782,5,0,0:0:0:0:
424,328,30953,1,0,0:0:0:0:
472,136,31124,1,0,0:0:0:0:
420,352,31296,1,0,0:0:0:0:
480,104,31467,1,0,0:0:0:0:
412,384,31639,6,0,L|320:384,1,90
236,328,31896,1,0,0:0:0:0:
228,320,31982,2,0,P|224:280|232:228,1,90
300,160,32239,1,0,0:0:0:0:
308,156,32324,2,0,L|216:156,1,90
76,96,32667,1,0,0:0:0:0:
120,200,32839,1,0,0:0:0:0:
152,40,33010,5,0,0:0:0:0:
32,252,33182,1,0,0:0:0:0:
160,28,33353,1,0,0:0:0:0:
20,272,33524,6,0,L|20:368,1,90
28,88,33867,1,0,0:0:0:0:
32,100,33953,1,0,0:0:0:0:
36,112,34039,6,0,B|136:112|136:112|104:88,1,135
100,180,34382,5,0,0:0:0:0:
196,200,34553,1,0,0:0:0:0:
236,116,34724,1,0,0:0:0:0:
184,48,34896,1,0,0:0:0:0:
108,91,35067,1,0,0:0:0:0:
196,200,35239,1,0,0:0:0:0:
184,48,35410,1,0,0:0:0:0:
100,180,35582,6,0,B|100:324|100:324|128:292,1,180
136,288,36010,1,0,0:0:0:0:
148,276,36096,1,0,0:0:0:0:
24,268,36267,1,0,0:0:0:0:
176,280,36439,1,0,0:0:0:0:
4,268,36610,1,0,0:0:0:0:
212,284,36782,2,0,L|304:280,1,90
152,172,37124,5,0,0:0:0:0:
324,288,37296,1,0,0:0:0:0:
124,152,37467,1,0,0:0:0:0:
352,304,37639,1,0,0:0:0:0:
96,132,37810,1,0,0:0:0:0:
216,352,37982,1,0,0:0:0:0:
248,76,38153,1,0,0:0:0:0:
92,304,38324,5,0,0:0:0:0:
68,232,38667,5,0,0:0:0:0:
132,184,38839,5,0,0:0:0:0:
196,232,39010,5,0,0:0:0:0:
168,304,39182,5,0,0:0:0:0:
132,184,39524,6,0,B|132:80|132:80|152:108,1,135
150,105,39867,6,0,B|36:104|36:104|76:76,1,161.999995056153
220,88,40210,6,0,P|220:124|192:164,1,67.5000025749208
168,40,40553,6,0,P|220:16|292:80,1,161.999995056153
216,155,40896,6,0,L|220:87,1,67.5000025749208
268,212,41153,5,0,0:0:0:0:
272,224,41239,2,0,B|228:240|228:240|180:232,1,90
328,168,41496,5,0,0:0:0:0:
340,184,41582,2,0,L|332:280,1,90
280,84,41924,5,0,0:0:0:0:
408,272,42096,1,0,0:0:0:0:
336,16,42267,5,0,0:0:0:0:
368,348,42439,1,0,0:0:0:0:
408,80,42610,5,0,0:0:0:0:
256,240,42953,1,0,0:0:0:0:
408,80,43124,5,0,0:0:0:0:
336,56,43467,5,0,0:0:0:0:
356,136,43810,5,0,0:0:0:0:
388,0,43982,5,0,0:0:0:0:
384,244,44153,1,0,0:0:0:0:
388,32,44324,1,0,0:0:0:0:
384,272,44496,1,0,0:0:0:0:
384,304,44667,5,0,0:0:0:0:
196,80,45010,1,0,0:0:0:0:
294,275,45353,6,0,L|390:271,1,90
168,208,45867,1,0,0:0:0:0:
164,220,46039,6,0,L|260:216,1,90
360,108,46553,1,0,0:0:0:0:
256,312,46724,5,0,0:0:0:0:
248,296,46896,1,0,0:0:0:0:
253,216,47067,1,0,0:0:0:0:
245,200,47239,1,0,0:0:0:0:
264,128,47410,1,0,0:0:0:0:
256,112,47582,1,0,0:0:0:0:
288,48,47753,1,0,0:0:0:0:
280,32,47924,1,0,0:0:0:0:
288,48,48096,5,0,0:0:0:0:
264,128,48439,1,0,0:0:0:0:
253,216,48782,1,0,0:0:0:0:
256,312,49124,1,0,0:0:0:0:
396,136,49467,5,0,0:0:0:0:
112,248,49639,1,2,0:0:0:0:
96,236,49724,1,2,0:0:0:0:
80,224,49810,1,2,0:0:0:0:
176,300,49982,1,0,0:0:0:0:
156,112,50153,1,2,0:0:0:0:
120,348,50324,1,0,0:0:0:0:
240,72,50496,1,2,0:0:0:0:
48,372,50667,1,0,0:0:0:0:
308,116,50839,6,0,B|436:116|436:116|384:144,1,180,4|0,0:0|0:0,0:0:0:0:
324,204,51353,1,0,0:0:0:0:
368,28,51524,1,0,0:0:0:0:
316,240,51696,1,0,0:0:0:0:
376,0,51867,1,0,0:0:0:0:
216,168,52039,6,0,B|216:296|216:296|248:248,1,180
252,248,52467,1,0,0:0:0:0:
260,240,52553,1,0,0:0:0:0:
140,216,52724,1,0,0:0:0:0:
348,264,52896,1,0,0:0:0:0:
104,208,53067,1,0,0:0:0:0:
392,272,53239,1,0,0:0:0:0:
236,44,53410,1,0,0:0:0:0:
284,356,53582,5,4,0:0:0:0:
280,336,54096,5,0,0:0:0:0:
496,352,54267,1,8,0:0:0:0:
484,368,54610,1,2,0:0:0:0:
456,36,54953,5,4,0:0:0:0:
452,76,55467,5,0,0:0:0:0:
72,44,55639,1,8,0:0:0:0:
84,324,55982,6,0,B|152:248|152:248|184:344,1,202.500007724762,4|0,0:0|0:0,0:0:0:0:
52,236,56324,6,0,B|52:104|52:104|88:140,1,180,4|0,0:0|0:0,0:0:0:0:
152,200,56839,1,0,0:0:0:0:
52,104,57010,1,0,0:0:0:0:
180,228,57182,1,0,0:0:0:0:
28,80,57353,1,0,0:0:0:0:
204,252,57524,6,0,B|248:276|288:248|288:248|332:220|376:248,1,180
332,308,58039,1,0,0:0:0:0:
244,192,58210,1,0,0:0:0:0:
348,328,58382,1,0,0:0:0:0:
224,164,58553,1,0,0:0:0:0:
368,352,58724,1,0,0:0:0:0:
204,140,58896,1,0,0:0:0:0:
464,328,59067,5,4,0:0:0:0:
480,320,59582,5,0,0:0:0:0:
88,232,59753,1,8,0:0:0:0:
100,256,60096,5,2,0:0:0:0:
196,252,60267,1,2,0:0:0:0:
108,44,60439,5,4,0:0:0:0:
80,40,60953,1,0,0:0:0:0:
256,336,61124,1,8,0:0:0:0:
320,112,61467,6,0,B|328:80|316:36|268:32|236:48|216:92|236:136|264:160|264:160|264:184|280:204,1,270,2|0,0:0|0:0,0:0:0:0:
360,248,61810,6,0,L|452:248,1,90,2|0,0:0|0:0,0:0:0:0:
508,184,62153,1,0,0:0:0:0:
496,160,62324,1,0,0:0:0:0:
512,84,62496,1,0,0:0:0:0:
500,60,62667,1,0,0:0:0:0:
440,344,63010,5,0,0:0:0:0:
380,192,63353,1,0,0:0:0:0:
368,216,63524,1,0,0:0:0:0:
268,272,63696,1,0,0:0:0:0:
256,296,63867,1,0,0:0:0:0:
204,164,64039,5,0,0:0:0:0:
212,152,64124,1,0,0:0:0:0:
220,140,64210,1,0,0:0:0:0:
156,300,64382,6,0,B|36:300|36:300|88:268,1,180
168,312,64896,1,0,0:0:0:0:
88,164,65067,1,0,0:0:0:0:
188,352,65239,1,0,0:0:0:0:
192,144,65410,1,0,0:0:0:0:
36,304,65582,1,0,0:0:0:0:
312,172,65753,5,0,0:0:0:0:
312,172,66096,1,0,0:0:0:0:
312,172,66439,1,0,0:0:0:0:
128,192,66610,5,0,0:0:0:0:
208,24,66782,1,0,0:0:0:0:
312,172,66953,6,0,B|320:204|312:228|312:228|316:244|320:260|320:260|312:284|316:308|316:308|312:328|312:328|308:308,1,180
200,292,67124,6,0,L|236:288,1,22.5
136,328,67296,6,0,B|104:268|168:220|168:220|120:248|56:224|40:168,1,270.000010299683
124,144,67810,5,0,0:0:0:0:
200,292,67982,1,0,0:0:0:0:
104,108,68153,1,0,0:0:0:0:
224,336,68324,1,0,0:0:0:0:
92,80,68496,6,0,B|140:72|172:84|172:84|196:80|212:84|212:84|228:80|228:80|264:84|264:84|236:56|236:56|206:62|206:62|180:56,1,270.000010299683
140,180,69010,5,0,0:0:0:0:
152,228,69182,5,0,0:0:0:0:
200,252,69353,5,0,0:0:0:0:
244,240,69696,5,0,0:0:0:0:
56,252,69867,1,0,0:0:0:0:
324,88,70039,6,0,L|424:96,1,90,2|0,0:0|0:0,0:0:0:0:
160,120,70553,1,2,0:0:0:0:
160,120,70724,2,0,L|260:128,1,90,2|0,0:0|0:0,0:0:0:0:
60,172,71239,1,8,0:0:0:0:
60,172,71410,5,2,0:0:0:0:
212,24,71753,1,2,0:0:0:0:
296,208,72096,1,2,0:0:0:0:
296,208,72267,1,2,0:0:0:0:
212,24,72439,1,2,0:0:0:0:
60,172,72610,1,2,0:0:0:0:
212,24,72782,5,4,0:0:0:0:
256,40,78267,6,0,L|256:144,1,101.250003862381,2|0,0:0|0:0,0:0:0:0:
324,180,78610,6,0,P|348:184|372:180,2,45.0000017166138,2|2|2,0:0|0:0|0:0,0:0:0:0:
256,141,78953,1,2,0:0:0:0:
256,141,79210,1,2,0:0:0:0:
184,248,79296,1,0,0:0:0:0:
184,248,79553,1,0,0:0:0:0:
132,128,79639,6,0,L|132:36,1,90.0000034332277,2|0,0:0|0:0,0:0:0:0:
204,12,79982,2,0,P|228:12|256:16,2,45.0000017166138,2|2|2,0:0|0:0|0:0,0:0:0:0:
132,40,80324,1,2,0:0:0:0:
132,40,80582,1,2,0:0:0:0:
196,156,80667,2,0,L|192:200,2,45.0000017166138,2|2|2,0:0|0:0|0:0,0:0:0:0:
256,108,81010,5,0,0:0:0:0:
262,105,81096,1,0,0:0:0:0:
268,104,81182,1,0,0:0:0:0:
275,102,81267,1,0,0:0:0:0:
282,101,81353,1,0,0:0:0:0:
288,100,81439,1,0,0:0:0:0:
295,100,81524,1,0,0:0:0:0:
302,100,81610,1,0,0:0:0:0:
309,100,81696,1,0,0:0:0:0:
315,100,81782,1,0,0:0:0:0:
322,101,81867,1,0,0:0:0:0:
329,103,81953,1,0,0:0:0:0:
335,104,82039,1,0,0:0:0:0:
342,106,82124,1,0,0:0:0:0:
348,108,82210,1,0,0:0:0:0:
316,184,82382,5,0,0:0:0:0:
322,186,82467,1,0,0:0:0:0:
328,187,82553,1,0,0:0:0:0:
335,189,82639,1,0,0:0:0:0:
342,190,82724,1,0,0:0:0:0:
348,191,82810,1,0,0:0:0:0:
355,191,82896,1,0,0:0:0:0:
362,191,82982,1,0,0:0:0:0:
369,191,83067,1,0,0:0:0:0:
375,191,83153,1,0,0:0:0:0:
382,190,83239,1,0,0:0:0:0:
389,188,83324,1,0,0:0:0:0:
395,187,83410,1,0,0:0:0:0:
402,185,83496,1,0,0:0:0:0:
408,183,83582,1,0,0:0:0:0:
500,112,83753,5,2,0:0:0:0:
499,105,83839,1,0,0:0:0:0:
498,98,83924,1,2,0:0:0:0:
498,91,84010,1,0,0:0:0:0:
497,85,84096,1,8,0:0:0:0:
428,24,84267,1,2,0:0:0:0:
280,96,84439,2,0,L|280:164,1,67.5000025749208,0|2,0:0|0:0,0:0:0:0:
288,176,84696,1,0,0:0:0:0:
296,188,84782,1,8,0:0:0:0:
304,200,84867,1,0,0:0:0:0:
312,212,84953,1,2,0:0:0:0:
280,340,85124,5,0,0:0:0:0:
265,321,85210,1,2,0:0:0:0:
251,302,85296,1,0,0:0:0:0:
237,283,85382,1,2,0:0:0:0:
222,264,85467,1,0,0:0:0:0:
212,248,85639,5,2,0:0:0:0:
200,232,85810,6,0,L|200:160,1,67.5000025749208,2|0,0:0|0:0,0:0:0:0:
188,144,86067,2,0,L|188:72,1,67.5000025749208,2|0,0:0|0:0,0:0:0:0:
312,20,86496,5,2,0:0:0:0:
318,18,86582,1,0,0:0:0:0:
325,17,86667,1,2,0:0:0:0:
332,16,86753,1,0,0:0:0:0:
338,16,86839,1,2,0:0:0:0:
444,76,87010,1,0,0:0:0:0:
372,168,87182,1,2,0:0:0:0:
372,168,87267,2,0,L|380:240,1,67.5000025749208
392,328,87524,1,2,0:0:0:0:
444,76,87696,1,0,0:0:0:0:
268,244,87867,6,0,B|236:252|236:252|200:244,1,67.5000025749208,2|0,0:0|0:0,0:0:0:0:
192,236,88124,2,0,B|160:228|160:228|124:236,1,67.5000025749208,2|0,0:0|0:0,0:0:0:0:
104,248,88382,1,2,0:0:0:0:
105,231,88467,1,0,0:0:0:0:
106,214,88553,1,2,0:0:0:0:
107,197,88639,1,0,0:0:0:0:
109,180,88724,1,2,0:0:0:0:
110,163,88810,1,0,0:0:0:0:
111,147,88896,1,4,0:0:0:0:
216,32,89239,6,0,L|260:36,1,45,2|0,0:0|0:0,0:0:0:0:
316,84,89582,1,2,0:0:0:0:
338,81,89667,1,0,0:0:0:0:
360,79,89753,1,0,0:0:0:0:
432,72,89924,1,2,0:0:0:0:
316,84,90096,5,0,0:0:0:0:
338,81,90182,1,0,0:0:0:0:
360,79,90267,1,2,0:0:0:0:
432,72,90439,1,2,0:0:0:0:
480,128,90610,5,2,0:0:0:0:
482,150,90696,1,0,0:0:0:0:
483,172,90782,1,0,0:0:0:0:
483,195,90867,1,2,0:0:0:0:
480,217,90953,1,0,0:0:0:0:
472,240,91039,2,0,L|480:312,1,67.5,2|8,0:0|0:0,0:0:0:0:
432,360,91467,1,0,0:0:0:0:
408,360,91553,1,0,0:0:0:0:
384,360,91639,1,8,0:0:0:0:
312,356,91810,1,2,0:0:0:0:
240,352,91982,1,2,0:0:0:0:
234,330,92067,1,0,0:0:0:0:
230,307,92153,1,2,0:0:0:0:
228,285,92239,1,0,0:0:0:0:
227,263,92324,1,2,0:0:0:0:
227,240,92410,1,0,0:0:0:0:
229,218,92496,1,2,0:0:0:0:
233,196,92582,1,0,0:0:0:0:
238,174,92667,1,2,0:0:0:0:
268,108,92839,1,2,0:0:0:0:
308,48,93010,5,6,0:0:0:0:
330,43,93096,1,0,0:0:0:0:
352,39,93182,1,2,0:0:0:0:
374,35,93267,1,0,0:0:0:0:
396,31,93353,1,2,0:0:0:0:
418,27,93439,1,0,0:0:0:0:
439,24,93524,1,2,0:0:0:0:
432,46,93610,1,0,0:0:0:0:
425,67,93696,1,2,0:0:0:0:
418,89,93782,1,0,0:0:0:0:
411,110,93867,1,2,0:0:0:0:
405,131,93953,1,0,0:0:0:0:
398,153,94039,1,2,0:0:0:0:
380,224,94210,1,2,0:0:0:0:
360,292,94382,1,6,0:0:0:0:
256,192,94724,5,2,0:0:0:0:
192,228,94896,1,2,0:0:0:0:
124,252,95067,1,2,0:0:0:0:
117,230,95153,1,0,0:0:0:0:
112,208,95239,1,2,0:0:0:0:
109,186,95324,1,0,0:0:0:0:
108,163,95410,1,2,0:0:0:0:
108,141,95496,1,0,0:0:0:0:
109,118,95582,1,2,0:0:0:0:
112,96,95667,1,0,0:0:0:0:
117,74,95753,1,2,0:0:0:0:
168,24,95924,1,2,0:0:0:0:
228,64,96096,6,0,B|260:68|260:68|288:64|288:64|320:68,1,90,2|2,0:0|0:0,0:0:0:0:
424,164,96782,2,0,B|392:160|392:160|364:164|364:164|332:160,1,90,2|8,0:0|0:0,0:0:0:0:
208,232,97467,6,0,P|200:256|196:288,2,45,2|0|2,0:0|0:0|0:0,0:0:0:0:
184,124,97982,6,0,P|156:112|120:108,2,67.5000025749208,2|0|2,0:0|0:0|0:0,0:0:0:0:
324,160,98496,6,0,P|340:112|336:64,2,90,2|0|2,0:0|0:0|0:0,0:0:0:0:
260,248,99010,5,2,0:0:0:0:
260,248,99096,2,0,L|264:316,1,67.5000025749208,0|2,0:0|0:0,0:0:0:0:
232,332,99439,1,0,0:0:0:0:
199,339,99524,1,2,0:0:0:0:
165,338,99610,1,0,0:0:0:0:
133,329,99696,1,2,0:0:0:0:
208,160,99867,5,4,0:0:0:0:
208,160,100210,6,0,L|216:252,1,90,2|8,0:0|0:0,0:0:0:0:
272,84,100724,1,2,0:0:0:0:
272,84,100896,2,0,L|280:176,1,90,2|8,0:0|0:0,0:0:0:0:
336,8,101410,1,2,0:0:0:0:
336,8,101582,6,0,L|344:100,1,90,2|8,0:0|0:0,0:0:0:0:
208,160,102267,5,2,0:0:0:0:
272,84,102439,1,2,0:0:0:0:
336,8,102610,1,8,0:0:0:0:
208,160,102953,5,0,0:0:0:0:
208,160,104324,5,4,0:0:0:0:
208,160,104496,2,0,P|212:212|184:288,1,135.000005149842,2|0,0:0|0:0,0:0:0:0:
224,144,105010,6,0,P|252:188|260:208,1,67.5000025749208,2|0,0:0|0:0,0:0:0:0:
232,132,105353,6,0,P|283:138|304:145,1,67.5000025749208,2|0,0:0|0:0,0:0:0:0:
364,172,105696,6,0,B|432:172|432:172|412:148,1,90,4|0,0:0|0:0,0:0:0:0:
308,60,106382,2,0,B|240:60|240:60|260:84,1,90
364,172,107067,5,0,0:0:0:0:
308,60,107410,1,0,0:0:0:0:
260,196,107753,1,0,0:0:0:0:
392,88,108096,1,0,0:0:0:0:
28,136,108439,5,4,0:0:0:0:
0,148,108953,5,0,0:0:0:0:
464,40,109124,1,2,0:0:0:0:
444,8,109467,5,2,0:0:0:0:
436,348,109810,5,4,0:0:0:0:
448,344,110324,5,0,0:0:0:0:
48,312,110496,1,2,0:0:0:0:
176,224,110839,6,0,B|272:192|272:192|248:296,1,202.500007724762,2|0,0:0|0:0,0:0:0:0:
144,144,111182,6,0,P|140:100|144:52,1,90
284,20,111867,2,0,P|288:64|284:112,1,90
144,56,112553,5,0,0:0:0:0:
284,20,112896,1,0,0:0:0:0:
240,156,113239,1,0,0:0:0:0:
208,16,113582,1,0,0:0:0:0:
396,228,113924,5,4,0:0:0:0:
392,260,114439,5,0,0:0:0:0:
420,16,114610,1,2,0:0:0:0:
436,52,114953,5,2,0:0:0:0:
56,88,115296,5,4,0:0:0:0:
48,80,115810,5,0,0:0:0:0:
448,160,115982,1,2,0:0:0:0:
120,264,116324,6,0,B|56:240|56:240|188:196|188:196|156:252,1,270,2|0,0:0|0:0,0:0:0:0:
100,128,116667,6,0,L|108:32,2,90
320,36,118039,2,0,L|416:44,2,90
412,256,119410,6,0,L|404:352,2,90
192,348,120782,2,0,L|96:340,2,90
100,128,122153,6,0,L|108:32,2,90
320,36,123525,2,0,L|416:44,2,90
256,320,124896,6,0,L|256:184,1,135
176,148,125582,6,0,B|256:88|256:88|340:152,1,202.500007724762,8|0,0:0|0:0,0:0:0:0:
256,185,126267,5,0,0:0:0:0:
172,32,126610,1,0,0:0:0:0:
340,32,126953,1,0,0:0:0:0:
340,32,127124,5,2,0:0:0:0:
172,32,127296,1,2,0:0:0:0:
256,185,127467,1,2,0:0:0:0:
256,0,127639,5,4,0:0:0:0:
168,8,138610,6,0,L|176:144,1,135.000005149842,2|8,0:0|0:0,0:0:0:0:
184,276,139124,1,2,0:0:0:0:
96,176,139296,1,2,0:0:0:0:
228,208,139467,1,0,0:0:0:0:
104,260,139639,1,2,0:0:0:0:
175,142,139810,1,0,0:0:0:0:
184,276,139982,6,0,B|244:300|320:308,1,135.000005149842,2|8,0:0|0:0,0:0:0:0:
416,248,140496,1,2,0:0:0:0:
416,248,140582,1,2,0:0:0:0:
416,248,140667,2,0,L|412:172,1,67.5000025749208,2|0,0:0|0:0,0:0:0:0:
408,16,141010,1,4,0:0:0:0:
408,16,141353,6,0,L|400:92,1,67.5000025749208,2|0,0:0|0:0,0:0:0:0:
332,68,141524,2,0,L|324:144,1,67.5000025749208,8|0,0:0|0:0,0:0:0:0:
296,272,141696,6,0,L|288:196,1,67.5000025749208,2|0,0:0|0:0,0:0:0:0:
220,220,141867,2,0,L|212:144,1,67.5000025749208,8|0,0:0|0:0,0:0:0:0:
88,120,142039,6,0,L|164:112,1,67.5000025749208,2|0,0:0|0:0,0:0:0:0:
140,44,142210,2,0,L|216:36,1,67.5000025749208,8|0,0:0|0:0,0:0:0:0:
376,176,142382,6,0,L|300:168,1,67.5000025749208,2|0,0:0|0:0,0:0:0:0:
324,100,142553,2,0,L|248:92,1,67.5000025749208,8|0,0:0|0:0,0:0:0:0:
173,212,142724,6,0,L|181:136,1,67.5000025749208,2|0,0:0|0:0,0:0:0:0:
249,160,142895,2,0,L|257:84,1,67.5000025749208,8|0,0:0|0:0,0:0:0:0:
232,304,143067,6,0,L|240:228,1,67.5000025749208,2|0,0:0|0:0,0:0:0:0:
308,252,143238,2,0,L|316:176,1,67.5000025749208,8|0,0:0|0:0,0:0:0:0:
456,200,143410,6,0,L|380:192,1,67.5000025749208,2|0,0:0|0:0,0:0:0:0:
404,124,143581,2,0,L|328:116,1,67.5000025749208,8|0,0:0|0:0,0:0:0:0:
188,99,143753,6,0,L|264:91,1,67.5000025749208,2|0,0:0|0:0,0:0:0:0:
240,23,143924,2,0,L|316:15,1,67.5000025749208,8|0,0:0|0:0,0:0:0:0:
368,48,144096,6,0,P|432:60|508:68,1,135.000005149842,2|8,0:0|0:0,0:0:0:0:
396,152,144610,1,2,0:0:0:0:
396,152,144782,2,0,P|332:140|256:132,1,135.000005149842,2|8,0:0|0:0,0:0:0:0:
128,156,145296,1,0,0:0:0:0:
128,156,145467,6,0,P|136:60|136:8,1,135.000005149842,2|8,0:0|0:0,0:0:0:0:
224,72,145982,1,2,0:0:0:0:
224,72,146067,1,2,0:0:0:0:
224,72,146153,2,0,P|300:96|364:104,1,135.000005149842,2|8,0:0|0:0,0:0:0:0:
396,48,146839,6,0,P|416:76|420:112,1,67.5000025749208,2|0,0:0|0:0,0:0:0:0:
484,136,147010,2,0,P|464:164|432:180,1,67.5000025749208,8|0,0:0|0:0,0:0:0:0:
412,252,147182,6,0,P|383:232|367:200,1,67.5000025749208,2|0,0:0|0:0,0:0:0:0:
299,199,147353,2,0,P|307:165|332:139,1,67.5000025749208,8|0,0:0|0:0,0:0:0:0:
260,100,147524,6,0,P|240:128|208:144,1,67.5000025749208,2|0,0:0|0:0,0:0:0:0:
207,213,147695,2,0,P|173:204|147:179,1,67.5000025749208,8|0,0:0|0:0,0:0:0:0:
88,216,147867,6,0,P|78:182|87:147,1,67.5000025749208,2|0,0:0|0:0,0:0:0:0:
35,102,148038,2,0,P|62:81|99:77,1,67.5000025749208,8|0,0:0|0:0,0:0:0:0:
108,8,148210,6,0,P|139:22|160:51,1,67.5000025749208,2|0,0:0|0:0,0:0:0:0:
229,40,148381,2,0,P|226:74|206:104,1,67.5000025749208,8|0,0:0|0:0,0:0:0:0:
308,268,148553,6,0,P|298:234|307:199,1,67.5000025749208,2|0,0:0|0:0,0:0:0:0:
254,154,148724,2,0,P|281:133|318:129,1,67.5000025749208,8|0,0:0|0:0,0:0:0:0:
360,76,148896,6,0,P|379:104|383:140,1,67.5000025749208,2|0,0:0|0:0,0:0:0:0:
449,164,149067,2,0,P|429:192|397:208,1,67.5000025749208,8|0,0:0|0:0,0:0:0:0:
376,280,149239,6,0,P|347:260|331:228,1,67.5000025749208,2|0,0:0|0:0,0:0:0:0:
262,227,149410,2,0,P|270:193|295:167,1,67.5000025749208,8|0,0:0|0:0,0:0:0:0:
268,104,149582,6,0,P|200:116|132:112,1,135.000005149842,2|8,0:0|0:0,0:0:0:0:
52,68,150096,2,0,P|64:136|60:204,1,135.000005149842,2|2,0:0|0:0,0:0:0:0:
28,268,150610,1,8,0:0:0:0:
28,268,150953,6,0,P|104:252|164:256,1,135.000005149842,2|8,0:0|0:0,0:0:0:0:
240,304,151467,1,0,0:0:0:0:
240,304,151553,1,0,0:0:0:0:
240,304,151639,2,0,P|224:228|228:168,1,135.000005149842,2|8,0:0|0:0,0:0:0:0:
227,171,152324,6,0,B|260:168|260:168|296:172,1,67.5000025749208,2|0,0:0|0:0,0:0:0:0:
364,200,152496,2,0,B|397:203|397:203|433:199,1,67.5000025749208,8|0,0:0|0:0,0:0:0:0:
228,240,152667,6,0,B|261:237|261:237|297:241,1,67.5000025749208,2|0,0:0|0:0,0:0:0:0:
365,269,152839,2,0,B|398:272|398:272|434:268,1,67.5000025749208,8|0,0:0|0:0,0:0:0:0:
228,312,153010,6,0,B|261:309|261:309|297:313,1,67.5000025749208,2|0,0:0|0:0,0:0:0:0:
365,341,153182,2,0,B|398:344|398:344|434:340,1,67.5000025749208,8|0,0:0|0:0,0:0:0:0:
432,268,153353,6,0,L|432:200,1,67.5000025749208,2|0,0:0|0:0,0:0:0:0:
364,200,153524,2,0,L|364:132,1,67.5000025749208,8|0,0:0|0:0,0:0:0:0:
295,312,153696,6,0,L|295:244,1,67.5000025749208,2|0,0:0|0:0,0:0:0:0:
227,244,153867,2,0,L|227:176,1,67.5000025749208,8|0,0:0|0:0,0:0:0:0:
362,108,154039,6,0,L|294:108,1,67.5000025749208,2|0,0:0|0:0,0:0:0:0:
294,176,154210,2,0,L|226:176,1,67.5000025749208,8|0,0:0|0:0,0:0:0:0:
80,172,154382,6,0,L|148:172,1,67.5000025749208,2|0,0:0|0:0,0:0:0:0:
148,104,154553,2,0,L|216:104,1,67.5000025749208,8|0,0:0|0:0,0:0:0:0:
226,176,154724,6,0,L|226:244,1,67.5000025749208,2|0,0:0|0:0,0:0:0:0:
158,244,154895,2,0,L|158:312,1,67.5000025749208,8|0,0:0|0:0,0:0:0:0:
80,172,155067,6,0,P|80:100|100:32,1,135.000005149842,2|8,0:0|0:0,0:0:0:0:
268,120,155753,2,0,P|268:192|248:260,1,135.000005149842,2|8,0:0|0:0,0:0:0:0:
80,172,156439,6,0,P|80:100|100:32,1,135.000005149842,2|8,0:0|0:0,0:0:0:0:
268,120,156953,1,0,0:0:0:0:
268,120,157039,1,0,0:0:0:0:
268,120,157124,2,0,P|268:192|248:260,1,135.000005149842,2|8,0:0|0:0,0:0:0:0:
80,172,157639,1,2,0:0:0:0:
216,44,157810,5,2,0:0:0:0:
219,44,157895,1,0,0:0:0:0:
222,44,157981,1,2,0:0:0:0:
226,44,158067,1,0,0:0:0:0:
229,44,158152,1,2,0:0:0:0:
232,44,158238,1,0,0:0:0:0:
236,44,158324,1,2,0:0:0:0:
344,104,158496,5,2,0:0:0:0:
256,136,158667,1,2,0:0:0:0:
344,104,158839,5,10,0:0:0:0:
256,136,159010,1,2,0:0:0:0:
168,104,159182,6,0,P|160:56|216:48,1,101.250003862381,2|0,0:0|0:0,0:0:0:0:
344,104,159524,6,0,P|367:61|318:34,1,101.250003862381,10|0,0:0|0:0,0:0:0:0:
168,104,159867,6,0,P|131:72|168:30,1,101.250003862381,2|0,0:0|0:0,0:0:0:0:
344,104,160209,6,0,P|392:103|390:47,1,101.250003862381,10|0,0:0|0:0,0:0:0:0:
256,184,160553,5,2,0:0:0:0:
320,240,160896,1,0,0:0:0:0:
412,228,161239,1,0,0:0:0:0:
456,152,161582,1,2,0:0:0:0:
256,192,161924,12,0,167067,0:0:0:0:
156,32,167410,5,0,0:0:0:0:
152,36,167495,1,0,0:0:0:0:
149,41,167581,1,0,0:0:0:0:
146,46,167667,1,0,0:0:0:0:
143,51,167752,1,0,0:0:0:0:
140,56,167838,1,0,0:0:0:0:
137,61,167924,1,0,0:0:0:0:
135,67,168010,1,0,0:0:0:0:
133,72,168095,1,0,0:0:0:0:
131,78,168181,1,0,0:0:0:0:
129,83,168267,1,0,0:0:0:0:
127,89,168352,1,0,0:0:0:0:
126,94,168438,1,0,0:0:0:0:
125,100,168524,1,0,0:0:0:0:
124,106,168610,1,0,0:0:0:0:
123,112,168695,1,0,0:0:0:0:
72,168,168782,5,0,0:0:0:0:
75,172,168867,1,0,0:0:0:0:
78,177,168953,1,0,0:0:0:0:
82,182,169039,1,0,0:0:0:0:
85,186,169124,1,0,0:0:0:0:
89,191,169210,1,0,0:0:0:0:
93,195,169296,1,0,0:0:0:0:
97,199,169382,1,0,0:0:0:0:
102,203,169467,1,0,0:0:0:0:
106,207,169553,1,0,0:0:0:0:
111,210,169639,1,0,0:0:0:0:
116,214,169724,1,0,0:0:0:0:
121,217,169810,1,0,0:0:0:0:
126,220,169896,1,0,0:0:0:0:
131,223,169982,1,0,0:0:0:0:
136,226,170067,1,0,0:0:0:0:
156,300,170153,5,0,0:0:0:0:
160,298,170238,1,0,0:0:0:0:
166,297,170324,1,0,0:0:0:0:
172,295,170410,1,0,0:0:0:0:
177,293,170495,1,0,0:0:0:0:
183,291,170581,1,0,0:0:0:0:
188,289,170667,1,0,0:0:0:0:
193,287,170753,1,0,0:0:0:0:
199,283,170838,1,0,0:0:0:0:
204,281,170924,1,0,0:0:0:0:
208,277,171010,1,0,0:0:0:0:
214,274,171095,1,0,0:0:0:0:
218,270,171181,1,0,0:0:0:0:
223,267,171267,1,0,0:0:0:0:
227,263,171353,1,0,0:0:0:0:
232,259,171438,1,0,0:0:0:0:
308,280,171524,5,0,0:0:0:0:
307,275,171609,1,0,0:0:0:0:
308,269,171695,1,0,0:0:0:0:
308,263,171781,1,0,0:0:0:0:
308,257,171866,1,0,0:0:0:0:
308,251,171952,1,0,0:0:0:0:
308,246,172038,1,0,0:0:0:0:
308,240,172124,1,0,0:0:0:0:
306,233,172209,1,0,0:0:0:0:
306,228,172295,1,0,0:0:0:0:
304,223,172381,1,0,0:0:0:0:
303,216,172466,1,0,0:0:0:0:
301,211,172552,1,0,0:0:0:0:
299,205,172638,1,0,0:0:0:0:
297,200,172724,1,0,0:0:0:0:
295,194,172809,1,0,0:0:0:0:
292,190,172895,1,2,0:0:0:0:
256,192,172982,12,2,174439,0:0:0:0:
112,36,174953,5,2,0:0:0:0:
108,40,175296,1,2,0:0:0:0:
204,264,175639,6,0,B|76:264|76:264|128:236,1,180,4|0,0:0|0:0,0:0:0:0:
188,176,176153,1,0,0:0:0:0:
144,352,176324,1,0,0:0:0:0:
196,140,176496,1,0,0:0:0:0:
136,380,176667,1,0,0:0:0:0:
296,212,176839,6,0,B|296:84|296:84|264:132,1,180
260,132,177267,1,0,0:0:0:0:
252,140,177353,1,0,0:0:0:0:
372,164,177524,1,0,0:0:0:0:
164,116,177696,1,0,0:0:0:0:
408,172,177867,1,0,0:0:0:0:
120,108,178039,1,0,0:0:0:0:
276,336,178210,1,0,0:0:0:0:
228,24,178382,5,4,0:0:0:0:
232,44,178896,5,0,0:0:0:0:
16,28,179067,1,8,0:0:0:0:
28,12,179410,1,2,0:0:0:0:
56,344,179753,5,4,0:0:0:0:
60,304,180267,5,0,0:0:0:0:
440,336,180439,1,8,0:0:0:0:
428,56,180782,6,0,B|360:132|360:132|328:36,1,202.500007724762,4|0,0:0|0:0,0:0:0:0:
460,144,181124,6,0,B|460:276|460:276|424:240,1,180,4|0,0:0|0:0,0:0:0:0:
360,180,181639,1,0,0:0:0:0:
460,276,181810,1,0,0:0:0:0:
332,152,181982,1,0,0:0:0:0:
484,300,182153,1,0,0:0:0:0:
308,128,182324,6,0,B|264:104|224:132|224:132|180:160|136:132,1,180
180,72,182839,1,0,0:0:0:0:
268,188,183010,1,0,0:0:0:0:
164,52,183182,1,0,0:0:0:0:
288,216,183353,1,0,0:0:0:0:
144,28,183524,1,0,0:0:0:0:
308,240,183696,1,0,0:0:0:0:
48,52,183867,5,4,0:0:0:0:
32,60,184382,5,0,0:0:0:0:
424,148,184553,1,8,0:0:0:0:
412,124,184896,5,2,0:0:0:0:
316,128,185067,1,2,0:0:0:0:
404,336,185239,5,4,0:0:0:0:
432,340,185753,1,0,0:0:0:0:
256,44,185924,1,8,0:0:0:0:
192,268,186267,6,0,B|184:300|196:344|244:348|276:332|296:288|276:244|248:220|248:220|248:196|232:176,1,270,2|0,0:0|0:0,0:0:0:0:
152,132,186610,6,0,L|60:132,1,90,2|0,0:0|0:0,0:0:0:0:
4,196,186953,1,0,0:0:0:0:
16,220,187124,1,0,0:0:0:0:
0,296,187296,1,0,0:0:0:0:
12,320,187467,1,0,0:0:0:0:
72,36,187810,5,0,0:0:0:0:
132,188,188153,1,0,0:0:0:0:
144,164,188324,1,0,0:0:0:0:
244,108,188496,1,0,0:0:0:0:
256,84,188667,1,0,0:0:0:0:
308,216,188839,5,0,0:0:0:0:
300,228,188924,1,0,0:0:0:0:
292,240,189010,1,0,0:0:0:0:
356,80,189182,6,0,B|476:80|476:80|424:112,1,180
344,68,189696,1,0,0:0:0:0:
424,216,189867,1,0,0:0:0:0:
324,28,190039,1,0,0:0:0:0:
320,236,190210,1,0,0:0:0:0:
476,76,190382,1,0,0:0:0:0:
200,208,190553,5,0,0:0:0:0:
200,208,190896,1,0,0:0:0:0:
200,208,191239,1,0,0:0:0:0:
384,188,191410,5,0,0:0:0:0:
304,356,191582,1,0,0:0:0:0:
200,208,191753,6,0,B|192:176|200:152|200:152|196:136|192:120|192:120|200:96|196:72|196:72|200:52|200:52|204:72,1,180
312,88,191924,6,0,L|276:92,1,22.5
376,52,192096,6,0,B|408:112|344:160|344:160|392:132|456:156|472:212,1,270.000010299683
388,236,192610,5,0,0:0:0:0:
312,88,192782,1,0,0:0:0:0:
408,272,192953,1,0,0:0:0:0:
288,44,193124,1,0,0:0:0:0:
420,300,193296,6,0,B|372:308|340:296|340:296|316:300|300:296|300:296|284:300|284:300|248:296|248:296|276:324|276:324|306:318|306:318|332:324,1,270.000010299683
372,200,193810,5,0,0:0:0:0:
360,152,193982,5,0,0:0:0:0:
312,128,194153,5,0,0:0:0:0:
268,140,194496,5,0,0:0:0:0:
456,128,194667,1,0,0:0:0:0:
188,292,194839,6,0,L|88:284,1,90,2|0,0:0|0:0,0:0:0:0:
352,260,195353,1,2,0:0:0:0:
352,260,195524,2,0,L|252:252,1,90,2|0,0:0|0:0,0:0:0:0:
452,208,196039,1,8,0:0:0:0:
144,112,196210,1,0,0:0:0:0:
452,208,196382,5,2,0:0:0:0:
144,112,196724,1,2,0:0:0:0:
452,208,197067,5,2,0:0:0:0:
144,112,197409,1,2,0:0:0:0:
452,208,197582,5,2,0:0:0:0:
36,204,197753,5,2,0:0:0:0:
344,36,197924,5,2,0:0:0:0:
224,340,198096,5,2,0:0:0:0:
216,8,198267,5,2,0:0:0:0:
336,248,198610,6,0,L|336:324,1,67.5,2|0,0:0|0:0,0:0:0:0:
264,72,198953,5,4,0:0:0:0:
