osu file format v14

[General]
AudioFilename: Children.mp3
AudioLeadIn: 0
PreviewTime: 50839
Countdown: 0
SampleSet: Normal
StackLeniency: 0.8
Mode: 0
LetterboxInBreaks: 1
WidescreenStoryboard: 1

[Editor]
DistanceSpacing: 0.9
BeatDivisor: 4
GridSize: 8
TimelineZoom: 2.6

[Metadata]
Title:Okochama Sensou
TitleUnicode:おこちゃま戦争
Artist:kradness&Reol
ArtistUnicode:kradness&れをる
Creator:Kalindraz
Version:Hard
Source:
Tags:Giga-p Len Rin Kagamine Marianna TG Children's War Tarrasky Trynna Ataraxia Seto Net0 BR
BeatmapID:732317
BeatmapSetID:155252

[Difficulty]
HPDrainRate:5
CircleSize:4
OverallDifficulty:6
ApproachRate:8
SliderMultiplier:1.1
SliderTickRate:1

[Events]
//Background and Video events
0,0,"BG.png",0,0
//Break Periods
2,72981,77517
2,127838,137860
2,162124,172146
//Storyboard Layer 0 (Background)
//Storyboard Layer 1 (Fail)
//Storyboard Layer 2 (Pass)
//Storyboard Layer 3 (Foreground)
//Storyboard Sound Samples

[TimingPoints]
5582,342.857142857143,4,1,2,50,1,0
17924,-133.333333333333,4,1,2,50,0,0
20667,-133.333333333333,4,1,2,45,0,0
22039,-100,4,1,2,44,0,0
23410,-100,4,1,2,44,0,0
39867,-100,4,1,2,44,0,0
45353,-133.333333333333,4,1,2,37,0,0
50839,-83.3333333333333,4,1,2,55,0,1
53582,-133.333333333333,4,3,0,55,0,0
56324,-100,4,1,2,55,0,1
59067,-133.333333333333,4,3,0,55,0,0
61810,-100,4,1,2,55,0,1
70039,-83.3333333333333,4,1,2,55,0,1
72782,-83.3333333333333,4,1,2,55,0,0
78267,-100,4,1,2,55,0,0
81010,-100,4,2,0,55,0,0
83753,-100,4,1,2,55,0,0
100210,-100,4,2,0,55,0,0
105696,-83.3333333333333,4,1,2,70,0,1
108439,-100,4,3,0,70,0,0
111182,-100,4,1,2,70,0,1
113924,-100,4,3,0,70,0,0
116667,-100,4,1,2,70,0,1
124553,-100,4,1,2,60,0,1
127296,-100,4,1,2,60,0,0
138610,-100,4,1,2,60,0,0
161582,-100,4,1,2,60,0,0
161924,-100,4,2,0,60,0,0
174610,-100,4,2,0,32,0,0
175639,-83.3333333333333,4,1,2,62,0,1
194839,-133.333333333333,4,1,2,62,0,1
198610,-83.3333333333333,4,1,0,62,0,0
198953,-83.3333333333333,4,1,2,62,0,1
204439,-83.3333333333333,4,1,2,62,0,0

[Colours]
Combo1 : 185,0,185
Combo2 : 255,128,64
Combo3 : 255,255,0
Combo4 : 190,190,190
Combo5 : 255,0,0
Combo6 : 128,0,0

[HitObjects]
144,80,6953,6,0,L|256:80,1,110,8|0,0:0|0:0,0:0:0:0:
352,120,7467,2,0,L|416:152,1,55,8|0,0:0|0:0,0:0:0:0:
424,272,7810,2,0,L|374:247,1,55,8|0,0:0|0:0,0:0:0:0:
264,208,8153,2,0,L|192:208,1,55,8|0,0:0|0:0,0:0:0:0:
184,124,8496,5,8,0:0:0:0:
184,124,8667,1,8,0:0:0:0:
280,96,9010,2,0,L|344:96,1,55,8|0,0:0|0:0,0:0:0:0:
424,136,9353,2,0,L|488:168,1,55,8|0,0:0|0:0,0:0:0:0:
488,256,9696,6,0,L|472:376,1,110,12|0,0:0|0:0,0:0:0:0:
392,312,10210,2,0,L|337:312,1,55,8|0,0:0|0:0,0:0:0:0:
264,264,10553,2,0,P|248:320|272:376,2,110,8|8|0,0:0|0:0|0:0,0:0:0:0:
352,224,11410,70,0,B|360:160|360:160|336:112,1,110,8|0,0:0|0:0,0:0:0:0:
256,96,11924,1,8,0:0:0:0:
256,96,12096,2,0,L|192:128,1,55,8|0,0:0|0:0,0:0:0:0:
112,192,12439,5,8,0:0:0:0:
112,192,12553,1,0,0:0:0:0:
112,192,12667,1,0,0:0:0:0:
112,192,12782,1,0,0:0:0:0:
200,272,13124,1,10,0:0:0:0:
304,272,13467,1,2,0:0:0:0:
424,192,13810,6,0,L|472:208,3,36.6666666666667,8|0|0|0,0:0|0:0|0:0|0:0,0:0:0:0:
304,120,14496,1,10,0:0:0:0:
208,120,14839,1,2,0:0:0:0:
112,56,15182,5,10,0:0:0:0:
112,56,15296,1,0,0:0:0:0:
112,56,15410,1,0,0:0:0:0:
112,56,15524,1,0,0:0:0:0:
64,192,15867,1,10,0:0:0:0:
120,328,16210,1,2,0:0:0:0:
232,256,16553,5,8,0:0:0:0:
232,256,16667,1,0,0:0:0:0:
232,256,16782,1,0,0:0:0:0:
232,256,16896,1,0,0:0:0:0:
328,336,17239,1,10,0:0:0:0:
448,248,17582,1,2,0:0:0:0:
344,140,17924,5,4,0:0:0:0:
204,104,18610,1,4,0:0:0:0:
168,244,19296,1,4,0:0:0:0:
308,280,19982,1,4,0:0:0:0:
256,192,20667,12,0,21696,0:0:0:0:
152,72,22039,6,0,L|224:64,1,55,8|0,0:0|0:0,0:0:0:0:
284,69,22382,2,0,L|348:77,1,55,8|0,0:0|0:0,0:0:0:0:
416,48,22724,2,0,L|408:168,1,110,8|0,0:0|0:0,0:0:0:0:
340,216,23239,1,8,0:0:0:0:
496,168,23410,6,0,P|476:221|432:248,1,110,12|0,0:0|0:0,0:0:0:0:
448,328,23924,2,0,B|380:340|380:340|340:368,1,110,8|0,0:0|0:0,0:0:0:0:
232,360,24439,1,0,0:0:0:0:
296,288,24610,2,0,L|296:168,2,110,8|8|8,0:0|0:0|0:0,0:0:0:0:
232,360,25639,5,8,0:0:0:0:
160,296,25810,1,8,0:0:0:0:
152,200,25982,1,8,0:0:0:0:
208,112,26153,2,0,L|152:72,1,55,8|0,0:0|0:0,0:0:0:0:
296,24,26496,2,0,L|338:59,1,55,8|0,0:0|0:0,0:0:0:0:
408,136,26839,1,8,0:0:0:0:
408,136,27010,1,0,0:0:0:0:
408,136,27182,2,0,P|392:192|336:216,1,110,8|0,0:0|0:0,0:0:0:0:
288,288,27696,6,0,L|256:336,1,55,8|0,0:0|0:0,0:0:0:0:
200,264,28039,2,0,L|150:293,1,55,8|0,0:0|0:0,0:0:0:0:
136,192,28382,2,0,L|72:192,1,55,8|0,0:0|0:0,0:0:0:0:
48,96,28896,6,0,B|104:88|104:88|172:96,1,110,12|0,0:0|0:0,0:0:0:0:
240,160,29410,2,0,L|295:160,1,55,8|0,0:0|0:0,0:0:0:0:
255,264,29753,2,0,L|200:264,1,55,8|0,0:0|0:0,0:0:0:0:
88,320,30096,1,8,0:0:0:0:
256,352,30439,1,8,0:0:0:0:
424,320,30782,2,0,L|400:376,2,55,8|8|8,0:0|0:0|0:0,0:0:0:0:
352,216,31296,69,0,0:0:0:0:
328,128,31467,1,0,0:0:0:0:
248,80,31639,2,0,L|248:52,2,27.5,8|0|0,0:0|0:0|0:0,0:0:0:0:
248,184,31982,2,0,L|248:212,2,27.5,8|0|0,0:0|0:0|0:0,0:0:0:0:
184,136,32324,6,0,L|120:136,1,55,8|0,0:0|0:0,0:0:0:0:
88,216,32667,2,0,L|132:260,1,55
144,344,33010,2,0,L|80:344,2,55,8|0|0,0:0|0:0|0:0,0:0:0:0:
240,328,33524,2,0,L|312:320,1,55,0|8,0:0|0:0,0:0:0:0:
376,352,33867,1,0,0:0:0:0:
432,280,34039,2,0,L|420:216,1,55
488,152,34382,5,0,0:0:0:0:
384,128,34553,2,0,P|360:128|320:144,1,55
280,248,34896,2,0,P|248:248|208:232,1,55,0|8,0:0|0:0,0:0:0:0:
136,168,35239,2,0,L|120:112,2,55,0|8|0,0:0|0:0|0:0,0:0:0:0:
120,320,35924,6,0,L|120:360,2,27.5,4|0|8,0:0|0:0|0:0,0:0:0:0:
56,264,36267,2,0,L|56:192,1,55
112,120,36610,2,0,L|88:104,2,27.5,0|0|8,0:0|0:0|0:0,0:0:0:0:
208,56,36953,1,0,0:0:0:0:
256,192,37296,5,8,0:0:0:0:
256,192,37467,1,8,0:0:0:0:
328,56,37810,6,0,L|328:120,1,55,8|0,0:0|0:0,0:0:0:0:
408,144,38153,2,0,L|408:200,1,55
352,272,38496,2,0,L|280:272,1,55,8|0,0:0|0:0,0:0:0:0:
200,328,38839,6,0,P|168:320|144:296,1,55
64,248,39182,2,0,P|48:216|48:176,1,55,8|0,0:0|0:0,0:0:0:0:
56,32,39524,2,2,L|128:24,1,55
192,72,39867,70,2,P|220:132|256:156,1,110,14|2,0:0|0:0,0:0:0:0:
340,168,40382,1,0,0:0:0:0:
424,200,40553,2,2,P|460:240|460:308,1,110,14|2,0:0|0:0,0:0:0:0:
376,328,41067,6,0,L|336:328,2,27.5,0|0|8,0:0|0:0|0:0,0:0:0:0:
304,264,41410,1,0,0:0:0:0:
260,328,41582,1,0,0:0:0:0:
208,264,41753,1,0,0:0:0:0:
160,336,41924,1,8,0:0:0:0:
160,336,42096,2,0,P|120:324|80:260,1,110,0|8,0:0|0:0,0:0:0:0:
80,176,42610,6,0,P|92:136|156:96,1,110,8|0,0:0|0:0,0:0:0:0:
240,72,43124,2,0,L|304:72,1,55,8|0,0:0|0:0,0:0:0:0:
376,112,43467,1,8,0:0:0:0:
304,296,43810,6,0,L|282:350,1,55,0|8,0:0|0:0,0:0:0:0:
382,240,44153,2,0,L|445:229,1,55,0|8,0:0|0:0,0:0:0:0:
290,192,44496,2,0,L|243:136,1,55,0|8,0:0|0:0,0:0:0:0:
168,112,44839,2,0,L|152:136,2,27.5,0|0|8,0:0|0:0|0:0,0:0:0:0:
232,56,45353,6,0,P|192:32|144:32,1,82.5000031471254,8|0,0:0|0:0,0:0:0:0:
72,80,45867,1,8,0:0:0:0:
48,176,46039,6,0,P|88:200|136:200,1,82.5000031471254,8|0,0:0|0:0,0:0:0:0:
208,168,46553,1,8,0:0:0:0:
304,200,46724,6,0,L|360:200,1,41.2500015735627,8|0,0:0|0:0,0:0:0:0:
368,248,47067,2,0,L|424:248,1,41.2500015735627,8|0,0:0|0:0,0:0:0:0:
344,296,47410,2,0,L|302:296,1,41.2500015735627,8|0,0:0|0:0,0:0:0:0:
264,336,47753,2,0,L|222:336,1,41.2500015735627,8|0,0:0|0:0,0:0:0:0:
152,304,48096,69,8,0:0:0:0:
184,200,48439,1,8,0:0:0:0:
304,224,48782,1,8,0:0:0:0:
264,112,49124,1,8,0:0:0:0:
344,40,49467,1,8,0:0:0:0:
184,40,49639,6,0,L|184:8,2,20.6250007867813,8|0|8,0:0|0:0|0:0,0:0:0:0:
120,128,49982,2,8,L|112:176,1,41.2500015735627
144,256,50324,2,8,L|184:288,1,41.2500015735627
280,240,50667,1,8,0:0:0:0:
376,176,50839,54,0,P|400:192|424:224,1,65.9999979858399,8|0,0:0|0:0,0:0:0:0:
464,304,51182,2,0,P|440:336|400:352,1,65.9999979858399,8|0,0:0|0:0,0:0:0:0:
336,304,51524,2,0,P|312:288|288:256,1,65.9999979858399,8|0,0:0|0:0,0:0:0:0:
232,96,52039,54,0,P|200:40|112:32,1,131.99999597168,8|0,0:0|0:0,0:0:0:0:
48,80,52553,2,0,P|32:120|52:160,1,65.9999979858399,8|0,0:0|0:0,0:0:0:0:
96,240,52896,2,0,P|128:252|168:240,1,65.9999979858399,8|0,0:0|0:0,0:0:0:0:
248,192,53239,1,8,0:0:0:0:
344,80,53582,6,0,P|376:72|392:72,1,41.2500015735627,10|0,0:0|0:0,0:0:0:0:
448,160,53924,1,0,0:0:0:0:
344,200,54096,1,8,0:0:0:0:
440,248,54267,1,0,0:0:0:0:
352,296,54439,2,0,L|296:304,2,41.2500015735627,0|8|0,0:0|0:0|0:0,0:0:0:0:
432,344,54953,5,8,0:0:0:0:
352,296,55124,1,0,0:0:0:0:
344,200,55296,1,0,0:0:0:0:
432,144,55467,1,8,0:0:0:0:
380,56,55639,1,0,0:0:0:0:
184,152,55982,1,8,0:0:0:0:
328,112,56324,6,0,P|384:128|440:104,2,110,8|8|8,0:0|0:0|0:0,0:0:0:0:
244,82,57182,2,0,L|284:34,1,55
380,56,57524,2,0,L|372:168,1,110,8|0,0:0|0:0,0:0:0:0:
416,256,58039,2,0,P|448:256|480:248,1,55,8|0,0:0|0:0,0:0:0:0:
312,240,58382,2,0,P|280:240|248:248,1,55,8|0,0:0|0:0,0:0:0:0:
208,320,58724,1,8,0:0:0:0:
56,248,59067,6,0,L|104:168,1,82.5000031471254,8|0,0:0|0:0,0:0:0:0:
136,96,59582,1,8,0:0:0:0:
136,96,59753,1,0,0:0:0:0:
136,96,59924,2,0,L|176:88,1,41.2500015735627,8|0,0:0|0:0,0:0:0:0:
280,96,60267,1,0,0:0:0:0:
280,96,60439,6,0,L|272:184,1,82.5000031471254,8|0,0:0|0:0,0:0:0:0:
264,272,60953,1,8,0:0:0:0:
264,272,61124,1,0,0:0:0:0:
264,272,61296,1,8,0:0:0:0:
264,272,61467,2,0,L|208:256,1,41.2500015735627
144,224,61810,5,12,0:0:0:0:
256,144,62153,1,8,0:0:0:0:
368,224,62496,1,8,0:0:0:0:
400,304,63010,6,0,P|448:264|448:200,1,110,8|0,0:0|0:0,0:0:0:0:
336,144,63524,2,0,P|288:184|288:248,1,110,8|0,0:0|0:0,0:0:0:0:
368,224,64039,1,8,0:0:0:0:
368,224,64382,6,0,L|448:136,1,110,8|0,0:0|0:0,0:0:0:0:
402,61,64896,2,0,L|352:40,1,55,8|0,0:0|0:0,0:0:0:0:
296,104,65239,2,0,L|245:82,1,55,8|0,0:0|0:0,0:0:0:0:
152,144,65582,1,8,0:0:0:0:
112,248,65753,6,0,L|176:264,1,55,8|0,0:0|0:0,0:0:0:0:
232,200,66096,2,0,L|296:216,2,55,8|0|8,0:0|0:0|0:0,0:0:0:0:
152,144,66610,1,0,0:0:0:0:
64,80,66782,1,0,0:0:0:0:
64,80,66867,1,0,0:0:0:0:
64,80,66953,2,0,L|72:32,2,27.5,8|0|0,0:0|0:0|0:0,0:0:0:0:
24,176,67296,6,0,L|32:240,1,55,8|0,0:0|0:0,0:0:0:0:
72,320,67639,1,8,0:0:0:0:
152,368,67810,1,0,0:0:0:0:
248,352,67982,2,0,P|232:304|184:272,1,110,8|0,0:0|0:0,0:0:0:0:
112,240,68496,22,0,P|152:200|210:193,1,110,8|0,0:0|0:0,0:0:0:0:
272,256,69010,2,0,P|304:248|328:232,1,55,8|0,0:0|0:0,0:0:0:0:
376,160,69353,2,0,P|370:127|356:102,1,55,8|0,0:0|0:0,0:0:0:0:
336,24,69696,1,0,0:0:0:0:
448,56,69867,1,0,0:0:0:0:
496,160,70039,6,0,L|456:288,1,131.99999597168,12|0,0:0|0:0,0:0:0:0:
368,280,70553,1,0,0:0:0:0:
352,368,70724,1,8,0:0:0:0:
272,312,70896,2,0,P|242:308|208:320,2,65.9999979858399,0|8|0,0:0|0:0|0:0,0:0:0:0:
368,280,71410,5,8,0:0:0:0:
312,208,71582,1,0,0:0:0:0:
416,208,71753,1,8,0:0:0:0:
360,136,71924,1,0,0:0:0:0:
344,48,72096,1,8,0:0:0:0:
432,80,72267,1,0,0:0:0:0:
432,80,72353,1,0,0:0:0:0:
432,80,72439,70,2,P|443:153|411:209,1,131.99999597168
224,92,78267,5,8,0:0:0:0:
312,136,78610,2,0,L|336:116,4,27.5,0|0|0|0|8,0:0|0:0|0:0|0:0|0:0,0:0:0:0:
240,192,79124,1,0,0:0:0:0:
176,264,79296,2,0,L|176:328,1,55
272,328,79639,6,0,P|304:336|328:336,1,55
384,248,79982,1,0,0:0:0:0:
416,152,80324,1,8,0:0:0:0:
347,75,80667,2,0,L|344:48,2,27.5
248,56,81010,6,0,P|208:48|176:56,1,55,2|0,0:0|0:0,0:0:0:0:
88,104,81353,2,0,P|64:128|48:160,1,55,2|0,0:0|0:0,0:0:0:0:
72,264,81696,2,0,L|48:296,6,27.5,2|0|0|0|0|0|0,0:0|0:0|0:0|0:0|0:0|0:0|0:0,0:0:0:0:
192,344,82382,6,0,P|232:352|264:344,1,55,2|0,0:0|0:0,0:0:0:0:
352,296,82725,2,0,P|376:272|392:240,1,55,2|0,0:0|0:0,0:0:0:0:
368,136,83068,2,0,L|392:104,6,27.5,2|0|0|0|0|0|0,0:0|0:0|0:0|0:0|0:0|0:0|0:0,0:0:0:0:
216,164,83753,22,0,L|252:172,4,27.5,8|0|0|0|0,0:0|0:0|0:0|0:0|0:0,0:0:0:0:
328,160,84267,2,0,L|384:184,1,55,0|8,0:0|0:0,0:0:0:0:
432,256,84610,2,0,P|440:280|432:312,2,55
320,304,85124,6,0,L|320:336,4,27.5,8|0|0|0|0,0:0|0:0|0:0|0:0|0:0,0:0:0:0:
224,272,85639,2,0,L|244:220,1,55,0|8,0:0|0:0,0:0:0:0:
224,128,85982,2,0,L|267:92,1,55
336,24,86324,1,0,0:0:0:0:
384,104,86496,70,0,L|424:104,4,27.5,8|0|0|0|0,0:0|0:0|0:0|0:0|0:0,0:0:0:0:
448,192,87010,1,0,0:0:0:0:
336,192,87182,2,0,P|304:192|272:208,1,55,8|0,0:0|0:0,0:0:0:0:
253,295,87524,2,0,P|227:304|200:304,1,55
104,264,87867,1,8,0:0:0:0:
184,208,88039,6,0,L|184:152,1,55
176,48,88382,1,0,0:0:0:0:
248,88,88553,1,8,0:0:0:0:
320,48,88724,1,0,0:0:0:0:
392,80,88896,2,0,P|440:112|448:160,1,110,0|8,0:0|0:0,0:0:0:0:
456,264,89410,69,0,0:0:0:0:
456,264,89582,1,0,0:0:0:0:
400,344,89753,1,0,0:0:0:0:
344,264,89924,1,8,0:0:0:0:
256,328,90096,2,0,P|232:328|200:320,2,55
192,232,90610,6,0,L|152:240,3,27.5,8|0|0|0,0:0|0:0|0:0|0:0,0:0:0:0:
280,192,91124,1,0,0:0:0:0:
266,289,91296,1,8,0:0:0:0:
192,232,91467,1,0,0:0:0:0:
208,128,91639,1,0,0:0:0:0:
208,128,91810,1,0,0:0:0:0:
184,40,91982,70,0,L|206:24,3,27.5,8|0|0|0,0:0|0:0|0:0|0:0,0:0:0:0:
72,80,92496,1,0,0:0:0:0:
104,184,92667,1,8,0:0:0:0:
200,128,92839,1,0,0:0:0:0:
304,136,93010,1,8,0:0:0:0:
328,40,93353,70,0,L|305:24,3,27.5,8|0|0|0,0:0|0:0|0:0|0:0,0:0:0:0:
432,24,93867,1,0,0:0:0:0:
392,112,94039,1,8,0:0:0:0:
376,208,94210,1,0,0:0:0:0:
440,280,94382,1,8,0:0:0:0:
480,189,94724,70,0,B|432:213|432:213|356:205,1,110,8|0,0:0|0:0,0:0:0:0:
312,136,95239,1,0,0:0:0:0:
224,144,95410,2,0,L|172:180,1,55,8|0,0:0|0:0,0:0:0:0:
104,232,95753,2,0,L|112:288,1,55
256,296,96096,5,8,0:0:0:0:
384,248,96439,1,0,0:0:0:0:
256,192,96782,1,8,0:0:0:0:
128,136,97124,1,0,0:0:0:0:
132,239,97467,70,0,L|132:184,2,55,8|0|0,0:0|0:0|0:0,0:0:0:0:
312,240,97982,2,0,L|312:185,2,55,8|0|0,0:0|0:0|0:0,0:0:0:0:
216,324,98496,70,0,L|216:260,1,55,8|0,0:0|0:0,0:0:0:0:
216,184,98839,1,8,0:0:0:0:
256,88,99010,6,0,L|228:84,3,27.5,8|0|0|0,0:0|0:0|0:0|0:0,0:0:0:0:
336,144,99524,1,8,0:0:0:0:
344,48,99696,1,0,0:0:0:0:
256,88,99867,1,8,0:0:0:0:
108,136,100210,6,0,B|108:192|108:192|204:272,1,165,2|0,0:0|0:0,0:0:0:0:
328,264,100896,2,0,B|412:192|412:192|412:132,1,165,2|0,0:0|0:0,0:0:0:0:
320,136,101582,6,0,L|264:96,1,55,2|0,0:0|0:0,0:0:0:0:
175,164,101924,2,0,L|168:233,1,55,2|0,0:0|0:0,0:0:0:0:
272,275,102267,2,0,L|335:246,1,55,2|2,0:0|0:0,0:0:0:0:
256,192,102610,1,2,0:0:0:0:
168,312,102953,69,2,0:0:0:0:
88,168,103296,1,2,0:0:0:0:
248,96,103639,1,2,0:0:0:0:
272,216,103810,1,2,0:0:0:0:
296,336,103982,1,2,0:0:0:0:
400,240,104324,5,2,0:0:0:0:
400,240,104410,1,0,0:0:0:0:
400,240,104496,1,0,0:0:0:0:
408,360,104667,1,2,0:0:0:0:
488,288,104839,1,0,0:0:0:0:
496,176,105010,2,0,L|472:112,1,55,2|0,0:0|0:0,0:0:0:0:
416,32,105353,1,2,0:0:0:0:
416,32,105524,1,0,0:0:0:0:
352,104,105696,6,0,P|312:80|280:80,1,65.9999979858399,8|0,0:0|0:0,0:0:0:0:
184,80,106039,2,0,P|151:86|125:105,1,65.9999979858399,8|0,0:0|0:0,0:0:0:0:
32,184,106382,2,0,P|80:216|160:192,1,131.99999597168,8|0,0:0|0:0,0:0:0:0:
216,152,106896,6,0,P|232:216|184:272,1,131.99999597168,8|0,0:0|0:0,0:0:0:0:
112,320,107410,2,0,P|144:344|176:344,1,65.9999979858399,8|0,0:0|0:0,0:0:0:0:
272,344,107753,2,0,P|304:339|328:318,1,65.9999979858399,8|0,0:0|0:0,0:0:0:0:
408,280,108096,1,8,0:0:0:0:
408,280,108439,6,0,P|416:216|384:160,1,110,8|0,0:0|0:0,0:0:0:0:
328,232,109124,1,2,0:0:0:0:
320,136,109296,1,0,0:0:0:0:
400,80,109467,2,0,L|352:40,1,55,2|0,0:0|0:0,0:0:0:0:
232,40,109810,6,0,P|176:48|136:88,1,110,10|0,0:0|0:0,0:0:0:0:
64,160,110324,2,0,L|96:216,1,55,2|0,0:0|0:0,0:0:0:0:
176,208,110667,2,0,L|208:264,1,55,2|0,0:0|0:0,0:0:0:0:
224,336,111182,6,0,P|264:312|280:248,2,110,8|8|8,0:0|0:0|0:0,0:0:0:0:
88,304,112382,1,8,0:0:0:0:
32,184,112724,2,0,L|88:144,1,55,8|0,0:0|0:0,0:0:0:0:
96,72,113067,2,0,L|163:59,1,55,8|0,0:0|0:0,0:0:0:0:
224,24,113410,2,0,L|292:24,1,55,8|0,0:0|0:0,0:0:0:0:
408,80,113924,6,0,L|360:192,1,110,4|0,0:0|0:0,0:0:0:0:
296,232,114439,2,0,L|272:168,2,55,8|0|8,0:0|0:0|0:0,0:0:0:0:
392,248,114953,2,0,L|448:264,1,55,8|0,0:0|0:0,0:0:0:0:
336,312,115296,6,0,P|288:336|232:328,1,110,14|8,0:0|0:0,0:0:0:0:
128,288,115810,2,0,L|64:260,1,55,2|8,0:0|0:0,0:0:0:0:
77,145,116153,2,0,L|128:168,1,55,2|8,0:0|0:0,0:0:0:0:
352,144,116667,5,12,0:0:0:0:
256,64,116839,2,0,L|320:64,2,55,0|8|0,0:0|0:0|0:0,0:0:0:0:
192,16,117353,2,0,P|176:72|208:128,1,110,8|0,0:0|0:0,0:0:0:0:
248,184,117867,1,8,0:0:0:0:
312,256,118039,6,0,L|376:216,1,55,0|8,0:0|0:0,0:0:0:0:
462,282,118382,2,0,L|416:312,1,55,0|8,0:0|0:0,0:0:0:0:
312,256,118724,2,0,L|352:136,1,110,8|0,0:0|0:0,0:0:0:0:
416,72,119239,6,0,P|365:47|304:52,1,110,8|0,0:0|0:0,0:0:0:0:
223,109,119753,2,0,L|192:64,2,55,8|0|8,0:0|0:0|0:0,0:0:0:0:
296,184,120267,2,0,L|264:240,1,55
184,320,120610,5,8,0:0:0:0:
352,232,120953,1,8,0:0:0:0:
184,160,121296,1,8,0:0:0:0:
296,320,121639,2,0,L|256:336,4,27.5,8|0|0|0|0,0:0|0:0|0:0|0:0|0:0,0:0:0:0:
176,312,122153,6,0,P|136:288|128:224,1,110,8|8,0:0|0:0,0:0:0:0:
184,160,122667,1,0,0:0:0:0:
256,192,122839,2,0,B|288:152|288:152|288:80,1,110,8|0,0:0|0:0,0:0:0:0:
236,32,123353,6,0,P|284:16|340:32,1,110,8|0,0:0|0:0,0:0:0:0:
432,112,123867,2,0,L|468:112,2,27.5,8|0|0,0:0|0:0|0:0,0:0:0:0:
336,208,124210,2,0,L|304:208,2,27.5,8|0|0,0:0|0:0|0:0,0:0:0:0:
432,288,124553,6,0,L|488:288,2,55,0|0|12,0:0|0:0|0:0,0:0:0:0:
336,208,125067,2,0,L|272:208,1,55,0|8,0:0|0:0,0:0:0:0:
216,304,125410,2,0,L|152:304,1,55,0|8,0:0|0:0,0:0:0:0:
72,240,125753,2,0,L|-8:240,2,55,0|8|0,0:0|0:0|0:0,0:0:0:0:
192,208,126267,6,0,L|144:176,1,55,8|0,0:0|0:0,0:0:0:0:
144,88,126610,2,0,L|98:57,2,55,8|0|8,0:0|0:0|0:0,0:0:0:0:
168,168,127296,6,2,P|224:136|224:72,1,110
192,116,138610,85,8,0:0:0:0:
216,16,138782,1,0,0:0:0:0:
296,80,138953,2,0,L|352:56,1,55
450,114,139296,2,0,L|400:136,1,55,8|0,0:0|0:0,0:0:0:0:
320,192,139639,2,0,P|360:224|416:224,2,110,0|8|0,0:0|0:0|0:0,0:0:0:0:
200,192,140496,2,4,L|152:192,2,27.5
192,96,140839,1,0,0:0:0:0:
112,40,141010,1,8,0:0:0:0:
32,128,141353,6,0,L|96:128,3,55,10|0|8|0,0:0|0:0|0:0|0:0,0:0:0:0:
32,216,142039,2,0,L|92:216,1,55,8|0,0:0|0:0,0:0:0:0:
161,272,142382,2,0,L|216:272,1,55,8|0,0:0|0:0,0:0:0:0:
280,336,142724,6,0,L|348:336,3,55,10|0|8|0,0:0|0:0|0:0|0:0,0:0:0:0:
392,264,143410,2,0,L|456:264,1,55,8|0,0:0|0:0,0:0:0:0:
440,176,143753,2,0,L|384:176,1,55,8|0,0:0|0:0,0:0:0:0:
264,224,144096,5,10,0:0:0:0:
304,112,144439,2,0,L|344:64,2,55,0|0|8,0:0|0:0|0:0,0:0:0:0:
176,152,144953,1,0,0:0:0:0:
128,88,145124,2,0,P|96:128|104:192,1,110
184,336,145810,1,8,0:0:0:0:
264,304,145982,2,4,L|300:324,2,27.5,0|0|0,0:0|0:0|0:0,0:0:0:0:
200,256,146324,2,0,L|200:200,1,55,0|8,0:0|0:0,0:0:0:0:
200,88,146667,1,0,0:0:0:0:
304,80,146839,6,0,L|348:124,1,55,10|0,0:0|0:0,0:0:0:0:
360,200,147182,2,0,L|428:200,1,55,8|0,0:0|0:0,0:0:0:0:
432,112,147524,2,0,L|492:112,1,55,8|0,0:0|0:0,0:0:0:0:
496,232,147867,2,0,L|496:304,1,55,8|0,0:0|0:0,0:0:0:0:
408,328,148210,70,0,L|347:368,1,55,10|0,0:0|0:0,0:0:0:0:
320,272,148553,2,0,L|252:272,1,55,8|0,0:0|0:0,0:0:0:0:
224,360,148896,2,0,L|180:328,1,55,8|0,0:0|0:0,0:0:0:0:
184,240,149239,2,0,L|184:172,1,55,8|0,0:0|0:0,0:0:0:0:
328,56,149582,6,0,P|340:104|324:168,1,110,10|4,0:0|0:0,0:0:0:0:
264,224,150096,2,0,P|312:244|384:224,1,110,12|4,0:0|0:0,0:0:0:0:
327,162,150610,1,0,0:0:0:0:
208,152,150953,69,10,0:0:0:0:
184,64,151124,1,0,0:0:0:0:
280,64,151296,2,4,B|304:48|336:56|336:56|336:56,1,55,4|12,0:0|0:0,0:0:0:0:
416,104,151639,1,0,0:0:0:0:
416,104,151724,1,0,0:0:0:0:
416,104,151810,2,0,P|424:136|416:176,1,55,0|8,0:0|0:0,0:0:0:0:
296,152,152324,6,0,L|344:104,2,55,2|0|0,0:0|0:0|0:0,0:0:0:0:
216,232,153010,2,0,L|168:280,2,55,2|0|0,0:0|0:0|0:0,0:0:0:0:
296,232,153696,6,0,L|340:276,2,55,2|0|0,0:0|0:0|0:0,0:0:0:0:
216,152,154382,2,0,L|172:108,1,55,2|0,0:0|0:0,0:0:0:0:
88,80,154724,1,0,0:0:0:0:
24,160,155067,6,0,L|48:272,1,110,12|0,0:0|0:0,0:0:0:0:
144,328,155582,2,8,L|128:264,1,55,0|8,0:0|0:0,0:0:0:0:
208,216,155924,2,0,L|192:152,1,55
216,88,156267,1,0,0:0:0:0:
280,32,156439,6,0,P|312:24|336:32,1,55
392,104,156782,1,0,0:0:0:0:
392,104,156953,6,0,L|418:151,1,55,0|12,0:0|0:0,0:0:0:0:
464,256,157296,2,0,L|496:280,2,27.5,8|0|0,0:0|0:0|0:0,0:0:0:0:
376,296,157639,1,0,0:0:0:0:
336,208,157810,70,0,P|311:198|279:206,1,55,10|0,0:0|0:0,0:0:0:0:
184,232,158153,2,0,P|168:200|168:168,1,55
208,88,158496,2,0,L|264:56,1,55,12|0,0:0|0:0,0:0:0:0:
352,40,158839,2,0,P|384:40|408:56,1,55
384,168,159182,69,8,0:0:0:0:
280,320,159524,1,10,0:0:0:0:
128,216,159867,1,12,0:0:0:0:
232,64,160210,1,8,0:0:0:0:
157,276,160553,21,10,0:0:0:0:
378,235,160896,1,8,0:0:0:0:
232,64,161239,1,8,0:0:0:0:
256,248,161582,2,0,L|256:120,1,110,2|0,0:0|0:0,0:0:0:0:
256,192,172896,12,0,174096,0:0:0:0:
144,80,174439,21,0,0:0:0:0:
144,80,174524,1,0,0:0:0:0:
144,80,174610,2,0,L|200:112,1,55,2|0,0:0|0:0,0:0:0:0:
137,168,174953,2,0,L|88:144,1,55,2|0,0:0|0:0,0:0:0:0:
40,208,175296,2,0,L|104:240,1,55,2|0,0:0|0:0,0:0:0:0:
224,224,175639,6,0,L|288:176,1,65.9999979858399,8|0,0:0|0:0,0:0:0:0:
408,224,175982,2,0,L|352:264,1,65.9999979858399,8|0,0:0|0:0,0:0:0:0:
392,336,176324,2,4,P|320:344|264:280,1,131.99999597168,12|4,0:0|0:0,0:0:0:0:
144,176,176839,22,0,P|216:168|272:208,1,131.99999597168,12|0,0:0|0:0,0:0:0:0:
384,248,177353,2,0,L|448:224,1,65.9999979858399,8|0,0:0|0:0,0:0:0:0:
400,120,177696,2,0,L|336:96,1,65.9999979858399,8|0,0:0|0:0,0:0:0:0:
208,80,178039,1,4,0:0:0:0:
40,200,178382,6,0,P|80:256|160:256,1,131.99999597168
216,296,178896,2,0,L|216:376,2,65.9999979858399
304,272,179410,2,0,L|333:208,1,65.9999979858399
416,160,179753,6,0,P|360:120|280:128,1,131.99999597168,8|0,0:0|0:0,0:0:0:0:
208,96,180267,2,0,L|136:128,2,65.9999979858399,4|0|0,0:0|0:0|0:0,0:0:0:0:
272,224,180782,2,0,L|344:200,1,65.9999979858399,8|0,0:0|0:0,0:0:0:0:
424,160,181124,6,0,P|440:200|424:240,1,65.9999979858399,8|0,0:0|0:0,0:0:0:0:
392,312,181467,2,0,P|352:328|304:312,1,65.9999979858399,8|0,0:0|0:0,0:0:0:0:
201,319,181810,2,0,P|225:247|297:223,1,131.99999597168,8|0,0:0|0:0,0:0:0:0:
424,160,182324,6,0,P|400:232|328:256,1,131.99999597168,8|0,0:0|0:0,0:0:0:0:
200,224,182839,2,0,P|184:184|200:136,1,65.9999979858399,8|0,0:0|0:0,0:0:0:0:
232,80,183182,2,0,P|272:64|320:80,1,65.9999979858399,8|0,0:0|0:0,0:0:0:0:
360,144,183524,2,0,P|376:184|360:232,1,65.9999979858399,8|0,0:0|0:0,0:0:0:0:
272,296,183867,6,0,P|216:328|144:304,1,131.99999597168,8|0,0:0|0:0,0:0:0:0:
80,224,184382,1,0,0:0:0:0:
80,224,184553,1,8,0:0:0:0:
80,224,184724,1,0,0:0:0:0:
80,224,184896,2,0,L|56:152,1,65.9999979858399,8|0,0:0|0:0,0:0:0:0:
16,88,185239,6,0,P|64:32|136:24,1,131.99999597168,8|8,0:0|0:0,0:0:0:0:
240,88,185753,1,8,0:0:0:0:
240,88,185924,1,8,0:0:0:0:
240,88,186096,1,8,0:0:0:0:
240,88,186267,2,0,L|176:64,1,65.9999979858399,10|0,0:0|0:0,0:0:0:0:
104,120,186610,6,0,P|136:176|104:248,1,131.99999597168,6|0,0:0|0:0,0:0:0:0:
72,328,187124,2,0,L|144:328,1,65.9999979858399,8|4,0:0|0:0,0:0:0:0:
240,312,187467,1,8,0:0:0:0:
344,264,187810,6,0,P|296:208|224:200,1,131.99999597168
240,312,188324,2,0,P|256:352|296:376,1,65.9999979858399,8|0,0:0|0:0,0:0:0:0:
241,197,188667,2,0,P|201:213|177:253,1,65.9999979858399,8|0,0:0|0:0,0:0:0:0:
240,312,189182,6,0,P|304:360|376:336,1,131.99999597168,8|0,0:0|0:0,0:0:0:0:
432,304,189696,2,0,P|440:280|440:240,1,65.9999979858399,8|0,0:0|0:0,0:0:0:0:
424,152,190039,2,0,L|376:96,1,65.9999979858399,8|0,0:0|0:0,0:0:0:0:
296,48,190382,1,8,0:0:0:0:
296,48,190553,1,0,0:0:0:0:
200,104,190724,22,0,L|152:104,2,32.99999899292,2|0|2,0:0|0:0|0:0,0:0:0:0:
288,192,191067,2,0,L|328:192,2,32.99999899292
200,256,191410,2,0,L|200:300,2,32.99999899292,2|0|2,0:0|0:0|0:0,0:0:0:0:
200,137,191753,2,0,L|200:97,2,32.99999899292
120,184,192096,6,0,P|88:160|32:160,1,65.9999979858399,8|0,0:0|0:0,0:0:0:0:
200,320,192439,2,0,P|232:344|288:344,1,65.9999979858399,8|0,0:0|0:0,0:0:0:0:
112,296,192782,2,0,B|128:264|128:264|176:240|176:240|200:200,1,131.99999597168,8|0,0:0|0:0,0:0:0:0:
168,112,193296,6,0,B|192:120|192:120|216:120|216:120|256:136|256:136|272:160|272:160|296:176,1,131.99999597168,8|0,0:0|0:0,0:0:0:0:
272,64,193810,2,0,B|304:56|304:56|328:32,1,65.9999979858399,8|0,0:0|0:0,0:0:0:0:
200,192,194153,2,0,B|168:200|168:200|136:232,1,65.9999979858399,8|0,0:0|0:0,0:0:0:0:
112,336,194496,1,8,0:0:0:0:
111,336,194839,6,0,L|200:336,1,82.5000031471254
272,312,195353,2,0,L|328:312,1,41.2500015735627
384,264,195696,2,0,L|425:264,1,41.2500015735627
352,160,196210,70,0,L|396:132,1,41.2500015735627
298,175,196553,2,0,L|299:217,1,41.2500015735627
312,122,196896,2,0,L|274:102,1,41.2500015735627
152,104,197239,5,8,0:0:0:0:
152,104,197410,1,8,0:0:0:0:
96,208,197582,2,0,L|104:264,1,41.2500015735627
144,344,197924,2,8,L|176:348,4,20.6250007867813
248,344,198610,6,2,B|248:304|248:304|272:256|272:256|272:208,1,131.99999597168,2|10,0:0|0:0,0:0:0:0:
360,160,199124,1,0,0:0:0:0:
360,160,199296,6,0,L|400:96,1,65.9999979858399,8|0,0:0|0:0,0:0:0:0:
472,136,199639,2,0,L|503:75,2,65.9999979858399,8|0|8,0:0|0:0|0:0,0:0:0:0:
416,240,200153,1,0,0:0:0:0:
328,296,200324,6,0,L|288:280,4,32.99999899292,8|0|0|0|8,0:0|0:0|0:0|0:0|0:0,0:0:0:0:
200,344,200839,1,0,0:0:0:0:
128,280,201010,1,8,0:0:0:0:
200,216,201182,1,0,0:0:0:0:
128,152,201353,1,8,0:0:0:0:
256,120,201696,54,0,L|256:160,3,32.99999899292,10|0|0|0,0:0|0:0|0:0|0:0,0:0:0:0:
296,104,202039,2,0,L|296:152,3,32.99999899292,10|0|0|0,0:0|0:0|0:0|0:0,0:0:0:0:
336,88,202382,2,0,L|336:136,3,32.99999899292,10|0|0|0,0:0|0:0|0:0|0:0,0:0:0:0:
376,72,202724,2,0,L|376:120,3,32.99999899292,10|0|0|0,0:0|0:0|0:0|0:0,0:0:0:0:
456,120,203067,6,0,P|480:176|456:240,1,131.99999597168,8|8,0:0|0:0,0:0:0:0:
392,336,203582,2,0,L|320:336,1,65.9999979858399,0|8,0:0|0:0,0:0:0:0:
216,344,203924,2,0,L|176:352,2,32.99999899292,0|0|8,0:0|0:0|0:0,0:0:0:0:
264,264,204267,1,0,0:0:0:0:
272,176,204439,6,0,L|224:120,1,65.9999979858399,8|0,0:0|0:0,0:0:0:0:
144,112,204782,1,8,0:0:0:0:
56,160,204953,2,0,P|104:208|192:200,2,131.99999597168,8|8|8,0:0|0:0|0:0,0:0:0:0:
144,120,205982,6,0,L|184:64,1,65.9999979858399,8|8,0:0|0:0,0:0:0:0:
256,112,206324,2,0,L|328:112,1,65.9999979858399,0|8,0:0|0:0,0:0:0:0:
416,104,206667,2,0,L|472:104,2,32.99999899292,0|0|8,0:0|0:0|0:0,0:0:0:0:
400,192,207010,1,8,0:0:0:0:
408,280,207182,5,8,0:0:0:0:
192,352,207696,1,8,0:0:0:0:
376,352,208039,1,8,0:0:0:0:
152,280,208382,1,8,0:0:0:0:
176,112,208724,21,8,0:0:0:0:
336,272,209067,1,8,0:0:0:0:
192,248,209239,69,8,0:0:0:0:
256,192,209410,1,0,0:0:0:0:
320,136,209582,1,12,0:0:0:0:
