osu file format v14

[General]
AudioFilename: Children.mp3
AudioLeadIn: 0
PreviewTime: 50839
Countdown: 0
SampleSet: None
StackLeniency: 0.8
Mode: 0
LetterboxInBreaks: 1
WidescreenStoryboard: 1

[Editor]
DistanceSpacing: 0.8
BeatDivisor: 4
GridSize: 4
TimelineZoom: 4.299998

[Metadata]
Title:Okochama Sensou
TitleUnicode:おこちゃま戦争
Artist:kradness&Reol
ArtistUnicode:kradness&れをる
Creator:Kalindraz
Version:Tarrasky's Forks and Knives Extra
Source:
Tags:Giga-p Len Rin Kagamine Marianna TG Children's War Tarrasky Trynna Ataraxia Seto Net0 BR
BeatmapID:1219213
BeatmapSetID:155252

[Difficulty]
HPDrainRate:6
CircleSize:4
OverallDifficulty:8
ApproachRate:9.5
SliderMultiplier:1.8
SliderTickRate:1

[Events]
//Background and Video events
0,0,"BG.png",0,0
//Break Periods
//Storyboard Layer 0 (Background)
//Storyboard Layer 1 (Fail)
//Storyboard Layer 2 (Pass)
//Storyboard Layer 3 (Foreground)
//Storyboard Sound Samples

[TimingPoints]
5582,342.857142857143,4,1,3,50,1,0
12439,-133.333333333333,4,1,2,50,0,0
17924,-133.333333333333,4,1,3,50,0,0
22382,-100,4,2,3,50,0,0
45353,-200,4,2,3,50,0,0
50496,-100,4,2,3,50,0,0
50839,-76.9230769230769,4,1,3,50,0,1
53410,-133.333333333333,4,1,3,50,0,1
53582,-133.333333333333,4,1,3,50,0,0
56324,-76.9230769230769,4,1,3,50,0,1
58896,-133.333333333333,4,1,3,50,0,1
59067,-133.333333333333,4,1,3,50,0,0
61810,-76.9230769230769,4,1,3,50,0,1
69867,-133.333333333333,4,1,3,50,0,1
70039,-133.333333333333,4,1,3,50,0,0
72267,-100,4,1,3,50,0,0
78267,-100,4,2,3,70,0,0
100210,-200,4,2,3,70,0,0
104496,-100,4,2,3,70,0,0
105696,-76.9230769230769,4,1,3,70,0,1
108267,-133.333333333333,4,1,3,70,0,1
108439,-133.333333333333,4,1,3,70,0,0
111182,-76.9230769230769,4,1,3,70,0,1
113753,-133.333333333333,4,1,3,70,0,1
113924,-133.333333333333,4,1,3,70,0,0
116667,-76.9230769230769,4,1,3,70,0,1
124724,-133.333333333333,4,1,3,70,0,1
124896,-133.333333333333,4,1,3,70,0,0
127296,-100,4,1,3,70,0,0
127639,-100,4,1,3,70,0,1
127982,-100,4,1,3,70,0,0
138610,-133.333333333333,4,2,3,70,0,0
170153,-100,4,2,3,70,0,0
172896,-50,4,2,3,70,0,0
172917,-50,4,2,3,20,0,0
174439,-100,4,2,3,70,0,0
175639,-76.9230769230769,4,1,3,70,0,1
178210,-133.333333333333,4,1,3,70,0,1
178382,-133.333333333333,4,1,3,70,0,0
181124,-76.9230769230769,4,1,3,70,0,1
183696,-133.333333333333,4,1,3,70,0,1
183867,-133.333333333333,4,1,3,70,0,0
186610,-76.9230769230769,4,1,3,70,0,1
194667,-133.333333333333,4,1,3,70,0,1
194839,-133.333333333333,4,1,3,70,0,0
196210,-100,4,1,3,70,0,0
197582,-50,4,1,3,70,0,0
198610,-200,4,1,3,70,0,0

[Colours]
Combo1 : 0,0,255
Combo2 : 255,128,64
Combo3 : 255,255,0
Combo4 : 128,0,128

[HitObjects]
128,64,4210,37,2,2:2:0:0:
124,92,4296,1,0,2:2:0:0:
128,120,4381,1,0,2:2:0:0:
140,144,4467,1,0,2:2:0:0:
160,164,4553,1,2,2:2:0:0:
148,200,4639,1,0,2:2:0:0:
136,236,4724,1,0,2:2:0:0:
144,272,4810,1,0,2:2:0:0:
172,296,4896,5,2,2:2:0:0:
160,340,4981,1,0,2:2:0:0:
120,356,5067,1,0,2:2:0:0:
76,340,5153,1,0,2:2:0:0:
68,296,5239,1,2,2:2:0:0:
88,244,5324,1,0,2:2:0:0:
64,196,5410,1,0,2:2:0:0:
128,64,5581,37,0,0:0:0:0:
336,328,6610,2,0,L|340:236,1,90,4|0,0:3|0:0,0:0:0:0:
512,88,6953,6,0,P|441:117|352:80,1,135,4|0,0:0|0:0,0:0:0:0:
328,64,7296,1,8,0:0:0:0:
152,16,7467,2,0,L|162:105,1,90,2|0,0:0|0:0,0:0:0:0:
155,370,7810,2,0,L|227:316,1,90,2|8,0:0|0:0,0:0:0:0:
460,189,8153,2,0,L|377:154,1,90,2|0,0:0|0:0,0:0:0:0:
52,189,8496,37,2,0:0:0:0:
228,235,8667,2,0,P|236:192|228:148,1,90,10|0,0:0|0:0,0:0:0:0:
336,56,9010,1,2,0:0:0:0:
336,328,9182,1,2,0:0:0:0:
440,92,9353,1,10,0:0:0:0:
440,292,9524,1,2,0:0:0:0:
160,192,9696,6,0,L|48:192,1,90,2|0,0:0|0:0,0:0:0:0:
156,72,10039,1,8,0:0:0:0:
156,312,10210,2,0,P|194:335|238:344,1,90,2|0,0:0|0:0,0:0:0:0:
409,218,10553,2,0,P|410:173|396:131,1,90,2|8,0:0|0:0,0:0:0:0:
202,45,10896,2,0,P|162:67|133:100,1,90,2|0,0:0|0:0,0:0:0:0:
328,276,11239,37,2,0:0:0:0:
292,87,11410,1,10,0:0:0:0:
147,212,11582,1,0,0:0:0:0:
408,192,11753,1,2,0:0:0:0:
72,176,11924,1,2,0:0:0:0:
492,236,12096,2,0,P|499:192|491:148,1,90,10|0,0:0|0:0,0:0:0:0:
256,48,12439,6,0,L|252:136,2,45.0000017166138,8|0|0,0:0|0:0|0:0,0:0:0:0:
168,64,12782,2,0,L|171:153,1,90.0000034332277,4|0,0:0|0:0,0:0:0:0:
76,128,13124,2,0,L|79:38,1,90.0000034332277,8|0,0:0|0:0,0:0:0:0:
124,224,13467,2,0,P|168:240|216:224,1,90.0000034332277,4|0,0:0|0:0,0:0:0:0:
284,96,13810,38,0,L|286:140,2,45.0000017166138,8|0|0,0:0|0:0|0:0,0:0:0:0:
364,188,14153,2,0,P|405:203|449:197,1,90.0000034332277
464,112,14496,2,0,P|422:96|378:102,1,90.0000034332277,8|0,0:0|0:0,0:0:0:0:
284,216,14839,2,0,L|292:320,1,90.0000034332277,4|0,0:0|0:0,0:0:0:0:
192,328,15182,5,8,0:0:0:0:
116,340,15296,1,0,0:0:0:0:
144,268,15410,1,0,0:0:0:0:
192,328,15524,2,0,L|281:335,1,90.0000034332277
296,240,15867,2,0,L|385:232,1,90.0000034332277,8|0,0:0|0:0,0:0:0:0:
456,299,16210,2,0,P|478:261|481:216,1,90.0000034332277,4|0,0:0|0:0,0:0:0:0:
436,128,16553,37,8,0:0:0:0:
372,84,16667,1,0,0:0:0:0:
368,160,16782,1,0,0:0:0:0:
436,128,16896,2,0,L|432:38,1,90.0000034332277,4|0,0:0|0:0,0:0:0:0:
312,32,17239,2,0,B|264:32|264:32|220:48,1,90.0000034332277,8|0,0:0|0:0,0:0:0:0:
152,180,17582,2,0,L|148:76,1,90.0000034332277,4|0,0:0|0:0,0:0:0:0:
64,224,17924,6,0,P|158:272|243:207,1,225.000008583069,4|0,0:0|2:0,0:0:0:0:
280,108,18610,2,0,P|364:42|459:91,1,225.000008583069,4|0,0:0|2:0,0:0:0:0:
456,236,19296,38,0,P|361:284|277:218,1,225.000008583069,4|0,0:0|2:0,0:0:0:0:
240,108,19982,2,0,P|155:42|60:90,1,225.000008583069,4|0,0:0|2:0,0:0:0:0:
52,272,20667,5,4,0:0:0:0:
204,320,21010,1,0,0:3:0:0:
201,307,21067,1,0,0:3:0:0:
198,295,21124,1,0,0:3:0:0:
195,283,21182,1,0,0:3:0:0:
192,270,21239,1,0,0:3:0:0:
189,258,21296,1,0,0:3:0:0:
187,246,21353,37,4,0:0:0:0:
304,96,21696,1,0,0:0:0:0:
301,108,21753,1,0,0:3:0:0:
298,120,21810,1,0,0:3:0:0:
295,133,21867,1,0,0:3:0:0:
292,145,21925,1,0,0:3:0:0:
289,157,21982,1,0,0:3:0:0:
287,170,22039,5,4,0:0:0:0:
388,316,22382,1,2,0:0:0:0:
424,188,22553,1,0,0:0:0:0:
470,270,22724,1,2,0:0:0:0:
342,234,22895,1,0,0:0:0:0:
470,270,23067,1,0,0:0:0:0:
296,316,23239,1,0,0:0:0:0:
423,188,23410,38,0,P|457:130|447:65,1,135,4|0,0:0|0:0,0:0:0:0:
384,24,23753,1,8,0:0:0:0:
224,132,23924,2,0,L|227:221,1,90
52,312,24267,2,0,L|55:222,1,90,0|8,0:0|0:0,0:0:0:0:
152,68,24610,6,0,P|228:40|320:120,1,180
272,296,25124,1,8,0:0:0:0:
152,68,25296,1,0,0:0:0:0:
184,332,25467,1,0,0:0:0:0:
307,88,25639,1,0,0:0:0:0:
360,284,25810,2,0,P|401:299|448:296,1,90,8|0,0:0|0:0,0:0:0:0:
180,180,26153,37,0,0:0:0:0:
416,208,26324,1,0,0:0:0:0:
416,208,26410,1,0,0:0:0:0:
416,208,26496,1,8,0:0:0:0:
316,24,26667,1,0,0:0:0:0:
316,24,26753,1,0,0:0:0:0:
316,24,26839,1,0,0:0:0:0:
196,264,27010,1,0,0:0:0:0:
428,116,27182,1,8,0:0:0:0:
180,44,27353,6,0,L|84:52,1,90
32,300,27696,1,0,0:0:0:0:
56,128,27867,1,8,0:0:0:0:
160,340,28039,1,0,0:0:0:0:
180,44,28210,1,0,0:0:0:0:
324,316,28382,1,0,0:0:0:0:
336,44,28553,2,0,P|384:46|444:80,1,90,8|0,0:0|0:0,0:0:0:0:
456,344,28896,6,0,L|460:184,1,135,4|0,0:0|0:0,0:0:0:0:
460,132,29239,1,8,0:0:0:0:
252,40,29410,2,0,L|248:129,1,90
80,280,29753,2,0,L|76:190,1,90,0|8,0:0|0:0,0:0:0:0:
332,308,30096,2,0,P|376:315|421:313,1,90
421,70,30439,2,0,P|376:68|332:76,1,90,0|8,0:0|0:0,0:0:0:0:
176,272,30782,5,0,0:0:0:0:
176,112,30953,1,0,0:0:0:0:
64,312,31124,1,0,0:0:0:0:
64,72,31296,1,8,0:0:0:0:
272,192,31467,1,0,0:0:0:0:
24,192,31639,37,4,0:0:0:0:
232,56,31810,1,0,0:0:0:0:
232,56,31896,1,0,0:0:0:0:
232,56,31982,1,8,0:0:0:0:
232,328,32153,1,0,0:0:0:0:
232,328,32239,1,0,0:0:0:0:
232,328,32325,1,0,0:0:0:0:
100,104,32496,1,0,0:0:0:0:
360,96,32667,1,8,0:0:0:0:
144,280,32839,1,0,0:0:0:0:
232,36,33010,5,0,0:0:0:0:
348,228,33182,1,0,0:0:0:0:
96,212,33353,1,8,0:0:0:0:
332,60,33524,2,0,L|428:64,1,90
468,344,33867,1,0,0:0:0:0:
500,104,34039,1,4,0:0:0:0:
368,304,34210,2,0,L|264:300,1,90,2|4,0:0|0:0,0:0:0:0:
116,128,34553,37,0,0:0:0:0:
192,336,34724,1,8,0:0:0:0:
189,52,34896,1,0,0:0:0:0:
114,261,35067,1,0,0:0:0:0:
294,43,35239,1,0,0:0:0:0:
103,153,35410,1,8,0:0:0:0:
276,256,35582,2,0,L|384:248,1,90
436,28,35924,5,0,0:0:0:0:
436,28,36010,1,0,0:0:0:0:
436,28,36096,1,8,0:0:0:0:
464,284,36267,1,0,0:0:0:0:
284,96,36439,1,0,0:0:0:0:
397,326,36610,1,0,0:0:0:0:
156,204,36782,1,4,0:0:0:0:
342,382,36953,1,0,0:0:0:0:
408,140,37124,37,0,0:0:0:0:
196,288,37296,1,0,0:0:0:0:
196,288,37382,1,0,0:0:0:0:
196,288,37467,1,8,0:0:0:0:
432,232,37639,1,0,0:0:0:0:
264,60,37810,1,0,0:0:0:0:
280,360,37982,1,0,0:0:0:0:
464,128,38153,1,8,0:0:0:0:
176,79,38324,6,0,P|155:143|168:208,1,135,2|0,0:0|0:0,0:0:0:0:
204,276,38667,1,2,0:0:0:0:
392,128,38839,1,2,0:0:0:0:
288,352,39010,1,2,0:0:0:0:
344,48,39182,2,0,L|254:55,1,90,2|0,0:0|0:0,0:0:0:0:
200,336,39524,2,0,L|110:328,1,90,10|0,0:0|0:0,0:0:0:0:
84,44,39867,6,0,P|112:128|96:200,1,135
60,244,40210,2,0,L|160:248,1,90,8|0,0:0|0:0,0:0:0:0:
416,268,40553,2,0,L|424:104,1,135
436,52,40896,2,0,P|380:88|348:92,1,90,8|0,0:0|0:0,0:0:0:0:
280,84,41153,1,0,0:0:0:0:
280,84,41239,5,0,0:0:0:0:
212,272,41410,1,0,0:0:0:0:
212,272,41496,1,0,0:0:0:0:
212,272,41582,1,8,0:0:0:0:
168,48,41753,1,0,0:0:0:0:
128,236,41924,1,0,0:0:0:0:
88,84,42096,1,0,0:0:0:0:
48,216,42267,2,0,L|51:305,1,90,8|0,0:0|0:0,0:0:0:0:
272,336,42610,38,0,L|444:324,1,135
488,320,42953,1,8,0:0:0:0:
424,44,43124,2,0,L|420:144,1,90
248,240,43467,2,2,B|212:248|212:248|192:244|192:244|144:260,1,90,0|8,0:0|0:0,0:1:0:0:
292,96,43810,1,0,0:0:0:0:
308,356,43982,5,0,0:0:0:0:
76,240,44153,1,0,0:0:0:0:
76,240,44239,1,0,0:0:0:0:
76,240,44324,1,8,0:0:0:0:
292,96,44496,1,0,0:0:0:0:
308,356,44667,2,0,P|255:362|196:356,1,90
464,128,45010,2,0,P|466:172|459:217,1,90,4|0,0:0|0:0,0:0:0:0:
200,96,45353,6,2,L|204:204,1,90,0|0,0:0|0:0,0:1:0:0:
208,264,45867,1,0,0:0:0:0:
120,108,46039,2,2,L|124:216,1,90,0|0,0:0|0:0,0:1:0:0:
128,276,46553,1,0,0:0:0:0:
264,316,46724,6,2,L|308:321,1,45,0|0,0:0|0:0,0:1:0:0:
284,232,47067,2,2,L|328:237,1,45,0|0,0:0|0:0,0:1:0:0:
304,152,47410,1,2,0:1:0:0:
332,68,47582,1,0,0:0:0:0:
252,40,47753,1,2,0:1:0:0:
224,124,47925,1,0,0:0:0:0:
304,152,48096,37,2,0:0:0:0:
40,80,48439,1,2,0:0:0:0:
160,344,48782,1,2,0:0:0:0:
256,104,48953,1,0,0:0:0:0:
352,344,49124,1,2,0:0:0:0:
128,204,49296,1,0,0:0:0:0:
384,204,49467,1,2,0:0:0:0:
64,296,49639,5,2,0:1:0:0:
64,296,49724,1,2,0:1:0:0:
64,296,49810,1,2,0:1:0:0:
204,28,49982,1,0,0:0:0:0:
284,344,50153,1,2,0:1:0:0:
68,80,50324,1,0,0:0:0:0:
368,240,50496,2,0,P|411:248|455:238,1,90,2|0,0:1|0:0,0:0:0:0:
472,76,50839,6,0,L|468:17,1,58.4999973220826,6|0,0:0|0:0,0:0:0:0:
344,104,51010,2,0,L|340:162,1,58.4999973220826,2|0,0:0|0:0,0:0:0:0:
212,24,51182,2,0,L|220:148,1,116.999994644165,10|0,0:0|0:0,0:0:0:0:
64,324,51524,2,0,L|140:332,1,58.4999973220826,2|0,0:0|0:0,0:0:0:0:
240,296,51696,2,0,P|312:304|392:288,1,116.999994644165,2|8,0:0|0:0,0:0:0:0:
488,216,52039,6,0,P|492:96|452:24,1,175.499991966248,2|0,0:0|0:0,0:0:0:0:
392,32,52382,2,0,L|328:44,1,58.4999973220826,2|0,0:0|0:0,0:0:0:0:
224,132,52553,2,0,L|208:200,1,58.4999973220826,10|0,0:0|0:0,0:0:0:0:
112,76,52724,1,2,0:0:0:0:
100,344,52896,2,0,L|184:352,1,58.4999973220826,2|0,0:0|0:0,0:0:0:0:
220,280,53067,2,0,P|300:264|356:284,1,116.999994644165,2|8,0:0|0:0,0:0:0:0:
100,344,53410,38,2,P|116:264|108:188,1,135.000005149842,2|0,0:0|0:0,0:0:0:0:
72,56,53924,1,2,0:0:0:0:
328,84,54096,1,0,0:0:0:0:
184,292,54267,1,10,0:0:0:0:
196,40,54439,1,0,0:0:0:0:
372,200,54610,1,2,0:0:0:0:
64,264,54782,6,2,P|117:283|184:284,1,101.250003862381,2|0,0:0|0:0,0:0:0:0:
240,240,55124,1,2,0:0:0:0:
236,228,55182,1,0,0:0:0:0:
232,216,55239,1,0,0:0:0:0:
228,204,55296,1,10,0:0:0:0:
196,40,55467,1,0,0:0:0:0:
368,116,55639,2,0,P|420:120|480:100,1,101.250003862381,10|0,0:0|0:0,0:0:0:0:
466,106,55982,2,0,L|463:183,1,67.5000025749208,2|0,0:0|0:0,0:0:0:0:
448,348,56324,38,0,L|389:352,1,58.4999973220826,6|0,0:0|0:0,0:0:0:0:
352,216,56496,2,0,L|293:211,1,58.4999973220826,2|0,0:0|0:0,0:0:0:0:
188,328,56667,2,0,L|192:204,1,116.999994644165,10|0,0:0|0:0,0:0:0:0:
24,40,57010,2,0,L|28:136,1,58.4999973220826,2|0,0:0|0:0,0:0:0:0:
124,28,57182,2,0,L|120:144,1,116.999994644165,2|8,0:0|0:0,0:0:0:0:
48,320,57524,6,0,P|144:344|224:320,1,175.499991966248,2|0,0:0|0:0,0:0:0:0:
268,264,57867,2,0,L|260:176,1,58.4999973220826,2|0,0:0|0:0,0:0:0:0:
244,48,58039,1,10,0:0:0:0:
420,192,58210,1,2,0:0:0:0:
155,196,58382,2,0,P|129:208|105:224,1,58.4999973220826,2|0,0:0|0:0,0:0:0:0:
40,112,58553,2,0,P|42:82|40:53,1,58.4999973220826,2|0,0:0|0:0,0:0:0:0:
180,40,58724,1,8,0:0:0:0:
179,287,58896,38,0,P|244:305|310:293,1,135.000005149842,2|2,0:0|0:0,0:0:0:0:
444,112,59410,1,2,0:0:0:0:
192,200,59582,1,0,0:0:0:0:
456,212,59753,1,10,0:0:0:0:
188,104,59924,1,2,0:0:0:0:
376,172,60096,1,2,0:0:0:0:
104,160,60267,6,0,L|108:288,1,101.250003862381,2|0,0:0|0:0,0:0:0:0:
140,352,60610,1,2,0:0:0:0:
148,340,60667,1,0,0:0:0:0:
156,328,60724,1,0,0:0:0:0:
164,316,60782,1,10,0:0:0:0:
156,88,60953,1,0,0:0:0:0:
255,287,61124,2,0,P|298:314|348:318,1,101.250003862381,10|0,0:0|0:0,0:0:0:0:
348,318,61467,2,0,L|352:240,1,67.5000025749208,2|0,0:0|0:0,0:0:0:0:
432,40,61810,6,0,L|435:98,1,58.4999973220826,6|0,0:0|0:0,0:0:0:0:
508,208,61982,2,0,L|511:149,1,58.4999973220826,2|0,0:0|0:0,0:0:0:0:
348,72,62153,2,0,P|293:50|235:50,1,116.999994644165,10|0,0:0|0:0,0:0:0:0:
92,288,62496,2,0,L|88:224,1,58.4999973220826,2|0,0:0|0:0,0:0:0:0:
176,324,62667,2,0,L|184:184,1,116.999994644165,2|8,0:0|0:0,0:0:0:0:
404,200,63010,6,0,L|396:60,1,116.999994644165,2|0,0:0|0:0,0:0:0:0:
496,324,63353,2,0,P|473:342|446:354,1,58.4999973220826,2|0,0:0|0:0,0:0:0:0:
332,344,63524,2,0,L|200:340,1,116.999994644165,10|0,0:0|0:0,0:0:0:0:
116,184,63867,2,0,P|106:156|101:127,1,58.4999973220826,2|0,0:0|0:0,0:0:0:0:
204,120,64039,2,0,P|260:80|328:68,1,116.999994644165,2|8,0:0|0:0,0:0:0:0:
512,180,64382,38,0,B|400:228|400:124|268:180,1,233.999989288331,2|0,0:0|0:0,0:0:0:0:
159,360,64896,2,0,P|150:303|110:262,1,116.999994644165,10|0,0:0|0:0,0:0:0:0:
159,23,65239,2,0,P|150:80|110:121,1,116.999994644165,2|0,0:0|0:0,0:0:0:0:
332,188,65582,1,10,0:0:0:0:
24,156,65753,6,0,L|28:232,1,58.4999973220826,2|0,0:0|0:0,0:0:0:0:
444,316,66096,2,0,L|447:257,1,58.4999973220826,2|0,0:0|0:0,0:0:0:0:
504,180,66267,1,8,0:0:0:0:
304,140,66439,1,2,0:0:0:0:
488,72,66610,1,2,0:0:0:0:
216,172,66782,1,0,0:0:0:0:
424,152,66953,2,0,P|424:181|428:210,1,58.4999973220826,2|0,0:0|0:0,0:0:0:0:
460,340,67124,2,0,P|434:325|407:315,1,58.4999973220826,4|0,0:3|0:0,0:0:0:0:
144,336,67296,38,0,L|136:144,1,175.499991966248,6|0,0:0|0:0,0:0:0:0:
140,64,67639,2,0,P|162:82|189:92,1,58.4999973220826,10|0,0:0|0:0,0:0:0:0:
280,96,67810,1,2,0:0:0:0:
432,40,67982,2,0,L|429:98,1,58.4999973220826,2|0,0:0|0:0,0:0:0:0:
352,168,68153,2,0,L|360:304,1,116.999994644165,2|8,0:0|0:0,0:0:0:0:
96,324,68496,6,0,L|100:120,1,175.499991966248,2|0,0:0|0:0,0:0:0:0:
96,63,68839,2,0,P|123:53|152:48,1,58.4999973220826,2|0,0:0|0:0,0:0:0:0:
300,108,69010,1,10,0:0:0:0:
200,252,69182,1,2,0:0:0:0:
236,44,69353,2,0,P|320:20|388:128,1,175.499991966248,2|0,0:0|0:0,0:0:0:0:
412,204,69696,1,10,0:0:0:0:
124,312,69867,38,2,P|108:256|140:176,1,135.000005149842,2|0,0:0|0:0,0:1:0:0:
449,67,70382,2,0,L|381:71,1,67.5000025749208,2|0,0:0|0:0,0:0:0:0:
200,252,70724,2,0,L|268:256,1,67.5000025749208,10|0,0:0|0:0,0:0:0:0:
352,260,70982,1,0,0:0:0:0:
352,260,71067,1,10,0:0:0:0:
200,92,71239,1,0,0:0:0:0:
124,312,71410,5,2,0:0:0:0:
124,312,71582,1,0,0:0:0:0:
352,260,71753,1,2,0:0:0:0:
352,260,71924,1,0,0:0:0:0:
200,92,72096,1,2,0:0:0:0:
200,92,72267,2,0,L|204:160,1,45
296,56,72439,2,0,L|292:152,1,90,8|0,0:0|0:0,0:0:0:0:
67,299,72782,6,0,P|125:333|191:328,1,135,4|0,0:0|0:0,0:0:0:0:
260,296,73124,1,8,0:0:0:0:
380,84,73296,2,0,P|388:128|389:172,1,90,2|0,0:0|0:0,0:0:0:0:
122,172,73639,2,0,P|123:128|132:84,1,90,2|8,0:0|0:0,0:0:0:0:
300,312,73982,2,0,P|256:323|212:311,1,90,2|0,0:0|0:0,0:0:0:0:
256,56,74324,5,2,0:0:0:0:
256,92,74410,1,0,0:0:0:0:
256,128,74496,2,0,L|256:224,1,90,10|0,0:0|0:0,0:0:0:0:
120,316,74839,1,2,0:0:0:0:
144,136,75010,1,2,0:0:0:0:
368,136,75182,1,10,0:0:0:0:
392,316,75353,1,2,0:0:0:0:
392,316,75439,1,0,0:0:0:0:
392,316,75524,38,0,L|292:324,1,90,2|0,0:0|0:0,0:0:0:0:
256,120,75867,1,8,0:0:0:0:
209,323,76039,2,0,L|120:316,1,90,2|0,0:0|0:0,0:0:0:0:
352,184,76382,2,0,L|252:192,1,90,2|8,0:0|0:0,0:0:0:0:
120,68,76724,2,0,L|209:60,1,90,2|0,0:0|0:0,0:0:0:0:
256,268,77067,5,2,0:0:0:0:
302,60,77239,2,0,L|392:68,1,90,10|0,0:0|0:0,0:0:0:0:
448,292,77582,2,0,L|450:336,1,45,2|0,0:0|0:0,0:0:0:0:
400,208,77753,2,0,L|402:163,1,45
316,279,77924,2,0,P|273:294|228:288,1,90,10|0,0:0|0:0,0:0:0:0:
160,52,78267,38,0,L|152:188,1,135,4|0,0:0|0:0,0:0:0:0:
116,260,78610,2,0,P|90:275|60:284,2,60,8|0|0,0:0|0:0|0:0,0:0:0:0:
216,256,78953,2,0,P|272:240|340:256,1,90
372,288,79210,1,0,0:0:0:0:
372,288,79296,2,0,P|382:260|384:220,2,60,8|0|0,0:0|0:0|0:0,0:0:0:0:
476,264,79639,6,0,L|472:116,1,135,2|0,0:0|0:0,0:0:0:0:
411,79,79982,2,0,P|384:68|353:68,2,60,8|0|0,0:0|0:0|0:0,0:0:0:0:
271,112,80324,2,0,P|217:135|158:126,1,120
64,76,80667,2,0,L|68:152,2,60,8|0|0,0:0|0:0|0:0,0:0:0:0:
112,216,81010,37,6,0:0:0:0:
144,232,81096,1,0,0:0:0:0:
180,244,81182,1,0,0:0:0:0:
216,248,81267,1,0,0:0:0:0:
251,244,81353,2,0,P|274:239|293:229,1,45,10|0,0:0|0:0,0:0:0:0:
216,116,81524,2,0,P|208:137|207:159,1,45
296,52,81696,2,0,P|281:34|262:23,1,45,2|0,0:0|0:0,0:0:0:0:
308,152,81867,2,0,P|330:147|349:137,1,45
444,28,82039,1,10,0:0:0:0:
432,64,82124,1,0,0:0:0:0:
432,100,82210,1,2,0:0:0:0:
472,216,82382,5,2,0:0:0:0:
456,228,82467,1,0,0:0:0:0:
436,240,82553,1,0,0:0:0:0:
420,252,82639,1,0,0:0:0:0:
404,264,82724,1,10,0:0:0:0:
320,156,82896,1,0,0:0:0:0:
320,156,82982,1,0,0:0:0:0:
320,156,83067,1,2,0:0:0:0:
472,216,83239,2,0,L|474:171,1,45
404,100,83410,2,0,L|401:55,1,45,14|0,0:0|0:0,0:0:0:0:
496,20,83582,1,2,0:0:0:0:
256,88,83753,38,0,L|204:76,2,45,4|0|0,0:0|0:0|0:0,0:0:0:0:
192,156,84010,2,0,P|164:216|180:300,1,135,2|2,0:0|0:0,0:0:0:0:
232,336,84353,1,0,0:0:0:0:
232,336,84439,2,0,L|328:328,1,90,2|0,0:0|0:0,0:0:0:0:
360,256,84696,2,0,P|412:240|468:256,1,90,2|0,0:0|0:0,0:0:0:0:
500,296,84953,1,2,0:0:0:0:
376,168,85124,5,2,0:0:0:0:
375,167,85210,2,0,P|363:125|369:80,1,90,2|0,0:0|0:0,0:0:0:0:
420,28,85467,2,0,L|330:38,1,90,8|0,0:0|0:0,0:0:0:0:
236,196,85810,1,2,0:0:0:0:
136,48,85982,1,0,0:0:0:0:
136,48,86067,1,0,0:0:0:0:
136,48,86153,2,0,P|120:104|124:156,1,90,12|0,0:0|0:0,0:0:0:0:
84,304,86496,37,2,0:0:0:0:
120,296,86582,1,0,0:0:0:0:
156,288,86667,1,2,0:0:0:0:
152,324,86753,1,0,0:0:0:0:
148,360,86839,1,8,0:0:0:0:
364,360,87182,1,2,0:0:0:0:
360,324,87268,1,0,0:0:0:0:
356,288,87354,1,2,0:0:0:0:
392,296,87439,1,0,0:0:0:0:
428,304,87525,1,8,0:0:0:0:
464,76,87867,6,0,L|360:96,1,90,2|0,0:0|0:0,0:0:0:0:
296,132,88124,1,0,0:0:0:0:
288,168,88210,1,10,0:0:0:0:
296,204,88296,1,0,0:0:0:0:
320,232,88382,2,0,L|380:216,1,45
280,340,88553,2,0,L|236:328,1,45,2|0,0:0|0:0,0:0:0:0:
156,244,88724,2,0,L|216:228,1,45
100,332,88896,2,0,P|60:278|59:211,1,135,12|0,0:0|0:0,0:0:0:0:
88,136,89239,5,4,0:0:0:0:
380,124,89410,1,2,0:0:0:0:
156,68,89582,1,8,0:0:0:0:
156,68,89667,1,0,0:0:0:0:
156,68,89753,1,2,0:0:0:0:
256,344,89924,1,0,0:0:0:0:
260,308,90010,1,0,0:0:0:0:
264,272,90096,2,0,L|260:192,1,45,2|0,0:0|0:0,0:0:0:0:
248,112,90267,1,8,0:0:0:0:
400,272,90439,1,2,0:0:0:0:
148,316,90610,5,2,0:0:0:0:
152,288,90696,1,0,0:0:0:0:
156,260,90782,1,0,0:0:0:0:
160,232,90867,1,0,0:0:0:0:
164,204,90953,2,0,L|159:159,1,45,8|0,0:0|0:0,0:0:0:0:
248,112,91124,2,0,L|252:67,1,45,2|0,0:0|0:0,0:0:0:0:
372,84,91296,2,0,P|436:72|488:88,1,90
496,220,91553,1,0,0:0:0:0:
480,264,91639,1,4,0:0:0:0:
280,252,91810,1,2,0:0:0:0:
376,84,91982,37,2,0:0:0:0:
380,100,92067,1,0,0:0:0:0:
384,116,92153,1,0,0:0:0:0:
388,132,92239,1,0,0:0:0:0:
391,147,92324,2,0,P|394:170|392:192,1,45,8|0,0:0|0:0,0:0:0:0:
272,204,92496,2,0,P|269:181|271:159,1,45,2|0,0:0|0:0,0:0:0:0:
184,244,92667,2,0,P|175:199|178:154,1,90,2|0,0:0|0:0,0:0:0:0:
356,60,93010,2,0,L|420:52,3,45,8|0|0|0,0:0|0:0|0:0|0:0,0:0:0:0:
416,136,93353,5,2,0:0:0:0:
412,172,93439,1,0,0:0:0:0:
424,204,93524,1,0,0:0:0:0:
448,232,93610,1,0,0:0:0:0:
480,248,93696,2,0,L|384:264,1,90,8|0,0:0|0:0,0:0:0:0:
208,296,94039,1,2,0:0:0:0:
208,296,94124,1,0,0:0:0:0:
208,296,94210,2,0,L|200:220,1,45,2|0,0:0|0:0,0:0:0:0:
252,164,94382,2,0,L|256:56,1,90,12|0,0:0|0:0,0:0:0:0:
84,44,94724,37,2,0:0:0:0:
64,252,94896,1,0,0:0:0:0:
152,96,95067,1,10,0:0:0:0:
152,96,95153,1,0,0:0:0:0:
152,96,95239,2,2,L|156:156,1,45
244,156,95410,1,2,0:0:0:0:
276,172,95496,1,0,0:0:0:0:
312,176,95582,1,2,0:0:0:0:
348,168,95667,1,0,0:0:0:0:
380,148,95753,2,0,L|384:52,1,90,10|2,0:0|0:0,0:0:0:0:
372,252,96096,5,2,0:0:0:0:
372,252,96267,1,0,0:0:0:0:
100,64,96439,1,10,0:0:0:0:
100,64,96610,1,0,0:0:0:0:
500,136,96782,1,2,0:0:0:0:
500,136,96953,1,0,0:0:0:0:
52,300,97124,1,14,0:0:0:0:
52,300,97296,1,0,0:0:0:0:
344,328,97467,38,0,L|348:252,2,45,4|0|0,0:0|0:0|0:0,0:0:0:0:
296,180,97810,1,10,0:0:0:0:
124,256,97982,2,0,L|120:180,2,45,2|0|0,0:0|0:0|0:0,0:0:0:0:
224,72,98325,1,2,0:0:0:0:
440,256,98496,2,0,L|444:180,2,45,10|0|0,0:0|0:0|0:0,0:0:0:0:
300,28,98839,5,2,0:0:0:0:
220,168,99010,1,0,0:0:0:0:
188,196,99096,1,0,0:0:0:0:
148,208,99182,1,8,0:0:0:0:
108,204,99267,1,0,0:0:0:0:
72,184,99353,2,0,L|76:124,1,45
168,36,99524,2,0,L|170:80,1,45,2|0,0:0|0:0,0:0:0:0:
276,100,99696,1,0,0:0:0:0:
476,20,99867,2,0,L|472:152,1,90,6|0,0:0|0:0,0:0:0:0:
464,272,100210,6,0,L|360:284,1,90,2|0,0:0|0:0,0:0:0:0:
344,204,100724,1,0,0:0:0:0:
296,300,100896,6,0,L|192:312,1,90,2|0,0:0|0:0,0:0:0:0:
176,232,101410,1,0,0:0:0:0:
156,148,101582,38,0,L|159:103,1,45,2|0,0:0|0:0,0:0:0:0:
240,132,101924,2,0,L|243:87,1,45,2|0,0:0|0:0,0:0:0:0:
324,140,102267,1,2,0:0:0:0:
404,148,102439,1,0,0:0:0:0:
376,224,102610,1,2,0:0:0:0:
456,216,102782,1,0,0:0:0:0:
448,296,102953,5,2,0:0:0:0:
69,306,103296,1,0,0:0:0:0:
252,0,103639,37,2,0:0:0:0:
348,228,103810,1,0,0:0:0:0:
428,32,103982,1,2,0:0:0:0:
244,296,104153,1,0,0:0:0:0:
480,184,104324,1,2,0:0:0:0:
112,68,104496,5,2,0:1:0:0:
104,108,104582,1,2,0:1:0:0:
104,152,104667,2,0,P|128:216|148:236,1,90,2|0,0:1|0:0,0:0:0:0:
304,80,105010,1,2,0:1:0:0:
268,72,105096,1,0,0:0:0:0:
232,84,105182,1,0,0:0:0:0:
296,248,105353,1,2,0:1:0:0:
396,40,105524,1,0,0:0:0:0:
400,44,105582,1,0,0:0:0:0:
404,48,105639,1,0,0:0:0:0:
408,52,105696,6,0,L|404:124,1,58.4999973220826,6|0,0:0|0:0,0:0:0:0:
499,210,105867,2,0,L|496:152,1,58.4999973220826,2|0,0:0|0:0,0:0:0:0:
440,300,106039,2,0,P|372:324|300:312,1,116.999994644165,10|0,0:0|0:0,0:0:0:0:
184,160,106382,2,0,P|178:131|179:102,1,58.4999973220826,2|0,0:0|0:0,0:0:0:0:
68,80,106553,2,0,P|66:138|74:196,1,116.999994644165,2|8,0:0|0:0,0:0:0:0:
236,320,106896,6,0,P|332:340|392:252,1,175.499991966248,2|0,0:0|0:0,0:0:0:0:
412,184,107239,2,0,L|404:100,1,58.4999973220826,2|0,0:0|0:0,0:0:0:0:
488,32,107410,1,10,0:0:0:0:
272,128,107582,1,2,0:0:0:0:
512,192,107753,2,0,L|506:250,1,58.4999973220826,2|0,0:0|0:0,0:0:0:0:
383,292,107924,1,2,0:0:0:0:
400,48,108096,1,8,0:0:0:0:
292,256,108267,38,2,P|208:292|144:272,1,135.000005149842,2|0,0:0|0:0,0:0:0:0:
132,64,108782,1,2,0:0:0:0:
80,328,108953,1,0,0:0:0:0:
68,136,109124,1,10,0:0:0:0:
216,364,109296,1,2,0:0:0:0:
156,152,109467,1,2,0:0:0:0:
364,208,109639,6,2,L|368:92,1,101.250003862381
432,48,109982,1,0,0:0:0:0:
436,56,110039,1,0,0:0:0:0:
440,64,110096,1,0,0:0:0:0:
444,72,110153,1,2,0:0:0:0:
428,272,110324,1,0,0:0:0:0:
248,148,110496,2,0,P|200:130|150:129,1,101.250003862381,10|0,0:0|0:0,0:0:0:0:
150,129,110839,2,0,L|156:200,1,67.5000025749208,2|0,0:0|0:0,0:0:0:0:
96,332,111182,38,0,L|154:337,1,58.4999973220826,6|0,0:0|0:0,0:0:0:0:
284,296,111353,2,0,L|342:290,1,58.4999973220826,2|0,0:0|0:0,0:0:0:0:
496,336,111524,2,0,P|471:283|463:225,1,116.999994644165,10|0,0:0|0:0,0:0:0:0:
504,32,111867,2,0,L|392:44,1,58.4999973220826,2|0,0:0|0:0,0:0:0:0:
352,104,112039,2,0,L|196:88,1,116.999994644165,2|8,0:0|0:0,0:0:0:0:
52,128,112382,6,0,P|112:176|112:288,1,175.499991966248,2|0,0:0|0:0,0:0:0:0:
80,344,112724,1,2,0:0:0:0:
256,196,112896,2,0,L|262:254,1,58.4999973220826,10|0,0:0|0:0,0:0:0:0:
356,336,113067,2,0,L|362:277,1,58.4999973220826,2|0,0:0|0:0,0:0:0:0:
472,352,113239,2,0,L|464:220,1,116.999994644165,2|2,0:0|0:0,0:0:0:0:
456,28,113582,1,8,0:0:0:0:
248,68,113753,38,2,L|100:60,1,135.000005149842,2|0,0:0|0:0,0:0:0:0:
36,244,114267,1,2,0:0:0:0:
248,152,114439,1,0,0:0:0:0:
16,160,114610,1,10,0:0:0:0:
320,220,114782,1,2,0:0:0:0:
100,188,114953,1,2,0:0:0:0:
247,11,115124,6,2,P|271:56|277:106,1,101.250003862381
224,176,115467,1,0,0:0:0:0:
220,168,115524,1,0,0:0:0:0:
216,160,115582,1,0,0:0:0:0:
212,152,115639,1,2,0:0:0:0:
184,344,115810,1,2,0:0:0:0:
136,80,115982,2,0,L|132:196,1,101.250003862381,2|0,0:0|0:0,0:0:0:0:
132,181,116324,2,0,P|101:194|68:194,1,67.5000025749208,2|0,0:0|0:0,0:0:0:0:
196,336,116667,6,0,P|224:330|253:327,1,58.4999973220826,6|0,0:0|0:0,0:0:0:0:
376,336,116839,2,0,P|404:341|433:344,1,58.4999973220826,2|0,0:0|0:0,0:0:0:0:
436,224,117010,2,0,P|484:172|500:120,1,116.999994644165,10|0,0:0|0:0,0:0:0:0:
252,64,117353,2,0,L|256:122,1,58.4999973220826,2|0,0:0|0:0,0:0:0:0:
132,160,117524,2,0,L|136:44,1,116.999994644165,2|8,0:0|0:0,0:0:0:0:
39,243,117867,6,0,P|111:290|193:266,1,175.499991966248,2|0,0:0|0:0,0:0:0:0:
248,208,118210,1,2,0:0:0:0:
188,40,118382,1,10,0:0:0:0:
356,84,118553,1,0,0:0:0:0:
144,156,118724,2,0,L|140:228,1,58.4999973220826,2|0,0:0|0:0,0:0:0:0:
248,208,118896,2,0,P|332:232|380:216,1,116.999994644165,2|8,0:0|0:0,0:0:0:0:
480,44,119239,38,2,P|448:112|472:252,1,175.499991966248,2|0,0:0|0:0,0:0:0:0:
484,280,119582,1,0,0:0:0:0:
236,240,119753,1,2,0:0:0:0:
404,324,119924,1,0,0:0:0:0:
144,352,120096,1,2,0:0:0:0:
408,236,120267,1,2,0:0:0:0:
104,212,120439,1,2,0:0:0:0:
480,320,120610,6,0,L|483:261,1,58.4999973220826,2|0,0:0|0:0,0:0:0:0:
12,192,120953,2,0,L|15:250,1,58.4999973220826,2|0,0:0|0:0,0:0:0:0:
447,107,121296,2,0,P|442:79|444:50,1,58.4999973220826,2|0,0:0|0:0,0:0:0:0:
368,172,121467,2,0,P|395:181|419:197,1,58.4999973220826,2|0,0:0|0:0,0:0:0:0:
356,76,121639,2,0,P|333:94|307:107,1,58.4999973220826,2|0,0:0|0:0,0:0:0:0:
344,256,121810,1,2,0:0:0:0:
296,276,121896,1,0,0:0:0:0:
244,268,121982,1,0,0:0:0:0:
204,232,122067,1,0,0:0:0:0:
188,184,122153,38,0,L|196:48,1,116.999994644165,6|0,0:0|0:0,0:0:0:0:
55,303,122496,2,0,P|80:319|108:327,1,58.4999973220826,10|0,0:0|0:0,0:0:0:0:
264,336,122667,2,0,P|291:327|316:312,1,58.4999973220826,2|0,0:0|0:0,0:0:0:0:
388,176,122839,2,0,L|392:252,1,58.4999973220826,2|0,0:0|0:0,0:0:0:0:
484,128,123010,2,2,L|480:288,1,116.999994644165,0|8,0:0|0:0,0:0:0:0:
264,336,123353,6,2,P|184:340|120:248,1,175.499991966248,2|0,0:0|0:0,0:0:0:0:
116,200,123696,1,2,0:0:0:0:
228,52,123867,2,0,L|286:54,1,58.4999973220826,10|0,0:0|0:0,0:0:0:0:
144,88,124039,2,0,L|85:90,1,58.4999973220826,2|0,0:0|0:0,0:0:0:0:
228,160,124210,2,0,P|256:220|248:276,1,116.999994644165,2|0,0:0|0:0,0:0:0:0:
96,360,124553,1,10,0:0:0:0:
320,312,124724,38,2,L|464:316,1,135.000005149842,2|0,0:0|0:0,0:0:0:0:
508,256,125153,1,0,0:0:0:0:
504,228,125239,1,2,0:0:0:0:
416,56,125410,1,0,0:0:0:0:
320,312,125582,2,0,L|316:244,1,67.5000025749208,2|2,0:0|0:0,0:0:0:0:
284,168,125839,1,0,0:0:0:0:
288,140,125924,1,2,0:0:0:0:
164,24,126095,1,2,0:0:0:0:
72,176,126267,5,2,0:0:0:0:
64,276,126439,1,0,0:0:0:0:
160,312,126610,1,2,0:0:0:0:
152,212,126782,1,0,0:0:0:0:
248,240,126953,1,2,0:0:0:0:
240,340,127124,2,0,L|288:344,1,33.7500012874604
356,184,127296,2,0,P|352:252|364:300,1,90,8|0,0:0|0:0,0:0:0:0:
452,88,127639,38,0,P|396:51|328:44,1,135,4|0,0:0|0:0,0:0:0:0:
252,60,127982,1,8,0:0:0:0:
200,196,128153,1,0,0:0:0:0:
148,32,128324,1,0,0:0:0:0:
136,68,128410,1,0,0:0:0:0:
136,104,128496,1,0,0:0:0:0:
272,244,128667,2,0,P|324:248|368:232,1,90,8|0,0:0|0:0,0:0:0:0:
476,60,129010,6,0,L|479:149,1,90
456,224,129267,1,0,0:0:0:0:
456,224,129353,1,8,0:0:0:0:
284,328,129524,2,0,P|216:340|140:304,1,135
100,260,129867,1,0,0:0:0:0:
92,224,129953,1,0,0:0:0:0:
92,188,130039,2,0,L|94:143,1,45,8|0,0:0|0:0,0:0:0:0:
184,56,130210,2,0,L|186:100,1,45
300,184,130382,6,0,P|340:203|384:207,1,90
464,188,130639,1,0,0:0:0:0:
464,188,130724,2,0,L|460:80,1,90,8|0,0:0|0:0,0:0:0:0:
484,296,131067,1,0,0:0:0:0:
484,296,131153,1,0,0:0:0:0:
484,296,131239,1,0,0:0:0:0:
292,208,131410,1,8,0:0:0:0:
460,100,131582,1,0,0:0:0:0:
484,296,131753,6,0,L|424:304,2,45
292,208,132096,1,8,0:0:0:0:
368,360,132267,1,0,0:0:0:0:
207,263,132439,2,0,P|192:221|194:177,1,90
240,112,132696,1,0,0:0:0:0:
272,96,132782,1,8,0:0:0:0:
308,92,132867,1,0,0:0:0:0:
344,100,132953,1,0,0:0:0:0:
440,204,133124,6,0,B|434:240|434:240|442:251|442:251|432:316,1,90,4|0,0:0|0:0,0:0:0:0:
276,320,133467,2,0,P|212:344|120:312,1,135,8|0,0:0|0:0,0:0:0:0:
92,276,133810,1,0,0:0:0:0:
80,240,133896,1,0,0:0:0:0:
80,204,133982,1,0,0:0:0:0:
88,168,134067,1,0,0:0:0:0:
104,136,134153,2,0,L|204:128,1,90,8|0,0:0|0:0,0:0:0:0:
360,144,134496,6,0,P|370:187|363:231,1,90
447,99,134839,2,0,P|420:64|380:44,1,90,8|0,0:0|0:0,0:0:0:0:
184,128,135182,1,0,0:0:0:0:
304,48,135353,1,0,0:0:0:0:
152,44,135524,1,8,0:0:0:0:
276,176,135696,1,0,0:0:0:0:
96,208,135867,6,0,L|92:352,1,135
176,328,136210,2,0,P|218:342|263:342,1,90,8|0,0:0|0:0,0:0:0:0:
360,160,136553,1,0,0:0:0:0:
344,324,136724,1,0,0:0:0:0:
260,168,136896,1,8,0:0:0:0:
436,292,137067,1,0,0:0:0:0:
224,244,137239,5,0,0:0:0:0:
188,236,137324,1,0,0:0:0:0:
152,232,137410,2,0,P|129:232|107:238,1,45
148,144,137582,1,8,0:0:0:0:
172,116,137667,1,0,0:0:0:0:
194,87,137753,2,0,P|204:67|210:45,1,45
272,140,137924,1,0,0:0:0:0:
283,175,138009,1,0,0:0:0:0:
297,208,138096,1,0,0:0:0:0:
316,240,138182,1,0,0:0:0:0:
340,264,138267,2,0,L|436:256,1,90,8|0,0:0|0:0,0:0:0:0:
467,156,138610,6,0,P|470:90|412:52,1,135.000005149842,4|8,0:0|0:0,0:0:0:0:
340,36,139124,1,2,0:0:0:0:
260,44,139296,2,0,L|192:50,1,67.5000025749208,2|0,0:0|0:0,0:0:0:0:
188,132,139639,2,0,L|255:125,1,67.5000025749208,10|0,0:0|0:0,0:0:0:0:
192,219,139982,6,0,P|131:195|109:133,1,135.000005149842,2|8,0:0|0:0,0:0:0:0:
80,260,140496,1,2,0:0:0:0:
84,276,140582,1,2,0:0:0:0:
88,292,140667,2,0,P|119:303|153:304,1,67.5000025749208,2|0,0:0|0:0,0:0:0:0:
232,292,141010,2,0,P|263:280|297:279,1,67.5000025749208,10|0,0:0|0:0,0:0:0:0:
376,304,141353,37,2,0:0:0:0:
420,36,141696,1,8,0:0:0:0:
464,304,142039,1,2,0:0:0:0:
212,204,142382,1,8,0:0:0:0:
472,140,142724,1,2,0:0:0:0:
204,100,143067,1,8,0:0:0:0:
272,360,143410,1,2,0:0:0:0:
380,112,143753,1,8,0:0:0:0:
184,295,144096,22,0,P|122:316|70:277,1,135.000005149842,4|8,0:0|0:0,0:0:0:0:
52,200,144610,1,2,0:0:0:0:
60,119,144782,2,0,P|71:88|90:60,1,67.5000025749208,2|0,0:0|0:0,0:0:0:0:
172,60,145124,2,0,P|193:85|207:116,1,67.5000025749208,10|0,0:0|0:0,0:0:0:0:
219,195,145467,6,0,P|277:229|343:223,1,135.000005149842,2|8,0:0|0:0,0:0:0:0:
408,136,145982,1,2,0:0:0:0:
404,120,146067,1,2,0:0:0:0:
400,104,146153,2,0,L|402:36,1,67.5000025749208,2|0,0:0|0:0,0:0:0:0:
492,88,146496,2,0,L|494:155,1,67.5000025749208,8|0,0:0|0:0,0:0:0:0:
496,236,146839,21,2,0:0:0:0:
180,304,147182,1,8,0:0:0:0:
500,336,147524,1,2,0:0:0:0:
288,88,147867,1,8,0:0:0:0:
92,344,148210,1,2,0:0:0:0:
396,236,148553,1,8,0:0:0:0:
92,124,148896,1,2,0:0:0:0:
404,32,149239,1,8,0:0:0:0:
140,220,149582,38,0,P|127:268|138:317,1,101.250003862381,4|0,0:0|0:0,0:0:0:0:
212,352,149924,1,8,0:0:0:0:
292,352,150096,2,0,L|432:344,1,135.000005149842,2|2,0:0|0:0,0:0:0:0:
472,276,150610,2,0,P|484:224|476:188,1,67.5000025749208,8|0,0:0|0:0,0:0:0:0:
456,132,150953,6,0,P|397:102|333:119,1,135.000005149842,2|8,0:0|0:0,0:0:0:0:
260,192,151467,1,2,0:0:0:0:
264,208,151553,1,2,0:0:0:0:
268,224,151639,2,0,L|335:217,1,67.5000025749208,2|0,0:0|0:0,0:0:0:0:
200,280,151982,2,0,L|132:273,1,67.5000025749208,8|0,0:0|0:0,0:0:0:0:
52,264,152324,21,2,0:0:0:0:
340,112,152667,1,8,0:0:0:0:
24,44,153010,1,2,0:0:0:0:
308,200,153353,1,8,0:0:0:0:
24,356,153696,1,2,0:0:0:0:
156,60,154039,1,8,0:0:0:0:
464,160,154382,1,2,0:0:0:0:
160,268,154724,2,0,L|164:172,1,67.5000025749208,8|0,0:0|0:0,0:0:0:0:
240,104,155067,38,0,P|292:136|352:136,1,101.250003862381,2|0,0:0|0:0,0:0:0:0:
408,128,155410,1,8,0:0:0:0:
380,288,155582,1,0,0:0:0:0:
488,159,155753,2,0,P|492:126|487:93,1,67.5000025749208,2|0,0:0|0:0,0:0:0:0:
240,104,156096,2,0,P|234:137|239:170,1,67.5000025749208,10|0,0:0|0:0,0:0:0:0:
380,288,156439,6,0,L|268:292,1,101.250003862381,2|0,0:0|0:0,0:0:0:0:
204,292,156782,1,8,0:0:0:0:
148,136,156953,1,2,0:0:0:0:
148,136,157039,1,2,0:0:0:0:
148,136,157124,2,0,L|152:48,1,67.5000025749208,2|0,0:0|0:0,0:0:0:0:
344,152,157467,1,8,0:0:0:0:
168,232,157639,1,0,0:0:0:0:
364,248,157810,6,0,L|360:336,1,67.5000025749208,2|0,0:0|0:0,0:0:0:0:
112,100,158153,1,8,0:0:0:0:
112,284,158324,1,0,0:0:0:0:
256,132,158496,1,2,0:0:0:0:
256,252,158667,1,2,0:0:0:0:
400,100,158839,1,8,0:0:0:0:
400,284,159010,1,0,0:0:0:0:
112,284,159182,5,2,0:0:0:0:
376,204,159353,1,0,0:0:0:0:
136,204,159524,1,10,0:0:0:0:
344,128,159696,1,0,0:0:0:0:
168,128,159867,1,2,0:0:0:0:
312,48,160039,1,0,0:0:0:0:
200,48,160210,1,10,0:0:0:0:
256,196,160382,1,0,0:0:0:0:
256,112,160553,5,2,0:0:0:0:
260,120,160896,1,2,0:0:0:0:
252,120,161239,1,2,0:0:0:0:
256,112,161582,1,8,0:0:0:0:
124,248,161924,6,0,L|126:214,3,33.7500012874604,4|0|0|0,0:3|0:0|0:0|0:0,0:0:0:0:
180,144,162267,2,0,L|177:110,3,33.7500012874604,4|0|0|0,0:3|0:0|0:0|0:0,0:0:0:0:
271,128,162610,2,0,P|287:121|303:117,3,33.7500012874604,4|0|0|0,0:3|0:0|0:0|0:0,0:0:0:0:
388,152,162953,2,0,P|403:158|419:162,3,33.7500012874604,4|0|0|0,0:3|0:0|0:0|0:0,0:0:0:0:
440,248,163296,5,4,0:3:0:0:
428,260,163382,1,0,0:0:0:0:
412,268,163467,1,0,0:0:0:0:
396,272,163553,1,0,0:0:0:0:
380,272,163639,1,4,0:3:0:0:
364,268,163724,1,0,0:0:0:0:
348,260,163810,1,0,0:0:0:0:
336,252,163896,1,0,0:0:0:0:
324,240,163982,6,0,L|326:206,3,33.7500012874604,4|0|0|0,0:3|0:0|0:0|0:0,0:0:0:0:
268,136,164324,2,0,L|265:102,3,33.7500012874604,4|0|0|0,0:3|0:0|0:0|0:0,0:0:0:0:
176,120,164667,5,4,0:3:0:0:
160,116,164753,1,0,0:0:0:0:
144,116,164839,1,0,0:0:0:0:
128,120,164924,1,0,0:0:0:0:
116,128,165010,1,4,0:3:0:0:
108,144,165096,1,0,0:0:0:0:
108,160,165182,1,0,0:0:0:0:
112,176,165267,1,0,0:0:0:0:
116,192,165353,6,0,L|113:225,3,33.7500012874604,4|0|0|0,0:3|0:0|0:0|0:0,0:0:0:0:
200,268,165696,2,0,L|197:234,3,33.7500012874604,4|0|0|0,0:3|0:0|0:0|0:0,0:0:0:0:
287,252,166039,6,0,P|304:249|321:248,3,33.7500012874604,4|0|0|0,0:3|0:0|0:0|0:0,0:0:0:0:
404,264,166382,2,0,P|420:266|437:267,3,33.7500012874604,4|0|0|0,0:3|0:0|0:0|0:0,0:0:0:0:
428,176,166724,2,0,P|425:159|424:142,3,33.7500012874604,4|0|0|0,0:3|0:0|0:0|0:0,0:0:0:0:
439,59,167067,2,0,P|441:42|442:25,3,33.7500012874604,4|0|0|0,0:3|0:0|0:0|0:0,0:0:0:0:
340,44,167410,5,8,0:0:0:0:
180,104,167582,1,0,0:0:0:0:
180,104,167667,1,0,0:0:0:0:
180,104,167753,1,8,0:0:0:0:
356,164,167924,1,0,0:0:0:0:
356,164,168010,1,0,0:0:0:0:
356,164,168096,5,8,0:0:0:0:
244,32,168267,1,0,0:0:0:0:
244,32,168353,1,0,0:0:0:0:
244,32,168439,1,8,0:0:0:0:
184,196,168610,1,0,0:0:0:0:
184,196,168696,1,0,0:0:0:0:
184,196,168782,5,8,0:0:0:0:
392,108,168953,1,0,0:0:0:0:
392,108,169039,1,0,0:0:0:0:
392,108,169124,1,8,0:0:0:0:
136,72,169296,1,0,0:0:0:0:
136,72,169382,1,0,0:0:0:0:
136,72,169467,5,8,0:0:0:0:
236,284,169639,1,0,0:0:0:0:
236,284,169724,1,0,0:0:0:0:
236,284,169810,1,8,0:0:0:0:
392,108,169982,1,0,0:0:0:0:
392,108,170067,1,0,0:0:0:0:
392,108,170153,6,0,L|394:63,1,45,8|0,0:0|0:0,0:0:0:0:
360,188,170324,2,0,L|362:232,1,45
312,88,170496,2,0,L|314:43,1,45,8|0,0:0|0:0,0:0:0:0:
280,224,170667,2,0,L|282:268,1,45
224,72,170839,6,0,P|202:65|180:63,1,45,8|0,0:0|0:0,0:0:0:0:
80,168,171010,2,0,P|73:189|71:211,1,45
188,296,171182,2,0,P|209:302|231:304,1,45,8|0,0:0|0:0,0:0:0:0:
332,200,171353,2,0,P|338:178|340:156,1,45
472,64,171524,6,0,L|474:108,1,45,8|0,0:0|0:0,0:0:0:0:
420,284,171696,2,0,L|416:240,1,45
328,24,171867,2,0,L|330:68,1,45,8|0,0:0|0:0,0:0:0:0:
280,328,172039,2,0,L|277:283,1,45
184,52,172210,5,8,0:0:0:0:
156,96,172296,1,0,0:0:0:0:
152,148,172382,1,0,0:0:0:0:
172,196,172467,1,0,0:0:0:0:
200,240,172553,6,0,L|196:284,1,30,8|0,0:0|0:0,0:0:0:0:
284,268,172667,2,0,L|295:310,1,30
368,256,172782,2,0,L|393:292,1,30
444,216,172896,6,0,P|464:224|492:228,48,30,4|0|0|0|0|0|0|0|0|0|0|0|0|0|0|0|0|0|0|0|0|0|0|0|0|0|0|0|0|0|0|0|0|0|0|0|0|0|0|0|0|0|0|0|0|0|0|0|0,3:0|0:0|0:0|0:0|0:0|0:0|0:0|0:0|0:0|0:0|0:0|0:0|0:0|0:0|0:0|0:0|0:0|0:0|0:0|0:0|0:0|0:0|0:0|0:0|0:0|0:0|0:0|0:0|0:0|0:0|0:0|0:0|0:0|0:0|0:0|0:0|0:0|0:0|0:0|0:0|0:0|0:0|0:0|0:0|0:0|0:0|0:0|0:0|0:0,0:0:0:0:
408,72,174439,5,2,0:1:0:0:
408,72,174524,1,2,0:1:0:0:
408,72,174610,1,2,0:1:0:0:
176,140,174782,1,0,0:0:0:0:
372,160,174953,1,2,0:1:0:0:
112,72,175124,1,0,0:0:0:0:
324,24,175296,1,2,0:1:0:0:
92,156,175467,1,0,0:0:0:0:
372,160,175639,6,0,P|381:187|384:216,1,58.4999973220826,6|0,0:0|0:0,0:0:0:0:
283,344,175810,2,0,P|292:316|296:288,1,58.4999973220826,2|0,0:0|0:0,0:0:0:0:
280,132,175982,2,0,P|240:68|192:40,1,116.999994644165,10|0,0:0|0:0,0:0:0:0:
72,256,176324,2,0,P|64:284|62:313,1,58.4999973220826,2|0,0:0|0:0,0:0:0:0:
184,304,176496,2,0,P|256:328|328:308,1,116.999994644165,2|8,0:0|0:0,0:0:0:0:
456,72,176839,6,0,L|456:268,1,175.499991966248,2|0,0:0|0:0,0:0:0:0:
400,304,177182,1,2,0:0:0:0:
304,131,177353,2,0,P|312:104|323:77,1,58.4999973220826,10|0,0:0|0:0,0:0:0:0:
224,192,177524,1,2,0:0:0:0:
47,64,177696,2,0,P|76:57|105:55,1,58.4999973220826,2|0,0:0|0:0,0:0:0:0:
200,64,177867,1,2,0:0:0:0:
48,216,178039,1,8,0:0:0:0:
223,303,178210,38,2,P|288:319|354:305,1,135.000005149842,2|0,0:0|0:0,0:0:0:0:
352,56,178724,1,2,0:0:0:0:
448,264,178896,1,0,0:0:0:0:
212,224,179067,1,10,0:0:0:0:
448,100,179239,1,0,0:0:0:0:
354,305,179410,1,2,0:0:0:0:
248,96,179582,6,2,P|192:76|144:84,1,101.250003862381,2|0,0:0|0:0,0:0:0:0:
100,160,179924,1,2,0:0:0:0:
96,152,179982,1,0,0:0:0:0:
92,144,180039,1,0,0:0:0:0:
88,136,180096,1,10,0:0:0:0:
76,288,180267,1,0,0:0:0:0:
219,216,180439,2,0,P|269:207|319:215,1,101.250003862381,2|0,0:0|0:0,0:0:0:0:
319,215,180782,2,0,L|316:296,1,67.5000025749208,8|0,0:0|0:0,0:0:0:0:
464,332,181124,38,0,L|460:252,1,58.4999973220826,6|0,0:0|0:0,0:0:0:0:
488,160,181296,2,0,L|456:86,1,58.4999973220826,2|0,0:0|0:0,0:0:0:0:
364,40,181467,2,0,P|314:70|256:75,1,116.999994644165,10|0,0:0|0:0,0:0:0:0:
72,52,181810,2,0,L|68:132,1,58.4999973220826,2|0,0:0|0:0,0:0:0:0:
108,212,181982,2,0,L|112:332,1,116.999994644165,2|8,0:0|0:0,0:0:0:0:
308,320,182324,6,0,P|392:332|464:272,1,175.499991966248,2|0,0:0|0:0,0:0:0:0:
484,184,182667,2,0,L|476:112,1,58.4999973220826,2|0,0:0|0:0,0:0:0:0:
408,32,182839,1,10,0:0:0:0:
208,100,183010,1,2,0:0:0:0:
396,128,183182,2,0,L|392:204,1,58.4999973220826,2|0,0:0|0:0,0:0:0:0:
328,264,183353,1,2,0:0:0:0:
128,196,183524,1,8,0:0:0:0:
336,68,183696,38,2,P|396:43|460:72,1,135.000005149842,2|0,0:0|0:0,0:0:0:0:
456,312,184210,1,2,0:0:0:0:
396,128,184382,1,0,0:0:0:0:
260,324,184553,1,10,0:0:0:0:
320,68,184725,1,0,0:0:0:0:
368,364,184896,1,2,0:0:0:0:
228,104,185067,6,0,P|172:92|108:116,1,101.250003862381,2|0,0:0|0:0,0:0:0:0:
96,196,185410,1,2,0:0:0:0:
92,188,185468,1,0,0:0:0:0:
88,180,185525,1,0,0:0:0:0:
84,172,185582,1,10,0:0:0:0:
300,216,185753,1,0,0:0:0:0:
52,288,185924,1,2,0:0:0:0:
404,304,186096,1,0,0:0:0:0:
168,64,186267,2,0,B|208:80|208:80|232:68|268:68,1,101.250003862381,2|0,0:0|0:0,0:0:0:0:
448,100,186610,6,0,L|451:158,1,58.4999973220826,6|0,0:0|0:0,0:0:0:0:
344,188,186782,2,0,L|327:244,1,58.4999973220826,2|0,0:0|0:0,0:0:0:0:
208,248,186953,2,0,P|154:268|97:256,1,116.999994644165,10|0,0:0|0:0,0:0:0:0:
236,64,187296,2,0,L|232:156,1,58.4999973220826,2|0,0:0|0:0,0:0:0:0:
344,36,187467,2,0,L|348:164,1,116.999994644165,2|8,0:0|0:0,0:0:0:0:
480,324,187810,6,0,P|424:364|320:332,1,175.499991966248,2|0,0:0|0:0,0:0:0:0:
272,280,188153,1,2,0:0:0:0:
440,184,188324,1,10,0:0:0:0:
200,148,188496,1,2,0:0:0:0:
504,88,188667,2,0,L|496:12,1,58.4999973220826,2|0,0:0|0:0,0:0:0:0:
392,60,188839,2,0,P|328:48|272:60,1,116.999994644165,2|8,0:0|0:0,0:0:0:0:
128,292,189182,38,2,L|112:104,1,175.499991966248,2|0,0:0|0:0,0:0:0:0:
168,48,189524,1,0,0:0:0:0:
228,276,189696,1,10,0:0:0:0:
332,84,189867,1,0,0:0:0:0:
304,336,190039,1,2,0:0:0:0:
244,104,190210,1,0,0:0:0:0:
216,364,190382,1,10,0:0:0:0:
452,256,190553,6,0,L|448:184,1,58.4999973220826,2|0,0:0|0:0,0:0:0:0:
84,100,190896,2,0,L|80:158,1,58.4999973220826,2|0,0:0|0:0,0:0:0:0:
236,212,191067,1,8,0:0:0:0:
64,260,191239,1,2,0:0:0:0:
296,276,191410,2,0,L|299:334,1,58.4999973220826,2|0,0:0|0:0,0:0:0:0:
332,168,191582,2,0,L|335:109,1,58.4999973220826,2|0,0:0|0:0,0:0:0:0:
380,252,191753,1,0,0:0:0:0:
412,264,191839,1,0,0:0:0:0:
448,264,191924,1,0,0:0:0:0:
480,248,192010,1,0,0:0:0:0:
496,216,192096,38,0,L|491:157,1,58.4999973220826,6|0,0:0|0:0,0:0:0:0:
456,20,192267,2,0,L|451:78,1,58.4999973220826,2|0,0:0|0:0,0:0:0:0:
340,39,192439,2,0,P|299:81|243:94,1,116.999994644165,10|0,0:0|0:0,0:0:0:0:
408,168,192782,2,0,L|308:164,1,58.4999973220826,2|0,0:0|0:0,0:0:0:0:
188,212,192953,1,2,0:0:0:0:
424,264,193124,1,8,0:0:0:0:
96,348,193296,6,0,P|64:264|88:176,1,175.499991966248,2|0,0:0|0:0,0:0:0:0:
128,120,193639,1,2,0:0:0:0:
356,100,193810,1,10,0:0:0:0:
208,256,193982,1,0,0:0:0:0:
192,36,194153,1,2,0:0:0:0:
424,168,194324,1,0,0:0:0:0:
420,204,194410,1,0,0:0:0:0:
416,240,194496,1,10,0:0:0:0:
87,80,194667,38,0,P|132:57|183:60,1,101.250003862381,2|0,0:0|0:0,0:0:0:0:
280,120,195010,1,0,0:0:0:0:
272,160,195096,1,0,0:0:0:0:
264,200,195182,1,10,0:0:0:0:
92,240,195353,1,0,0:0:0:0:
304,296,195524,1,10,0:0:0:0:
80,140,195696,1,0,0:0:0:0:
392,104,195867,1,2,0:0:0:0:
124,52,196039,1,0,0:0:0:0:
472,220,196210,6,0,L|468:309,1,90,2|8,0:0|0:0,0:0:0:0:
360,160,196553,2,0,L|387:245,1,90,2|8,0:0|0:0,0:0:0:0:
256,192,196896,1,2,0:0:0:0:
256,192,197067,1,8,0:0:0:0:
96,304,197239,1,2,0:0:0:0:
240,0,197410,1,8,0:0:0:0:
432,274,197582,6,0,L|435:229,1,45,2|0,0:0|0:0,0:0:0:0:
112,188,197753,2,0,L|109:143,1,45,2|0,0:0|0:0,0:0:0:0:
484,128,197924,1,2,0:0:0:0:
412,116,198010,1,0,0:0:0:0:
340,104,198096,1,2,0:0:0:0:
268,92,198182,1,0,0:0:0:0:
196,80,198267,5,2,0:0:0:0:
216,320,198610,2,2,B|212:291|212:291|217:268|214:251,1,67.5,4|0,2:3|2:0,2:1:0:0:
196,80,198953,5,4,0:0:0:0:
