osu file format v14

[General]
AudioFilename: Children.mp3
AudioLeadIn: 0
PreviewTime: 50839
Countdown: 0
SampleSet: Soft
StackLeniency: 0.2
Mode: 0
LetterboxInBreaks: 1
WidescreenStoryboard: 1

[Editor]
Bookmarks: 11935,66792,171535
DistanceSpacing: 1.56
BeatDivisor: 4
GridSize: 4
TimelineZoom: 3.499999

[Metadata]
Title:Okochama Sensou
TitleUnicode:おこちゃま戦争
Artist:kradness&Reol
ArtistUnicode:kradness&れをる
Creator:Kalindraz
Version:NetAtarDraz's EX-Speed war
Source:
Tags:Giga-p Len Rin Kagamine Marianna TG Children's War Tarrasky Trynna Ataraxia Seto Net0 BR
BeatmapID:732316
BeatmapSetID:155252

[Difficulty]
HPDrainRate:3.4
CircleSize:2.5
OverallDifficulty:7
ApproachRate:9.7
SliderMultiplier:3.6
SliderTickRate:0.5

[Events]
//Background and Video events
0,0,"BG.png",0,0
//Break Periods
2,72981,77771
//Storyboard Layer 0 (Background)
//Storyboard Layer 1 (Fail)
//Storyboard Layer 2 (Pass)
//Storyboard Layer 3 (Foreground)
//Storyboard Sound Samples

[TimingPoints]
181,-1000,4,2,50,60,0,0
267,-25,4,2,50,60,0,0
5581,342.857142857143,4,2,50,80,1,0
5581,-133.333333333333,4,2,50,80,0,0
6952,-83.3333333333333,4,2,52,80,0,0
12266,-66.6666666666667,4,2,50,80,0,0
12438,-200,4,2,50,80,0,0
17923,-166.666666666667,4,2,50,60,0,0
18609,-142.857142857143,4,2,50,60,0,0
19295,-125,4,2,50,60,0,0
19981,-111.111111111111,4,2,50,60,0,0
20666,-100,4,2,50,60,0,0
21009,-100,4,2,50,30,0,0
21352,-100,4,2,50,60,0,0
21695,-100,4,2,50,30,0,0
22038,-83.3333333333333,4,2,50,60,0,0
22981,-83.3333333333333,4,2,50,5,0,0
23066,-83.3333333333333,4,2,50,60,0,0
23152,-83.3333333333333,4,2,50,5,0,0
23238,-83.3333333333333,4,2,50,60,0,0
23323,-83.3333333333333,4,2,50,5,0,0
23409,-125,4,2,54,60,0,0
28552,-83.3333333333333,4,2,54,60,0,0
28895,-125,4,2,54,60,0,0
34381,-100,4,2,54,60,0,0
42609,-111.111111111111,4,2,54,60,0,0
43123,-100,4,2,54,60,0,0
43466,-83.3333333333333,4,2,54,60,0,0
43981,-125,4,2,54,60,0,0
45352,-333.333333333333,4,2,54,60,0,0
48095,-200,4,2,54,60,0,0
49638,-133.333333333333,4,2,54,60,0,0
50838,-75.187969924812,4,2,54,60,0,1
53581,-100,4,2,54,60,0,0
56323,-75.187969924812,4,2,54,60,0,1
59066,-100,4,2,54,60,0,0
61809,-83.3333333333333,4,2,54,60,0,1
70038,-111.111111111111,4,2,54,60,0,0
72781,-100,4,2,54,60,0,0
78266,-90.9090909090909,4,2,54,60,0,0
89238,-83.3333333333333,4,2,54,60,0,0
100209,-166.666666666667,4,2,54,60,0,0
102952,-133.333333333333,4,2,54,60,0,0
104323,-100,4,2,54,60,0,0
105695,-75.7575757575758,4,2,54,60,0,1
108438,-100,4,2,54,60,0,0
111181,-75.7575757575758,4,2,54,60,0,1
113923,-100,4,2,54,60,0,0
116666,-68.4931506849315,4,2,54,60,0,1
124895,-90.9090909090909,4,2,54,60,0,0
127638,-76.9230769230769,4,2,54,60,0,0
138609,-200,4,2,54,60,0,0
141352,-66.6666666666667,4,2,54,60,0,0
141695,-1000,4,2,54,60,0,0
142038,-66.6666666666667,4,2,54,60,0,0
142381,-1000,4,2,54,60,0,0
142723,-66.6666666666667,4,2,54,60,0,0
143066,-1000,4,2,54,60,0,0
143409,-66.6666666666667,4,2,54,60,0,0
143752,-1000,4,2,54,60,0,0
144095,-200,4,2,54,60,0,0
146838,-83.3333333333333,4,2,54,60,0,0
147181,-1000,4,2,54,60,0,0
147523,-66.6666666666667,4,2,54,60,0,0
147866,-1000,4,2,54,60,0,0
148209,-66.6666666666667,4,2,54,60,0,0
148552,-1000,4,2,54,60,0,0
148895,-66.6666666666667,4,2,54,60,0,0
149238,-1000,4,2,54,60,0,0
149581,-125,4,2,54,60,0,0
152323,-58.8235294117647,4,2,54,60,0,0
153695,-117.647058823529,4,2,54,60,0,0
155066,-166.666666666667,4,2,54,60,0,0
157809,-125,4,2,54,60,0,0
159181,-100,4,2,54,60,0,0
159523,-83.3333333333333,4,2,54,60,0,0
159866,-71.4285714285714,4,2,54,60,0,0
160209,-62.5,4,2,54,60,0,0
160552,-1000,4,2,54,60,0,0
161581,-250,4,2,54,60,0,0
161923,-100,4,2,54,60,0,0
163295,-95.2380952380952,4,2,54,60,0,0
164666,-90.9090909090909,4,2,54,60,0,0
166038,-86.9565217391304,4,2,54,60,0,0
167409,-76.9230769230769,4,2,54,60,0,0
168781,-71.4285714285714,4,2,54,60,0,0
170152,-66.6666666666667,4,2,54,60,0,0
171523,-62.5,4,2,54,60,0,0
172381,-50,4,2,54,60,0,0
172895,-333.333333333333,4,2,54,60,0,0
174438,-133.333333333333,4,2,54,60,0,0
175638,-60.9756097560976,4,2,54,60,0,1
178381,-83.3333333333333,4,2,54,60,0,0
181123,-60.9756097560976,4,2,54,60,0,1
183866,-83.3333333333333,4,2,54,60,0,0
186609,-67.1140939597315,4,2,54,60,0,1
194838,-100,4,2,54,60,0,0
196723,-83.3333333333333,4,2,54,60,0,0
197066,-71.4285714285714,4,2,54,60,0,0
197409,-62.5,4,2,54,60,0,0
197581,-55.5555555555556,4,2,54,60,0,0
197752,-50,4,2,54,60,0,0
198266,-1000,4,2,54,60,0,0
198609,-50,4,2,54,60,0,0
198952,-66.6666666666667,4,2,54,60,0,1
198952,-66.6666666666667,4,2,54,60,0,1
201181,-50,4,2,54,60,0,1
201352,-66.6666666666667,4,2,54,60,0,1
201695,-200,4,2,54,60,0,1
203066,-66.6666666666667,4,2,54,60,0,1
204438,-83.3333333333333,4,2,54,60,0,1
206152,-200,4,2,54,60,0,1
206495,-83.3333333333333,4,2,54,60,0,1
209581,-66.6666666666667,4,2,54,60,0,0
209581,-66.6666666666667,4,2,54,60,0,0

[Colours]
Combo1 : 255,0,0
Combo2 : 236,236,0
Combo3 : 0,151,223
Combo4 : 119,0,60

[HitObjects]
64,112,5581,5,0,3:0:0:0:
220,212,5752,2,0,L|244:124,2,67.5000025749208,0|2|0,0:0|0:0|0:0,0:0:0:0:
64,112,6095,1,2,0:0:0:0:
256,60,6266,1,2,0:0:0:0:
383,209,6438,1,2,0:0:0:0:
256,60,6609,1,2,0:0:0:0:
64,112,6780,1,2,0:0:0:0:
134,377,6952,6,0,P|246:313|262:209,1,215.999993408203,8|0,0:0|0:0,0:0:0:0:
66,36,7295,2,0,P|58:164|138:240,1,215.999993408203,8|0,0:0|0:0,0:0:0:0:
412,340,7638,1,8,0:0:0:0:
197,28,7809,2,0,L|109:225,2,215.999993408203,0|8|0,0:0|0:0|0:0,0:0:0:0:
446,76,8323,6,0,L|514:328,1,215.999993408203,8|0,0:0|0:0,0:0:0:0:
54,346,8666,1,8,0:0:0:0:
224,276,8838,2,0,P|304:136|280:68,2,215.999993408203,0|8|0,0:0|0:0|0:0,0:0:0:0:
54,346,9352,2,0,L|34:215,1,107.999996704102
139,177,9523,2,0,L|119:46,1,107.999996704102,2|0,0:1|0:0,0:0:0:0:
272,20,9695,6,0,P|400:36|484:180,1,215.999993408203,8|0,0:0|0:0,0:0:0:0:
504,372,10038,1,8,0:0:0:0:
333,108,10209,2,0,P|193:132|113:212,1,215.999993408203,0|8,0:0|0:0,0:0:0:0:
16,364,10552,2,0,L|-8:136,2,215.999993408203,0|8|0,0:0|0:0|0:0,0:0:0:0:
228,56,11066,6,0,L|452:80,1,215.999993408203,8|0,0:0|0:0,0:0:0:0:
0,149,11409,2,0,L|240:144,1,215.999993408203,8|0,0:0|0:0,0:0:0:0:
492,148,11752,1,8,0:0:0:0:
288,256,11923,2,0,L|340:360,2,107.999996704102,0|0|8,0:0|0:0|0:0,0:0:0:0:
256,40,12266,38,0,B|292:60|292:60|232:64|232:64|272:88,1,135.000005149842,2|0,0:1|0:1,0:0:0:0:
146,182,12438,6,0,P|54:210|178:330,1,360,6|0,0:3|3:0,0:0:0:0:
366,182,13809,6,0,P|458:210|334:330,1,360,4|0,0:3|3:0,0:0:0:0:
220,40,14838,5,0,3:0:0:0:
192,312,15009,1,0,3:0:0:0:
409,178,15181,6,0,B|328:80|156:260|52:156,1,360,4|0,0:3|3:0,0:0:0:0:
124,40,16209,5,0,3:0:0:0:
200,36,16323,1,0,3:0:0:0:
280,32,16438,1,0,3:0:0:0:
356,40,16552,6,0,B|322:115|275:234|322:286|408:296|455:253|422:182|370:182|351:215,1,360,4|0,0:3|3:0,0:0:0:0:
276,356,17581,5,0,3:0:0:0:
24,135,17752,1,0,3:0:0:0:
152,32,17923,6,0,P|208:92|112:336,1,377.999988464356,6|0,0:3|0:0,0:0:0:0:
104,304,18609,6,0,P|120:232|372:324,1,440.999986541748,6|0,0:3|0:0,0:0:0:0:
368,344,19295,6,0,B|272:276|272:276|500:256|500:256|416:176|392:60,1,504,6|0,0:3|0:0,0:0:0:0:
460,84,19981,6,0,P|372:36|152:64,1,323.999990112305,6|8,0:3|3:0,0:0:0:0:
12,152,20438,1,8,3:3:0:0:
108,168,20552,1,8,3:3:0:0:
191,218,20666,6,0,P|280:316|412:288,1,270,6|0,0:3|0:0,0:0:0:0:
448,200,21009,6,0,L|516:192,7,45,0|0|0|0|0|0|0|0,3:0|3:0|3:0|3:0|3:0|3:0|3:0|3:0,3:0:0:0:
400,148,21352,6,0,P|312:96|116:124,1,270,6|0,0:3|0:0,0:0:0:0:
72,184,21695,6,0,L|84:260,7,45,0|0|0|0|0|0|0|0,3:0|3:0|3:0|3:0|3:0|3:0|3:0|3:0,3:0:0:0:
80,300,22038,6,0,P|168:200|396:332,2,431.999986816407
115,32,22895,6,0,L|36:144,1,107.999996704102,4|0,0:3|0:0,0:0:0:0:
163,43,23066,2,0,L|57:130,1,107.999996704102,4|0,0:3|0:0,0:0:0:0:
218,68,23238,2,0,L|93:125,1,107.999996704102,4|0,0:3|0:0,0:0:0:0:
48,352,23409,6,0,P|144:312|180:324,1,144,0|0,3:0|0:0,0:0:0:0:
364,372,23752,1,8,0:0:0:0:
452,208,23923,2,0,L|472:56,1,144,0|0,3:0|0:0,0:0:0:0:
364,372,24266,1,0,3:0:0:0:
487,167,24438,2,0,L|466:15,1,144,8|0,0:0|0:0,0:0:0:0:
240,104,24781,6,0,P|176:116|96:104,2,144,0|0|8,3:0|0:0|0:0,0:0:0:0:
422,142,25295,2,0,L|466:310,1,144,0|0,3:0|3:0,0:0:0:0:
48,304,25638,1,0,0:0:0:0:
252,355,25809,2,0,L|256:195,1,144,8|0,0:0|0:0,0:0:0:0:
216,28,26152,6,0,L|52:64,1,144,0|0,3:0|0:0,0:0:0:0:
350,136,26409,1,0,0:0:0:0:
390,150,26495,1,8,0:0:0:0:
75,58,26666,1,0,3:0:0:0:
265,352,26838,2,0,L|281:184,1,144,0|0,3:0|0:0,0:0:0:0:
80,308,27181,1,8,0:0:0:0:
292,44,27352,1,0,0:0:0:0:
456,228,27523,6,0,L|408:376,1,144,0|0,3:0|0:0,0:0:0:0:
236,152,27866,1,8,0:0:0:0:
36,288,28038,1,0,3:0:0:0:
344,172,28209,2,0,L|372:84,1,72,0|0,3:0|0:0,0:0:0:0:
97,211,28381,2,0,L|125:123,1,72
175,360,28552,6,0,L|271:36,1,323.999990112305,8|0,0:0|0:0,0:0:0:0:
267,49,28895,6,0,P|269:140|329:196,1,144,0|0,3:0|0:0,0:0:0:0:
476,240,29238,1,8,0:0:0:0:
246,129,29409,2,0,P|166:165|146:229,1,144,0|0,3:0|0:0,0:0:0:0:
300,352,29752,1,0,3:0:0:0:
0,195,29923,2,0,L|88:371,1,144,8|0,0:0|0:0,0:0:0:0:
300,352,30266,6,0,L|236:224,2,144,0|0|8,3:0|0:0|0:0,0:0:0:0:
456,76,30781,1,0,3:0:0:0:
424,324,30952,2,0,L|408:124,1,144,0|0,3:0|0:0,0:0:0:0:
120,64,31295,2,0,P|160:128|168:136,1,72,8|0,0:0|0:0,0:0:0:0:
79,251,31466,2,0,P|71:183|75:151,1,72
280,44,31638,6,0,L|296:184,1,72,0|0,3:0|0:0,0:0:0:0:
299,326,31809,1,0,0:0:0:0:
354,49,31981,6,0,L|333:188,1,72,8|0,0:0|0:0,0:0:0:0:
299,326,32152,1,0,3:0:0:0:
424,73,32323,6,0,L|368:232,1,144,0|0,3:0|0:0,0:0:0:0:
512,384,32666,1,8,0:0:0:0:
172,160,32838,6,0,L|152:308,2,144,0|0|0,0:0|3:0|0:0,0:0:0:0:
337,75,33352,1,8,0:0:0:0:
79,144,33523,2,0,L|59:-4,2,144,0|0|0,3:0|3:0|0:0,0:0:0:0:
253,278,34038,2,0,P|225:310|189:330,1,72,8|0,0:0|0:0,0:0:0:0:
284,192,34209,2,0,P|313:211|336:239,1,72
480,340,34381,5,6,3:0:0:0:
367,32,34552,2,0,L|275:208,1,180,0|8,0:0|0:0,0:0:0:0:
508,176,34895,1,0,3:3:0:0:
132,168,35066,2,0,L|224:344,2,180,0|0|8,0:0|0:0|0:0,0:0:0:0:
306,46,35581,2,0,P|246:94|214:98,1,90
235,96,35752,6,0,P|137:49|9:101,1,180,0|0,3:0|0:0,0:0:0:0:
235,96,36009,1,0,0:0:0:0:
235,96,36095,2,0,P|276:79|306:46,1,90,8|0,0:0|0:0,0:0:0:0:
132,168,36266,2,0,P|121:213|137:289,1,90,0|0,3:0|0:0,0:0:0:0:
440,344,36438,1,0,3:0:0:0:
273,180,36609,1,0,0:0:0:0:
287,350,36781,1,8,0:0:0:0:
393,90,36952,2,0,L|392:204,1,90
287,350,37123,6,0,P|255:274|275:178,1,180,0|0,3:0|0:0,0:0:0:0:
476,54,37466,1,8,0:0:0:0:
183,85,37638,1,0,0:0:0:0:
349,261,37809,1,0,3:0:0:0:
316,52,37981,1,0,0:0:0:0:
135,280,38152,1,8,0:0:0:0:
233,61,38323,2,0,P|216:128|180:148,1,90
28,187,38495,5,0,3:0:0:0:
359,203,38666,2,0,P|271:195|195:127,1,180,0|8,0:0|0:0,0:0:0:0:
412,40,39009,1,0,3:0:0:0:
154,338,39181,2,0,B|86:186|162:70|162:70|218:166,1,360,0|8,3:0|0:0,0:0:0:0:
450,286,39695,2,0,L|358:314,1,90
273,250,39866,6,0,L|489:294,1,180,0|0,3:0|0:0,0:0:0:0:
272,249,40209,2,0,L|449:214,1,180,8|0,0:0|3:0,0:0:0:0:
449,214,40552,6,0,L|257:105,1,180
449,214,40895,2,0,L|270:193,1,180,8|0,0:0|0:0,0:0:0:0:
36,72,41238,6,0,P|96:168|96:248,2,180,0|0|8,3:0|0:0|0:0,0:0:0:0:
64,328,41752,2,0,B|36:356|36:356|104:376|208:352,1,180,0|0,3:0|0:0,0:0:0:0:
341,192,42095,2,0,B|412:174|480:194|480:194|452:222,1,180,0|0,3:0|0:0,0:0:0:0:
300,364,42438,1,0,0:0:0:0:
171,55,42609,6,0,P|99:115|247:223,1,323.999990112305,0|8,3:0|0:0,0:0:0:0:
429,101,43123,6,0,B|261:137|261:137|333:161|357:221,1,270,0|0,3:0|0:0,0:0:0:0:
351,277,43466,6,0,P|117:282|170:54,1,539.999983520508
352,56,43981,6,0,P|312:100|224:136,1,144
477,254,44323,2,0,P|437:210|349:174,1,144
260,228,44666,2,0,B|164:216|76:292|76:292|48:312|44:256|56:200,1,288
148,64,45181,2,0,L|140:116,3,36
148,148,45352,6,0,L|312:124,1,161.999995056153
167,203,46038,6,0,L|308:124,1,161.999995056153
285,173,46723,6,0,L|309:121,1,53.9999983520508
326,174,47066,6,0,L|306:120,1,53.9999983520508
348,157,47409,6,0,L|303:120,1,53.9999983520508
359,131,47752,6,0,L|302:121,1,53.9999983520508
100,56,48095,6,0,L|84:84,1,22.5
128,276,48438,2,0,L|112:304,1,22.5
100,56,48781,6,0,L|84:84,1,22.5
128,276,49124,2,0,L|112:304,1,22.5
100,56,49466,6,0,L|84:84,1,22.5
128,276,49638,2,0,L|87:347,2,67.5000025749208
100,56,49981,1,0,0:0:0:0:
128,276,50152,5,0,0:0:0:0:
100,56,50366,1,0,0:0:0:0:
128,276,50495,1,0,0:0:0:0:
100,56,50666,1,0,0:0:0:0:
412,64,50838,6,0,P|480:188|420:320,1,239.399990137024
54,268,51181,2,0,P|35:152|99:55,1,239.399990137024
276,308,51523,2,0,B|284:220|284:220|240:176|240:176|260:72,2,239.399990137024
457,276,52038,1,0,0:0:0:0:
100,44,52209,6,0,B|4:152|48:284|48:284|128:232|200:296|204:376,1,478.799980274049
364,130,52723,2,0,P|312:170|128:146,2,239.399990137024
0,0,53238,1,0,0:0:0:0:
146,160,53409,2,0,L|138:288,1,119.699995068512
264,348,53581,6,0,P|264:276|452:344,1,360
264,348,54095,2,0,P|220:324|168:208,1,180
375,78,54438,2,0,P|327:63|207:106,2,180
468,360,54952,6,0,P|388:348|276:300,1,180
240,284,55166,1,0,0:0:0:0:
240,284,55209,1,0,0:0:0:0:
240,284,55252,1,0,0:0:0:0:
240,284,55295,2,0,P|176:312|128:308,1,90
84,357,55466,2,0,P|18:331|-12:294,1,90
52,64,55638,2,0,P|64:147|43:167,2,90
27,231,55895,1,0,0:0:0:0:
27,231,55981,2,0,P|87:239|223:99,1,270
248,44,56323,6,0,L|276:312,1,239.399990137024
472,12,56666,2,0,L|447:250,1,239.399990137024
162,365,57009,2,0,P|286:393|394:345,2,239.399990137024
44,152,57523,1,0,0:0:0:0:
421,148,57695,6,0,B|321:188|267:289|267:289|201:204|33:148,1,478.799980274049
428,296,58209,1,0,0:0:0:0:
127,87,58381,2,0,P|163:175|91:319,1,239.399990137024
57,10,58723,1,0,0:0:0:0:
382,138,58895,2,0,L|254:186,1,119.699995068512
382,138,59066,6,0,L|438:310,2,180
314,362,59581,1,0,0:0:0:0:
320,10,59752,2,0,L|264:202,1,180
56,348,60095,2,0,P|24:264|56:156,1,180
208,16,60438,6,0,L|156:200,1,180
140,256,60652,1,0,0:0:0:0:
140,256,60695,1,0,0:0:0:0:
140,256,60738,1,0,0:0:0:0:
140,256,60781,2,0,P|200:260|312:312,1,180
452,40,61123,2,0,P|408:88|400:132,1,90
289,115,61295,2,0,P|308:177|342:206,1,90
408,300,61466,2,0,P|292:260|124:328,1,270
100,336,61809,6,0,L|64:100,1,215.999993408203
376,36,62152,1,0,0:0:0:0:
100,20,62323,2,0,L|360:32,1,215.999993408203
252,236,62666,2,0,L|466:209,2,215.999993408203
44,76,63181,6,0,B|56:152|56:152|144:92|324:56|324:56|340:84|340:84|380:88,1,431.999986816407
384,348,63695,1,0,0:0:0:0:
88,248,63866,2,0,L|312:260,1,215.999993408203
504,84,64209,2,0,L|376:84,1,107.999996704102
232,36,64381,2,0,L|340:36,1,107.999996704102
472,212,64552,6,0,B|484:352|484:352|428:328|408:300,2,215.999993408203
156,332,65066,1,0,0:0:0:0:
303,161,65238,2,0,B|312:176|368:200|368:200|356:60,2,215.999993408203
40,372,65752,1,0,0:0:0:0:
68,16,65923,6,0,P|160:104|132:220,2,215.999993408203
40,372,66438,1,0,0:0:0:0:
68,16,66609,1,0,0:0:0:0:
148,352,66781,1,0,0:0:0:0:
428,252,66952,2,0,L|308:268,3,107.999996704102
148,352,67295,6,0,P|136:236|168:124,1,215.999993408203
476,20,67638,1,0,0:0:0:0:
40,56,67809,1,0,0:0:0:0:
352,82,67981,2,0,P|344:170|240:242,2,215.999993408203
40,212,68495,1,0,0:0:0:0:
411,344,68666,6,0,B|387:292|242:242|242:242|196:288|196:288|212:160|280:132,1,431.999986816407
60,376,69181,1,0,0:0:0:0:
453,61,69352,2,0,P|359:130|219:130,1,215.999993408203
32,24,69695,2,0,P|84:88|88:144,1,107.999996704102
60,376,69866,2,0,P|100:312|248:264,1,215.999993408203
226,261,70381,6,0,P|164:224|68:232,1,161.999995056153
332,72,70723,6,0,P|264:104|164:88,1,161.999995056153
332,72,71023,2,0,P|400:44|456:56,1,121.499996292114
332,72,71238,2,0,P|352:116|352:172,1,80.9999975280763
192,332,71409,6,0,P|104:324|216:264,2,323.999990112305
200,24,72266,1,0,0:0:0:0:
200,24,72352,1,0,0:0:0:0:
200,24,72438,2,0,P|272:64|360:52,1,161.999995056153
36,372,72781,5,0,0:0:0:0:
32,184,78266,6,0,B|192:68|192:68|148:128,1,264.000008056641
64,280,78609,2,0,L|196:188,1,132.00000402832
256,136,78838,1,0,0:0:0:0:
280,244,78952,6,0,B|120:360|120:360|190:337,1,264.000008056641
392,280,79295,2,0,P|392:212|360:136,1,132.00000402832
300,360,79524,1,0,0:0:0:0:
368,140,79638,6,0,B|404:200|392:280|392:280|428:192|416:152,1,264.000008056641
296,56,79981,1,0,0:0:0:0:
427,41,80095,1,0,0:0:0:0:
296,56,80209,1,0,0:0:0:0:
427,41,80323,6,0,L|287:57,1,132.00000402832
60,84,80552,1,0,0:0:0:0:
191,69,80666,6,0,L|51:85,2,132.00000402832
32,176,81009,6,0,L|24:288,1,99.0000030212403
44,188,81181,2,0,L|36:300,1,99.0000030212403
56,196,81352,2,0,L|48:308,1,99.0000030212403
136,360,81523,1,0,0:0:0:0:
144,352,81609,1,0,0:0:0:0:
156,344,81695,6,0,L|148:232,1,99.0000030212403
168,332,81867,2,0,L|160:220,1,99.0000030212403
252,8,82038,1,0,0:0:0:0:
260,16,82124,1,0,0:0:0:0:
272,24,82210,6,0,L|264:136,1,99.0000030212403
340,356,82381,5,0,0:0:0:0:
344,348,82466,1,0,0:0:0:0:
348,344,82552,1,0,0:0:0:0:
352,340,82638,1,0,0:0:0:0:
360,332,82723,6,0,L|352:232,1,99.0000030212403
460,40,82895,1,0,0:0:0:0:
472,52,82981,1,0,0:0:0:0:
480,64,83066,6,0,L|484:172,1,99.0000030212403
458,339,83238,1,0,0:0:0:0:
458,339,83323,1,0,0:0:0:0:
458,339,83409,1,0,0:0:0:0:
458,339,83495,1,0,0:0:0:0:
458,339,83581,6,0,L|354:331,1,99.0000030212403
36,336,83752,6,0,L|12:228,1,99.0000030212403
36,336,83923,2,0,L|12:228,2,99.0000030212403
84,66,84266,1,0,0:0:0:0:
124,260,84438,2,0,L|83:61,1,198.000006042481
124,260,84695,5,0,0:0:0:0:
84,66,84781,6,0,L|104:172,1,99.0000030212403
124,260,84952,2,0,L|144:366,1,99.0000030212403
256,336,85123,5,0,0:0:0:0:
256,336,85209,1,0,0:0:0:0:
256,336,85295,2,0,L|208:128,1,198.000006042481
315,31,85638,1,0,0:0:0:0:
512,52,85809,2,0,L|284:28,1,198.000006042481
248,124,86066,1,0,0:0:0:0:
345,212,86152,2,0,B|389:0|389:0|301:36,1,297.000009063721
452,148,86495,6,0,L|472:32,1,99.0000030212403
435,245,86666,2,0,L|455:129,1,99.0000030212403
420,344,86838,6,0,L|469:46,1,297.000009063721
332,264,87181,6,0,L|364:64,1,198.000006042481
220,200,87438,1,0,0:0:0:0:
344,172,87523,2,0,L|312:376,1,198.000006042481
220,200,87781,1,0,0:0:0:0:
104,160,87866,6,0,P|48:144|8:152,1,99.0000030212403
120,324,88038,2,0,P|87:275|51:256,1,99.0000030212403
128,136,88209,6,0,P|80:101|40:95,1,99.0000030212403
160,326,88381,2,0,P|145:269|118:238,1,99.0000030212403
164,124,88552,6,0,P|131:75|95:56,1,99.0000030212403
202,344,88724,2,0,P|208:286|193:248,1,99.0000030212403
200,124,88895,6,0,P|185:67|158:36,1,99.0000030212403
233,375,89067,2,0,P|258:322|257:281,1,99.0000030212403
324,192,89238,6,0,P|368:184|428:208,1,107.999996704102
508,384,89409,2,0,L|496:272,1,107.999996704102
380,316,89581,1,0,0:0:0:0:
380,316,89666,1,0,0:0:0:0:
380,316,89752,6,0,P|324:324|260:312,2,107.999996704102
33,279,90095,6,0,P|86:271|140:280,1,107.999996704102
92,380,90266,2,0,L|80:136,1,215.999993408203
152,56,90609,5,0,0:0:0:0:
240,16,90695,1,0,0:0:0:0:
184,80,90781,1,0,0:0:0:0:
224,68,90866,1,0,0:0:0:0:
212,116,90952,6,0,B|200:260|200:260|252:192,1,215.999993408203
200,260,91209,1,0,0:0:0:0:
276,320,91295,2,0,L|340:224,1,107.999996704102
422,78,91466,6,0,B|410:134|410:134|418:190,1,107.999996704102
474,94,91638,2,0,B|435:136|435:136|414:188,1,107.999996704102
512,136,91809,2,0,B|457:153|457:153|413:188,1,107.999996704102
388,324,91981,5,0,0:0:0:0:
448,312,92066,1,0,0:0:0:0:
388,324,92152,1,0,0:0:0:0:
448,312,92238,1,0,0:0:0:0:
388,324,92323,1,0,0:0:0:0:
448,312,92409,1,0,0:0:0:0:
448,312,92495,6,0,L|336:336,1,107.999996704102
192,248,92666,2,0,L|297:225,1,107.999996704102
120,132,92838,2,0,L|8:156,1,107.999996704102
200,372,93009,6,0,B|256:208|256:208|120:132,1,323.999990112305
60,320,93352,5,0,0:0:0:0:
48,220,93438,1,0,0:0:0:0:
60,320,93523,1,0,0:0:0:0:
48,220,93609,1,0,0:0:0:0:
60,320,93695,6,0,L|48:208,1,107.999996704102
84,0,93866,2,0,L|96:108,1,107.999996704102
60,320,94038,2,0,L|48:208,1,107.999996704102
84,0,94209,2,0,L|96:108,1,107.999996704102
60,320,94381,6,0,P|228:280|412:348,1,323.999990112305
472,368,94723,6,0,L|444:144,1,215.999993408203
388,64,94981,1,0,0:0:0:0:
445,153,95066,2,0,P|384:168|320:152,1,107.999996704102
148,72,95238,1,0,0:0:0:0:
240,16,95323,1,0,0:0:0:0:
240,124,95409,2,0,L|224:240,1,107.999996704102
52,360,95581,6,0,B|40:304|40:304|48:248,1,107.999996704102
104,344,95753,2,0,B|65:301|65:301|44:249,1,107.999996704102
142,302,95924,2,0,B|87:284|87:284|43:249,1,107.999996704102
28,52,96095,6,0,L|264:32,1,215.999993408203
243,33,96352,1,0,0:0:0:0:
72,144,96438,6,0,L|308:124,1,215.999993408203
287,125,96695,1,0,0:0:0:0:
115,235,96781,6,0,L|351:215,1,215.999993408203
330,216,97038,1,0,0:0:0:0:
158,326,97124,6,0,L|394:306,1,215.999993408203
327,307,97466,6,0,B|339:251|339:251|331:195,1,107.999996704102
242,143,97638,2,0,B|284:181|284:181|336:202,1,107.999996704102
425,151,97809,2,0,B|370:168|370:168|326:203,1,107.999996704102
200,276,97981,6,0,B|278:250|278:250|342:200,1,107.999996704102
342,51,98153,2,0,B|324:131|324:131|336:212,1,107.999996704102
464,284,98324,2,0,B|402:228|402:228|327:198,1,107.999996704102
179,105,98495,6,0,B|252:171|252:171|343:207,1,107.999996704102
497,117,98667,2,0,B|402:147|402:147|325:207,1,107.999996704102
328,383,98838,2,0,B|348:286|348:286|334:189,1,107.999996704102
251,26,99009,5,0,0:0:0:0:
251,26,99095,1,0,0:0:0:0:
251,26,99181,6,0,L|178:106,1,107.999996704102
330,98,99352,2,0,L|250:25,1,107.999996704102
257,177,99523,2,0,L|330:97,1,107.999996704102
178,105,99695,2,0,L|258:178,1,107.999996704102
408,244,99866,6,0,B|257:307|257:307|101:240,1,323.999990112305
36,72,100209,6,0,P|56:48|36:100,1,215.999993408203
12,228,100723,1,0,0:0:0:0:
36,72,100895,6,0,P|56:48|36:100,1,215.999993408203
12,228,101409,1,0,0:0:0:0:
36,72,101581,6,0,P|72:64|40:92,1,107.999996704102
300,72,101838,1,0,0:0:0:0:
300,72,101923,2,0,P|264:64|296:92,1,107.999996704102
408,104,102266,5,0,0:0:0:0:
440,264,102438,1,0,0:0:0:0:
248,360,102609,1,0,0:0:0:0:
24,224,102781,1,0,0:0:0:0:
200,12,102952,6,0,B|136:68|136:68|288:72|288:72|236:40,2,270.000010299683
192,184,103809,1,0,0:0:0:0:
210,317,103981,2,0,L|190:169,1,135.000005149842
112,344,104323,5,0,0:0:0:0:
68,44,104495,1,0,0:0:0:0:
80,128,104581,1,0,0:0:0:0:
90,217,104666,2,0,L|78:117,2,90
112,344,105009,5,0,0:0:0:0:
68,44,105181,1,0,0:0:0:0:
112,344,105352,6,0,L|108:280,1,45
92,261,105437,6,0,L|88:197,1,45
80,176,105523,6,0,L|76:112,1,45
70,88,105608,6,0,L|66:24,1,45
176,56,105695,6,0,B|383:17|383:17|364:48,2,237.599999274902
288,160,106209,1,0,0:0:0:0:
436,352,106381,6,0,P|408:284|472:344,2,237.599999274902
224,336,106895,1,0,0:0:0:0:
454,118,107066,6,0,B|466:214|466:214|434:358,1,237.599999274902
108,328,107323,1,0,0:0:0:0:
36,244,107409,2,0,B|24:148|24:148|56:4,2,237.599999274902
128,140,107923,6,0,B|148:28|148:28|224:40|224:40|236:88,1,237.599999274902
260,184,108181,1,0,0:0:0:0:
336,100,108266,2,0,L|468:80,1,118.799999637451
400,352,108438,6,0,P|464:320|360:320,1,270
248,336,108781,2,0,L|56:356,2,180
12,192,109295,2,0,L|24:292,1,90
1,102,109466,2,0,L|13:202,1,90
34,371,109638,2,0,L|23:281,1,90
12,192,109809,6,0,B|104:224|104:224|280:204,1,270
416,204,110152,2,0,B|468:112|380:112|432:16,5,180
296,36,111181,6,0,B|192:32|192:32|220:8|220:8|200:144,1,237.599999274902
132,204,111438,1,0,0:0:0:0:
212,292,111523,2,0,B|226:387|226:387|198:363|198:363|302:359,1,237.599999274902
24,216,111866,6,0,B|136:200|136:200|96:324,2,237.599999274902
97,318,112381,6,0,B|80:80|80:80|140:40|204:72|204:72,1,356.399998912354
288,104,112723,1,0,0:0:0:0:
496,128,112895,2,0,B|404:152|404:152|472:8,1,237.599999274902
325,337,113238,2,0,B|233:361|233:361|93:317,2,237.599999274902
128,224,113752,2,0,L|244:264,1,118.799999637451
220,360,113923,6,0,B|36:300|36:300|32:204,1,270
80,80,114266,6,0,L|272:56,1,180
80,80,114609,1,0,0:0:0:0:
258,57,114781,2,0,L|80:80,1,180
258,57,115123,1,0,0:0:0:0:
448,216,115295,6,0,B|464:40|464:40|416:128,1,270
352,192,115638,1,0,0:0:0:0:
460,292,115809,2,0,L|420:104,2,180
352,360,116323,2,0,L|240:344,1,90
4,352,116495,2,0,L|93:364,1,90
264,132,116666,6,0,L|0:192,1,262.800007218018
160,44,117009,1,0,0:0:0:0:
452,208,117181,6,0,L|188:268,2,262.800007218018
88,288,117695,1,0,0:0:0:0:
192,68,117866,6,0,B|256:8|256:8|232:192,1,262.800007218018
512,376,118123,1,0,0:0:0:0:
440,304,118209,2,0,P|364:296|292:312,1,131.400003609009
86,158,118381,2,0,P|78:234|94:306,1,131.400003609009
208,364,118552,2,0,P|212:296|184:232,1,131.400003609009
86,158,118723,6,0,L|358:130,1,262.800007218018
204,0,118981,1,0,0:0:0:0:
144,72,119066,2,0,L|288:56,1,131.400003609009
84,160,119238,6,0,B|72:228|108:280|108:280|104:368|48:352|40:296|40:296|112:280|112:280|184:292|184:292|228:256|312:268,1,525.600014436036
392,208,119666,1,0,0:0:0:0:
448,120,119752,6,0,P|420:52|456:4,1,131.400003609009
200,112,119923,2,0,P|268:84|316:120,1,131.400003609009
504,232,120095,2,0,P|435:305|283:249,2,262.800007218018
120,376,120609,5,0,0:0:0:0:
60,292,120695,1,0,0:0:0:0:
8,200,120781,2,0,L|276:168,2,262.800007218018
9,124,121209,1,0,0:0:0:0:
9,124,121295,2,0,L|289:172,1,262.800007218018
136,324,121638,1,0,0:0:0:0:
240,368,121723,1,0,0:0:0:0:
312,280,121809,2,0,L|172:256,1,131.400003609009
88,36,121981,2,0,L|217:58,1,131.400003609009
480,304,122152,6,0,L|440:28,1,262.800007218018
240,368,122495,2,0,L|200:92,1,262.800007218018
0,244,122838,2,0,B|268:376|264:116|504:264,1,525.600014436036
36,364,123352,6,0,B|128:348|208:152|164:48|60:40|60:40|28:156,1,525.600014436036
4,236,123781,1,0,0:0:0:0:
4,236,123866,2,0,B|100:276|100:276|32:128,1,262.800007218018
476,248,124209,2,0,B|380:208|380:208|448:356,1,262.800007218018
296,256,124552,6,0,L|356:384,1,131.400003609009
184,264,124723,2,0,L|244:392,1,131.400003609009
80,284,124895,6,0,P|104:188|272:212,1,297.000009063721
292,256,125238,1,0,0:0:0:0:
344,92,125409,1,0,0:0:0:0:
376,328,125581,2,0,P|280:360|192:304,3,198.000006042481
24,308,126266,6,0,L|20:256,1,33.0000010070801
52,108,126609,2,0,L|52:72,1,33.0000010070801
112,360,126952,2,0,L|112:316,1,33.0000010070801
104,208,127123,6,0,L|236:192,1,99.0000030212403
318,52,127295,2,0,L|266:174,1,99.0000030212403
345,315,127466,2,0,L|266:209,1,99.0000030212403
220,72,127638,6,0,P|316:148|400:100,1,233.999989288331
256,224,127895,1,0,0:0:0:0:
292,352,127981,6,0,P|196:276|112:324,1,233.999989288331
196,372,128238,1,0,0:0:0:0:
196,372,128323,6,0,P|200:304|184:252,1,116.999994644165
36,64,128495,2,0,P|32:132|48:184,2,116.999994644165
0,344,128838,2,0,L|132:312,1,116.999994644165
408,252,129009,6,0,L|332:16,1,233.999989288331
480,220,129266,2,0,L|344:16,1,233.999989288331
320,264,129523,2,0,L|324:25,2,233.999989288331
128,312,130038,5,0,0:0:0:0:
24,236,130123,1,0,0:0:0:0:
128,312,130209,1,0,0:0:0:0:
24,236,130295,1,0,0:0:0:0:
128,312,130381,6,0,L|112:188,2,116.999994644165
98,79,130638,1,0,0:0:0:0:
98,79,130723,2,0,L|112:195,1,116.999994644165
196,0,130895,6,0,L|220:128,1,116.999994644165
236,212,131066,1,0,0:0:0:0:
336,16,131238,6,0,L|289:156,1,116.999994644165
260,244,131409,2,0,L|213:384,2,116.999994644165
488,92,131752,6,0,L|396:192,2,116.999994644165
292,276,132095,6,0,L|200:376,1,116.999994644165
488,92,132266,2,0,L|396:192,1,116.999994644165
416,384,132438,6,0,L|384:244,1,116.999994644165
299,127,132609,6,0,L|171:123,5,116.999994644165
32,112,133123,6,0,B|16:44|16:44|104:24|104:24|80:216,1,350.999983932496
60,336,133466,6,0,L|8:292,1,58.4999973220826
111,336,133552,2,0,L|59:292,1,58.4999973220826
160,335,133638,2,0,L|108:291,1,58.4999973220826
212,335,133724,2,0,L|160:291,1,58.4999973220826
264,332,133809,6,0,L|160:240,1,116.999994644165
111,336,133981,2,0,L|7:244,1,116.999994644165
417,328,134152,6,0,L|313:236,1,116.999994644165
264,332,134324,2,0,L|160:240,2,116.999994644165
36,160,134666,1,0,0:0:0:0:
36,160,134752,1,0,0:0:0:0:
36,160,134838,6,0,L|16:16,2,116.999994644165
260,24,135181,1,0,0:0:0:0:
220,356,135352,1,0,0:0:0:0:
220,356,135438,1,0,0:0:0:0:
220,356,135523,6,0,L|232:224,2,116.999994644165
400,372,135866,6,0,L|408:240,1,116.999994644165
424,32,136038,2,0,L|416:164,2,116.999994644165
304,64,136381,6,0,L|172:76,1,116.999994644165
8,120,136552,6,0,L|128:108,1,116.999994644165
8,89,136723,2,0,L|127:108,1,116.999994644165
328,188,136895,6,0,L|208:200,1,116.999994644165
328,219,137066,2,0,L|208:199,1,116.999994644165
20,296,137238,6,0,L|140:288,1,116.999994644165
244,332,137409,2,0,L|364:324,1,116.999994644165
360,324,137581,6,0,L|244:332,1,116.999994644165
136,288,137752,2,0,L|20:296,1,116.999994644165
244,332,137923,6,0,L|360:324,1,116.999994644165
20,296,138094,2,0,L|136:288,1,116.999994644165
360,324,138266,6,0,L|244:332,1,116.999994644165
20,296,138437,2,0,L|136:288,1,116.999994644165
456,280,138609,6,0,P|484:232|412:264,1,180
320,176,139123,2,0,L|304:80,2,90
216,200,139638,2,0,L|200:96,1,90
80,32,139981,2,0,L|104:220,1,180
116,328,140495,2,0,L|64:344,2,45
232,352,140838,2,0,L|336:348,2,90
320,256,141352,6,0,P|336:240|228:260,1,405.000015449525
271,191,141695,6,0,B|271:183|271:183|271:201,1,27
222,353,142038,6,0,P|206:369|226:261,1,405.000015449525
157,304,142381,6,0,B|149:304|149:304|167:304,1,27
320,256,142723,6,0,P|336:240|316:348,1,405.000015449525
385,305,143066,6,0,B|393:305|393:305|375:305,1,27
208,148,143409,6,0,P|192:132|300:152,1,405.000015449525
257,83,143752,6,0,B|257:75|257:75|257:93,1,27
108,212,144095,6,0,P|40:180|88:96,1,180
168,52,144609,1,0,0:0:0:0:
168,52,144781,2,0,L|264:44,1,90
400,60,145123,2,0,L|388:160,1,90
364,248,145466,2,0,P|464:260|516:192,1,180
476,125,145981,1,0,0:0:0:0:
476,125,146066,1,0,0:0:0:0:
476,125,146152,2,0,L|372:153,1,90
247,189,146495,2,0,P|237:232|248:276,1,90
464,332,146838,6,0,P|424:308|360:292,1,107.999996704102
248,276,147009,2,0,P|201:275|137:293,1,107.999996704102
52,360,147181,6,0,L|48:328,1,27
28,240,147523,6,0,P|56:200|56:104,1,135.000005149842
140,24,147695,2,0,P|208:44|276:40,1,135.000005149842
432,32,147866,6,0,B|424:32|432:36|436:32|432:24|424:36|432:40|436:36|440:28|424:28|428:40|436:40|436:24|428:24|424:40|440:40|440:32|440:24|424:24|432:44,1,27
504,140,148209,6,0,L|352:128,1,135.000005149842
137,213,148381,2,0,L|272:224,1,135.000005149842
500,248,148552,6,0,B|500:244|500:244|504:252|504:252|496:252|496:252|500:248,1,27
420,316,148895,6,0,P|400:244|420:176,1,135.000005149842
248,0,149066,2,0,P|268:72|248:140,1,135.000005149842
104,204,149238,6,0,L|92:176,1,27
0,188,149581,6,0,P|56:68|168:128,2,288
28,292,150438,1,0,0:0:0:0:
28,292,150609,2,0,L|180:276,1,144
344,344,150952,6,0,B|360:116|360:116|380:180,1,288
444,260,151466,1,0,0:0:0:0:
276,4,151638,2,0,B|260:232|260:232|240:168,1,288
242,175,152323,6,0,L|82:155,1,153.000002918243
488,36,152666,2,0,L|328:16,1,153.000002918243
264,384,153009,2,0,L|104:364,1,153.000002918243
510,245,153352,2,0,L|350:225,1,153.000002918243
242,175,153695,6,0,L|82:155,1,153.000002918243
488,36,154038,2,0,L|328:16,1,153.000002918243
264,384,154381,2,0,L|104:364,1,153.000002918243
510,245,154724,2,0,L|350:225,1,153.000002918243
16,260,155066,6,0,P|104:228|216:288,1,215.999993408203
304,360,155581,1,0,0:0:0:0:
328,252,155752,2,0,B|308:64|308:64|336:104,2,215.999993408203
460,344,156609,1,0,0:0:0:0:
460,344,156695,1,0,0:0:0:0:
460,344,156781,1,0,0:0:0:0:
452,200,156952,1,0,0:0:0:0:
328,252,157123,2,0,L|196:240,1,107.999996704102
72,240,157466,6,0,L|64:176,1,53.9999983520508
52,96,157638,2,0,L|48:32,1,53.9999983520508
176,64,157809,5,0,0:0:0:0:
228,312,157981,1,0,0:0:0:0:
300,68,158152,5,0,0:0:0:0:
263,318,158324,1,0,0:0:0:0:
420,112,158495,5,0,0:0:0:0:
299,334,158667,1,0,0:0:0:0:
512,192,158838,5,0,0:0:0:0:
322,359,159010,1,0,0:0:0:0:
322,359,159181,6,0,L|396:296,1,90
512,192,159352,1,0,0:0:0:0:
299,334,159523,6,0,L|353:238,1,107.999996704102
435,83,159694,1,0,0:0:0:0:
263,318,159866,6,0,L|284:192,1,125.999996154785
308,12,160037,1,0,0:0:0:0:
228,312,160209,6,0,L|200:162,1,144
21,42,160381,2,0,L|48:184,1,144
204,339,160552,6,0,L|232:307,2,36
176,80,161581,5,0,0:0:0:0:
164,132,161666,1,0,0:0:0:0:
208,104,161752,1,0,0:0:0:0:
148,100,161838,1,0,0:0:0:0:
204,128,161923,6,0,L|184:232,3,90
275,233,162266,2,0,L|171:213,3,90
169,304,162609,2,0,L|189:200,3,90
98,199,162952,2,0,L|202:219,3,90
392,272,163295,5,0,0:0:0:0:
416,248,163381,1,0,0:0:0:0:
440,276,163466,1,0,0:0:0:0:
416,296,163552,1,0,0:0:0:0:
288,284,163638,5,0,0:0:0:0:
320,192,163723,1,0,0:0:0:0:
408,148,163809,1,0,0:0:0:0:
504,168,163895,1,0,0:0:0:0:
504,168,163981,5,0,0:0:0:0:
496,128,164066,1,0,0:0:0:0:
488,92,164152,1,0,0:0:0:0:
480,56,164238,1,0,0:0:0:0:
368,56,164323,5,0,0:0:0:0:
344,28,164409,1,0,0:0:0:0:
320,64,164495,1,0,0:0:0:0:
284,32,164581,1,0,0:0:0:0:
188,96,164666,6,0,L|172:-4,3,99.0000030212403
44,192,165009,2,0,L|60:92,3,99.0000030212403
208,288,165352,2,0,L|192:188,3,99.0000030212403
64,384,165695,2,0,L|80:284,3,99.0000030212403
252,304,166038,5,0,0:0:0:0:
260,312,166123,1,0,0:0:0:0:
252,320,166209,1,0,0:0:0:0:
244,312,166295,1,0,0:0:0:0:
277,286,166381,5,0,0:0:0:0:
277,337,166466,1,0,0:0:0:0:
226,337,166552,1,0,0:0:0:0:
226,286,166638,1,0,0:0:0:0:
309,311,166723,5,0,0:0:0:0:
252,369,166808,1,0,0:0:0:0:
194,312,166894,1,0,0:0:0:0:
252,254,166980,1,0,0:0:0:0:
303,363,167066,5,0,0:0:0:0:
200,363,167151,1,0,0:0:0:0:
200,260,167237,1,0,0:0:0:0:
303,260,167323,1,0,0:0:0:0:
396,320,167409,6,0,L|512:308,3,116.999994644165
320,152,167752,2,0,L|436:140,3,116.999994644165
186,375,168095,2,0,L|302:363,3,116.999994644165
110,215,168438,2,0,L|226:203,3,116.999994644165
60,356,168781,6,0,L|212:372,3,125.999996154785
136,100,169123,2,0,L|288:116,3,125.999996154785
304,328,169466,2,0,L|456:344,3,125.999996154785
380,72,169808,2,0,L|532:88,3,125.999996154785
440,304,170152,6,0,L|308:328,3,135.000005149842
380,72,170495,2,0,L|248:96,3,135.000005149842
156,360,170838,2,0,L|24:384,3,135.000005149842
184,8,171181,2,0,L|52:32,3,135.000005149842
156,360,171523,6,0,L|298:342,1,144
0,188,171695,2,0,L|142:170,1,144
332,192,171866,2,0,L|474:174,1,144
180,20,172038,2,0,L|322:2,1,144
256,192,172209,5,0,0:0:0:0:
248,192,172295,1,0,0:0:0:0:
264,192,172381,1,0,0:0:0:0:
236,192,172466,1,0,0:0:0:0:
276,192,172552,1,0,0:0:0:0:
224,192,172638,1,0,0:0:0:0:
288,192,172723,1,0,0:0:0:0:
212,192,172809,1,0,0:0:0:0:
300,192,172895,5,0,0:0:0:0:
52,192,174438,1,0,0:0:0:0:
48,148,174523,1,0,0:0:0:0:
60,240,174609,5,0,0:0:0:0:
136,56,174781,1,0,0:0:0:0:
28,336,174952,1,0,0:0:0:0:
320,132,175123,1,0,0:0:0:0:
60,240,175295,6,0,L|268:228,1,202.500007724762
428,264,175638,6,0,B|460:24|460:24|464:96,1,295.200004504395
252,344,175981,2,0,B|284:104|284:104|288:176,1,295.200004504395
469,345,176323,6,0,B|571:288|528:112|349:113|299:249|358:323|358:323|188:312,1,590.400009008789
0,161,176838,6,0,B|111:192|159:74|159:74|88:20|88:20|123:320,1,590.400009008789
20,376,177266,1,0,0:0:0:0:
32,262,177352,2,0,P|104:172|-14:60,1,295.200004504395
480,122,177695,2,0,P|408:212|526:324,1,295.200004504395
384,376,177952,1,0,0:0:0:0:
328,296,178038,2,0,P|316:216|332:140,2,147.600002252197
96,364,178381,6,0,B|80:136|80:136|112:244,1,323.999990112305
172,296,178723,1,0,0:0:0:0:
76,136,178895,6,0,B|168:108|168:108|68:12,1,215.999993408203
256,200,179238,1,0,0:0:0:0:
80,272,179409,2,0,B|172:300|172:300|72:396,1,215.999993408203
256,200,179752,6,0,B|464:140|464:140|424:256|424:256|440:240,1,323.999990112305
388,328,180095,1,0,0:0:0:0:
320,60,180266,1,0,0:0:0:0:
256,200,180438,6,0,L|480:136,3,215.999993408203
380,264,181123,6,0,B|308:128|308:128|436:24,1,295.200004504395
0,308,181466,2,0,B|184:276|184:276|112:360,2,295.200004504395
24,184,181981,2,0,L|324:132,1,295.200004504395
252,40,182238,1,0,0:0:0:0:
144,56,182323,6,0,B|256:196|132:332|132:332|104:284|104:284|220:248|352:284,1,590.400009008789
448,312,182838,1,0,0:0:0:0:
401,20,183009,1,0,0:0:0:0:
448,312,183181,2,0,L|400:8,2,295.200004504395
496,40,183695,2,0,L|520:192,1,147.600002252197
344,224,183866,6,0,B|316:20|316:20|248:84|248:84|248:116,1,323.999990112305
248,208,184209,2,0,P|80:232|40:180,1,215.999993408203
152,112,184552,1,0,0:0:0:0:
152,112,184723,1,0,0:0:0:0:
136,327,184895,2,0,L|152:103,1,215.999993408203
28,360,185238,6,0,B|140:328|140:328|244:360|244:360|280:320|260:264,1,323.999990112305
232,180,185581,2,0,P|176:168|112:172,1,107.999996704102
16,76,185752,2,0,P|120:72|156:80,1,107.999996704102
495,76,185923,2,0,P|442:68|388:72,1,107.999996704102
272,184,186095,2,0,P|324:195|378:194,1,107.999996704102
356,384,186266,6,0,L|348:320,7,53.9999983520508
440,344,186609,6,0,L|416:192,1,134.099992735978
392,24,186781,1,0,0:0:0:0:
140,55,186952,2,0,B|296:79|296:79|400:19,2,268.199985471955
320,232,187466,1,0,0:0:0:0:
159,319,187638,1,0,0:0:0:0:
140,52,187809,6,0,L|160:328,1,268.199985471955
376,352,188066,1,0,0:0:0:0:
456,284,188152,2,0,B|476:224|476:224|436:16,1,268.199985471955
16,152,188495,2,0,B|76:172|76:172|284:132,2,268.199985471955
80,64,188923,1,0,0:0:0:0:
80,64,189009,2,0,B|108:120|108:120|112:192,1,134.099992735978
148,368,189181,6,0,B|260:268|236:120|236:120|212:264|308:368,1,536.39997094391
408,368,189609,1,0,0:0:0:0:
372,272,189695,2,0,P|348:172|388:276,1,268.199985471955
232,312,189952,1,0,0:0:0:0:
96,272,190038,2,0,P|120:172|80:276,2,268.199985471955
16,68,190552,6,0,P|96:64|168:84,1,134.099992735978
276,120,190723,6,0,L|432:176,2,134.099992735978
49,192,191066,1,0,0:0:0:0:
176,236,191152,2,0,L|48:192,1,134.099992735978
404,324,191409,5,0,0:0:0:0:
296,288,191495,1,0,0:0:0:0:
404,324,191581,1,0,0:0:0:0:
422,191,191752,6,0,L|402:331,1,134.099992735978
194,368,191923,2,0,L|175:235,1,134.099992735978
148,52,192095,6,0,L|424:24,5,268.199985471955
84,196,193123,1,0,0:0:0:0:
464,120,193295,1,0,0:0:0:0:
28,324,193466,6,0,B|172:364|176:256|368:328,5,268.199985471955
84,228,194495,1,0,0:0:0:0:
412,364,194666,1,0,0:0:0:0:
332,56,194838,6,0,B|140:40|140:40|292:136,1,360
506,98,195352,2,0,L|310:50,1,180
281,130,195695,2,0,L|456:88,2,180
192,320,196209,1,0,0:0:0:0:
24,380,196381,6,0,L|24:92,1,270
28,12,196723,6,0,B|116:12|116:12|116:256,1,323.999990112305
120,344,197066,6,0,B|119:376|119:376|204:376|204:376|204:84,1,377.999988464356
204,28,197409,6,0,B|204:0|204:0|288:0|288:0|288:84,1,144
288,120,197581,6,0,L|288:296,1,161.999995056153
288,372,197752,6,0,B|380:372|380:372|380:260,1,180
380,192,197923,5,0,0:0:0:0:
380,96,198009,1,0,0:0:0:0:
380,0,198095,1,0,0:0:0:0:
480,0,198181,1,0,0:0:0:0:
480,96,198266,6,0,L|480:128,1,27
480,220,198609,6,0,P|464:196|484:296,1,540
391,263,198952,6,0,L|242:263,1,135.000005149842
157,192,199123,2,0,P|136:256|152:324,1,135.000005149842
256,372,199295,1,0,0:0:0:0:
391,263,199466,2,0,L|391:114,1,135.000005149842
462,29,199637,2,0,P|398:8|330:24,1,135.000005149842
282,128,199809,2,0,L|282:263,1,135.000005149842
199,347,199981,2,0,P|135:368|67:352,1,135.000005149842
131,246,200152,1,0,0:0:0:0:
282,128,200323,5,0,0:0:0:0:
319,108,200409,1,0,0:0:0:0:
312,66,200495,1,0,0:0:0:0:
271,59,200581,1,0,0:0:0:0:
251,97,200666,1,0,0:0:0:0:
216,216,200838,1,0,0:0:0:0:
202,297,200923,1,0,0:0:0:0:
126,336,201009,1,0,0:0:0:0:
56,287,201181,2,0,P|73:195|156:168,1,180
165,87,201352,6,0,P|104:86|28:124,1,135.000005149842
204,49,201523,2,0,P|151:17|66:12,1,135.000005149842
375,229,201695,1,0,0:0:0:0:
381,239,201780,1,0,0:0:0:0:
378,251,201866,1,0,0:0:0:0:
367,256,201952,1,0,0:0:0:0:
356,252,202037,1,0,0:0:0:0:
351,240,202123,1,0,0:0:0:0:
358,229,202209,1,0,0:0:0:0:
370,226,202295,1,0,0:0:0:0:
409,228,202381,5,0,0:0:0:0:
422,249,202466,1,0,0:0:0:0:
416,273,202552,1,0,0:0:0:0:
393,284,202638,1,0,0:0:0:0:
370,274,202723,1,0,0:0:0:0:
361,251,202809,1,0,0:0:0:0:
375,229,202895,1,0,0:0:0:0:
399,223,202981,1,0,0:0:0:0:
483,186,203066,6,0,P|432:146|358:146,1,135.000005149842
139,241,203238,2,0,P|198:209|264:218,1,135.000005149842
356,21,203409,2,0,P|295:45|258:109,1,135.000005149842
214,297,203581,1,0,0:0:0:0:
214,351,203666,1,0,0:0:0:0:
167,324,203752,1,0,0:0:0:0:
299,157,203923,1,0,0:0:0:0:
97,273,204095,2,0,P|87:205|97:122,1,135.000005149842
347,346,204266,2,0,P|279:356|196:346,1,135.000005149842
213,50,204438,6,0,P|309:35|428:50,1,215.999993408203
450,211,204781,1,0,0:0:0:0:
426,49,204952,2,0,P|319:35|213:50,1,215.999993408203
213,50,205295,2,0,P|309:35|428:50,1,215.999993408203
316,197,205638,2,0,P|325:251|316:309,2,107.999996704102
144,0,205981,1,0,0:0:0:0:
205,252,206152,6,0,B|241:263|274:252|274:252|321:268|363:246,1,135
404,88,206495,2,0,P|360:122|321:177,1,107.999996704102
280,327,206666,2,0,P|236:293|197:238,1,107.999996704102
159,88,206838,2,0,P|203:122|242:177,1,107.999996704102
426,286,207009,2,0,P|460:262|404:266,1,107.999996704102
178,349,207181,5,0,0:0:0:0:
178,349,207352,1,0,0:0:0:0:
178,349,207523,1,0,0:0:0:0:
57,192,207695,1,0,0:0:0:0:
326,206,207866,1,0,0:0:0:0:
255,327,208038,2,0,P|193:268|115:297,1,161.999995056153
98,325,208209,5,0,0:0:0:0:
98,325,208381,1,0,0:0:0:0:
98,325,208552,1,0,0:0:0:0:
82,212,208723,2,0,P|184:183|283:222,1,215.999993408203
333,239,208981,1,0,0:0:0:0:
366,201,209066,2,0,P|330:156|275:125,1,107.999996704102
0,190,209238,2,0,P|34:145|89:120,1,107.999996704102
180,207,209409,1,0,0:0:0:0:
186,21,209581,6,0,L|176:318,1,270.000010299683
