osu file format v14

[General]
AudioFilename: Children.mp3
AudioLeadIn: 0
PreviewTime: 50839
Countdown: 0
SampleSet: Normal
StackLeniency: 0.8
Mode: 0
LetterboxInBreaks: 1
WidescreenStoryboard: 1

[Editor]
DistanceSpacing: 1
BeatDivisor: 3
GridSize: 4
TimelineZoom: 2.6

[Metadata]
Title:Okochama Sensou
TitleUnicode:おこちゃま戦争
Artist:kradness&Reol
ArtistUnicode:kradness&れをる
Creator:Kalindraz
Version:Insane
Source:
Tags:Giga-p Len Rin Kagamine Marianna TG Children's War Tarrasky Trynna Ataraxia Seto Net0 BR
BeatmapID:808491
BeatmapSetID:155252

[Difficulty]
HPDrainRate:5
CircleSize:4
OverallDifficulty:7
ApproachRate:9
SliderMultiplier:1.6
SliderTickRate:1

[Events]
//Background and Video events
0,0,"BG.png",0,0
//Break Periods
2,72982,77667
//Storyboard Layer 0 (Background)
//Storyboard Layer 1 (Fail)
//Storyboard Layer 2 (Pass)
//Storyboard Layer 3 (Foreground)
//Storyboard Sound Samples

[TimingPoints]
5582,342.857142857143,4,1,2,50,1,0
17924,-133.333333333333,4,1,2,50,0,0
20667,-133.333333333333,4,1,2,45,0,0
22039,-100,4,1,2,44,0,0
23410,-100,4,1,2,44,0,0
39867,-100,4,1,2,44,0,0
45353,-133.333333333333,4,1,2,37,0,0
50839,-83.3333333333333,4,1,2,55,0,1
53582,-133.333333333333,4,3,0,64,0,0
56324,-100,4,1,2,55,0,1
59067,-133.333333333333,4,3,0,55,0,0
61810,-100,4,1,2,55,0,1
70039,-83.3333333333333,4,1,2,55,0,1
72782,-83.3333333333333,4,1,2,55,0,0
78267,-100,4,1,2,55,0,0
81010,-100,4,2,0,55,0,0
83753,-100,4,1,2,55,0,0
100210,-100,4,1,2,55,0,0
105696,-83.3333333333333,4,1,2,70,0,1
108439,-100,4,3,0,70,0,0
111182,-100,4,1,2,70,0,1
113924,-100,4,3,0,70,0,0
116667,-100,4,1,2,70,0,1
124553,-100,4,1,2,60,0,1
127639,-100,4,1,2,60,0,0
138610,-100,4,1,2,60,0,0
161582,-100,4,1,2,60,0,0
161924,-100,4,1,3,60,0,0
174439,-100,4,1,3,32,0,0
175639,-83.3333333333333,4,1,3,62,0,1
194839,-133.333333333333,4,1,3,62,0,1
198610,-83.3333333333333,4,1,3,62,0,0
198953,-83.3333333333333,4,1,3,62,0,1
204439,-83.3333333333333,4,1,3,62,0,0

[Colours]
Combo1 : 185,0,185
Combo2 : 255,128,64
Combo3 : 255,255,0
Combo4 : 190,190,190
Combo5 : 255,0,0
Combo6 : 128,0,0

[HitObjects]
152,40,6953,5,8,0:0:0:0:
164,192,7124,1,0,0:0:0:0:
68,136,7296,1,8,0:0:0:0:
255,112,7467,2,0,L|239:276,2,160,8|8|8,0:0|0:0|0:0,0:0:0:0:
368,160,8496,5,8,0:0:0:0:
240,272,8668,2,0,L|136:264,1,80,8|0,0:0|0:0,0:0:0:0:
72,132,9010,2,0,L|160:140,1,80,8|0,0:0|0:0,0:0:0:0:
176,160,9267,1,0,0:0:0:0:
200,184,9353,2,0,L|280:192,1,80,8|0,0:0|0:0,0:0:0:0:
360,244,9696,69,8,0:0:0:0:
320,352,9867,1,0,0:0:0:0:
432,328,10039,1,0,0:0:0:0:
280,192,10210,2,0,L|264:32,2,160,8|8|8,0:0|0:0|0:0,0:0:0:0:
216,304,11239,5,8,0:0:0:0:
128,352,11410,2,0,L|36:320,1,80,8|0,0:0|0:0,0:0:0:0:
16,216,11753,2,0,L|96:244,1,80,8|0,0:0|0:0,0:0:0:0:
120,240,12010,1,0,0:0:0:0:
152,240,12096,2,0,L|228:208,1,80,8|0,0:0|0:0,0:0:0:0:
336,136,12439,6,0,L|320:80,3,53.3333333333333,8|0|0|8,0:0|0:0|0:0|0:0,0:0:0:0:
472,232,13124,1,8,0:0:0:0:
328,304,13467,1,10,0:0:0:0:
432,136,13810,22,0,L|464:88,3,53.3333333333333,8|0|0|8,0:0|0:0|0:0|0:0,0:0:0:0:
432,328,14496,1,8,0:0:0:0:
272,208,14839,1,10,0:0:0:0:
472,224,15182,53,8,0:0:0:0:
472,224,15296,1,0,0:0:0:0:
472,224,15410,1,0,0:0:0:0:
472,224,15524,1,8,0:0:0:0:
280,328,15867,1,8,0:0:0:0:
304,112,16210,1,10,0:0:0:0:
408,344,16553,21,8,0:0:0:0:
408,344,16667,1,0,0:0:0:0:
408,344,16782,1,0,0:0:0:0:
408,344,16896,1,8,0:0:0:0:
232,216,17239,1,8,0:0:0:0:
408,88,17582,1,10,0:0:0:0:
256,36,17924,5,4,0:0:0:0:
347,318,18610,1,4,0:0:0:0:
107,143,19296,1,4,0:0:0:0:
404,143,19982,1,4,0:0:0:0:
164,318,20667,5,12,0:0:0:0:
176,208,21010,1,8,0:0:0:0:
176,208,21124,1,0,0:0:0:0:
176,208,21239,1,0,0:0:0:0:
176,208,21353,1,8,0:0:0:0:
304,208,21696,1,8,0:0:0:0:
304,208,21810,1,0,0:0:0:0:
304,208,21924,1,0,0:0:0:0:
304,208,22039,69,8,0:0:0:0:
96,288,22382,1,2,0:0:0:0:
168,160,22724,5,8,0:0:0:0:
200,264,22896,1,0,0:0:0:0:
64,176,23067,1,10,0:0:0:0:
192,64,23239,1,8,0:0:0:0:
344,136,23410,6,0,P|420:160|492:120,1,160,8|0,0:0|0:0,0:0:0:0:
384,56,23924,2,0,P|344:44|300:52,1,80,0|8,0:0|0:0,0:0:0:0:
240,144,24267,1,0,0:0:0:0:
124,184,24439,1,0,0:0:0:0:
40,100,24610,1,0,0:0:0:0:
140,4,24782,2,0,L|132:108,1,80,8|0,0:0|0:0,0:0:0:0:
96,200,25124,1,0,0:0:0:0:
20,296,25296,6,0,P|20:340|48:376,1,80,0|8,0:0|0:0,0:0:0:0:
112,312,25639,2,0,L|216:280,1,80
256,192,25982,1,0,0:0:0:0:
416,296,26153,6,0,L|464:320,2,40,8|0|0,0:0|0:0|0:0,0:0:0:0:
344,160,26496,2,0,L|340:106,2,40
272,288,26839,2,0,L|227:317,2,40,8|0|0,0:0|0:0|0:0,0:0:0:0:
424,208,27182,6,0,L|512:168,1,80
504,84,27524,1,8,0:0:0:0:
416,48,27696,1,0,0:0:0:0:
424,208,27867,1,0,0:0:0:0:
488,0,28039,1,0,0:0:0:0:
312,8,28210,2,0,L|297:86,1,80,8|0,0:0|0:0,0:0:0:0:
168,168,28553,2,0,L|182:89,1,80
240,208,28896,6,0,P|184:248|96:208,1,160,8|0,0:0|0:0,0:0:0:0:
60,24,29410,1,8,0:0:0:0:
304,104,29753,1,0,0:0:0:0:
152,32,29924,1,0,0:0:0:0:
76,112,30096,1,0,0:0:0:0:
20,192,30267,6,0,L|32:284,1,80,8|0,0:0|0:0,0:0:0:0:
104,320,30610,1,0,0:0:0:0:
200,360,30782,2,0,L|288:344,1,80,0|8,0:0|0:0,0:0:0:0:
368,240,31124,2,0,L|289:254,1,80
416,360,31467,1,0,0:0:0:0:
472,248,31639,6,0,L|504:224,2,40,8|0|0,0:0|0:0|0:0,0:0:0:0:
320,328,31982,2,0,L|288:352,2,40
496,328,32324,5,8,0:0:0:0:
432,176,32496,1,0,0:0:0:0:
296,256,32667,1,0,0:0:0:0:
416,360,32839,1,0,0:0:0:0:
344,192,33010,6,0,P|304:176|256:184,1,80,8|0,0:0|0:0,0:0:0:0:
320,328,33353,2,0,P|360:344|408:336,1,80
216,264,33696,1,8,0:0:0:0:
320,328,33867,1,0,0:0:0:0:
416,256,34039,2,0,L|448:88,1,160,0|8,0:0|0:0,0:0:0:0:
360,112,34553,5,0,0:0:0:0:
480,160,34724,1,0,0:0:0:0:
344,208,34896,5,0,0:0:0:0:
492,240,35067,1,8,0:0:0:0:
332,304,35239,5,0,0:0:0:0:
508,324,35410,1,8,0:0:0:0:
492,240,35582,1,0,0:0:0:0:
476,152,35753,1,8,0:0:0:0:
416,48,35924,5,0,0:0:0:0:
416,48,36010,1,0,0:0:0:0:
416,48,36096,1,0,0:0:0:0:
360,192,36267,1,0,0:0:0:0:
312,72,36439,5,8,0:0:0:0:
272,184,36610,1,0,0:0:0:0:
216,96,36782,5,0,0:0:0:0:
184,184,36953,2,0,L|104:192,1,80,0|8,0:0|0:0,0:0:0:0:
72,80,37296,5,0,0:0:0:0:
216,96,37467,2,0,L|200:192,1,80
144,272,37810,6,0,L|128:368,1,80,8|0,0:0|0:0,0:0:0:0:
272,224,38153,2,0,L|288:128,1,80
184,184,38496,6,0,L|88:168,1,80,8|0,0:0|0:0,0:0:0:0:
232,312,38839,2,0,L|328:328,1,80
408,328,39182,6,0,L|416:240,1,80,8|0,0:0|0:0,0:0:0:0:
432,232,39439,1,0,0:0:0:0:
448,208,39524,2,0,L|456:120,1,80
392,16,39867,6,0,L|376:176,1,160,8|0,0:0|0:0,0:0:0:0:
328,248,40382,1,0,0:0:0:0:
455,128,40553,2,0,L|288:96,1,160,8|0,0:0|0:0,0:0:0:0:
192,40,41067,5,0,0:0:0:0:
192,40,41153,1,0,0:0:0:0:
192,40,41239,2,0,L|144:128,1,80,8|0,0:0|0:0,0:0:0:0:
96,200,41582,1,0,0:0:0:0:
232,152,41753,1,0,0:0:0:0:
80,56,41924,1,8,0:0:0:0:
5,143,42096,2,0,L|13:231,1,80
128,288,42439,1,0,0:0:0:0:
168,184,42610,6,0,L|8:224,1,160,8|0,0:0|0:0,0:0:0:0:
128,288,43124,1,0,0:0:0:0:
168,184,43296,2,0,L|192:96,1,80,8|0,0:0|0:0,0:0:0:0:
320,32,43639,2,0,L|298:109,1,80
280,120,43896,1,0,0:0:0:0:
264,136,43982,6,0,L|242:213,1,80,8|0,0:0|0:0,0:0:0:0:
224,224,44239,1,0,0:0:0:0:
204,240,44324,2,0,L|184:332,1,80
100,300,44667,1,8,0:0:0:0:
272,352,44839,2,0,L|316:352,2,40
444,356,45353,6,0,L|460:228,1,120.000004577637,8|0,0:0|0:0,0:0:0:0:
400,188,45867,1,0,0:0:0:0:
348,32,46039,2,0,L|333:151,1,120.000004577637,8|0,0:0|0:0,0:0:0:0:
352,264,46553,1,0,0:0:0:0:
384,244,46639,1,0,0:0:0:0:
416,224,46724,6,0,L|488:224,1,60.0000022888184,8|0,0:0|0:0,0:0:0:0:
320,328,47067,2,0,L|260:328,1,60.0000022888184
168,308,47410,5,8,0:0:0:0:
112,232,47582,1,0,0:0:0:0:
112,144,47753,1,0,0:0:0:0:
168,72,47924,1,0,0:0:0:0:
260,56,48096,5,8,0:0:0:0:
308,148,48439,1,8,0:0:0:0:
360,56,48782,1,8,0:0:0:0:
412,148,49124,1,8,0:0:0:0:
460,56,49467,1,8,0:0:0:0:
460,56,49639,5,8,0:0:0:0:
412,148,49811,1,8,0:0:0:0:
360,56,49982,1,8,0:0:0:0:
308,148,50153,1,8,0:0:0:0:
256,56,50325,1,8,0:0:0:0:
204,152,50496,1,8,0:0:0:0:
152,56,50667,1,8,0:0:0:0:
40,60,50839,6,0,L|52:164,1,95.9999970703126,12|0,0:0|0:0,0:0:0:0:
264,180,51182,2,0,L|276:284,1,95.9999970703126,8|0,0:0|0:0,0:0:0:0:
176,352,51524,2,0,L|152:152,1,191.999994140625,8|0,0:0|0:0,0:0:0:0:
352,16,52039,6,0,L|375:207,1,191.999994140625,8|0,0:0|0:0,0:0:0:0:
491,359,52553,2,0,L|480:264,1,95.9999970703126,8|0,0:0|0:0,0:0:0:0:
276,228,52896,2,0,L|264:132,2,95.9999970703126,8|0|8,0:0|0:0|0:0,0:0:0:0:
440,144,53410,1,0,0:0:0:0:
320,52,53582,6,0,P|256:40|192:68,1,120.000004577637,8|10,0:0|0:0,0:0:0:0:
96,132,54096,2,10,L|164:124,1,60.0000022888184
220,180,54439,2,10,L|288:172,2,60.0000022888184
96,132,54953,6,0,L|112:252,1,120.000004577637,14|10,0:0|0:0,0:0:0:0:
212,288,55467,2,10,L|220:356,2,60.0000022888184
312,276,55982,2,10,L|304:216,1,60.0000022888184
320,112,56324,6,0,L|397:92,1,80,12|0,0:0|0:0,0:0:0:0:
509,168,56667,2,0,L|432:188,1,80,8|0,0:0|0:0,0:0:0:0:
256,160,57010,2,0,P|248:80|324:32,1,160,8|0,0:0|0:0,0:0:0:0:
316,216,57524,6,0,P|239:241|175:178,1,160,8|0,0:0|0:0,0:0:0:0:
320,112,58039,2,0,L|404:116,1,80,8|0,0:0|0:0,0:0:0:0:
476,260,58382,2,0,L|392:256,1,80,8|0,0:0|0:0,0:0:0:0:
308,320,58724,2,0,L|224:316,1,80,8|0,0:0|0:0,0:0:0:0:
108,332,59067,6,0,L|96:200,1,120.000004577637,12|8,0:0|0:0,0:0:0:0:
88,100,59582,1,12,0:0:0:0:
88,100,59753,1,8,0:0:0:0:
176,112,59924,2,12,L|252:96,1,60.0000022888184,12|8,0:0|0:0,0:0:0:0:
308,48,60267,1,12,0:0:0:0:
392,80,60439,6,12,L|384:208,1,120.000004577637,8|8,0:0|0:0,0:0:0:0:
380,304,60953,1,12,0:0:0:0:
468,256,61124,1,8,0:0:0:0:
384,199,61296,2,12,L|320:191,1,60.0000022888184,12|8,0:0|0:0,0:0:0:0:
228,208,61639,1,12,0:0:0:0:
152,280,61810,6,0,L|172:360,1,80,12|0,0:0|0:0,0:0:0:0:
312,352,62153,2,0,L|292:274,1,80,8|0,0:0|0:0,0:0:0:0:
248,124,62496,2,0,P|188:128|136:216,1,160,8|0,0:0|0:0,0:0:0:0:
292,274,63010,6,0,L|452:246,1,160,8|0,0:0|0:0,0:0:0:0:
484,144,63524,2,0,L|396:160,1,80,8|0,0:0|0:0,0:0:0:0:
348,72,63867,2,0,L|260:88,1,80,8|0,0:0|0:0,0:0:0:0:
252,80,64124,1,0,0:0:0:0:
232,72,64210,2,0,L|144:88,1,80,8|0,0:0|0:0,0:0:0:0:
48,56,64553,6,0,L|64:152,1,80,12|0,0:0|0:0,0:0:0:0:
176,168,64896,2,0,L|160:264,1,80,8|0,0:0|0:0,0:0:0:0:
136,364,65239,6,0,L|220:344,1,80,8|0,0:0|0:0,0:0:0:0:
336,236,65582,2,0,L|258:254,1,80,8|0,0:0|0:0,0:0:0:0:
244,260,65839,1,0,0:0:0:0:
228,264,65924,1,8,0:0:0:0:
96,228,66096,5,0,0:0:0:0:
176,168,66267,1,8,0:0:0:0:
112,280,66439,5,0,0:0:0:0:
244,260,66610,1,8,0:0:0:0:
128,336,66782,5,0,0:0:0:0:
128,336,66867,1,0,0:0:0:0:
128,336,66953,2,0,L|104:248,1,80,8|0,0:0|0:0,0:0:0:0:
40,164,67296,6,0,L|124:104,1,80,8|0,0:0|0:0,0:0:0:0:
216,72,67639,2,0,L|312:60,1,80,8|0,0:0|0:0,0:0:0:0:
440,36,67982,2,0,L|432:195,1,160,8|0,0:0|0:0,0:0:0:0:
340,355,68496,6,0,L|348:196,1,160,8|0,0:0|0:0,0:0:0:0:
400,112,69010,2,0,L|460:104,2,40,8|0|0,0:0|0:0|0:0,0:0:0:0:
296,112,69353,2,0,L|236:104,2,40,8|0|0,0:0|0:0|0:0,0:0:0:0:
276,32,69696,2,0,P|228:33|188:64,1,80,8|0,0:0|0:0,0:0:0:0:
116,112,70039,6,0,L|132:304,1,191.999994140625,14|8,0:0|0:0,0:0:0:0:
220,344,70553,1,0,0:0:0:0:
208,228,70724,1,8,0:0:0:0:
196,104,70896,2,0,L|188:8,2,95.9999970703126,8|0|8,0:0|0:0|0:0,0:0:0:0:
200,116,71410,5,0,0:0:0:0:
204,128,71753,1,8,0:0:0:0:
208,140,72096,1,8,0:0:0:0:
136,196,72267,2,0,L|80:196,2,47.9999985351563,8|0|8,0:0|0:0|0:0,0:0:0:0:
216,156,72610,1,8,0:0:0:0:
280,308,72782,5,12,0:0:0:0:
72,104,78267,5,8,0:0:0:0:
88,256,78610,2,0,L|68:312,2,53.3333333333333
164,212,78953,2,0,L|240:200,1,53.3333333333333,8|0,0:0|0:0,0:0:0:0:
304,192,79182,1,0,0:0:0:0:
304,192,79296,2,0,P|324:228|312:292,1,106.666666666667
240,372,79639,6,0,B|276:364|276:364|368:372,1,106.666666666667,8|0,0:0|0:0,0:0:0:0:
480,316,79982,2,0,P|492:276|492:256,2,53.3333333333333
408,268,80324,2,0,L|392:140,1,106.666666666667,8|0,0:0|0:0,0:0:0:0:
296,104,80667,2,0,P|272:96|240:96,2,53.3333333333333,8|0|0,0:0|0:0|0:0,0:0:0:0:
180,264,81010,6,0,L|172:216,3,40,2|0|0|0,0:0|0:0|0:0|0:0,0:0:0:0:
252,208,81353,6,0,L|244:160,3,40,2|0|0|0,0:0|0:0|0:0|0:0,0:0:0:0:
296,112,81696,5,2,0:0:0:0:
316,100,81782,1,0,0:0:0:0:
336,88,81867,2,0,L|384:88,1,40
464,148,82039,5,2,0:0:0:0:
444,160,82125,1,0,0:0:0:0:
424,172,82210,2,0,L|376:172,1,40
304,212,82382,6,0,L|264:220,1,40,2|0,0:0|0:0,0:0:0:0:
284,296,82553,2,0,L|244:304,1,40
160,320,82724,6,0,L|156:368,3,40,2|0|0|0,0:0|0:0|0:0|0:0,0:0:0:0:
76,312,83067,5,2,0:0:0:0:
80,288,83153,1,0,0:0:0:0:
84,260,83239,2,0,L|124:244,1,40
136,164,83410,6,0,L|176:148,1,40,2|0,0:0|0:0,0:0:0:0:
180,64,83582,2,0,L|142:78,1,40
60,112,83753,6,0,L|16:120,1,40,10|0,0:0|0:0,0:0:0:0:
52,132,83924,2,0,L|8:140,1,40
24,216,84096,1,0,0:0:0:0:
116,264,84267,2,0,L|208:260,1,80,0|8,0:0|0:0,0:0:0:0:
280,200,84610,5,0,0:0:0:0:
228,344,84782,1,0,0:0:0:0:
240,332,84867,1,0,0:0:0:0:
252,320,84953,2,0,L|344:316,1,80,0|8,0:0|0:0,0:0:0:0:
408,272,85296,5,0,0:0:0:0:
408,272,85382,1,0,0:0:0:0:
408,272,85467,2,0,L|420:184,1,80
360,64,85810,2,0,L|352:144,1,80,8|0,0:0|0:0,0:0:0:0:
340,152,86067,1,0,0:0:0:0:
324,160,86153,2,0,L|232:152,1,80
140,96,86496,6,0,L|96:92,1,40,8|0,0:0|0:0,0:0:0:0:
208,56,86667,2,0,L|224:16,1,40
104,168,86839,2,0,L|104:256,1,80
80,328,87182,6,0,P|128:328|164:304,1,80,8|0,0:0|0:0,0:0:0:0:
172,296,87439,1,0,0:0:0:0:
188,280,87524,2,0,P|223:262|263:264,1,80
356,316,87867,6,0,L|364:356,1,40,8|0,0:0|0:0,0:0:0:0:
440,316,88039,2,0,L|432:356,1,40
332,304,88210,6,0,L|320:344,1,40
460,304,88382,2,0,L|472:344,1,40
320,284,88553,6,0,L|296:320,1,40,8|0,0:0|0:0,0:0:0:0:
472,284,88724,2,0,L|496:320,1,40
396,244,88896,6,0,L|396:156,1,80
376,68,89239,5,8,0:0:0:0:
296,144,89410,1,0,0:0:0:0:
272,28,89582,1,0,0:0:0:0:
384,152,89753,2,0,L|468:152,1,80,0|8,0:0|0:0,0:0:0:0:
308,232,90096,2,0,L|228:232,1,80
132,168,90439,1,0,0:0:0:0:
176,72,90610,5,8,0:0:0:0:
176,72,90696,1,0,0:0:0:0:
176,72,90782,1,0,0:0:0:0:
48,188,90953,1,0,0:0:0:0:
232,148,91124,5,0,0:0:0:0:
96,244,91296,1,8,0:0:0:0:
164,280,91467,6,0,L|152:328,1,40
268,228,91639,2,0,L|312:228,1,40
252,316,91810,1,0,0:0:0:0:
340,304,91982,6,0,L|384:296,3,40,8|0|0|0,0:0|0:0|0:0|0:0,0:0:0:0:
424,236,92324,5,0,0:0:0:0:
452,128,92496,1,0,0:0:0:0:
376,40,92667,5,8,0:0:0:0:
344,152,92839,1,0,0:0:0:0:
264,76,93010,2,0,L|168:80,1,80
76,40,93353,5,8,0:0:0:0:
76,40,93439,1,0,0:0:0:0:
76,40,93524,1,0,0:0:0:0:
76,40,93610,1,0,0:0:0:0:
76,40,93696,1,0,0:0:0:0:
32,152,93867,2,0,L|116:136,1,80,0|8,0:0|0:0,0:0:0:0:
262,197,94210,2,0,L|184:212,1,80
76,304,94724,5,8,0:0:0:0:
76,304,94810,1,0,0:0:0:0:
76,304,94896,1,0,0:0:0:0:
76,304,94982,1,0,0:0:0:0:
76,304,95067,1,0,0:0:0:0:
192,344,95239,2,0,L|276:336,1,80,0|8,0:0|0:0,0:0:0:0:
304,328,95496,1,0,0:0:0:0:
328,300,95582,2,0,L|320:216,1,80
352,120,95924,1,0,0:0:0:0:
264,88,96096,6,0,L|184:91,1,80,8|0,0:0|0:0,0:0:0:0:
124,240,96439,2,0,L|203:236,1,80,8|0,0:0|0:0,0:0:0:0:
284,60,96782,6,0,L|204:63,1,80,8|0,0:0|0:0,0:0:0:0:
140,211,97125,2,0,L|220:208,1,80,8|0,0:0|0:0,0:0:0:0:
368,152,97467,6,0,L|376:72,2,80,8|0|8,0:0|0:0|0:0,0:0:0:0:
252,248,97982,2,0,L|244:168,2,80,8|0|8,0:0|0:0|0:0,0:0:0:0:
448,336,98496,2,0,L|456:256,2,80,8|0|8,0:0|0:0|0:0,0:0:0:0:
316,344,99010,1,0,0:0:0:0:
300,352,99096,1,0,0:0:0:0:
284,360,99182,2,0,L|204:352,1,80,8|0,0:0|0:0,0:0:0:0:
84,300,99524,5,8,0:0:0:0:
112,144,99696,1,0,0:0:0:0:
16,232,99867,2,0,L|112:220,1,80,8|0,0:0|0:0,0:0:0:0:
204,168,100210,6,0,L|380:152,1,160,10|0,0:0|0:0,0:0:0:0:
324,48,100724,1,0,0:0:0:0:
211,8,100896,2,0,L|203:176,1,160,8|0,0:0|0:0,0:0:0:0:
248,240,101410,1,0,0:0:0:0:
256,260,101496,1,0,0:0:0:0:
260,280,101582,2,0,L|248:360,1,80,8|0,0:0|0:0,0:0:0:0:
156,344,101924,2,0,L|168:264,1,80,8|0,0:0|0:0,0:0:0:0:
212,160,102267,5,8,0:0:0:0:
312,220,102439,1,8,0:0:0:0:
376,128,102610,1,8,0:0:0:0:
280,68,102782,1,8,0:0:0:0:
280,68,102953,5,8,0:0:0:0:
260,296,103296,1,8,0:0:0:0:
480,236,103639,2,0,L|400:212,1,80,8|8,0:0|0:0,0:0:0:0:
192,164,103982,1,8,0:0:0:0:
192,252,104324,6,0,L|172:340,1,80,8|0,0:0|0:0,0:0:0:0:
280,160,104582,1,0,0:0:0:0:
280,160,104667,2,0,L|300:72,1,80,8|0,0:0|0:0,0:0:0:0:
284,248,105010,6,0,L|372:268,1,80,8|0,0:0|0:0,0:0:0:0:
192,164,105353,2,0,L|104:144,1,80,8|0,0:0|0:0,0:0:0:0:
36,92,105696,6,0,P|20:144|28:192,1,95.9999970703126,8|0,0:0|0:0,0:0:0:0:
64,272,106039,2,0,P|99:313|144:331,1,95.9999970703126,8|0,0:0|0:0,0:0:0:0:
344,336,106382,2,0,P|368:244|336:156,1,191.999994140625,8|0,0:0|0:0,0:0:0:0:
168,48,106896,6,0,P|144:140|176:228,1,191.999994140625,8|0,0:0|0:0,0:0:0:0:
252,351,107410,2,0,P|306:352|350:331,1,95.9999970703126,8|0,0:0|0:0,0:0:0:0:
420,260,107753,2,0,P|449:214|455:166,1,95.9999970703126,8|0,0:0|0:0,0:0:0:0:
388,64,108096,1,8,0:0:0:0:
276,92,108267,1,0,0:0:0:0:
168,48,108439,6,0,L|132:208,1,160,8|8,0:0|0:0,0:0:0:0:
172,292,108953,2,0,L|152:376,2,80,0|8|0,0:0|0:0|0:0,0:0:0:0:
224,200,109467,1,8,0:0:0:0:
316,152,109639,1,0,0:0:0:0:
416,168,109810,6,0,L|392:344,1,160,12|8,0:0|0:0,0:0:0:0:
280,352,110324,1,0,0:0:0:0:
180,296,110496,1,8,0:0:0:0:
112,192,110667,2,0,L|36:168,2,80,0|8|0,0:0|0:0|0:0,0:0:0:0:
192,176,111182,6,0,P|176:136|136:112,1,80,8|0,0:0|0:0,0:0:0:0:
244,240,111524,2,0,P|270:206|271:159,1,80,8|0,0:0|0:0,0:0:0:0:
180,296,111867,2,0,P|248:320|320:276,1,160,8|0,0:0|0:0,0:0:0:0:
140,228,112382,6,0,P|104:296|144:364,1,160,8|0,0:0|0:0,0:0:0:0:
272,320,112896,2,0,L|352:296,1,80,8|0,0:0|0:0,0:0:0:0:
404,185,113239,2,0,L|328:208,1,80,8|0,0:0|0:0,0:0:0:0:
332,176,113496,1,0,0:0:0:0:
336,144,113582,2,0,L|259:166,1,80,8|0,0:0|0:0,0:0:0:0:
140,232,113924,6,0,P|112:168|152:80,1,160,12|8,0:0|0:0,0:0:0:0:
232,40,114439,2,0,L|312:52,1,80,4|8,0:0|0:0,0:0:0:0:
408,136,114782,1,4,0:0:0:0:
488,72,114953,1,8,0:0:0:0:
400,20,115124,1,4,0:0:0:0:
316,144,115296,6,0,L|332:308,1,160,8|8,0:0|0:0,0:0:0:0:
400,368,115810,1,4,0:0:0:0:
484,308,115982,1,8,0:0:0:0:
408,248,116153,5,4,0:0:0:0:
304,348,116324,1,8,0:0:0:0:
204,248,116496,1,4,0:0:0:0:
241,161,116667,6,0,P|276:144|321:145,1,80,8|0,0:0|0:0,0:0:0:0:
300,232,117010,2,0,P|337:243|369:274,1,80,8|0,0:0|0:0,0:0:0:0:
304,348,117353,1,8,0:0:0:0:
144,300,117524,2,0,P|124:268|128:220,1,80
318,161,117867,6,0,L|294:329,1,160,8|0,0:0|0:0,0:0:0:0:
392,256,118382,2,0,L|404:168,1,80,8|0,0:0|0:0,0:0:0:0:
208,256,118724,2,0,L|197:335,1,80,8|0,0:0|0:0,0:0:0:0:
176,340,118982,1,0,0:0:0:0:
152,344,119067,2,0,L|80:308,1,80,8|0,0:0|0:0,0:0:0:0:
32,208,119410,5,8,0:0:0:0:
104,96,119582,1,0,0:0:0:0:
204,160,119753,2,0,L|288:144,1,80,8|0,0:0|0:0,0:0:0:0:
89,17,120096,2,0,L|105:101,1,80,8|0,0:0|0:0,0:0:0:0:
108,124,120353,1,0,0:0:0:0:
112,148,120439,2,0,L|128:240,1,80,8|0,0:0|0:0,0:0:0:0:
144,328,120782,6,0,L|104:352,2,40,8|0|0,0:0|0:0|0:0,0:0:0:0:
248,212,121124,1,8,0:0:0:0:
92,264,121296,1,0,0:0:0:0:
264,320,121467,1,8,0:0:0:0:
156,176,121639,1,0,0:0:0:0:
156,176,121724,1,0,0:0:0:0:
156,176,121810,2,0,L|180:260,1,80,8|0,0:0|0:0,0:0:0:0:
208,372,122153,6,0,L|304:356,1,80,10|0,0:0|0:0,0:0:0:0:
394,266,122496,2,0,L|316:280,1,80,8|0,0:0|0:0,0:0:0:0:
448,336,122839,2,0,P|476:280|440:192,1,160,8|0,0:0|0:0,0:0:0:0:
284,123,123353,6,0,L|316:283,1,160,8|0,0:0|0:0,0:0:0:0:
384,172,123867,2,0,L|424:188,2,40,8|0|0,0:0|0:0|0:0,0:0:0:0:
208,192,124210,2,0,L|168:208,2,40,8|0|0,0:0|0:0|0:0,0:0:0:0:
344,268,124553,1,8,0:0:0:0:
256,276,124724,1,0,0:0:0:0:
412,328,124896,6,0,P|424:240|368:180,1,160,12|8,0:0|0:0,0:0:0:0:
288,144,125410,1,8,0:0:0:0:
264,228,125582,1,8,0:0:0:0:
240,312,125753,1,8,0:0:0:0:
160,248,125924,6,8,L|76:264,2,80
172,244,126610,1,8,0:0:0:0:
184,240,126953,1,8,0:0:0:0:
256,208,127124,6,0,L|264:164,1,40,8|0,0:0|0:0,0:0:0:0:
340,164,127296,2,0,L|348:120,1,40,8|0,0:0|0:0,0:0:0:0:
424,116,127467,2,0,L|432:72,1,40,8|0,0:0|0:0,0:0:0:0:
340,44,127639,6,0,L|172:32,1,160,12|0,0:0|0:0,0:0:0:0:
68,136,128153,1,0,0:0:0:0:
104,272,128324,1,8,0:0:0:0:
104,272,128410,1,0,0:0:0:0:
104,272,128496,1,0,0:0:0:0:
204,224,128667,1,0,0:0:0:0:
24,216,128839,1,0,0:0:0:0:
60,340,129010,6,0,P|104:352|152:336,1,80,8|0,0:0|0:0,0:0:0:0:
172,316,129267,2,0,P|216:304|264:320,1,80,8|0,0:0|0:0,0:0:0:0:
280,336,129524,2,0,P|324:348|372:332,1,80,8|0,0:0|0:0,0:0:0:0:
448,292,129867,5,8,0:0:0:0:
444,272,129953,1,0,0:0:0:0:
440,252,130039,1,8,0:0:0:0:
436,232,130124,1,0,0:0:0:0:
432,212,130210,1,8,0:0:0:0:
408,104,130382,6,0,L|404:44,2,40,10|0|0,0:0|0:0|0:0,0:0:0:0:
328,224,130724,1,8,0:0:0:0:
280,76,130896,1,0,0:0:0:0:
200,156,131067,1,0,0:0:0:0:
336,144,131239,1,0,0:0:0:0:
184,36,131410,5,8,0:0:0:0:
200,156,131582,1,0,0:0:0:0:
88,108,131753,2,0,L|48:100,2,40
260,84,132096,5,8,0:0:0:0:
144,232,132267,1,0,0:0:0:0:
272,208,132439,1,0,0:0:0:0:
88,156,132610,6,0,L|48:140,1,40,8|0,0:0|0:0,0:0:0:0:
72,232,132782,2,0,L|32:232,1,40,8|0,0:0|0:0,0:0:0:0:
88,308,132953,2,0,L|48:324,1,40,8|0,0:0|0:0,0:0:0:0:
168,356,133124,6,0,L|320:336,1,120,8|0,0:0|0:0,0:0:0:0:
364,336,133467,6,0,L|412:328,1,40,8|0,0:0|0:0,0:0:0:0:
428,256,133639,2,0,L|476:248,1,40,8|0,0:0|0:0,0:0:0:0:
376,316,133810,6,0,L|424:308,1,40,8|0,0:0|0:0,0:0:0:0:
440,236,133982,2,0,L|488:228,1,40,8|0,0:0|0:0,0:0:0:0:
384,300,134153,6,0,L|432:292,1,40,8|0,0:0|0:0,0:0:0:0:
452,220,134324,2,0,L|468:120,1,80,8|0,0:0|0:0,0:0:0:0:
408,60,134839,5,8,0:0:0:0:
328,136,135010,2,0,L|224:124,1,80
120,68,135353,1,0,0:0:0:0:
224,52,135524,2,0,L|303:61,1,80,8|0,0:0|0:0,0:0:0:0:
320,96,135782,1,0,0:0:0:0:
328,136,135867,6,0,L|300:216,1,80
192,272,136210,1,8,0:0:0:0:
72,216,136382,5,0,0:0:0:0:
136,144,136553,2,0,L|216:136,1,80
344,208,136896,2,0,L|264:216,1,80,8|0,0:0|0:0,0:0:0:0:
128,272,137239,6,0,L|116:320,3,40,8|0|0|0,0:0|0:0|0:0|0:0,0:0:0:0:
196,344,137582,6,0,L|184:392,3,40,8|0|0|0,0:0|0:0|0:0|0:0,0:0:0:0:
272,324,137924,6,0,L|320:324,1,40,8|0,0:0|0:0,0:0:0:0:
368,260,138096,2,0,L|420:260,1,40
412,180,138267,6,0,L|364:180,1,40,8|0,0:0|0:0,0:0:0:0:
316,116,138439,2,0,L|264:116,1,40
148,80,138610,6,0,L|112:248,1,160,14|0,0:0|0:0,0:0:0:0:
76,336,139124,1,0,0:0:0:0:
184,296,139296,2,0,L|272:292,1,80,10|0,0:0|0:0,0:0:0:0:
356,336,139639,1,0,0:0:0:0:
452,288,139810,1,0,0:0:0:0:
376,176,139982,6,0,L|356:344,1,160,10|0,0:0|0:0,0:0:0:0:
264,344,140496,2,0,L|248:384,2,40,0|0|10,0:0|0:0|0:0,0:0:0:0:
252,256,140839,1,0,0:0:0:0:
192,196,141010,1,0,0:0:0:0:
104,204,141182,1,0,0:0:0:0:
40,112,141353,6,0,L|128:104,1,80,10|0,0:0|0:0,0:0:0:0:
60,252,141696,2,0,L|148:260,1,80
68,104,142039,6,0,L|154:86,1,80,10|0,0:0|0:0,0:0:0:0:
88,260,142382,2,0,L|174:277,1,80
96,92,142724,6,0,L|180:65,1,80,10|0,0:0|0:0,0:0:0:0:
112,268,143067,2,0,L|196:294,1,80
120,84,143410,6,0,L|201:49,1,80,10|0,0:0|0:0,0:0:0:0:
136,280,143753,2,0,L|217:314,1,80
316,372,144096,6,0,L|332:204,1,160,14|0,0:0|0:0,0:0:0:0:
316,88,144610,2,0,L|400:64,1,80,0|10,0:0|0:0,0:0:0:0:
492,150,144953,2,0,L|416:172,1,80
288,208,145296,1,0,0:0:0:0:
232,100,145467,6,0,P|244:40|344:12,1,160,10|0,0:0|0:0,0:0:0:0:
288,208,145982,2,0,L|236:236,2,40,0|0|10,0:0|0:0|0:0,0:0:0:0:
392,160,146324,2,0,L|408:256,1,80
324,320,146667,1,0,0:0:0:0:
200,324,146839,6,0,L|116:312,1,80,10|0,0:0|0:0,0:0:0:0:
192,200,147182,1,0,0:0:0:0:
192,200,147353,1,0,0:0:0:0:
160,312,147524,6,0,L|81:278,1,80,10|0,0:0|0:0,0:0:0:0:
212,188,147867,1,0,0:0:0:0:
212,188,148039,1,0,0:0:0:0:
128,288,148210,6,0,L|61:235,1,80,10|0,0:0|0:0,0:0:0:0:
232,176,148553,1,0,0:0:0:0:
232,176,148724,1,0,0:0:0:0:
104,260,148896,6,0,L|53:192,1,80,10|0,0:0|0:0,0:0:0:0:
252,160,149239,1,0,0:0:0:0:
252,160,149410,1,0,0:0:0:0:
184,72,149582,6,0,P|228:16|336:16,1,160,14|0,0:0|0:0,0:0:0:0:
368,80,150096,2,0,L|464:64,2,80,0|10|0,0:0|0:0|0:0,0:0:0:0:
276,96,150610,2,0,P|296:136|328:160,1,80
448,160,150953,6,0,L|424:336,1,160,10|0,0:0|0:0,0:0:0:0:
328,288,151467,1,0,0:0:0:0:
216,336,151639,2,0,L|188:372,2,40,10|0|0,0:0|0:0|0:0,0:0:0:0:
144,236,151982,2,0,L|132:152,1,80
56,60,152324,5,10,0:0:0:0:
160,32,152496,2,0,L|240:64,2,80
224,168,153010,5,10,0:0:0:0:
120,140,153182,2,0,L|40:172,2,80
64,272,153696,5,10,0:0:0:0:
168,244,153868,2,0,L|248:276,2,80
228,368,154382,5,10,0:0:0:0:
124,340,154554,2,0,L|44:372,2,80
296,296,155067,6,0,L|312:128,1,160,14|0,0:0|0:0,0:0:0:0:
232,68,155582,1,0,0:0:0:0:
360,48,155753,2,0,P|400:48|440:72,1,80,10|0,0:0|0:0,0:0:0:0:
336,220,156095,2,0,P|296:220|256:196,1,80
456,172,156439,6,0,L|440:331,1,160,10|0,0:0|0:0,0:0:0:0:
328,308,156953,1,0,0:0:0:0:
308,320,157039,1,0,0:0:0:0:
288,332,157124,2,0,L|188:332,1,80,10|0,0:0|0:0,0:0:0:0:
72,268,157467,1,0,0:0:0:0:
72,268,157639,1,0,0:0:0:0:
88,140,157810,6,0,L|168:104,1,80,10|0,0:0|0:0,0:0:0:0:
240,156,158153,1,0,0:0:0:0:
319,64,158324,1,0,0:0:0:0:
155,23,158496,2,0,L|162:103,1,80,10|0,0:0|0:0,0:0:0:0:
246,235,158839,2,0,L|239:155,1,80
240,76,159182,6,0,L|320:64,1,80,14|0,0:0|0:0,0:0:0:0:
152,184,159524,2,0,L|72:196,1,80,14|0,0:0|0:0,0:0:0:0:
252,52,159867,6,0,L|332:40,1,80,14|0,0:0|0:0,0:0:0:0:
140,208,160210,2,0,L|60:220,1,80,14|0,0:0|0:0,0:0:0:0:
288,200,160553,6,8,L|460:224,2,160,10|10|10,0:0|0:0|0:0,0:0:0:0:
184,164,161582,6,0,L|144:148,1,40
120,224,161753,2,0,L|80:208,1,40
56,132,161924,6,0,L|24:92,7,40,12|0|0|0|0|0|0|0,0:0|0:0|0:0|0:0|0:0|0:0|0:0|0:0,0:0:0:0:
120,80,162610,2,0,L|88:40,7,40,8|0|0|0|0|0|0|0,0:0|0:0|0:0|0:0|0:0|0:0|0:0|0:0,0:0:0:0:
200,64,163296,6,0,L|201:12,7,40,8|0|0|0|0|0|0|0,0:0|0:0|0:0|0:0|0:0|0:0|0:0|0:0,0:0:0:0:
282,65,163982,2,0,L|283:13,7,40,8|0|0|0|0|0|0|0,0:0|0:0|0:0|0:0|0:0|0:0|0:0|0:0,0:0:0:0:
364,112,164667,6,0,L|339:143,7,40,8|0|0|0|0|0|0|0,0:0|0:0|0:0|0:0|0:0|0:0|0:0|0:0,0:0:0:0:
428,164,165353,2,0,L|403:195,7,40,8|0|0|0|0|0|0|0,0:0|0:0|0:0|0:0|0:0|0:0|0:0|0:0,0:0:0:0:
376,264,166039,6,0,L|374:315,7,40,8|0|0|0|0|0|0|0,0:0|0:0|0:0|0:0|0:0|0:0|0:0|0:0,0:0:0:0:
294,263,166725,2,0,L|292:314,7,40,8|0|0|0|0|0|0|0,0:0|0:0|0:0|0:0|0:0|0:0|0:0|0:0,0:0:0:0:
204,260,167410,6,0,L|156:260,3,40,12|0|0|0,0:0|0:0|0:0|0:0,0:0:0:0:
172,188,167753,2,0,L|124:188,3,40,8|0|0|0,0:0|0:0|0:0|0:0,0:0:0:0:
172,112,168096,6,0,L|220:112,3,40,8|0|0|0,0:0|0:0|0:0|0:0,0:0:0:0:
204,40,168439,2,0,L|252:40,3,40,8|0|0|0,0:0|0:0|0:0|0:0,0:0:0:0:
316,112,168782,6,0,L|316:64,3,40,8|0|0|0,0:0|0:0|0:0|0:0,0:0:0:0:
376,92,169124,2,0,L|376:44,3,40,8|0|0|0,0:0|0:0|0:0|0:0,0:0:0:0:
436,72,169467,6,0,L|436:24,3,40,8|0|0|0,0:0|0:0|0:0|0:0,0:0:0:0:
496,52,169809,2,0,L|496:4,3,40,8|0|0|0,0:0|0:0|0:0|0:0,0:0:0:0:
500,176,170153,6,0,L|500:224,3,40,8|0|0|0,0:0|0:0|0:0|0:0,0:0:0:0:
440,196,170495,2,0,L|440:244,3,40,8|0|0|0,0:0|0:0|0:0|0:0,0:0:0:0:
380,216,170838,6,0,L|380:264,3,40,8|0|0|0,0:0|0:0|0:0|0:0,0:0:0:0:
320,236,171180,2,0,L|320:284,3,40,8|0|0|0,0:0|0:0|0:0|0:0,0:0:0:0:
251,255,171524,6,0,L|172:244,1,80,8|8,0:0|0:0,0:0:0:0:
88,136,171867,2,0,L|168:148,1,80,8|8,0:0|0:0,0:0:0:0:
256,192,172210,5,8,0:0:0:0:
256,192,172296,1,8,0:0:0:0:
256,192,172382,1,8,0:0:0:0:
256,192,172467,1,8,0:0:0:0:
256,192,172553,1,8,0:0:0:0:
256,192,172639,1,8,0:0:0:0:
256,192,172724,1,8,0:0:0:0:
256,192,172810,1,8,0:0:0:0:
256,192,172896,1,4,0:0:0:0:
256,192,172982,12,0,174267,0:0:0:0:
152,280,174439,5,0,0:0:0:0:
144,264,174524,1,0,0:0:0:0:
136,248,174610,2,0,L|144:168,1,80,2|0,0:0|0:0,0:0:0:0:
256,84,174953,2,0,L|248:164,1,80,2|0,0:0|0:0,0:0:0:0:
152,280,175296,2,0,L|160:200,1,80,2|0,0:0|0:0,0:0:0:0:
256,84,175639,6,0,L|364:64,1,95.9999970703126,12|0,0:0|0:0,0:0:0:0:
508,148,175982,2,0,L|413:165,1,95.9999970703126,8|0,0:0|0:0,0:0:0:0:
290,272,176324,2,0,L|254:76,1,191.999994140625,8|0,0:0|0:0,0:0:0:0:
376,272,176839,6,0,P|356:324|220:320,1,191.999994140625,8|0,0:0|0:0,0:0:0:0:
336,196,177353,2,0,P|388:188|432:204,1,95.9999970703126,8|0,0:0|0:0,0:0:0:0:
416,348,177696,2,0,P|364:356|320:340,1,95.9999970703126,8|0,0:0|0:0,0:0:0:0:
212,280,178039,2,0,L|192:176,1,95.9999970703126,8|0,0:0|0:0,0:0:0:0:
108,88,178382,6,0,B|160:88|160:88|236:60|236:60|304:60,1,191.999994140625,12|0,0:0|0:0,0:0:0:0:
368,108,178896,1,8,0:0:0:0:
460,152,179067,1,8,0:0:0:0:
336,184,179239,1,8,0:0:0:0:
476,244,179410,1,8,0:0:0:0:
320,264,179582,1,8,0:0:0:0:
489,341,179753,6,0,L|458:145,1,191.999994140625,12|8,0:0|0:0,0:0:0:0:
368,108,180267,1,8,0:0:0:0:
260,168,180439,1,8,0:0:0:0:
396,236,180610,1,8,0:0:0:0:
284,84,180782,1,8,0:0:0:0:
304,256,180953,1,8,0:0:0:0:
440,140,181124,6,0,P|444:84|420:48,1,95.9999970703126,12|0,0:0|0:0,0:0:0:0:
232,28,181467,2,0,P|209:69|215:116,1,95.9999970703126,8|0,0:0|0:0,0:0:0:0:
304,256,181810,2,0,L|496:216,1,191.999994140625,8|0,0:0|0:0,0:0:0:0:
276,120,182324,6,0,B|276:180|276:180|220:228|220:228|220:296,1,191.999994140625,8|0,0:0|0:0,0:0:0:0:
304,256,182839,2,0,L|400:272,1,95.9999970703126,8|0,0:0|0:0,0:0:0:0:
184,152,183182,2,0,L|89:136,1,95.9999970703126,8|0,0:0|0:0,0:0:0:0:
32,64,183524,1,8,0:0:0:0:
128,28,183696,1,0,0:0:0:0:
184,152,183867,6,0,L|136:348,1,191.999994140625,12|0,0:0|0:0,0:0:0:0:
64,288,184382,1,8,0:0:0:0:
164,232,184553,1,8,0:0:0:0:
240,328,184724,1,8,0:0:0:0:
144,344,184896,1,8,0:0:0:0:
256,232,185067,1,8,0:0:0:0:
328,364,185239,6,0,L|360:212,1,143.999995605469,12|0,0:0|0:0,0:0:0:0:
408,144,185582,6,0,L|456:132,1,47.9999985351563,8|0,0:0|0:0,0:0:0:0:
308,144,185753,2,0,L|260:132,1,47.9999985351563,8|0,0:0|0:0,0:0:0:0:
420,72,185924,2,0,L|468:60,1,47.9999985351563,8|0,0:0|0:0,0:0:0:0:
296,72,186096,2,0,L|248:60,1,47.9999985351563,8|0,0:0|0:0,0:0:0:0:
128,48,186267,2,2,L|112:156,1,95.9999970703126,10|0,0:0|0:0,0:0:0:0:
44,260,186610,5,12,0:0:0:0:
144,312,186782,1,8,0:0:0:0:
172,196,186953,1,8,0:0:0:0:
36,176,187124,1,8,0:0:0:0:
68,352,187296,2,0,P|152:388|224:328,1,191.999994140625,8|0,0:0|0:0,0:0:0:0:
170,121,187810,6,0,L|142:321,1,191.999994140625,8|0,0:0|0:0,0:0:0:0:
320,272,188324,1,8,0:0:0:0:
156,232,188496,1,8,0:0:0:0:
288,172,188667,2,0,L|388:148,1,95.9999970703126,8|0,0:0|0:0,0:0:0:0:
404,144,188924,1,0,0:0:0:0:
428,136,189010,2,0,L|452:36,1,95.9999970703126,8|0,0:0|0:0,0:0:0:0:
348,60,189353,6,0,P|304:48|244:56,1,95.9999970703126,12|0,0:0|0:0,0:0:0:0:
360,236,189696,2,0,P|404:248|464:240,1,95.9999970703126,8|0,0:0|0:0,0:0:0:0:
260,148,190039,1,8,0:0:0:0:
220,288,190210,1,0,0:0:0:0:
312,324,190382,1,8,0:0:0:0:
180,208,190553,5,0,0:0:0:0:
184,192,190639,1,0,0:0:0:0:
188,176,190724,2,0,L|208:80,1,95.9999970703126,8|0,0:0|0:0,0:0:0:0:
316,20,191067,2,0,L|296:113,1,95.9999970703126,8|0,0:0|0:0,0:0:0:0:
180,208,191410,2,0,L|80:196,1,95.9999970703126,8|0,0:0|0:0,0:0:0:0:
136,76,191667,1,0,0:0:0:0:
135,75,191753,2,0,L|231:87,1,95.9999970703126,8|0,0:0|0:0,0:0:0:0:
336,144,192096,5,12,0:0:0:0:
396,232,192267,1,8,0:0:0:0:
416,88,192439,1,8,0:0:0:0:
300,232,192610,1,8,0:0:0:0:
472,176,192782,1,8,0:0:0:0:
320,56,192953,1,8,0:0:0:0:
244,136,193296,5,8,0:0:0:0:
300,232,193467,1,8,0:0:0:0:
356,100,193639,1,8,0:0:0:0:
208,224,193810,1,8,0:0:0:0:
360,304,193982,1,8,0:0:0:0:
356,100,194153,2,0,L|164:64,1,191.999994140625,8|0,0:0|0:0,0:0:0:0:
80,144,194667,1,0,0:0:0:0:
80,144,194753,1,0,0:0:0:0:
80,144,194839,6,0,L|92:272,1,120.000004577637,12|0,0:0|0:0,0:0:0:0:
168,228,195353,2,0,L|172:288,1,60.0000022888184,0|8,0:0|0:0,0:0:0:0:
252,272,195696,2,0,L|256:332,2,60.0000022888184,0|8|0,0:0|0:0|0:0,0:0:0:0:
328,236,196381,5,8,0:0:0:0:
340,236,196724,1,8,0:0:0:0:
352,236,197067,1,8,0:0:0:0:
368,236,197410,1,8,0:0:0:0:
384,236,197582,5,8,0:0:0:0:
256,240,197753,1,8,0:0:0:0:
420,236,197924,5,8,0:0:0:0:
424,220,198010,1,8,0:0:0:0:
428,204,198096,1,8,0:0:0:0:
432,188,198182,1,8,0:0:0:0:
436,172,198267,1,12,0:0:0:0:
504,124,198610,6,2,P|452:92|372:120,1,143.999995605469,14|2,0:0|0:0,0:0:0:0:
320,192,198953,6,0,L|312:240,1,47.9999985351563,4|0,0:0|0:0,0:0:0:0:
272,112,199124,2,0,L|224:88,1,47.9999985351563
136,48,199296,1,8,0:0:0:0:
60,176,199467,1,0,0:0:0:0:
60,176,199553,1,0,0:0:0:0:
60,176,199639,1,10,0:0:0:0:
132,288,199810,1,0,0:0:0:0:
180,160,199982,1,10,0:0:0:0:
32,300,200153,1,2,0:0:0:0:
168,376,200324,5,8,0:0:0:0:
192,368,200410,1,0,0:0:0:0:
216,364,200496,1,0,0:0:0:0:
240,356,200582,1,0,0:0:0:0:
264,352,200667,1,8,0:0:0:0:
344,216,200839,1,2,0:0:0:0:
360,376,201010,1,10,0:0:0:0:
264,264,201182,1,2,0:0:0:0:
452,348,201353,2,0,L|464:248,1,95.9999970703126,10|2,0:0|0:0,0:0:0:0:
480,180,201696,6,0,L|492:124,3,47.9999985351563,8|0|0|0,0:0|0:0|0:0|0:0,0:0:0:0:
416,132,202039,2,0,L|428:76,3,47.9999985351563,8|0|0|0,0:0|0:0|0:0|0:0,0:0:0:0:
348,96,202382,6,0,L|360:40,3,47.9999985351563,8|0|0|0,0:0|0:0|0:0|0:0,0:0:0:0:
284,48,202725,2,0,L|296:-8,3,47.9999985351563,8|0|0|0,0:0|0:0|0:0|0:0,0:0:0:0:
216,92,203067,6,0,L|120:120,1,95.9999970703126,8|0,0:0|0:0,0:0:0:0:
120,216,203410,1,8,0:0:0:0:
36,120,203582,1,0,0:0:0:0:
164,16,203753,6,0,L|220:100,1,95.9999970703126,10|10,0:0|0:0,0:0:0:0:
228,108,204010,1,0,0:0:0:0:
240,124,204096,2,0,L|296:208,1,95.9999970703126,10|0,0:0|0:0,0:0:0:0:
364,340,204439,5,8,0:0:0:0:
412,168,204610,1,8,0:0:0:0:
280,292,204782,1,8,0:0:0:0:
472,312,204953,2,0,L|496:100,2,191.999994140625,10|10|10,0:0|0:0|0:0,0:0:0:0:
376,244,205982,5,2,0:0:0:0:
280,292,206153,2,0,L|184:304,1,95.9999970703126,10|0,0:0|0:0,0:0:0:0:
72,228,206496,1,8,0:0:0:0:
128,132,206667,1,8,0:0:0:0:
128,132,206753,1,0,0:0:0:0:
128,132,206839,1,10,0:0:0:0:
124,328,207010,1,0,0:0:0:0:
16,296,207182,5,14,0:0:0:0:
200,208,207696,1,10,0:0:0:0:
8,100,208039,1,10,0:0:0:0:
204,32,208382,1,10,0:0:0:0:
32,204,208724,5,10,0:0:0:0:
276,116,209067,1,10,0:0:0:0:
112,276,209239,5,10,0:0:0:0:
100,144,209410,1,0,0:0:0:0:
92,24,209582,1,14,0:0:0:0:
