osu file format v14

[General]
AudioFilename: Children.mp3
AudioLeadIn: 0
PreviewTime: 50839
Countdown: 0
SampleSet: None
StackLeniency: 0.8
Mode: 0
LetterboxInBreaks: 1
WidescreenStoryboard: 0

[Editor]
Bookmarks: 11935,66792,171535
DistanceSpacing: 0.9
BeatDivisor: 3
GridSize: 4
TimelineZoom: 3.499999

[Metadata]
Title:Okochama Sensou
TitleUnicode:おこちゃま戦争
Artist:kradness&Reol
ArtistUnicode:kradness&れをる
Creator:Kalindraz
Version:Extreme
Source:
Tags:Giga-p Len Rin Kagamine Marianna TG Children's War Tarrasky Trynna Ataraxia Seto Net0 BR
BeatmapID:1219212
BeatmapSetID:155252

[Difficulty]
HPDrainRate:6
CircleSize:4
OverallDifficulty:8
ApproachRate:9.2
SliderMultiplier:1.4
SliderTickRate:1

[Events]
//Background and Video events
0,0,"BG.png",0,0
//Break Periods
2,72982,77697
//Storyboard Layer 0 (Background)
//Storyboard Layer 1 (Fail)
//Storyboard Layer 2 (Pass)
//Storyboard Layer 3 (Foreground)
//Storyboard Sound Samples

[TimingPoints]
5582,342.857142857143,4,1,3,50,1,0
12449,-83.3333333333333,4,1,2,64,0,0
17935,-100,4,1,0,45,0,0
20667,-100,4,1,3,68,0,0
22896,-100,4,3,0,75,0,0
23410,-76.9230769230769,4,1,3,67,0,0
33867,-76.9230769230769,4,3,0,73,0,0
34382,-66.6666666666667,4,1,3,67,0,0
39524,-62.5,4,1,0,74,0,0
39867,-71.4285714285714,4,1,3,50,0,0
41067,-76.9230769230769,4,1,3,50,0,0
44839,-76.9230769230769,4,3,0,69,0,0
45353,-200,4,1,3,50,0,0
50839,-66.6666666666667,4,1,3,66,0,1
50924,-66.6666666666667,4,1,2,66,0,1
53582,-125,4,3,0,66,0,0
56324,-66.6666666666667,4,1,3,66,0,1
56410,-66.6666666666667,4,1,2,66,0,1
59067,-125,4,3,0,66,0,0
61810,-66.6666666666667,4,1,3,66,0,1
61896,-66.6666666666667,4,1,2,66,0,1
67296,-66.6666666666667,4,1,3,66,0,1
70039,-200,4,1,3,57,0,0
72267,-52.6315789473684,4,1,0,59,0,0
72782,-100,4,1,3,75,0,1
72824,-100,4,1,0,59,0,0
78267,-100,4,1,3,63,0,0
81010,-66.6666666666667,4,2,0,63,0,0
83753,-100,4,1,3,61,0,0
86496,-66.6666666666667,4,2,0,62,0,0
88896,-66.6666666666667,4,1,3,62,0,0
89239,-100,4,1,3,62,0,0
91982,-76.9230769230769,4,2,0,62,0,0
94724,-76.9230769230769,4,1,3,62,0,0
100210,-200,4,1,3,66,0,0
105696,-71.4285714285714,4,1,3,66,0,1
105782,-71.4285714285714,4,1,2,66,0,1
108439,-133.333333333333,4,3,0,66,0,0
111182,-66.6666666666667,4,1,3,66,0,1
111267,-66.6666666666667,4,1,2,66,0,1
113924,-133.333333333333,4,3,0,69,0,0
116667,-71.4285714285714,4,1,3,66,0,1
116753,-71.4285714285714,4,1,2,66,0,1
122153,-71.4285714285714,4,1,3,66,0,1
123867,-71.4285714285714,4,1,2,66,0,1
124553,-71.4285714285714,4,1,3,66,0,1
124896,-200,4,1,3,66,0,0
127124,-71.4285714285714,4,1,3,66,0,0
127639,-58.8235294117647,4,1,3,66,0,1
127682,-66.6666666666667,4,1,3,66,0,0
129524,-55.5555555555556,4,1,3,66,0,0
129867,-60.6060606060606,4,1,3,66,0,0
130896,-60.6060606060606,4,1,3,66,0,0
133124,-181.818181818182,4,1,3,66,0,0
133467,-60.6060606060606,4,1,3,66,0,0
134496,-80,4,1,3,66,0,0
134839,-79.9999999999999,4,1,3,66,0,0
138610,-125,4,1,2,66,0,0
138953,-125,4,1,2,83,0,0
139296,-125,4,1,2,51,0,0
139982,-125,4,1,2,83,0,0
140153,-125,4,1,2,51,0,0
140496,-125,4,1,2,83,0,0
140667,-125,4,1,2,51,0,0
141353,-125,4,1,2,83,0,0
141439,-125,4,1,2,51,0,0
142724,-125,4,1,2,83,0,0
142810,-125,4,1,2,51,0,0
144096,-125,4,1,2,83,0,0
144267,-125,4,1,2,51,0,0
145296,-125,4,1,2,83,0,0
145467,-125,4,1,2,50,0,0
146839,-125,4,1,2,83,0,0
147010,-125,4,1,2,51,0,0
148210,-125,4,1,2,83,0,0
148382,-125,4,1,2,52,0,0
149582,-125,4,1,2,81,0,0
149924,-125,4,1,2,51,0,0
150096,-125,4,1,2,81,0,0
150439,-125,4,1,2,51,0,0
150953,-125,4,1,2,81,0,0
151124,-125,4,1,2,51,0,0
152324,-125,4,1,2,81,0,0
152496,-125,4,1,2,51,0,0
153696,-125,4,1,2,81,0,0
153867,-125,4,1,2,51,0,0
155067,-125,4,1,2,81,0,0
155153,-125,4,1,2,51,0,0
156439,-125,4,1,2,81,0,0
156524,-125,4,1,2,51,0,0
157810,-125,4,1,2,81,0,0
157982,-125,4,1,2,51,0,0
159182,-125,4,1,2,73,0,0
161582,-50,4,1,0,66,0,0
161924,-66.6666666666667,4,1,3,70,0,0
167067,-50,4,1,3,70,0,0
167410,-58.8235294117647,4,1,3,70,0,0
171182,-50,4,1,3,70,0,0
171535,-66.6666666666667,4,1,3,70,0,0
172896,-200,4,1,3,70,0,0
174267,-200,4,2,0,5,0,0
174439,-200,4,1,3,67,0,0
175639,-100,4,1,3,70,0,1
175724,-100,4,1,2,70,0,1
178382,-100,4,3,0,70,0,1
179753,-66.6666666666667,4,1,2,70,0,1
180096,-66.6666666666667,4,3,0,70,0,1
180439,-66.6666666666667,4,1,2,70,0,1
180610,-66.6666666666667,4,3,0,70,0,1
181124,-66.6666666666667,4,1,3,70,0,1
181296,-66.6666666666667,4,1,2,70,0,1
183867,-66.6666666666667,4,1,3,70,0,1
184210,-66.6666666666667,4,3,0,70,0,1
185239,-66.6666666666667,4,1,3,70,0,1
186267,-66.6666666666667,4,1,2,70,0,1
186610,-58.8235294117647,4,1,3,70,0,1
187039,-58.8235294117647,4,2,0,5,0,1
187124,-58.8235294117647,4,1,3,70,0,1
187210,-58.8235294117647,4,2,0,5,0,1
187296,-58.8235294117647,4,1,3,70,0,1
188582,-58.8235294117647,4,2,0,5,0,1
188667,-58.8235294117647,4,1,3,70,0,1
188753,-58.8235294117647,4,2,0,5,0,1
188839,-58.8235294117647,4,1,3,70,0,1
190553,-58.8235294117647,4,1,2,70,0,1
191753,-133.333333333333,4,1,2,70,0,1
192096,-66.6666666666667,4,1,3,77,0,1
194839,-125,4,1,3,70,0,0
196210,-100,4,1,3,70,0,0
198267,-200,4,1,3,70,0,0
198524,-200,4,2,3,5,0,0
198610,-50,4,1,3,70,0,0
198953,-100,4,1,3,70,0,1
204439,-100,4,1,3,70,0,0

[Colours]
Combo1 : 185,0,185
Combo2 : 255,128,64
Combo3 : 255,255,0
Combo4 : 190,190,190
Combo5 : 255,0,0
Combo6 : 128,0,0

[HitObjects]
144,120,6953,6,0,L|208:72|208:72,1,70,8|0,0:0|0:0,0:0:0:0:
320,16,7296,1,8,0:0:0:0:
408,216,7467,2,0,P|440:144|416:80,2,140,8|8|8,0:0|0:0|0:0,0:0:0:0:
312,248,8324,1,8,0:0:0:0:
232,184,8496,6,0,L|156:205,1,70
192,352,8839,1,0,0:0:0:0:
88,160,9010,1,8,0:0:0:0:
96,368,9182,1,8,0:0:0:0:
96,368,9267,1,0,0:0:0:0:
96,368,9353,1,8,0:0:0:0:
288,352,9524,1,0,0:0:0:0:
384,344,9696,6,0,L|408:272,1,70,8|0,0:0|0:0,0:0:0:0:
440,188,10039,1,0,0:0:0:0:
480,96,10210,1,8,0:0:0:0:
240,312,10553,1,8,0:0:0:0:
496,260,10896,1,8,0:0:0:0:
240,176,11239,5,8,0:0:0:0:
368,248,11410,1,8,0:0:0:0:
496,168,11582,1,0,0:0:0:0:
384,336,11753,2,0,L|376:288,1,35,8|0,0:0|0:0,0:0:0:0:
360,192,11924,2,0,L|352:144,1,35,8|0,0:0|0:0,0:0:0:0:
336,48,12096,1,8,0:0:0:0:
176,56,12439,5,10,0:0:0:0:
128,72,12553,1,0,0:0:0:0:
96,112,12667,1,0,0:0:0:0:
88,160,12782,1,0,0:0:0:0:
28,220,13124,2,0,P|96:244|164:184,1,167.999994873047,10|10,0:0|0:0,0:0:0:0:
248,144,13696,53,0,0:0:0:0:
296,136,13810,1,8,0:0:0:0:
344,152,13924,1,0,0:0:0:0:
380,188,14039,1,0,0:0:0:0:
392,240,14153,1,0,0:0:0:0:
468,264,14496,2,0,P|409:319|332:297,1,167.999994873047,10|10,0:0|0:0,0:0:0:0:
217,318,15182,21,8,0:0:0:0:
168,312,15296,1,0,0:0:0:0:
126,283,15410,1,0,0:0:0:0:
104,240,15524,1,0,0:0:0:0:
0,224,15867,2,0,P|40:152|136:144,1,167.999994873047,10|10,0:0|0:0,0:0:0:0:
416,216,16439,53,0,0:0:0:0:
424,168,16553,1,8,0:0:0:0:
408,120,16667,1,0,0:0:0:0:
372,88,16782,1,0,0:0:0:0:
328,76,16896,1,0,0:0:0:0:
248,8,17239,2,0,P|216:64|272:160,1,167.999994873047,10|10,0:0|0:0,0:0:0:0:
344,312,17924,5,4,0:0:0:0:
168,72,18610,1,4,0:0:0:0:
472,248,19296,5,4,0:0:0:0:
40,136,19982,1,4,0:0:0:0:
344,312,20667,5,12,0:0:0:0:
108,52,21010,53,8,0:0:0:0:
108,52,21124,1,0,0:0:0:0:
108,52,21239,1,0,0:0:0:0:
108,52,21353,1,12,0:0:0:0:
404,52,21696,21,8,0:0:0:0:
404,52,21810,1,0,0:0:0:0:
404,52,21924,1,0,0:0:0:0:
404,52,22039,1,12,0:0:0:0:
312,336,22382,21,0,0:0:0:0:
352,208,22553,1,0,0:0:0:0:
424,360,22724,1,0,0:0:0:0:
432,160,22896,1,8,0:0:0:0:
432,160,23067,1,12,0:0:0:0:
432,160,23239,1,14,0:0:0:0:
496,64,23410,70,0,P|400:56|320:120,1,181.999991668702,12|0,0:0|0:0,0:0:0:0:
180,102,23924,2,0,P|104:54|16:64,1,181.999991668702,8|0,0:0|0:0,0:0:0:0:
80,160,24439,1,0,0:0:0:0:
112,340,24610,1,0,0:0:0:0:
36,248,24782,2,0,P|80:260|124:248,1,90.9999958343508,8|0,0:0|0:0,0:0:0:0:
144,232,25039,1,0,0:0:0:0:
144,232,25124,1,0,0:0:0:0:
264,160,25296,2,0,P|272:204|260:248,1,90.9999958343508,0|8,0:0|0:0,0:0:0:0:
384,336,25639,5,0,0:0:0:0:
464,192,25810,1,0,0:0:0:0:
384,48,25982,1,0,0:0:0:0:
208,48,26153,69,8,0:0:0:0:
208,48,26239,1,0,0:0:0:0:
208,48,26324,1,0,0:0:0:0:
80,120,26496,1,8,0:0:0:0:
80,120,26582,1,0,0:0:0:0:
80,120,26667,1,0,0:0:0:0:
80,264,26839,1,8,0:0:0:0:
80,264,26924,1,0,0:0:0:0:
80,264,27010,1,0,0:0:0:0:
192,360,27182,1,8,0:0:0:0:
352,336,27353,1,0,0:0:0:0:
376,200,27524,6,0,P|416:224|432:272,1,90.9999958343508,8|0,0:0|0:0,0:0:0:0:
256,288,27867,2,0,P|216:264|200:216,1,90.9999958343508
272,80,28210,1,8,0:0:0:0:
420,116,28382,1,0,0:0:0:0:
360,16,28553,2,0,L|340:136,1,90.9999958343508,10|0,0:0|0:0,0:0:0:0:
320,288,28896,70,0,P|368:344|472:336,1,181.999991668702,12|0,0:0|0:0,0:0:0:0:
256,216,29410,1,8,0:0:0:0:
42,337,29753,2,0,P|129:350|192:288,1,181.999991668702,8|8,0:0|0:0,0:0:0:0:
256,136,30439,1,8,0:0:0:0:
344,72,30782,5,8,0:0:0:0:
376,272,30953,1,8,0:0:0:0:
464,176,31124,1,8,0:0:0:0:
272,240,31296,2,0,L|176:288,1,90.9999958343508,8|0,0:0|0:0,0:0:0:0:
32,256,31639,69,10,0:0:0:0:
32,256,31724,1,0,0:0:0:0:
32,256,31810,1,0,0:0:0:0:
128,144,31982,1,10,0:0:0:0:
128,144,32067,1,0,0:0:0:0:
128,144,32153,1,0,0:0:0:0:
32,256,32324,5,10,0:0:0:0:
208,328,32496,1,0,0:0:0:0:
128,144,32667,1,2,0:0:0:0:
128,280,32839,1,2,0:0:0:0:
296,336,33010,70,0,L|336:248,1,90.9999958343508,10|0,0:0|0:0,0:0:0:0:
128,280,33353,2,0,L|90:362,1,90.9999958343508,2|0,0:0|0:0,0:0:0:0:
232,200,33696,1,10,0:0:0:0:
312,96,33867,1,4,0:0:0:0:
376,208,34039,1,10,0:0:0:0:
224,112,34210,1,14,0:0:0:0:
400,296,34382,54,0,P|464:208|400:120,1,210.000008010865,12|0,0:0|0:0,0:0:0:0:
256,32,34896,1,0,0:0:0:0:
128,168,35067,1,8,0:0:0:0:
168,72,35239,1,0,0:0:0:0:
168,272,35410,1,8,0:0:0:0:
80,296,35582,2,0,P|168:360|256:296,1,210.000008010865,8|2,0:0|0:0,0:0:0:0:
328,256,36010,5,2,0:0:0:0:
328,256,36096,2,0,L|416:200,1,105.000004005432,8|0,0:0|0:0,0:0:0:0:
384,344,36439,1,0,0:0:0:0:
336,144,36610,1,0,0:0:0:0:
472,288,36782,1,8,0:0:0:0:
272,344,36953,2,0,P|184:368|136:264,1,210.000008010865,8|10,0:0|0:0,0:0:0:0:
184,128,37467,5,10,0:0:0:0:
408,80,37810,1,8,0:0:0:0:
340,248,37982,2,0,L|308:144,1,105.000004005432,0|8,0:0|0:0,0:0:0:0:
232,32,38324,1,8,0:0:0:0:
424,184,38496,1,8,0:0:0:0:
232,224,38667,1,8,0:0:0:0:
336,8,38839,1,8,0:0:0:0:
272,304,39010,2,8,P|224:328|160:320,1,105.000004005432
72,208,39353,1,8,0:0:0:0:
44,172,39439,1,0,0:0:0:0:
16,136,39524,6,2,P|80:112|160:168,1,168,6|0,0:0|0:0,0:0:0:0:
192,88,39867,6,2,B|247:70|247:70|320:120|376:56|376:56,1,195.999994018555,14|0,0:0|0:0,0:0:0:0:
296,176,40382,1,0,0:0:0:0:
384,256,40553,2,2,B|328:273|328:273|256:224|200:288|200:288,1,195.999994018555,10|0,0:0|0:0,0:0:0:0:
264,376,41067,6,0,L|272:328,1,45.4999979171754
296,176,41239,1,8,0:0:0:0:
384,160,41410,2,0,P|408:128|392:80,1,90.9999958343508
304,32,41753,1,8,0:0:0:0:
120,208,42096,1,8,0:0:0:0:
368,272,42439,2,0,L|352:176,1,90.9999958343508,10|10,0:0|0:0,0:0:0:0:
120,96,42953,5,10,0:0:0:0:
216,24,43124,1,10,0:0:0:0:
120,328,43467,1,10,0:0:0:0:
448,248,43810,1,10,0:0:0:0:
432,160,43982,5,8,0:0:0:0:
296,136,44153,1,10,0:0:0:0:
496,88,44324,1,8,0:0:0:0:
256,64,44496,1,10,0:0:0:0:
328,216,44667,5,2,0:0:0:0:
384,40,44839,2,0,L|392:96,1,45.4999979171754,10|8,0:0|0:0,0:0:0:0:
416,248,45010,1,14,0:0:0:0:
336,344,45353,6,0,P|320:312|320:272,1,70,8|0,0:0|0:0,0:0:0:0:
352,200,45867,1,0,0:0:0:0:
400,124,46039,2,0,P|376:92|340:80,1,70,8|0,0:0|0:0,0:0:0:0:
256,72,46553,1,0,0:0:0:0:
256,72,46639,1,0,0:0:0:0:
256,72,46724,1,8,0:0:0:0:
184,128,46896,6,0,L|192:176,1,35
264,184,47239,2,0,L|294:221,1,35,0|8,0:0|0:0,0:0:0:0:
360,200,47582,2,0,L|405:217,2,35
192,344,48096,69,12,0:0:0:0:
336,296,48439,1,8,0:0:0:0:
136,232,48782,1,8,0:0:0:0:
400,184,49124,1,8,0:0:0:0:
80,120,49467,1,8,0:0:0:0:
256,280,49639,5,8,0:0:0:0:
288,252,49724,1,0,0:0:0:0:
320,220,49810,1,8,0:0:0:0:
232,192,49982,1,8,0:0:0:0:
320,128,50153,1,8,0:0:0:0:
184,88,50324,1,8,0:0:0:0:
376,48,50496,1,8,0:0:0:0:
120,16,50667,1,8,0:0:0:0:
40,176,50839,5,12,0:0:0:0:
136,304,51010,1,0,0:0:0:0:
176,144,51182,1,0,0:0:0:0:
48,272,51353,1,0,0:0:0:0:
120,56,51524,2,0,B|216:8|224:88|328:40,1,210.000008010865,8|0,0:0|0:0,0:0:0:0:
488,216,52039,6,0,B|392:264|384:184|280:232,1,210.000008010865,8|0,0:0|0:0,0:0:0:0:
56,356,52553,2,0,P|24:304|28:256,1,105.000004005432,8|0,0:0|0:0,0:0:0:0:
176,120,52896,1,8,0:0:0:0:
168,240,53067,1,0,0:0:0:0:
240,72,53239,1,0,0:0:0:0:
104,288,53410,1,8,0:0:0:0:
168,344,53582,6,0,L|232:320|232:320,1,56,12|0,0:0|0:0,0:0:0:0:
288,264,53924,1,10,0:0:0:0:
376,160,54096,1,2,0:0:0:0:
384,336,54267,1,10,0:0:0:0:
288,176,54439,1,2,0:0:0:0:
464,288,54610,1,10,0:0:0:0:
296,352,54782,1,2,0:0:0:0:
448,200,54953,6,0,L|488:160,1,56,6|0,0:0|0:0,0:0:0:0:
440,80,55296,1,10,0:0:0:0:
320,88,55467,1,8,0:0:0:0:
384,152,55639,1,10,0:0:0:0:
376,16,55810,1,8,0:0:0:0:
288,176,55982,1,10,0:0:0:0:
480,160,56153,1,8,0:0:0:0:
448,280,56324,6,0,L|396:256,1,52.5000020027161,12|0,0:0|0:0,0:0:0:0:
352,360,56496,2,0,L|400:380,1,52.5000020027161
296,280,56667,1,8,0:0:0:0:
208,240,56839,1,0,0:0:0:0:
376,224,57010,2,0,B|416:192|400:144|400:144|400:96|400:96|368:72|368:32,1,210.000008010865,8|0,0:0|0:0,0:0:0:0:
144,152,57524,70,0,B|104:184|120:232|120:232|120:280|120:280|152:304|152:344,1,210.000008010865,8|0,0:0|0:0,0:0:0:0:
304,352,58039,1,8,0:0:0:0:
344,192,58210,1,0,0:0:0:0:
424,320,58382,1,8,0:0:0:0:
344,192,58553,1,0,0:0:0:0:
424,64,58724,1,8,0:0:0:0:
504,192,58896,1,0,0:0:0:0:
288,264,59067,6,0,L|208:248,1,56,6|0,0:0|0:0,0:0:0:0:
128,160,59410,1,10,0:0:0:0:
104,320,59582,1,0,0:0:0:0:
224,176,59753,1,10,0:0:0:0:
56,232,59924,1,2,0:0:0:0:
112,64,60096,1,10,0:0:0:0:
208,280,60267,1,2,0:0:0:0:
216,72,60439,6,0,L|288:48,1,56,6|0,0:0|0:0,0:0:0:0:
352,80,60782,1,10,0:0:0:0:
424,192,60953,1,8,0:0:0:0:
312,168,61124,1,10,0:0:0:0:
440,80,61296,1,0,0:0:0:0:
344,256,61467,1,10,0:0:0:0:
496,144,61639,1,8,0:0:0:0:
256,96,61810,6,0,L|192:112,1,52.5000020027161,12|0,0:0|0:0,0:0:0:0:
216,192,61982,2,0,L|158:224,1,52.5000020027161
224,296,62153,1,8,0:0:0:0:
352,352,62324,1,0,0:0:0:0:
472,296,62496,1,8,0:0:0:0:
416,184,62667,1,8,0:0:0:0:
264,384,63010,5,12,0:0:0:0:
496,216,63353,1,8,0:0:0:0:
336,120,63524,1,8,0:0:0:0:
368,264,63696,1,8,0:0:0:0:
456,96,63867,1,8,0:0:0:0:
288,208,64039,1,8,0:0:0:0:
112,32,64382,5,12,0:0:0:0:
120,240,64724,2,0,P|88:288|96:336,1,105.000004005432,0|8,0:0|0:0,0:0:0:0:
152,123,65067,2,0,P|94:114|54:141,1,105.000004005432,0|8,0:0|0:0,0:0:0:0:
256,80,65410,2,0,P|239:24|197:0,1,105.000004005432,0|8,0:0|0:0,0:0:0:0:
368,136,65753,6,0,P|411:97|416:49,1,105.000004005432,10|0,0:0|0:0,0:0:0:0:
256,296,66096,2,0,P|267:352|306:380,1,105.000004005432,10|0,0:0|0:0,0:0:0:0:
152,123,66439,2,0,P|97:105|53:125,1,105.000004005432,10|0,0:0|0:0,0:0:0:0:
112,232,66782,2,0,L|168:248,1,52.5000020027161,10|0,0:0|0:0,0:0:0:0:
290,182,66953,2,0,L|240:168,1,52.5000020027161,8|0,0:0|0:0,0:0:0:0:
168,356,67124,2,0,L|218:370,1,52.5000020027161,8|0,0:0|0:0,0:0:0:0:
344,344,67296,6,0,L|400:128|400:128,1,210.000008010865,12|0,0:0|0:0,0:0:0:0:
320,64,67810,2,0,P|280:40|208:48,1,105.000004005432,0|8,0:0|0:0,0:0:0:0:
328,200,68153,2,0,P|368:224|440:216,1,105.000004005432
256,136,68496,2,0,B|204:248|300:248|256:336,1,210.000008010865,8|0,0:0|0:0,0:0:0:0:
408,336,69010,6,0,L|464:336,2,52.5000020027161,8|0|0,0:0|0:0|0:0,0:0:0:0:
104,336,69353,2,0,L|48:336,2,52.5000020027161,8|0|0,0:0|0:0|0:0,0:0:0:0:
336,296,69696,5,8,0:0:0:0:
176,296,69867,1,8,0:0:0:0:
256,240,70039,6,0,L|256:160,1,70,12|0,0:0|0:0,0:0:0:0:
168,144,70553,5,0,0:0:0:0:
344,144,70724,1,8,0:0:0:0:
208,96,70896,1,0,0:0:0:0:
304,96,71067,1,8,0:0:0:0:
256,56,71239,1,0,0:0:0:0:
256,280,71410,5,8,0:0:0:0:
173,220,71582,1,8,0:0:0:0:
205,121,71753,1,8,0:0:0:0:
308,121,71924,1,8,0:0:0:0:
340,220,72096,1,8,0:0:0:0:
356,112,72267,6,0,L|436:127,2,66.4999982242585,2|0|2,0:0|0:0|0:0,0:0:0:0:
128,232,72610,1,2,0:0:0:0:
384,232,72782,5,12,0:0:0:0:
188,204,78267,6,0,L|204:104,1,93.3333333333333,12|0,0:0|0:0,0:0:0:0:
292,48,78610,2,0,L|296:0,2,46.6666666666667
324,152,78953,2,0,P|376:160|420:144,1,93.3333333333333,8|0,0:0|0:0,0:0:0:0:
488,104,79296,2,0,L|484:156,1,46.6666666666667
468,268,79524,1,0,0:0:0:0:
468,268,79639,6,0,B|428:256|428:256|364:268,1,93.3333333333333,8|0,0:0|0:0,0:0:0:0:
268,304,79982,2,0,P|260:279|260:252,2,46.6666666666667
374,356,80324,2,0,B|386:312|386:312|374:252,1,93.3333333333333,8|0,0:0|0:0,0:0:0:0:
324,152,80667,2,0,P|320:124|324:100,2,46.6666666666667,8|0|0,0:0|0:0|0:0,0:0:0:0:
72,64,81010,6,0,P|84:36|108:20,1,52.5000020027161,2|0,0:0|0:0,0:0:0:0:
104,160,81182,2,0,P|92:188|68:204,1,52.5000020027161
88,56,81353,6,0,P|105:31|132:20,1,52.5000020027161,2|0,0:0|0:0,0:0:0:0:
88,168,81524,2,0,P|70:192|43:203,1,52.5000020027161
208,64,81696,6,0,P|234:48|262:49,3,52.5000020027161,2|2|0|0,0:0|0:0|0:0|0:0,0:0:0:0:
208,208,82039,2,0,P|181:223|153:222,3,52.5000020027161,2|2|0|0,0:0|0:0|0:0|0:0,0:0:0:0:
296,192,82382,6,0,L|320:248,1,52.5000020027161,2|0,0:0|0:0,0:0:0:0:
384,200,82553,2,0,L|408:256,1,52.5000020027161,2|0,0:0|0:0,0:0:0:0:
496,136,82724,6,0,L|472:80,1,52.5000020027161,2|0,0:0|0:0,0:0:0:0:
408,128,82896,2,0,L|384:72,1,52.5000020027161,2|0,0:0|0:0,0:0:0:0:
303,64,83067,6,0,P|276:48|248:49,3,52.5000020027161,2|0|2|0,0:0|0:0|0:0|0:0,0:0:0:0:
160,88,83410,2,0,P|138:109|131:137,1,52.5000020027161,2|0,0:0|0:0,0:0:0:0:
131,254,83582,2,0,P|140:278|160:296,1,52.5000020027161,2|0,0:0|0:0,0:0:0:0:
288,312,83753,6,0,L|336:296,1,35,10|0,0:0|0:0,0:0:0:0:
384,200,83924,1,2,0:0:0:0:
440,336,84096,1,2,0:0:0:0:
488,240,84267,6,0,L|454:251,1,35
360,352,84439,1,10,0:0:0:0:
304,224,84610,1,2,0:0:0:0:
456,152,84782,2,0,P|440:128|400:104,1,70,0|2,0:0|0:0,0:0:0:0:
288,40,85124,2,0,L|272:72,1,35,10|0,0:0|0:0,0:0:0:0:
320,144,85296,2,0,L|336:112,1,35,2|0,0:0|0:0,0:0:0:0:
272,16,85467,6,0,L|256:48,1,35,2|0,0:0|0:0,0:0:0:0:
208,152,85639,1,2,0:0:0:0:
143,93,85810,2,0,L|111:157,1,70,10|0,0:0|0:0,0:0:0:0:
112,156,86067,1,0,0:0:0:0:
112,156,86153,1,10,0:0:0:0:
24,264,86496,6,0,P|48:272|76:264,1,52.5000020027161,2|0,0:0|0:0,0:0:0:0:
224,232,86667,2,0,P|200:224|172:232,1,52.5000020027161,2|0,0:0|0:0,0:0:0:0:
136,328,86839,2,0,P|176:360|232:360,1,105.000004005432,2|0,0:0|0:0,0:0:0:0:
312,336,87182,5,2,0:0:0:0:
312,336,87267,1,0,0:0:0:0:
312,336,87353,1,2,0:0:0:0:
312,336,87439,2,0,L|368:320,1,52.5000020027161,0|2,0:0|0:0,0:0:0:0:
448,272,87696,1,2,0:0:0:0:
376,200,87867,6,0,P|382:174|374:150,1,52.5000020027161,2|0,0:0|0:0,0:0:0:0:
280,200,88039,2,0,P|273:174|281:150,1,52.5000020027161,2|0,0:0|0:0,0:0:0:0:
392,176,88210,6,0,P|414:162|426:139,1,52.5000020027161,2|0,0:0|0:0,0:0:0:0:
264,176,88382,2,0,P|241:162|229:139,1,52.5000020027161,2|0,0:0|0:0,0:0:0:0:
416,160,88553,6,0,P|441:166|465:158,1,52.5000020027161,2|0,0:0|0:0,0:0:0:0:
240,160,88724,2,0,P|214:166|190:158,1,52.5000020027161,2|0,0:0|0:0,0:0:0:0:
328,144,88896,2,2,B|328:112|328:112|320:96|320:96|328:80|328:80|336:64|336:64|328:48|328:48|328:64|328:64|328:32|328:32|328:8,1,157.500006008148,2|10,0:0|0:0,0:0:0:0:
232,32,89239,6,0,L|192:32,1,35,10|0,0:0|0:0,0:0:0:0:
152,96,89410,2,0,L|112:96,1,35
104,184,89582,1,10,0:0:0:0:
186,256,89753,1,0,0:0:0:0:
24,256,89924,1,10,0:0:0:0:
208,264,90096,1,2,0:0:0:0:
8,240,90267,2,0,L|80:224,1,70,10|0,0:0|0:0,0:0:0:0:
216,176,90610,6,0,L|224:216,1,35,10|0,0:0|0:0,0:0:0:0:
312,272,90782,2,0,L|306:238,1,35,2|0,0:0|0:0,0:0:0:0:
336,136,90953,1,2,0:0:0:0:
408,48,91124,1,0,0:0:0:0:
464,160,91296,2,0,L|486:236,1,70,10|2,0:0|0:0,0:0:0:0:
483,227,91553,1,0,0:0:0:0:
483,227,91639,1,10,0:0:0:0:
416,344,91810,1,10,0:0:0:0:
312,272,91982,6,0,P|288:264|256:264,1,45.4999979171754,2|0,0:0|0:0,0:0:0:0:
160,248,92153,2,0,P|134:248|104:259,1,45.4999979171754
200,360,92324,6,0,P|208:335|208:303,1,45.4999979171754,2|0,0:0|0:0,0:0:0:0:
224,184,92496,1,2,0:0:0:0:
344,120,92667,1,2,0:0:0:0:
200,192,92839,1,2,0:0:0:0:
340,92,93010,2,0,P|362:94|383:102,2,45.4999979171754,2|0|2,0:0|0:0|0:0,0:0:0:0:
136,120,93353,69,2,0:0:0:0:
136,120,93439,1,0,0:0:0:0:
136,120,93524,1,2,0:0:0:0:
136,120,93610,1,0,0:0:0:0:
136,120,93696,1,2,0:0:0:0:
64,40,93867,1,2,0:0:0:0:
240,128,94039,1,10,0:0:0:0:
64,208,94210,1,2,0:0:0:0:
184,32,94382,1,2,0:0:0:0:
328,96,94724,6,0,P|328:152|304:192,1,90.9999958343508,8|0,0:0|0:0,0:0:0:0:
224,288,95067,1,0,0:0:0:0:
224,288,95153,1,0,0:0:0:0:
224,288,95239,1,0,0:0:0:0:
224,288,95324,1,0,0:0:0:0:
224,288,95410,6,0,L|272:296,1,45.4999979171754,8|0,0:0|0:0,0:0:0:0:
400,320,95582,1,0,0:0:0:0:
312,184,95753,1,0,0:0:0:0:
416,80,95924,1,0,0:0:0:0:
408,224,96096,21,8,0:0:0:0:
224,344,96439,1,0,0:0:0:0:
104,160,96782,1,8,0:0:0:0:
288,40,97124,1,0,0:0:0:0:
448,72,97467,6,0,L|384:144,1,90.9999958343508,14|0,0:0|0:0,0:0:0:0:
328,208,97810,1,0,0:0:0:0:
344,64,97982,6,0,L|280:136,1,90.9999958343508,10|0,0:0|0:0,0:0:0:0:
192,240,98324,1,0,0:0:0:0:
240,56,98496,6,0,L|176:128,1,90.9999958343508,10|0,0:0|0:0,0:0:0:0:
56,272,98839,1,14,0:0:0:0:
56,272,99010,6,0,L|112:272,1,45.4999979171754
176,312,99182,2,0,L|232:312,1,45.4999979171754,14|0,0:0|0:0,0:0:0:0:
328,336,99353,5,0,0:0:0:0:
328,336,99439,1,0,0:0:0:0:
328,336,99524,1,8,0:0:0:0:
328,336,99610,1,0,0:0:0:0:
328,336,99696,1,0,0:0:0:0:
344,176,99867,1,10,0:0:0:0:
96,80,100210,6,0,L|168:80,1,70,14|8,0:0|0:0,0:0:0:0:
248,152,100724,1,0,0:0:0:0:
96,232,100896,2,0,L|168:232,1,70,10|8,0:0|0:0,0:0:0:0:
248,152,101410,69,0,0:0:0:0:
248,152,101582,2,0,L|248:192,1,35,10|0,0:0|0:0,0:0:0:0:
336,224,101924,2,0,L|336:272,1,35,10|0,0:0|0:0,0:0:0:0:
312,344,102267,5,10,0:0:0:0:
240,288,102439,1,10,0:0:0:0:
168,344,102610,1,10,0:0:0:0:
104,288,102782,1,10,0:0:0:0:
160,208,102953,69,14,0:0:0:0:
240,96,103296,1,0,0:0:0:0:
352,176,103639,2,0,L|328:208,1,35,8|2,0:0|0:0,0:0:0:0:
272,288,103982,1,8,0:0:0:0:
152,112,104324,1,14,0:0:0:0:
208,240,104496,5,0,0:0:0:0:
208,240,104582,1,0,0:0:0:0:
208,240,104667,1,8,0:0:0:0:
320,352,104839,1,8,0:0:0:0:
344,168,105010,1,12,0:0:0:0:
272,288,105182,1,8,0:0:0:0:
452,216,105353,1,12,0:0:0:0:
260,68,105524,1,8,0:0:0:0:
152,8,105696,6,0,P|104:24|72:72,1,97.9999970092774,12|0,0:0|0:0,0:0:0:0:
160,208,106039,2,0,P|208:192|240:144,1,97.9999970092774
80,168,106382,2,0,P|88:256|192:288,1,195.999994018555,8|0,0:0|0:0,0:0:0:0:
424,304,106896,6,0,P|416:216|312:184,1,195.999994018555,8|0,0:0|0:0,0:0:0:0:
336,280,107410,1,8,0:0:0:0:
472,128,107582,1,0,0:0:0:0:
248,248,107753,1,8,0:0:0:0:
376,368,107924,1,0,0:0:0:0:
248,360,108096,2,0,L|144:320,1,97.9999970092774,8|0,0:0|0:0,0:0:0:0:
76,196,108439,6,0,L|160:232,1,78.7500030040742,6|0,0:0|0:0,0:0:0:0:
192,264,108782,1,6,0:0:0:0:
240,168,108953,1,10,0:0:0:0:
216,288,109124,1,6,0:0:0:0:
216,144,109296,1,10,0:0:0:0:
248,304,109467,1,6,0:0:0:0:
184,128,109639,1,10,0:0:0:0:
344,288,109810,6,0,L|416:232,1,78.7500030040742,14|0,0:0|0:0,0:0:0:0:
448,192,110153,1,12,0:0:0:0:
464,96,110324,1,6,0:0:0:0:
448,192,110496,1,12,0:0:0:0:
368,80,110667,1,6,0:0:0:0:
448,192,110839,1,12,0:0:0:0:
296,144,111010,1,6,0:0:0:0:
288,248,111182,6,0,B|240:272|240:272|176:272,1,105.000004005432,12|0,0:0|0:0,0:0:0:0:
112,128,111524,2,0,B|160:104|160:104|224:104,1,105.000004005432
56,216,111867,2,0,B|0:128|0:128|64:32,1,210.000008010865,8|0,0:0|0:0,0:0:0:0:
344,304,112382,6,0,B|256:360|256:360|160:296,1,210.000008010865,8|0,0:0|0:0,0:0:0:0:
376,232,112896,2,0,P|416:264|416:336,1,105.000004005432,8|0,0:0|0:0,0:0:0:0:
87,314,113239,2,0,P|95:264|136:232,1,105.000004005432,8|0,0:0|0:0,0:0:0:0:
312,160,113582,1,8,0:0:0:0:
200,160,113753,1,8,0:0:0:0:
256,88,113924,6,0,L|328:56,1,78.7500030040742,6|0,0:0|0:0,0:0:0:0:
432,72,114267,1,0,0:0:0:0:
312,160,114439,1,2,0:0:0:0:
472,144,114610,1,8,0:0:0:0:
304,152,114782,1,2,0:0:0:0:
480,224,114953,1,8,0:0:0:0:
296,144,115124,1,2,0:0:0:0:
464,304,115296,6,0,L|392:272,1,78.7500030040742,14|0,0:0|0:0,0:0:0:0:
320,168,115639,1,10,0:0:0:0:
304,288,115810,1,2,0:0:0:0:
352,144,115982,1,10,0:0:0:0:
272,312,116153,1,2,0:0:0:0:
392,240,116324,1,10,0:0:0:0:
232,216,116496,1,2,0:0:0:0:
128,256,116667,6,0,P|80:232|64:176,1,97.9999970092774,12|0,0:0|0:0,0:0:0:0:
168,24,117010,2,0,P|216:48|232:104,1,97.9999970092774
152,336,117353,2,0,P|208:288|168:184,1,195.999994018555,8|0,0:0|0:0,0:0:0:0:
360,48,117867,6,0,P|304:96|344:200,1,195.999994018555,8|0,0:0|0:0,0:0:0:0:
416,216,118382,2,0,P|384:264|328:272,1,97.9999970092774,8|0,0:0|0:0,0:0:0:0:
96,272,118724,2,0,P|128:224|184:216,2,97.9999970092774,8|0|8,0:0|0:0|0:0,0:0:0:0:
255,327,119239,6,0,B|207:231|303:231|244:112,1,195.999994018555,8|0,0:0|0:0,0:0:0:0:
320,48,119753,1,8,0:0:0:0:
192,48,119924,1,0,0:0:0:0:
384,128,120096,1,8,0:0:0:0:
128,128,120267,1,0,0:0:0:0:
256,24,120439,1,8,0:0:0:0:
171,232,120610,6,0,L|115:264,2,48.9999985046387,10|0|0,0:0|0:0|0:0,0:0:0:0:
341,152,120953,2,0,L|397:120,2,48.9999985046387,10|0|0,0:0|0:0|0:0,0:0:0:0:
216,107,121296,1,0,0:0:0:0:
296,277,121467,1,0,0:0:0:0:
168,160,121639,2,0,L|120:136,1,48.9999985046387,10|0,0:0|0:0,0:0:0:0:
344,224,121810,2,0,L|392:248,2,48.9999985046387,10|0|2,0:0|0:0|0:0,0:0:0:0:
472,320,122153,6,0,P|388:364|304:316,1,195.999994018555,12|0,0:0|0:0,0:0:0:0:
256,192,122667,1,0,0:0:0:0:
205,319,122839,6,0,P|123:364|40:320,1,195.999994018555,8|0,0:0|0:0,0:0:0:0:
40,63,123353,2,0,P|123:19|205:64,1,195.999994018555,8|0,0:0|0:0,0:0:0:0:
360,152,123867,6,0,L|412:128,2,48.9999985046387,10|0|0,0:0|0:0|0:0,0:0:0:0:
152,232,124210,2,0,L|100:256,2,48.9999985046387,10|0|0,0:0|0:0|0:0,0:0:0:0:
256,352,124553,2,0,L|336:288,1,97.9999970092774,8|8,0:0|0:0,0:0:0:0:
240,264,124896,6,0,L|176:312,1,70,14|0,0:0|0:0,0:0:0:0:
64,248,125410,1,0,0:0:0:0:
100,132,125582,1,8,0:0:0:0:
200,208,125753,1,0,0:0:0:0:
64,248,125924,2,0,L|76:200,1,35,0|8,0:0|0:0,0:0:0:0:
128,52,126267,1,8,0:0:0:0:
312,64,126439,5,8,0:0:0:0:
392,112,126610,1,8,0:0:0:0:
304,168,126782,1,8,0:0:0:0:
392,32,126953,1,8,0:0:0:0:
232,112,127124,2,0,L|224:52,1,48.9999985046387,2|0,0:0|0:0,0:0:0:0:
392,200,127296,2,0,L|448:176,1,48.9999985046387,2|0,0:0|0:0,0:0:0:0:
240,240,127467,2,0,L|232:300,1,48.9999985046387,2|0,0:0|0:0,0:0:0:0:
64,288,127639,6,2,B|120:280|160:312|160:312|176:368|240:368|240:368|288:344,1,238.00000453949,14|0,0:0|0:0,0:0:0:0:
368,312,128153,2,0,L|400:256,1,52.5000020027161
352,168,128324,2,0,L|325:213,1,52.5000020027161,10|0,0:0|0:0,0:0:0:0:
420,72,128496,1,2,0:0:0:0:
312,24,128667,1,8,0:0:0:0:
200,80,128839,1,0,0:0:0:0:
136,168,129010,6,0,B|96:208|96:208|96:272,1,105.000004005432,10|0,0:0|0:0,0:0:0:0:
272,200,129267,2,0,B|312:160|312:160|312:96,1,105.000004005432,10|0,0:0|0:0,0:0:0:0:
192,248,129524,6,2,B|240:288|240:288|304:288|304:288|352:248,1,188.999994232178,10|2,0:0|0:0,0:0:0:0:
440,128,129867,6,0,P|464:96|488:88,1,57.7500005507469,10|0,0:0|0:0,0:0:0:0:
423,265,130039,6,0,P|438:301|433:326,1,57.7500005507469,10|0,0:0|0:0,0:0:0:0:
312,182,130210,6,0,P|272:177|253:160,1,57.7500005507469,10|0,0:0|0:0,0:0:0:0:
256,72,130382,6,0,P|288:64|320:64,1,57.7500005507469,10|0,0:0|0:0,0:0:0:0:
328,64,130553,1,0,0:0:0:0:
344,64,130639,2,0,P|372:62|400:55,1,57.7500005507469,2|8,0:0|0:0,0:0:0:0:
440,128,130896,5,0,0:0:0:0:
480,224,131067,1,10,0:0:0:0:
344,200,131239,5,0,0:0:0:0:
304,296,131410,1,10,0:0:0:0:
168,200,131582,5,0,0:0:0:0:
208,296,131753,1,10,0:0:0:0:
72,128,131924,5,10,0:0:0:0:
32,224,132096,1,10,0:0:0:0:
168,104,132267,5,10,0:0:0:0:
104,280,132439,1,10,0:0:0:0:
176,328,132610,6,0,L|192:272,1,57.7500005507469,10|0,0:0|0:0,0:0:0:0:
272,272,132782,2,0,L|288:216,1,57.7500005507469,10|0,0:0|0:0,0:0:0:0:
368,216,132953,2,0,L|384:160,1,57.7500005507469,10|0,0:0|0:0,0:0:0:0:
464,152,133124,6,0,L|480:96,1,57.7500017623902,14|0,0:0|0:0,0:0:0:0:
392,48,133467,6,0,L|376:104,1,57.7500005507469,2|0,0:0|0:0,0:0:0:0:
288,184,133639,2,0,L|304:128,1,57.7500005507469,10|0,0:0|0:0,0:0:0:0:
408,40,133810,6,0,L|382:92,1,57.7500005507469,10|0,0:0|0:0,0:0:0:0:
272,192,133982,2,0,L|297:139,1,57.7500005507469,2|0,0:0|0:0,0:0:0:0:
424,32,134153,6,0,L|398:84,1,57.7500005507469,10|0,0:0|0:0,0:0:0:0:
364,164,134324,2,0,L|340:224,1,57.7500005507469
312,300,134496,6,0,L|280:396,1,87.5,10|0,0:0|0:0,0:0:0:0:
392,192,134839,6,0,P|448:184|496:200,1,87.5,10|2,0:0|0:0,0:0:0:0:
400,356,135182,1,0,0:0:0:0:
440,272,135353,1,2,0:0:0:0:
312,144,135524,1,0,0:0:0:0:
176,272,135696,1,2,0:0:0:0:
104,312,135867,6,0,P|96:256|120:208,1,87.5,10|2,0:0|0:0,0:0:0:0:
112,216,136124,1,0,0:0:0:0:
120,208,136210,1,0,0:0:0:0:
304,128,136382,5,0,0:0:0:0:
255,271,136553,1,8,0:0:0:0:
209,126,136724,1,0,0:0:0:0:
331,217,136896,1,8,0:0:0:0:
180,215,137067,1,0,0:0:0:0:
256,96,137239,6,0,P|280:80|312:80,1,43.75,10|0,0:0|0:0,0:0:0:0:
352,192,137410,2,0,P|368:216|368:248,1,43.75,10|0,0:0|0:0,0:0:0:0:
256,288,137582,2,0,P|232:304|200:304,1,43.75,10|0,0:0|0:0,0:0:0:0:
160,192,137753,2,0,P|144:168|144:136,1,43.75,10|0,0:0|0:0,0:0:0:0:
323,124,137924,6,0,P|352:129|374:152,1,43.75,10|0,0:0|0:0,0:0:0:0:
323,259,138096,2,0,P|318:288|295:310,1,43.75,10|0,0:0|0:0,0:0:0:0:
188,259,138267,2,0,P|159:254|137:231,1,43.75,10|0,0:0|0:0,0:0:0:0:
188,124,138438,2,0,P|193:95|216:73,1,43.75,10|0,0:0|0:0,0:0:0:0:
256,32,138610,53,10,0:0:0:0:
256,272,138953,2,4,L|256:304,2,28
216,120,139296,1,8,0:0:0:0:
120,192,139467,1,0,0:0:0:0:
304,192,139639,1,0,0:0:0:0:
176,52,139810,1,0,0:0:0:0:
168,272,139982,69,10,0:0:0:0:
344,272,140153,1,0,0:0:0:0:
216,192,140324,1,0,0:0:0:0:
256,352,140496,2,4,L|256:400,2,28,0|4|8,0:0|0:0|0:0,0:0:0:0:
392,200,140839,1,0,0:0:0:0:
440,72,141010,5,0,0:0:0:0:
496,200,141182,1,0,0:0:0:0:
344,344,141353,70,0,L|304:304,1,56,10|0,0:0|0:0,0:0:0:0:
168,344,141696,6,0,L|208:304,1,56
360,248,142039,70,0,L|320:208,1,56,8|0,0:0|0:0,0:0:0:0:
152,248,142382,6,0,L|192:208,1,56
380,156,142724,70,0,L|340:116,1,56,10|0,0:0|0:0,0:0:0:0:
132,156,143067,6,0,L|172:116,1,56
408,68,143410,70,0,L|368:28,1,56,8|0,0:0|0:0,0:0:0:0:
104,68,143753,6,0,L|144:28,1,56
168,136,144096,70,0,L|144:160,2,28,14|4|4,0:0|0:0|0:0,0:0:0:0:
256,88,144439,1,0,0:0:0:0:
328,160,144610,1,0,0:0:0:0:
384,80,144782,1,8,0:0:0:0:
256,224,144953,1,0,0:0:0:0:
384,80,145124,1,0,0:0:0:0:
176,240,145296,6,0,L|136:272,2,28,4|4|10,0:0|0:0|0:0,0:0:0:0:
176,72,145639,1,0,0:0:0:0:
336,240,145810,1,0,0:0:0:0:
192,152,145982,1,0,0:0:0:0:
336,240,146153,1,8,0:0:0:0:
192,152,146324,1,0,0:0:0:0:
280,88,146496,69,0,0:0:0:0:
248,288,146667,1,0,0:0:0:0:
128,288,146839,5,10,0:0:0:0:
160,192,147010,1,0,0:0:0:0:
144,296,147182,69,0,0:0:0:0:
192,176,147353,1,0,0:0:0:0:
168,312,147524,5,8,0:0:0:0:
216,160,147696,1,0,0:0:0:0:
200,328,147867,69,0,0:0:0:0:
240,144,148039,1,0,0:0:0:0:
352,128,148210,5,10,0:0:0:0:
336,296,148382,1,0,0:0:0:0:
344,120,148553,69,0,0:0:0:0:
288,272,148724,1,0,0:0:0:0:
336,112,148896,5,8,0:0:0:0:
256,232,149067,1,0,0:0:0:0:
328,104,149239,69,0,0:0:0:0:
240,184,149410,1,0,0:0:0:0:
200,280,149582,6,4,P|152:264|128:200,1,112,14|4,0:0|0:0,0:0:0:0:
280,88,150096,2,4,P|328:104|352:168,1,112,14|4,0:0|0:0,0:0:0:0:
360,256,150610,1,0,0:0:0:0:
304,336,150782,1,0,0:0:0:0:
436,308,150953,1,6,0:0:0:0:
440,156,151124,6,0,L|484:144,2,28,8|0|8,0:0|0:0|0:0,0:0:0:0:
336,64,151467,2,0,L|296:120,1,56,4|8,0:0|0:0,0:0:0:0:
327,245,151810,2,0,L|360:200,1,56,4|0,0:0|0:0,0:0:0:0:
496,144,152153,1,4,0:0:0:0:
272,80,152324,5,10,0:0:0:0:
200,168,152496,1,0,0:0:0:0:
304,80,152667,69,0,0:0:0:0:
168,168,152839,1,0,0:0:0:0:
264,232,153010,5,8,0:0:0:0:
248,72,153182,1,0,0:0:0:0:
280,216,153353,69,0,0:0:0:0:
216,64,153524,1,0,0:0:0:0:
136,120,153696,5,10,0:0:0:0:
72,240,153867,1,0,0:0:0:0:
152,280,154039,69,0,0:0:0:0:
56,88,154210,1,0,0:0:0:0:
64,160,154382,5,8,0:0:0:0:
128,48,154553,1,0,0:0:0:0:
176,200,154724,69,0,0:0:0:0:
80,320,154896,1,0,0:0:0:0:
200,312,155067,6,0,P|256:328|312:312,1,112,14|0,0:0|0:0,0:0:0:0:
384,264,155582,1,0,0:0:0:0:
440,184,155753,70,0,P|384:168|328:184,1,112,12|0,0:0|0:0,0:0:0:0:
232,208,156267,1,0,0:0:0:0:
136,256,156439,6,0,P|123:202|139:149,1,112,14|0,0:0|0:0,0:0:0:0:
240,88,156953,2,0,L|276:100,2,28,0|0|12,0:0|0:0|0:0,0:0:0:0:
72,88,157296,69,0,0:0:0:0:
240,88,157467,1,12,0:0:0:0:
72,88,157639,1,8,0:0:0:0:
40,240,157810,1,14,0:0:0:0:
160,320,157982,1,0,0:0:0:0:
272,240,158153,1,4,0:0:0:0:
272,240,158324,6,0,L|316:196,1,56,0|12,0:0|0:0,0:0:0:0:
232,88,158667,2,0,L|185:136,1,56,0|12,0:0|0:0,0:0:0:0:
120,256,159010,1,0,0:0:0:0:
312,272,159182,70,4,L|360:224,1,56,6|0,0:0|0:0,0:0:0:0:
336,136,159524,2,4,L|292:92,1,56,6|0,0:0|0:0,0:0:0:0:
200,112,159867,6,4,L|148:164,1,56,6|4,0:0|0:0,0:0:0:0:
176,248,160210,2,4,L|220:292,1,56,6|4,0:0|0:0,0:0:0:0:
376,264,160553,69,10,0:0:0:0:
258,52,160896,1,8,0:0:0:0:
133,260,161239,1,8,0:0:0:0:
64,256,161582,6,0,L|80:184,1,70
168,184,161753,2,0,L|184:112,1,70
264,72,161924,6,0,L|280:16,3,52.5000020027161,8|0|0|0,0:0|0:0|0:0|0:0,0:0:0:0:
336,144,162267,2,0,L|321:194,3,52.5000020027161
424,80,162610,6,0,L|438:29,3,52.5000020027161,8|0|0|0,0:0|0:0|0:0|0:0,0:0:0:0:
480,168,162953,2,0,L|465:218,3,52.5000020027161
400,240,163296,6,0,L|349:225,3,52.5000020027161,8|0|0|0,0:0|0:0|0:0|0:0,0:0:0:0:
288,304,163639,2,0,L|237:289,3,52.5000020027161
224,192,163982,6,0,L|173:177,3,52.5000020027161,8|0|0|0,0:0|0:0|0:0|0:0,0:0:0:0:
112,256,164324,2,0,L|61:241,3,52.5000020027161
224,192,164667,6,0,L|238:141,3,52.5000020027161,8|0|0|0,0:0|0:0|0:0|0:0,0:0:0:0:
160,80,165010,2,0,L|174:29,3,52.5000020027161
72,200,165353,6,0,L|57:250,3,52.5000020027161,8|0|0|0,0:0|0:0|0:0|0:0,0:0:0:0:
136,312,165696,2,0,L|121:362,3,52.5000020027161
224,272,166039,6,0,L|274:257,3,52.5000020027161,8|0|0|0,0:0|0:0|0:0|0:0,0:0:0:0:
336,336,166382,2,0,L|386:321,3,52.5000020027161
464,224,166724,6,0,L|449:173,3,52.5000020027161,8|0|0|0,0:0|0:0|0:0|0:0,0:0:0:0:
368,168,167067,6,0,L|320:104,1,70,8|0,0:0|0:0,0:0:0:0:
248,128,167239,2,0,L|200:64,1,70,8|0,0:0|0:0,0:0:0:0:
96,128,167410,5,8,0:0:0:0:
96,128,167496,1,0,0:0:0:0:
96,128,167582,2,0,L|80:208,1,59.5000011348725
192,232,167753,5,8,0:0:0:0:
192,232,167839,1,0,0:0:0:0:
192,232,167924,2,0,L|208:312,1,59.5000011348725
312,280,168096,5,8,0:0:0:0:
312,280,168182,1,0,0:0:0:0:
312,280,168267,2,0,L|296:200,1,59.5000011348725
428,186,168439,5,8,0:0:0:0:
428,186,168524,1,0,0:0:0:0:
428,186,168610,2,0,L|412:106,1,59.5000011348725
296,64,168782,5,8,0:0:0:0:
296,64,168867,1,0,0:0:0:0:
296,64,168953,2,0,L|376:48,1,59.5000011348725
232,168,169124,5,8,0:0:0:0:
232,168,169210,1,0,0:0:0:0:
232,168,169296,2,0,L|216:88,1,59.5000011348725
96,72,169467,5,8,0:0:0:0:
96,72,169553,1,0,0:0:0:0:
96,72,169639,2,0,L|176:56,1,59.5000011348725
56,200,169810,5,8,0:0:0:0:
56,200,169896,1,0,0:0:0:0:
56,200,169982,2,0,L|67:258,1,59.5000011348725
224,328,170153,5,8,0:0:0:0:
224,328,170239,1,0,0:0:0:0:
224,328,170324,2,0,L|212:269,1,59.5000011348725
328,192,170496,5,8,0:0:0:0:
328,192,170582,1,0,0:0:0:0:
328,192,170667,2,0,L|339:250,1,59.5000011348725
496,320,170839,5,8,0:0:0:0:
496,320,170924,1,0,0:0:0:0:
496,320,171010,2,0,L|484:261,1,59.5000011348725
472,176,171182,6,0,L|456:104,1,70,8|0,0:0|0:0,0:0:0:0:
360,104,171353,2,0,L|344:32,1,70,8|0,0:0|0:0,0:0:0:0:
256,80,171524,5,8,0:0:0:0:
144,192,171696,1,8,0:0:0:0:
256,304,171867,1,8,0:0:0:0:
368,192,172039,1,8,0:0:0:0:
304,144,172210,6,0,L|288:88,1,52.5000020027161,8|8,0:0|0:0,0:0:0:0:
208,144,172382,2,0,L|152:160,1,52.5000020027161,8|8,0:0|0:0,0:0:0:0:
208,240,172553,2,0,L|224:296,1,52.5000020027161,8|8,0:0|0:0,0:0:0:0:
304,240,172724,2,0,L|360:224,1,52.5000020027161,8|8,0:0|0:0,0:0:0:0:
256,192,172896,12,0,174267,0:0:0:0:
132,48,174439,37,2,0:0:0:0:
152,64,174524,1,0,0:0:0:0:
172,80,174610,1,10,0:0:0:0:
324,112,174782,1,10,0:0:0:0:
202,206,174953,1,10,0:0:0:0:
332,312,175124,1,8,0:0:0:0:
456,192,175296,1,10,0:0:0:0:
240,296,175467,1,10,0:0:0:0:
96,336,175639,6,0,P|64:304|64:272,1,70,12|0,0:0|0:0,0:0:0:0:
168,152,175982,2,0,P|200:184|200:216,1,70
88,112,176324,2,0,P|128:72|208:72,1,140,8|0,0:0|0:0,0:0:0:0:
320,136,176839,5,8,0:0:0:0:
320,136,176924,1,0,0:0:0:0:
320,136,177010,2,0,P|372:128|400:108,1,70
344,240,177353,1,12,0:0:0:0:
336,56,177524,1,8,0:0:0:0:
456,160,177696,1,4,0:0:0:0:
456,160,177782,1,0,0:0:0:0:
456,160,177867,1,8,0:0:0:0:
232,24,178039,1,8,0:0:0:0:
128,40,178210,1,8,0:0:0:0:
72,144,178382,6,0,P|108:180|172:192,1,105,12|0,0:0|0:0,0:0:0:0:
184,208,178724,1,10,0:0:0:0:
304,144,178896,1,12,0:0:0:0:
176,240,179067,1,10,0:0:0:0:
312,168,179239,1,12,0:0:0:0:
168,264,179410,1,10,0:0:0:0:
320,192,179582,1,12,0:0:0:0:
272,280,179753,21,4,0:0:0:0:
272,280,179839,1,8,0:0:0:0:
272,280,179924,2,0,P|300:336|348:356,1,105.000004005432,8|4,0:0|0:0,0:0:0:0:
384,128,180267,1,14,0:0:0:0:
384,128,180353,1,8,0:0:0:0:
384,128,180439,2,0,P|356:72|308:52,1,105.000004005432,8|6,0:0|0:0,0:0:0:0:
376,264,180782,1,10,0:0:0:0:
288,144,180953,1,14,0:0:0:0:
192,240,181124,5,12,0:0:0:0:
168,216,181210,1,0,0:0:0:0:
144,240,181296,1,0,0:0:0:0:
340,200,181467,1,0,0:0:0:0:
196,124,181639,1,0,0:0:0:0:
184,352,181810,6,0,P|288:380|376:332,1,210.000008010865,12|0,0:0|0:0,0:0:0:0:
512,124,182324,2,0,P|448:92|356:108,1,157.500006008148,8|0,0:0|0:0,0:0:0:0:
304,152,182667,1,8,0:0:0:0:
420,264,182839,1,8,0:0:0:0:
432,48,183010,2,0,P|384:24|316:32,1,105.000004005432,12|8,0:0|0:0,0:0:0:0:
228,204,183353,1,8,0:0:0:0:
268,76,183524,1,4,0:0:0:0:
248,284,183696,1,0,0:0:0:0:
80,104,183867,6,0,P|120:40|208:40,1,157.500006008148,12|0,0:0|0:0,0:0:0:0:
272,72,184210,5,6,0:0:0:0:
296,176,184382,1,10,0:0:0:0:
368,40,184553,5,6,0:0:0:0:
344,248,184724,1,10,0:0:0:0:
448,96,184896,5,6,0:0:0:0:
256,248,185067,1,10,0:0:0:0:
272,80,185239,6,4,B|296:136|296:136|376:176|376:176|400:248,1,210.000008010865,12|0,0:0|0:0,0:0:0:0:
400,312,185753,38,0,L|448:292,1,52.5000020027161,8|0,0:0|0:0,0:0:0:0:
328,268,185924,2,0,L|280:288,1,52.5000020027161,8|0,0:0|0:0,0:0:0:0:
280,368,186096,22,0,L|328:348,1,52.5000020027161,8|0,0:0|0:0,0:0:0:0:
192,352,186267,2,2,P|160:280|176:192,1,157.500006008148,2|0,0:0|0:0,0:0:0:0:
236,104,186610,21,4,0:0:0:0:
384,72,186782,1,0,0:0:0:0:
224,96,186953,2,0,L|288:112,1,59.5000011348725,8|0,0:0|0:0,0:0:0:0:
392,68,187124,2,0,L|328:52,1,59.5000011348725,8|0,0:0|0:0,0:0:0:0:
184,8,187296,2,0,P|136:96|216:192,1,238.00000453949,8|0,0:0|0:0,0:0:0:0:
408,280,187810,6,0,P|456:192|376:96,1,238.00000453949,8|0,0:0|0:0,0:0:0:0:
208,240,188324,1,8,0:0:0:0:
368,168,188496,2,0,L|304:192,1,59.5000011348725,8|0,0:0|0:0,0:0:0:0:
216,264,188667,2,0,L|271:243,1,59.5000011348725,8|0,0:0|0:0,0:0:0:0:
360,256,188839,2,0,P|424:240|456:128,1,178.500003404617,8|0,0:0|0:0,0:0:0:0:
448,96,189182,6,0,B|360:48|288:104|288:104|208:64,1,238.00000453949,8|0,0:0|0:0,0:0:0:0:
168,16,189696,2,0,P|144:80|176:136,1,119.000002269745,8|0,0:0|0:0,0:0:0:0:
368,264,190039,2,0,P|392:200|360:144,1,119.000002269745,8|0,0:0|0:0,0:0:0:0:
168,208,190382,1,8,0:0:0:0:
312,208,190553,5,10,0:0:0:0:
312,208,190639,1,0,0:0:0:0:
312,208,190724,1,0,0:0:0:0:
112,264,190896,1,10,0:0:0:0:
112,264,190982,1,0,0:0:0:0:
112,264,191067,1,0,0:0:0:0:
240,152,191239,1,8,0:0:0:0:
240,152,191324,1,0,0:0:0:0:
240,152,191410,1,0,0:0:0:0:
240,364,191582,1,0,0:0:0:0:
240,364,191667,1,0,0:0:0:0:
240,364,191753,6,0,L|240:268,1,78.7500030040742,12|0,0:0|0:0,0:0:0:0:
264,224,192096,6,0,P|312:192|376:200,1,105.000004005432,12|0,0:0|0:0,0:0:0:0:
504,288,192439,2,0,P|456:320|392:312,1,105.000004005432,8|0,0:0|0:0,0:0:0:0:
404,116,192782,1,8,0:0:0:0:
292,216,192953,1,8,0:0:0:0:
292,216,193296,5,8,0:0:0:0:
239,269,193467,1,8,0:0:0:0:
312,288,193639,1,8,0:0:0:0:
232,209,193810,1,8,0:0:0:0:
265,324,193982,1,8,0:0:0:0:
347,237,194153,1,8,0:0:0:0:
175,289,194324,1,8,0:0:0:0:
361,333,194496,1,0,0:0:0:0:
308,150,194667,1,8,0:0:0:0:
96,104,194839,6,0,P|96:168|144:208,1,112,12|0,0:0|0:0,0:0:0:0:
184,256,195353,2,0,L|248:256,1,56,0|8,0:0|0:0,0:0:0:0:
320,304,195696,2,0,L|384:304,2,56,0|0|8,0:0|0:0|0:0,0:0:0:0:
256,104,196382,5,8,0:0:0:0:
344,192,196724,1,8,0:0:0:0:
256,280,197067,1,8,0:0:0:0:
168,192,197410,1,8,0:0:0:0:
344,192,197582,5,8,0:0:0:0:
168,192,197753,1,8,0:0:0:0:
256,80,197924,1,8,0:0:0:0:
256,88,198010,1,8,0:0:0:0:
256,96,198096,1,8,0:0:0:0:
256,104,198182,1,0,0:0:0:0:
256,112,198267,6,2,L|256:176,1,52.5,6|0,0:0|0:0,0:0:0:0:
168,192,198610,6,2,P|276:240|344:192,1,210,14|0,0:0|0:0,0:0:0:0:
356,184,198953,5,14,0:0:0:0:
372,176,199039,1,0,0:0:0:0:
388,168,199124,1,0,0:0:0:0:
404,160,199210,1,0,0:0:0:0:
420,152,199296,1,0,0:0:0:0:
472,60,199467,1,0,0:0:0:0:
456,52,199553,1,0,0:0:0:0:
440,44,199639,1,10,0:0:0:0:
320,112,199810,1,0,0:0:0:0:
200,56,199982,1,10,0:0:0:0:
112,192,200153,1,2,0:0:0:0:
200,328,200324,5,2,0:0:0:0:
216,320,200410,1,0,0:0:0:0:
232,312,200496,1,0,0:0:0:0:
248,304,200582,1,0,0:0:0:0:
264,296,200667,1,10,0:0:0:0:
328,172,200839,1,0,0:0:0:0:
420,324,201010,1,0,0:0:0:0:
432,148,201182,1,10,0:0:0:0:
320,280,201353,1,10,0:0:0:0:
488,240,201524,1,0,0:0:0:0:
352,88,201696,6,0,L|336:40,3,35,8|0|0|0,0:0|0:0|0:0|0:0,0:0:0:0:
248,136,202039,2,0,L|259:169,3,35,8|0|0|0,0:0|0:0|0:0|0:0,0:0:0:0:
152,72,202382,6,0,L|163:105,1,35,8|0,0:0|0:0,0:0:0:0:
96,168,202553,2,0,L|107:201,1,35,8|0,0:0|0:0,0:0:0:0:
192,216,202724,2,0,L|203:249,1,35,8|0,0:0|0:0,0:0:0:0:
136,312,202896,2,0,L|147:345,1,35,8|0,0:0|0:0,0:0:0:0:
264,360,203067,6,0,L|336:336,1,70,8|0,0:0|0:0,0:0:0:0:
384,192,203410,1,10,0:0:0:0:
276,96,203582,1,0,0:0:0:0:
320,264,203753,1,10,0:0:0:0:
428,104,203924,1,2,0:0:0:0:
456,120,204010,1,0,0:0:0:0:
472,144,204096,1,10,0:0:0:0:
272,188,204267,1,10,0:0:0:0:
448,272,204439,5,8,0:0:0:0:
320,264,204610,1,8,0:0:0:0:
184,272,204782,1,8,0:0:0:0:
184,272,204953,5,10,0:0:0:0:
384,176,205296,1,10,0:0:0:0:
184,112,205639,1,10,0:0:0:0:
184,112,205982,5,10,0:0:0:0:
384,176,206153,1,10,0:0:0:0:
224,288,206496,1,10,0:0:0:0:
272,200,206667,2,0,L|296:160,1,35,10|0,0:0|0:0,0:0:0:0:
336,88,206839,1,10,0:0:0:0:
96,184,207010,1,10,0:0:0:0:
152,48,207182,5,10,0:0:0:0:
360,336,207696,1,10,0:0:0:0:
152,192,208039,1,10,0:0:0:0:
360,48,208382,1,10,0:0:0:0:
256,88,208724,53,8,0:0:0:0:
256,88,208810,1,0,0:0:0:0:
332,260,209067,1,8,0:0:0:0:
152,192,209239,69,8,0:0:0:0:
152,192,209324,1,0,0:0:0:0:
152,192,209410,1,0,0:0:0:0:
388,140,209582,1,4,0:0:0:0:
