osu file format v14

[General]
AudioFilename: audio.mp3
AudioLeadIn: 0
PreviewTime: 57405
Countdown: 0
SampleSet: Soft
StackLeniency: 0.7
Mode: 0
LetterboxInBreaks: 1
WidescreenStoryboard: 0

[Editor]
Bookmarks: 15572,18239,20905,23572,26239,28905,30238,31572,32238,34238,35572,36572,36905,47572,52905
DistanceSpacing: 0.6
BeatDivisor: 4
GridSize: 8
TimelineZoom: 2.1

[Metadata]
Title:Jitter Doll
TitleUnicode:Jitter Doll
Artist:kradness&Reol
ArtistUnicode:kradness&Reol
Creator:Emychi
Version:Insane
Source:
Tags:kradness reol jitter doll emychi
BeatmapID:1722433
BeatmapSetID:821811

[Difficulty]
HPDrainRate:5
CircleSize:4
OverallDifficulty:8.2
ApproachRate:9
SliderMultiplier:1.6
SliderTickRate:1

[Events]
//Background and Video events
0,0,"532412.jpg",0,0
//Break Periods
//Storyboard Layer 0 (Background)
//Storyboard Layer 1 (Fail)
//Storyboard Layer 2 (Pass)
//Storyboard Layer 3 (Foreground)
//Storyboard Sound Samples

[TimingPoints]
14239,333.333333333333,4,2,0,70,1,0
15405,-100,4,2,0,5,0,0
15572,-83.3333333333333,4,2,0,70,0,0
15905,-100,4,2,0,70,0,0
18239,-83.3333333333333,4,2,0,70,0,0
18572,-100,4,2,0,70,0,0
23572,-83.3333333333333,4,2,0,70,0,0
23905,-100,4,2,0,70,0,0
26239,-100,4,2,0,80,0,0
32238,-100,4,2,0,70,0,0
34238,-100,4,2,0,80,0,0
34905,-100,4,2,0,70,0,0
36905,-90.9090909090909,4,2,0,70,0,0
52905,-100,4,2,0,70,0,0
58072,-78.125,4,2,0,70,0,1
80905,-100,4,2,0,70,0,0

[Colours]
Combo1 : 0,111,0
Combo2 : 32,96,202

[HitObjects]
256,192,14239,12,0,15406,0:0:0:0:
426,89,15572,6,0,P|352:72|292:108,1,143.999995605469
288,126,15905,6,0,L|281:205,1,80
201,80,16239,2,0,L|207:159,1,80
126,125,16572,2,0,L|120:205,1,80
45,159,16905,2,0,P|32:208|57:265,1,80
35,322,17239,2,0,P|83:308|120:258,1,80
182,249,17572,2,0,P|146:213|84:206,1,80
179,336,17905,1,0,0:0:0:0:
259,209,18072,1,0,0:0:0:0:
259,209,18239,6,0,L|406:198,1,143.999995605469
426,193,18572,6,0,P|461:157|468:95,1,80
388,39,18905,2,0,P|375:87|400:144,1,80
503,238,19239,1,0,0:0:0:0:
426,283,19405,2,0,L|346:289,1,80
471,360,19739,1,0,0:0:0:0:
288,217,19905,2,0,P|259:258|263:320,1,80
353,366,20239,2,0,P|356:315|322:263,1,80
288,217,20572,2,0,P|229:214|180:271,1,120
183,276,20905,6,0,L|189:356,1,80
96,307,21239,6,0,P|91:267|103:229,1,80
34,171,21572,2,0,P|65:147|104:138,1,80
120,50,21905,2,0,P|156:65|182:95,1,80
181,185,22239,2,0,P|212:161|251:152,1,80
314,289,22572,2,0,P|277:273|251:243,1,80
338,123,22905,2,0,P|342:162|330:200,1,80
268,64,23239,1,0,0:0:0:0:
415,77,23405,1,0,0:0:0:0:
415,77,23572,6,0,L|427:223,1,143.999995605469
425,244,23905,6,0,P|394:284|334:300,1,80
265,227,24239,2,0,P|311:207|371:224,1,80
482,316,24572,1,0,0:0:0:0:
416,374,24739,2,0,L|336:380,1,80
482,316,25072,1,0,0:0:0:0:
340,209,25239,2,0,P|300:208|264:226,1,80
264,351,25572,2,0,P|298:331|320:298,1,80
263,140,25905,2,0,P|207:161|178:226,1,120
177,235,26239,5,0,0:0:0:0:
96,32,26405,1,0,0:0:0:0:
96,32,28905,5,0,0:0:0:0:
263,140,29072,1,0,0:0:0:0:
263,140,30238,5,0,0:0:0:0:
56,176,30405,1,0,0:0:0:0:
56,176,31572,5,0,0:0:0:0:
169,15,31739,1,0,0:0:0:0:
201,123,32238,1,0,0:0:0:0:
225,108,32905,1,0,0:0:0:0:
249,93,33572,1,0,0:0:0:0:
273,78,34238,5,0,0:0:0:0:
299,241,34405,1,0,0:0:0:0:
306,271,34905,1,0,0:0:0:0:
313,301,35572,5,0,0:0:0:0:
441,196,35739,1,0,0:0:0:0:
291,210,35905,6,0,L|197:217,1,80
378,130,36238,1,0,0:0:0:0:
304,323,36405,1,0,0:0:0:0:
191,126,36572,1,0,0:0:0:0:
152,118,36655,1,0,0:0:0:0:
113,129,36738,1,0,0:0:0:0:
84,155,36822,1,0,0:0:0:0:
69,192,36905,6,0,L|140:269,1,88.000002685547,4|0,0:0|0:0,0:0:0:0:
291,210,37238,1,0,0:0:0:0:
258,88,37405,1,0,0:0:0:0:
258,88,37488,1,0,0:0:0:0:
258,88,37572,2,0,P|213:52|151:60,1,88.000002685547
48,87,37905,1,0,0:0:0:0:
64,256,38072,6,0,B|103:272|151:256|151:256|200:240|255:272,1,176.000005371094
299,372,38572,1,0,0:0:0:0:
358,234,38738,2,0,P|337:180|279:156,1,88.000002685547
152,118,39072,1,0,0:0:0:0:
152,118,39155,1,0,0:0:0:0:
152,118,39238,1,0,0:0:0:0:
235,262,39405,1,0,0:0:0:0:
222,75,39572,6,0,P|176:39|114:47,1,88.000002685547,4|0,0:0|0:0,0:0:0:0:
26,101,39905,1,0,0:0:0:0:
64,256,40072,1,0,0:0:0:0:
64,256,40155,1,0,0:0:0:0:
64,256,40238,2,0,L|163:287,1,88.000002685547
0,112,40572,1,0,0:0:0:0:
197,33,40738,6,0,P|275:59|293:157,1,176.000005371094
235,262,41238,1,0,0:0:0:0:
235,262,41322,1,0,0:0:0:0:
235,262,41405,1,0,0:0:0:0:
370,186,41572,2,0,P|411:194|443:224,1,88.000002685547
341,334,41905,1,0,0:0:0:0:
289,168,42072,1,0,0:0:0:0:
147,282,42238,6,0,L|58:277,1,88.000002685547,4|0,0:0|0:0,0:0:0:0:
209,349,42572,1,0,0:0:0:0:
82,168,42738,1,0,0:0:0:0:
82,168,42822,1,0,0:0:0:0:
82,168,42905,1,0,0:0:0:0:
53,303,43072,1,0,0:0:0:0:
152,118,43238,1,0,0:0:0:0:
235,262,43405,6,0,B|274:278|322:262|322:262|371:246|406:268,1,176.000005371094
472,330,43905,1,0,0:0:0:0:
481,183,44072,1,0,0:0:0:0:
363,350,44238,1,0,0:0:0:0:
363,350,44322,1,0,0:0:0:0:
363,350,44405,1,0,0:0:0:0:
277,184,44572,1,0,0:0:0:0:
406,268,44738,1,0,0:0:0:0:
349,113,44905,6,0,P|308:123|280:157,1,88.000002685547,4|0,0:0|0:0,0:0:0:0:
281,325,45238,1,0,0:0:0:0:
188,184,45405,1,0,0:0:0:0:
188,184,45488,1,0,0:0:0:0:
188,184,45572,1,0,0:0:0:0:
383,254,45738,1,0,0:0:0:0:
194,304,45905,1,0,0:0:0:0:
409,340,46072,6,0,P|470:280|453:199,1,176.000005371094
349,113,46572,1,0,0:0:0:0:
349,113,46655,1,0,0:0:0:0:
349,113,46738,1,0,0:0:0:0:
188,184,46905,1,0,0:0:0:0:
161,213,46988,1,0,0:0:0:0:
150,253,47071,1,0,0:0:0:0:
158,291,47155,1,0,0:0:0:0:
183,322,47238,2,0,L|285:299,1,88.000002685547
383,254,47572,5,0,0:0:0:0:
399,247,47905,1,0,0:0:0:0:
415,240,48238,1,0,0:0:0:0:
431,233,48572,1,0,0:0:0:0:
447,226,48905,1,0,0:0:0:0:
463,219,49238,1,0,0:0:0:0:
479,212,49572,1,0,0:0:0:0:
495,205,49905,1,0,0:0:0:0:
279,157,50238,5,0,0:0:0:0:
263,150,50571,1,0,0:0:0:0:
247,143,50904,1,0,0:0:0:0:
231,136,51238,1,0,0:0:0:0:
215,129,51571,1,0,0:0:0:0:
199,122,51904,1,0,0:0:0:0:
183,115,52238,1,0,0:0:0:0:
167,108,52571,1,0,0:0:0:0:
341,46,52905,6,0,P|414:56|473:145,1,160,4|0,0:0|0:0,0:0:0:0:
372,286,53405,2,0,P|344:216|392:121,1,160
512,211,53905,2,0,L|407:213,1,80
256,214,54238,1,0,0:0:0:0:
256,214,54572,6,0,P|209:205|179:178,1,80
244,38,54905,2,0,P|259:83|251:122,1,80
97,136,55238,2,0,P|128:99|166:87,1,80
341,162,55572,1,0,0:0:0:0:
341,162,55655,1,0,0:0:0:0:
341,162,55738,1,0,0:0:0:0:
184,185,55905,1,0,0:0:0:0:
244,38,56072,1,0,0:0:0:0:
344,256,56238,5,0,0:0:0:0:
157,88,56405,1,0,0:0:0:0:
157,88,56488,1,0,0:0:0:0:
157,88,56571,1,0,0:0:0:0:
293,346,56738,2,0,P|330:358|380:352,1,80
254,114,57072,1,0,0:0:0:0:
198,362,57238,1,0,0:0:0:0:
51,130,58072,6,0,B|99:114|99:114|275:114,1,204.8,4|0,0:0|0:0,0:0:0:0:
128,288,58572,2,0,B|112:240|112:176,1,102.4
160,16,58905,1,0,0:0:0:0:
208,224,59072,1,0,0:0:0:0:
272,16,59238,1,0,0:0:0:0:
336,256,59405,6,0,B|384:272|384:272|448:272,1,102.4
253,114,59738,1,0,0:0:0:0:
248,320,59905,1,0,0:0:0:0:
400,160,60072,2,0,B|451:160|451:160|515:176,1,102.4
368,368,60405,1,0,0:0:0:0:
320,160,60572,1,0,0:0:0:0:
240,336,60738,6,0,B|192:352|192:352|32:352,1,204.8,4|0,0:0|0:0,0:0:0:0:
160,176,61238,2,0,B|176:224|176:288,1,102.4
16,96,61572,1,0,0:0:0:0:
160,16,61738,2,0,B|208:16|208:16|272:32,1,102.4
368,288,62072,6,0,B|352:240|352:240|352:64,1,204.8,4|0,0:0|0:0,0:0:0:0:
256,160,62572,1,0,0:0:0:0:
448,224,62738,2,0,P|456:340|376:392,1,204.8,4|0,0:0|0:0,0:0:0:0:
256,256,63238,1,0,0:0:0:0:
352,85,63405,6,0,B|288:85|288:85|208:117|208:117|144:117,1,204.8
0,48,63905,2,0,B|48:32|112:32,1,102.4
304,176,64238,1,0,0:0:0:0:
192,32,64405,1,0,0:0:0:0:
160,256,64572,1,0,0:0:0:0:
304,64,64738,6,0,B|320:112|320:112|320:176,1,102.4
272,336,65072,2,0,B|256:288|256:288|256:224,1,102.4
448,240,65405,2,0,B|400:256|400:256|336:256,1,102.4
192,160,65738,1,0,0:0:0:0:
384,112,65905,1,0,0:0:0:0:
176,176,66072,6,0,P|160:224|160:304,1,102.4,4|0,0:0|0:0,0:0:0:0:
288,144,66405,2,0,P|284:93|268:44,2,102.4
256,256,66905,1,0,0:0:0:0:
368,240,67072,2,0,P|416:240|496:256,1,102.4
160,320,67405,6,0,B|144:272|144:272|144:112,1,204.8
272,32,67905,2,0,B|288:80|288:80|288:144,1,102.4
256,256,68238,1,0,0:0:0:0:
384,224,68405,1,0,0:0:0:0:
427,237,68488,1,0,0:0:0:0:
460,270,68571,1,0,0:0:0:0:
474,313,68655,1,0,0:0:0:0:
469,358,68738,6,0,B|432:256|512:256|464:144,1,204.8,4|0,0:0|0:0,0:0:0:0:
384,16,69238,2,0,B|384:64|368:144,1,102.4
256,256,69572,1,0,0:0:0:0:
280,56,69738,1,0,0:0:0:0:
384,224,69905,1,0,0:0:0:0:
176,96,70072,6,0,B|160:144|160:144|160:304,1,204.8
256,368,70572,2,0,B|272:320|272:320|272:268,1,102.4
264,152,70905,1,0,0:0:0:0:
360,360,71072,1,0,0:0:0:0:
144,288,71238,1,0,0:0:0:0:
384,368,71405,6,0,B|400:320|400:320|400:160,1,204.8
288,72,71905,2,0,B|272:120|272:120|272:200,1,102.4
304,304,72238,2,0,B|256:288|256:288|176:288,1,102.4
96,320,72572,1,0,0:0:0:0:
120,96,72738,6,0,B|104:144|104:144|104:298,1,204.8,4|0,0:0|0:0,0:0:0:0:
0,160,73238,1,0,0:0:0:0:
208,160,73405,2,0,B|272:160|272:160|352:192|352:192|416:192,1,204.8,4|0,0:0|0:0,0:0:0:0:
256,256,73905,1,0,0:0:0:0:
368,96,74072,6,0,P|472:112|500:236,1,204.8,4|0,0:0|0:0,0:0:0:0:
408,304,74572,2,0,B|392:256|392:256|392:176,1,102.4
344,16,74905,2,0,B|360:64|360:64|360:115,1,102.4
240,272,75238,1,0,0:0:0:0:
208,88,75405,6,0,B|224:136|224:136|224:296,1,204.8
336,160,75905,1,0,0:0:0:0:
128,160,76072,2,0,B|80:160|80:160|0:176,1,102.4
208,304,76405,1,0,0:0:0:0:
120,144,76572,1,0,0:0:0:0:
216,328,76738,6,0,B|259:359|307:343|307:343|339:295|307:231,1,204.8,4|0,0:0|0:0,0:0:0:0:
256,64,77238,2,0,B|256:112|240:192,1,102.4
344,40,77572,1,0,0:0:0:0:
128,160,77738,1,0,0:0:0:0:
376,192,77905,1,0,0:0:0:0:
104,152,78072,6,0,B|68:144|40:148|40:148|40:200|71:249|144:249,1,204.8
304,256,78572,2,0,B|320:208|320:208|320:128,1,102.4
224,64,78905,1,0,0:0:0:0:
144,240,79072,1,0,0:0:0:0:
400,176,79238,1,0,0:0:0:0:
152,152,79405,1,0,0:0:0:0:
423,185,79572,5,4,0:0:0:0:
220,288,79738,1,0,0:0:0:0:
224,64,79905,1,0,0:0:0:0:
336,272,80072,1,0,0:0:0:0:
336,272,80155,1,0,0:0:0:0:
336,272,80238,1,0,0:0:0:0:
152,152,80405,1,0,0:0:0:0:
308,72,80572,1,0,0:0:0:0:
341,65,80655,1,0,0:0:0:0:
375,72,80738,1,0,0:0:0:0:
408,77,80821,1,0,0:0:0:0:
442,72,80905,1,0,0:0:0:0:
