osu file format v14

[General]
AudioFilename: audio.mp3
AudioLeadIn: 0
PreviewTime: -1
Countdown: 1
SampleSet: Soft
StackLeniency: 0.7
Mode: 0
LetterboxInBreaks: 0
WidescreenStoryboard: 0

[Editor]
Bookmarks: 158455
DistanceSpacing: 2.1
BeatDivisor: 4
GridSize: 4
TimelineZoom: 1.4

[Metadata]
Title:Dualive
TitleUnicode:Dualive
Artist:kradness x Camellia
ArtistUnicode:kradness x Camellia
Creator:Chippy
Version:DUAL MOUSE
Source:
Tags:Chippy osu!
BeatmapID:971181
BeatmapSetID:452784

[Difficulty]
HPDrainRate:7
CircleSize:4
OverallDifficulty:9.2
ApproachRate:9.5
SliderMultiplier:1.4
SliderTickRate:1

[Events]
//Background and Video events
0,0,"quarkebg.jpg",0,0
//Break Periods
2,30601,39983
//Storyboard Layer 0 (Background)
//Storyboard Layer 1 (Fail)
//Storyboard Layer 2 (Pass)
//Storyboard Layer 3 (Foreground)
//Storyboard Sound Samples

[TimingPoints]
87,315.789473684211,4,2,0,100,1,0
10192,-133.333333333333,4,2,0,100,0,0
22665,-100,4,2,0,100,0,0
45560,-80,4,2,0,100,0,0
55271,-66.6666666666667,4,2,0,100,0,0
60639,-50,4,2,0,100,0,0
67981,-200,4,2,0,100,0,0
68297,-50,4,2,0,100,0,0

[HitObjects]
328,248,9876,6,0,L|380:176,1,70
318,112,10192,6,0,P|270:62|233:43,1,105.000004005432
264,178,10665,2,0,P|298:217|342:244,1,105.000004005432
358,161,11139,2,0,P|407:112|425:74,1,105.000004005432
310,114,11613,2,0,P|294:181|328:220,1,105.000004005432
372,304,12087,1,0,0:0:0:0:
296,159,12718,6,0,P|248:109|211:90,1,105.000004005432
125,125,13192,2,0,P|106:191|109:233,1,105.000004005432
179,284,13665,2,0,P|246:266|280:243,1,105.000004005432
340,200,14139,1,0,0:0:0:0:
124,100,14613,1,0,0:0:0:0:
247,128,15244,6,0,P|314:110|348:87,1,105.000004005432
197,56,15718,2,0,P|162:115|154:156,1,105.000004005432
242,224,16192,2,0,P|233:275|208:321,1,105.000004005432
112,241,16665,2,0,P|69:210|37:169,1,105.000004005432
99,61,17139,1,0,0:0:0:0:
297,145,17771,6,0,L|372:57,1,105.000004005432
459,67,18244,1,0,0:0:0:0:
320,256,19034,6,0,L|215:305,1,105.000004005432
140,261,19507,1,0,0:0:0:0:
86,129,20139,1,0,0:0:0:0:
201,102,20297,6,0,L|239:26,4,78.7500030040742
308,111,21560,6,0,L|403:87,1,78.7500030040742
415,210,22034,2,0,L|379:280,2,78.7500030040742
346,111,22665,1,0,0:0:0:0:
252,144,22823,6,0,B|228:192|208:204|208:204|176:172|140:196,1,140
128,112,23297,2,0,P|164:64|248:28,1,140
252,164,23771,2,0,P|241:223|183:293,1,140
320,224,24244,2,0,P|356:165|408:112,1,140
360,40,24718,2,0,L|296:80,1,70
176,116,25034,1,0,0:0:0:0:
288,200,25192,2,0,L|320:232,1,35
404,204,25350,6,0,P|432:184|456:148,1,70
336,40,25587,2,0,P|309:63|291:92,1,70
436,196,25823,2,0,P|453:166|461:124,1,70
309,71,26060,2,0,P|293:102|289:136,1,70
456,172,26297,2,0,P|465:138|461:95,1,70
228,56,26613,6,0,L|200:140,1,70
296,180,26850,2,0,L|286:111,1,70
180,216,27087,2,0,L|160:292,1,70
321,321,27323,2,0,L|310:252,1,70
192,328,27560,1,0,0:0:0:0:
80,132,27718,2,0,L|100:104,1,35
120,92,27876,2,0,B|184:64|184:64|184:64|256:96,1,140
260,172,28350,2,0,P|200:204|204:280,1,140
261,241,28823,2,0,B|311:274|391:266|391:266|387:188|487:46|487:46|295:54|156:134,1,700
104,148,40508,6,0,L|60:80,1,70
260,44,40823,2,0,L|286:110,1,70
172,156,41139,2,0,L|152:88,1,70
364,108,41454,2,0,L|370:178,1,70
232,192,41771,6,0,L|244:123,1,70
424,268,42086,2,0,L|398:333,1,70
264,308,42402,2,0,L|124:268,1,140
232,88,43034,6,0,L|176:40,1,70
128,164,43350,2,0,L|96:244,1,70
240,208,43665,2,0,L|322:177,1,70
424,148,43981,2,0,L|384:224,1,70
376,316,44297,6,0,L|296:260,1,70
193,275,44613,2,0,L|136:316,1,70
256,204,44929,2,0,L|256:52,1,140
111,160,45560,2,0,L|76:48,1,87.5
245,286,45876,2,0,L|210:174,1,87.5
267,31,46192,2,0,L|291:114,1,87.5
399,159,46508,2,0,L|423:242,1,87.5
105,207,46823,6,0,L|80:94,1,87.5
403,143,47138,2,0,L|412:256,1,87.5
141,108,47454,2,0,P|191:73|246:53,1,87.5
371,275,47771,2,0,P|336:302|297:321,1,87.5
38,264,48087,5,0,0:0:0:0:
242,338,48244,1,0,0:0:0:0:
322,134,48402,1,0,0:0:0:0:
115,60,48560,1,0,0:0:0:0:
374,97,48718,1,0,0:0:0:0:
208,301,48876,1,0,0:0:0:0:
371,276,49034,5,0,0:0:0:0:
354,290,49112,1,0,0:0:0:0:
336,302,49191,1,0,0:0:0:0:
317,312,49270,1,0,0:0:0:0:
296,321,49349,1,0,0:0:0:0:
117,141,50613,6,0,L|80:52,1,87.5
206,187,50929,2,0,L|189:86,1,87.5
286,266,51244,2,0,L|288:159,1,87.5
349,332,51560,2,0,L|381:240,1,87.5
444,49,51876,6,0,L|355:72,1,87.5
391,135,52192,2,0,L|301:162,1,87.5
129,342,52508,2,0,L|211:310,1,87.5
153,253,52823,2,0,L|235:221,1,87.5
185,52,53139,6,0,P|141:116|125:154,1,87.5
326,332,53455,2,0,P|353:297|375:259,1,87.5
135,90,53771,2,0,P|120:166|120:208,1,87.5
376,293,54087,2,0,P|387:250|392:207,1,87.5
210,298,54402,5,0,0:0:0:0:
372,228,54560,1,0,0:0:0:0:
140,144,54718,1,0,0:0:0:0:
296,68,54876,1,0,0:0:0:0:
429,202,55034,1,0,0:0:0:0:
413,256,55113,1,0,0:0:0:0:
376,300,55192,1,0,0:0:0:0:
327,329,55271,2,0,B|297:314|283:291|295:222|225:218|225:218|209:278,1,210.000008010865
116,222,55665,6,0,L|100:165,1,52.5000020027161
281,59,55902,2,0,L|299:123,1,52.5000020027161
92,50,56139,1,0,0:0:0:0:
263,172,56297,2,0,L|221:215,1,52.5000020027161
122,25,56534,2,0,L|214:32,1,52.5000020027161
377,86,56771,1,0,0:0:0:0:
293,290,56929,6,0,L|340:312,1,52.5000020027161
470,146,57165,2,0,L|422:124,1,52.5000020027161
212,99,57402,1,0,0:0:0:0:
122,289,57560,2,0,L|117:206,1,52.5000020027161
244,66,57797,2,0,L|251:154,1,52.5000020027161
297,324,58034,1,0,0:0:0:0:
379,130,58192,5,0,0:0:0:0:
390,164,58271,1,0,0:0:0:0:
399,199,58350,1,0,0:0:0:0:
399,235,58429,1,0,0:0:0:0:
388,270,58508,1,0,0:0:0:0:
375,304,58587,1,0,0:0:0:0:
348,328,58665,1,0,0:0:0:0:
314,343,58744,1,0,0:0:0:0:
277,338,58823,1,0,0:0:0:0:
242,324,58902,1,0,0:0:0:0:
213,301,58981,1,0,0:0:0:0:
189,272,59060,1,0,0:0:0:0:
208,246,59139,1,0,0:0:0:0:
232,218,59218,1,0,0:0:0:0:
256,190,59297,1,0,0:0:0:0:
281,163,59376,1,0,0:0:0:0:
306,136,59455,6,0,B|360:35|432:81|452:148|452:148|350:254|270:197|229:184|229:184|204:243|150:237,1,525.000020027161
153,71,60402,1,0,0:0:0:0:
148,91,60481,1,0,0:0:0:0:
142,111,60560,1,0,0:0:0:0:
139,131,60639,1,0,0:0:0:0:
136,156,60718,6,0,P|132:204|192:168,1,140
324,148,61034,1,0,0:0:0:0:
376,152,61113,1,0,0:0:0:0:
424,176,61192,1,0,0:0:0:0:
460,212,61271,1,0,0:0:0:0:
484,256,61350,1,0,0:0:0:0:
396,316,61429,2,0,L|332:296,2,52.5000020027161
252,160,61665,2,0,P|212:116|196:216,1,210
316,244,61981,6,0,P|312:164|324:116,1,70
328,32,62139,2,0,P|404:60|412:68,1,70
428,180,62297,1,0,0:0:0:0:
388,216,62376,1,0,0:0:0:0:
344,204,62455,1,0,0:0:0:0:
304,240,62534,1,0,0:0:0:0:
268,280,62613,2,0,L|208:348,1,70
160,256,62771,2,0,P|200:152|208:104,1,140
328,56,63008,2,0,L|384:200,1,140
260,264,63244,6,0,P|168:244|136:204,1,140
220,132,63560,1,0,0:0:0:0:
276,144,63639,1,0,0:0:0:0:
332,144,63718,1,0,0:0:0:0:
388,132,63797,1,0,0:0:0:0:
436,164,63876,2,0,P|412:212|384:168,2,93.3333333333333
264,84,64192,2,0,P|177:124|210:214,1,210
288,96,64508,6,0,L|235:142,1,70
252,280,64665,2,0,L|320:220,1,70
228,112,64823,2,0,L|175:158,1,70
200,300,64981,2,0,L|268:240,1,70
152,153,65139,6,0,L|93:60,1,70
256,92,65297,2,0,L|331:43,1,70
308,196,65455,2,0,L|356:272,1,70
203,255,65613,2,0,L|140:304,1,70
124,160,65771,6,0,P|80:100|156:128,1,210
292,172,66087,1,0,0:0:0:0:
272,240,66165,1,0,0:0:0:0:
228,292,66244,1,0,0:0:0:0:
172,336,66323,1,0,0:0:0:0:
144,200,66402,2,0,L|180:104,2,93.3333333333333
347,145,66718,2,0,P|246:144|267:248,1,210
412,164,67034,6,0,P|357:207|273:130,1,140
165,132,67350,1,0,0:0:0:0:
155,201,67429,1,0,0:0:0:0:
147,270,67508,1,0,0:0:0:0:
136,339,67587,1,0,0:0:0:0:
204,330,67665,2,0,P|207:245|190:241,2,70
326,204,67981,6,0,L|313:268,1,52.5
215,220,68297,6,0,P|131:129|99:65,1,140
241,82,68534,2,0,L|372:155,1,140
328,250,68771,2,0,L|259:301,1,70
135,251,68929,1,0,0:0:0:0:
103,188,69008,1,0,0:0:0:0:
260,96,69165,2,0,P|248:162|218:228,1,140
144,96,69402,1,0,0:0:0:0:
444,172,69560,6,0,P|361:131|277:67,1,140
227,72,69797,2,0,L|215:249,1,140
213,311,70034,1,0,0:0:0:0:
428,131,70192,1,0,0:0:0:0:
441,235,70271,1,0,0:0:0:0:
342,199,70350,1,0,0:0:0:0:
351,57,70429,2,0,B|328:185|244:88|244:88|224:156,1,210
132,225,70823,6,0,P|83:271|96:182,1,210
314,158,71139,1,0,0:0:0:0:
287,116,71218,1,0,0:0:0:0:
244,92,71297,1,0,0:0:0:0:
195,98,71376,1,0,0:0:0:0:
162,134,71455,2,0,L|148:229,2,93.3333333333333
326,242,71771,6,0,P|419:237|353:100,1,280
