osu file format v14

[General]
AudioFilename: audio.mp3
AudioLeadIn: 0
PreviewTime: -1
Countdown: 1
SampleSet: Soft
StackLeniency: 0.7
Mode: 0
LetterboxInBreaks: 0
SkinPreference:std and ctb
WidescreenStoryboard: 0

[Editor]
Bookmarks: 13492,17655,23356,33052,30145
DistanceSpacing: 0.8
BeatDivisor: 6
GridSize: 32
TimelineZoom: 0.5

[Metadata]
Title:Remote Control
TitleUnicode:Remote Control
Artist:kradness
ArtistUnicode:kradness&れをる
Creator:Yume_chan_1997
Version:Out of Control
Source:
Tags:reol kradness remote control otaku osu
BeatmapID:1321297
BeatmapSetID:626980

[Difficulty]
HPDrainRate:5
CircleSize:5
OverallDifficulty:5
ApproachRate:6
SliderMultiplier:1.3
SliderTickRate:3

[Events]
//Background and Video events
0,0,"reol.jpg",0,0
//Break Periods
2,35853,37354
2,46823,49634
2,73672,81061
2,120278,125331
2,131247,136725
2,149429,157149
2,181368,184119
//Storyboard Layer 0 (Background)
//Storyboard Layer 1 (Fail)
//Storyboard Layer 2 (Pass)
//Storyboard Layer 3 (Foreground)
//Storyboard Sound Samples

[TimingPoints]
320.631578947368,363.636363636364,4,2,0,100,1,0

[Colours]
Combo1 : 255,176,176
Combo2 : 252,254,167
Combo3 : 117,221,251
Combo4 : 132,255,150

[HitObjects]
96,96,1076,6,0,P|256:96|256:96,1,130
256,160,2209,1,0,0:0:0:0:
224,224,2587,1,0,0:0:0:0:
160,224,2824,1,0,0:0:0:0:
224,224,3343,1,0,0:0:0:0:
160,224,3579,1,0,0:0:0:0:
96,96,3957,6,0,P|256:96|256:96,1,130
256,160,4713,1,0,0:0:0:0:
160,256,5091,1,0,0:0:0:0:
64,160,5469,1,4,0:0:0:0:
160,64,5847,1,0,0:0:0:0:
288,64,6224,2,0,P|416:128|416:128,1,130
352,256,6886,1,0,0:0:0:0:
320,192,7264,1,0,0:0:0:0:
128,192,7641,2,0,P|256:128|256:128,5,130
256,256,9866,5,0,0:0:0:0:
352,160,10199,1,0,0:0:0:0:
256,64,10523,1,0,0:0:0:0:
160,160,10866,1,0,0:0:0:0:
288,224,11278,1,0,0:0:0:0:
192,256,11653,2,0,L|64:320,2,130
256,128,12744,1,0,0:0:0:0:
160,224,13108,1,0,0:0:0:0:
64,192,13532,2,0,P|160:160|192:192,4,130
64,288,15350,1,0,0:0:0:0:
0,64,15714,6,0,P|32:64|131:67,3,130
32,192,17169,1,0,0:0:0:0:
64,128,17472,2,0,L|224:64,1,151.666666666667
288,64,18260,1,0,0:0:0:0:
256,160,18563,2,0,L|160:224,2,108.333333333333
320,160,19593,2,0,L|160:160,4,130
32,224,21387,6,0,B|160:192|160:192|160:192,3,130
256,256,22866,1,0,0:0:0:0:
288,160,23290,1,0,0:0:0:0:
192,128,23593,2,0,P|64:128|64:128,1,151.666666666667
96,224,24381,1,0,0:0:0:0:
192,256,24805,1,0,0:0:0:0:
192,64,25169,1,0,0:0:0:0:
160,192,25532,2,0,L|256:192,4,108.333333333333
128,160,27055,6,0,P|160:96|192:96,1,97.5
256,128,27622,1,0,0:0:0:0:
320,192,27905,2,0,P|352:160|416:224,1,130
224,160,28566,1,0,0:0:0:0:
288,256,28926,1,0,0:0:0:0:
160,320,29290,2,0,L|256:320,1,86.6666666666667
128,224,29835,1,0,0:0:0:0:
128,128,30078,2,0,B|192:64|256:160|320:96|320:96,1,195
256,192,30926,1,0,0:0:0:0:
96,288,31229,2,0,P|0:320|-32:320,2,130
96,128,32260,1,0,0:0:0:0:
288,64,32628,1,0,0:0:0:0:
288,192,32912,6,0,L|288:352,1,130
128,288,33472,1,0,0:0:0:0:
64,192,33775,1,0,0:0:0:0:
160,128,34199,1,0,0:0:0:0:
288,128,34623,1,0,0:0:0:0:
64,192,34926,2,0,B|192:288,2,130
256,192,38866,12,0,46623,0:0:0:0:
160,64,50684,6,0,L|288:32,5,130
288,160,52926,2,0,B|288:192|288:192,12,21.6666666666667
160,256,54441,1,0,0:0:0:0:
96,192,55108,1,0,0:0:0:0:
224,160,55835,1,0,0:0:0:0:
128,32,56563,6,0,B|544:64|-160:96|160:160|96:160|576:160|288:192|-128:256|224:288|64:192|288:288|384:224|192:320|160:352,1,606.666666666667
288,256,58744,1,0,0:0:0:0:
288,256,58987,1,0,0:0:0:0:
224,288,59350,1,0,0:0:0:0:
256,192,59714,12,0,61835,0:0:0:0:
32,128,62623,6,0,L|128:64,1,108.333333333333
224,64,63229,1,0,0:0:0:0:
352,96,63532,2,0,L|480:160,1,130
224,320,64320,1,0,0:0:0:0:
96,256,64684,2,0,L|0:160,1,130
96,64,65472,1,0,0:0:0:0:
192,64,65896,2,0,L|320:96,1,108.333333333333
352,192,66623,1,0,0:0:0:0:
320,192,66744,1,0,0:0:0:0:
288,192,66866,1,0,0:0:0:0:
160,192,67290,1,0,0:0:0:0:
256,192,67956,12,0,73472,0:0:0:0:
128,64,82381,6,0,L|224:64,1,108.333333333333
352,128,83169,2,0,P|352:192|384:160,1,130
256,256,83775,2,0,L|192:256,6,65
320,160,85350,5,0,0:0:0:0:
320,160,85593,1,0,0:0:0:0:
320,160,85714,1,0,0:0:0:0:
224,192,86078,5,0,0:0:0:0:
224,192,86260,1,0,0:0:0:0:
224,192,86381,1,0,0:0:0:0:
128,160,86805,2,0,L|64:96,3,86.6666666666667
192,96,88078,2,0,L|288:96,1,86.6666666666667
256,192,88866,12,0,90988,0:0:0:0:
96,160,91350,6,0,L|192:128,1,86.6666666666667
288,160,91956,2,0,L|384:192,1,86.6666666666667
224,352,92684,1,0,0:0:0:0:
96,256,92987,1,0,0:0:0:0:
224,128,93472,6,0,L|192:128,4,21.6666666666667
224,256,94381,2,0,B|128:224|128:160|160:96|160:96|224:96|224:96|352:224,1,433.333333333333
256,320,95835,1,0,0:0:0:0:
224,192,96078,1,0,0:0:0:0:
128,288,96502,1,0,0:0:0:0:
64,192,96744,1,0,0:0:0:0:
224,192,97047,6,0,L|320:128,1,108.333333333333
352,224,97714,2,0,L|256:256,1,86.6666666666667
160,256,98320,1,0,0:0:0:0:
96,160,98684,1,0,0:0:0:0:
128,128,98866,1,0,0:0:0:0:
192,96,99350,1,0,0:0:0:0:
256,192,99775,12,0,102199,0:0:0:0:
96,128,102805,6,0,P|160:64|224:64,1,151.666666666667
288,128,103653,2,0,L|320:192,1,65
288,288,104078,2,0,L|224:256,7,65
256,192,105835,12,0,109229,0:0:0:0:
256,192,110320,12,0,114078,0:0:0:0:
256,64,114563,5,0,0:0:0:0:
256,160,114926,1,0,0:0:0:0:
256,288,115290,1,0,0:0:0:0:
64,224,115653,6,0,L|64:192,21,21.6666666666667
192,256,117714,1,0,0:0:0:0:
288,320,118078,2,0,L|320:288,1,43.3333333333333
416,288,118563,2,0,L|416:256,25,21.6666666666667
192,96,126381,6,0,L|192:192,8,86.6666666666667
128,192,128866,2,0,L|192:192,1,65
256,192,131047,1,0,0:0:0:0:
256,192,137775,12,0,149229,0:0:0:0:
192,96,158199,6,0,L|128:128,1,65
64,160,158805,2,0,L|64:224,1,65
128,288,159229,2,0,L|192:288,6,65
192,128,160805,5,0,0:0:0:0:
160,128,160987,1,0,0:0:0:0:
160,128,161108,1,0,0:0:0:0:
160,224,161653,1,0,0:0:0:0:
224,224,161835,1,0,0:0:0:0:
224,224,161956,1,0,0:0:0:0:
352,288,162260,2,0,B|384:224|384:224|320:192|320:192|352:128|352:128|288:128|288:128,1,260
192,128,163653,1,0,0:0:0:0:
256,192,164260,12,0,166320,0:0:0:0:
192,128,166866,6,0,P|288:96|288:128,1,173.333333333333
288,192,167593,2,0,P|192:224|192:192,1,173.333333333333
128,128,168381,1,0,0:0:0:0:
64,64,168805,1,0,0:0:0:0:
160,32,169169,1,0,0:0:0:0:
224,192,169532,1,0,0:0:0:0:
160,224,169956,2,0,L|128:192,12,43.3333333333333
96,288,171653,2,0,P|64:288|64:320,1,65
96,288,172199,2,0,P|96:256|64:256,1,65
128,128,172623,6,0,L|224:96,1,86.6666666666667
320,160,173229,2,0,L|384:224,1,86.6666666666667
224,288,173835,1,0,0:0:0:0:
96,224,174320,1,0,0:0:0:0:
64,160,174684,1,0,0:0:0:0:
128,96,175047,1,0,0:0:0:0:
224,64,175350,1,0,0:0:0:0:
128,128,178441,6,0,L|224:96,1,86.6666666666667
320,160,179047,2,0,L|384:224,1,86.6666666666667
224,288,179653,1,0,0:0:0:0:
96,224,180138,1,0,0:0:0:0:
64,160,180502,1,0,0:0:0:0:
128,96,180865,1,0,0:0:0:0:
224,64,181168,1,0,0:0:0:0:
256,192,185169,12,0,195350,0:0:0:0:
