osu file format v14

[General]
AudioFilename: kradness - Nijuujinkaku Survival.mp3
AudioLeadIn: 0
PreviewTime: 55284
Countdown: 0
SampleSet: Soft
StackLeniency: 0.6
Mode: 0
LetterboxInBreaks: 0
WidescreenStoryboard: 1

[Editor]
Bookmarks: 10284,34284,44950,55617,76950,87617,99617,110284,124950,148284,148950
DistanceSpacing: 1.5
BeatDivisor: 4
GridSize: 16
TimelineZoom: 2.859999

[Metadata]
Title:Nijuujinkaku Survival (Cut Ver.)
TitleUnicode:二重人格サバイバル (Cut Ver.)
Artist:kradness
ArtistUnicode:kradness
Creator:Mafumafu
Version:arutama's Advanced
Source:
Tags:japanese rock j-rock jrock クラッドネス スズム suzumu krad vortex short cut version Regraz sightread [Yoshino] arutama SupaV Take
BeatmapID:4440831
BeatmapSetID:399495

[Difficulty]
HPDrainRate:3.5
CircleSize:3.5
OverallDifficulty:5
ApproachRate:7
SliderMultiplier:1.15
SliderTickRate:1

[Events]
//Background and Video events
0,0,"29747483_p0.jpg",0,0
//Break Periods
2,99617,108950
//Storyboard Layer 0 (Background)
//Storyboard Layer 1 (Fail)
//Storyboard Layer 2 (Pass)
//Storyboard Layer 3 (Foreground)
//Storyboard Layer 4 (Overlay)
//Storyboard Sound Samples

[TimingPoints]
951,333.333333333333,4,2,6,25,1,0
951,-111.111111111111,4,2,6,25,0,0
10284,-111.111111111111,4,2,6,70,0,0
11617,-100,4,2,6,80,0,0
12617,-100,4,2,7,80,0,0
12784,-100,4,2,8,80,0,0
12950,-100,4,2,6,80,0,0
13950,-100,4,2,7,80,0,0
14117,-100,4,2,8,80,0,0
14284,-100,4,2,6,80,0,0
15284,-100,4,2,7,80,0,0
15867,-100,4,2,6,80,0,0
16117,-100,4,2,7,80,0,0
16367,-100,4,2,6,80,0,0
19284,-100,4,2,7,80,0,0
19450,-100,4,2,6,80,0,0
20450,-100,4,2,7,80,0,0
20534,-100,4,2,6,80,0,0
20950,-100,4,2,7,80,0,0
21117,-100,4,2,6,80,0,0
21617,-142.857142857143,4,2,7,80,0,0
22950,-111.111111111111,4,2,6,80,0,0
23617,-111.111111111111,4,2,6,45,0,0
25950,-111.111111111111,4,2,7,45,0,0
28950,-111.111111111111,4,2,8,45,0,0
29117,-111.111111111111,4,2,6,45,0,0
30450,-111.111111111111,4,2,7,45,0,0
30867,-111.111111111111,4,2,6,45,0,0
31117,-111.111111111111,4,2,7,45,0,0
31200,-111.111111111111,4,2,6,45,0,0
31450,-111.111111111111,4,2,8,45,0,0
31534,-111.111111111111,4,2,9,45,0,0
31617,-111.111111111111,4,2,6,45,0,0
32950,-111.111111111111,4,2,8,70,0,0
33284,-111.111111111111,4,2,6,70,0,0
33950,-111.111111111111,4,2,7,70,0,0
34034,-111.111111111111,4,2,6,70,0,0
34284,-100,4,2,6,70,0,0
34617,-100,4,2,7,70,0,0
35534,-100,4,2,6,70,0,0
35950,-100,4,2,7,70,0,0
36867,-100,4,2,6,70,0,0
37284,-100,4,2,7,70,0,0
38200,-100,4,2,6,70,0,0
38617,-100,4,2,7,70,0,0
38867,-100,4,2,6,70,0,0
39117,-100,4,2,7,70,0,0
39200,-100,4,2,6,70,0,0
39450,-100,4,2,7,70,0,0
39534,-100,4,2,6,70,0,0
39950,-100,4,2,7,70,0,0
40867,-100,4,2,6,70,0,0
41284,-100,4,2,7,70,0,0
42200,-100,4,2,6,70,0,0
42617,-100,4,2,7,70,0,0
43534,-100,4,2,6,70,0,0
43950,-100,4,2,7,70,0,0
44117,-100,4,2,6,70,0,0
44950,-100,4,2,6,65,0,0
48284,-100,4,2,7,65,0,0
50284,-100,4,2,8,65,0,0
50950,-100,4,2,6,65,0,0
52950,-100,4,2,6,65,0,0
53284,-100,4,2,7,65,0,0
53617,-100,4,2,10,65,0,0
53950,-100,4,2,7,65,0,0
54784,-100,4,2,6,65,0,0
55284,-100,4,2,6,80,0,0
55617,-90.9090909090909,4,2,6,85,0,1
56784,-90.9090909090909,4,2,7,85,0,1
57200,-90.9090909090909,4,2,6,85,0,1
58117,-90.9090909090909,4,2,7,85,0,1
58534,-90.9090909090909,4,2,6,85,0,1
59450,-90.9090909090909,4,2,7,85,0,1
59867,-90.9090909090909,4,2,6,85,0,1
60117,-90.9090909090909,4,2,8,85,0,1
60284,-90.9090909090909,4,2,6,85,0,1
61450,-90.9090909090909,4,2,7,85,0,1
61867,-90.9090909090909,4,2,6,85,0,1
62117,-90.9090909090909,4,2,7,85,0,1
62534,-90.9090909090909,4,2,6,85,0,1
62784,-90.9090909090909,4,2,7,85,0,1
63200,-90.9090909090909,4,2,6,85,0,1
63450,-90.9090909090909,4,2,7,85,0,1
63867,-90.9090909090909,4,2,6,85,0,1
64117,-90.9090909090909,4,2,7,85,0,1
64534,-90.9090909090909,4,2,6,85,0,1
64784,-90.9090909090909,4,2,7,85,0,1
65117,-90.9090909090909,4,2,6,85,0,1
66284,-90.9090909090909,4,2,7,85,0,1
67200,-90.9090909090909,4,2,6,85,0,1
67450,-90.9090909090909,4,2,7,85,0,1
67867,-90.9090909090909,4,2,6,85,0,1
68117,-90.9090909090909,4,2,7,85,0,1
68534,-90.9090909090909,4,2,6,85,0,1
68784,-90.9090909090909,4,2,7,85,0,1
68950,-90.9090909090909,4,2,8,85,0,1
69284,-90.9090909090909,4,2,7,85,0,1
69867,-90.9090909090909,4,2,6,85,0,1
70117,-90.9090909090909,4,2,7,85,0,1
70284,-90.9090909090909,4,2,10,85,0,1
70534,-90.9090909090909,4,2,6,85,0,1
70784,-90.9090909090909,4,2,8,85,0,1
70950,-90.9090909090909,4,2,6,85,0,1
72117,-90.9090909090909,4,2,7,85,0,1
72534,-90.9090909090909,4,2,6,85,0,1
72784,-90.9090909090909,4,2,7,85,0,1
73200,-90.9090909090909,4,2,6,85,0,1
73450,-90.9090909090909,4,2,7,85,0,1
73867,-90.9090909090909,4,2,6,85,0,1
74284,-90.9090909090909,4,2,8,85,0,1
74617,-90.9090909090909,4,2,7,85,0,1
74950,-90.9090909090909,4,2,8,85,0,1
75284,-90.9090909090909,4,2,6,85,0,1
76950,-90.9090909090909,4,2,8,80,0,0
77284,-90.9090909090909,4,2,6,80,0,0
77450,-90.9090909090909,4,2,9,80,0,0
77617,-90.9090909090909,4,2,6,80,0,0
77784,-90.9090909090909,4,2,9,80,0,0
77867,-90.9090909090909,4,2,6,80,0,0
77950,-90.9090909090909,4,2,10,80,0,0
78117,-90.9090909090909,4,2,9,80,0,0
78284,-90.9090909090909,4,2,8,80,0,0
78617,-90.9090909090909,4,2,10,80,0,0
78784,-90.9090909090909,4,2,6,80,0,0
78950,-90.9090909090909,4,2,10,80,0,0
79117,-90.9090909090909,4,2,6,80,0,0
79284,-90.9090909090909,4,2,10,80,0,0
79450,-90.9090909090909,4,2,7,80,0,0
79617,-90.9090909090909,4,2,8,80,0,0
79950,-90.9090909090909,4,2,6,80,0,0
80117,-90.9090909090909,4,2,9,80,0,0
80284,-90.9090909090909,4,2,6,80,0,0
80617,-90.9090909090909,4,2,7,80,0,0
80784,-90.9090909090909,4,2,9,80,0,0
80950,-90.9090909090909,4,2,10,80,0,0
81034,-90.9090909090909,4,2,6,80,0,0
81117,-90.9090909090909,4,2,11,80,0,0
81284,-90.9090909090909,4,2,6,80,0,0
81367,-90.9090909090909,4,2,10,80,0,0
81450,-90.9090909090909,4,2,7,80,0,0
81617,-90.9090909090909,4,2,10,80,0,0
81700,-90.9090909090909,4,2,8,80,0,0
82117,-90.9090909090909,4,2,10,80,0,0
82284,-90.9090909090909,4,2,7,80,0,0
82617,-90.9090909090909,4,2,10,80,0,0
82784,-90.9090909090909,4,2,6,80,0,0
82950,-90.9090909090909,4,2,10,80,0,0
83117,-90.9090909090909,4,2,9,80,0,0
83200,-90.9090909090909,4,2,6,80,0,0
83284,-90.9090909090909,4,2,10,80,0,0
83450,-90.9090909090909,4,2,9,80,0,0
83617,-90.9090909090909,4,2,10,80,0,0
83784,-90.9090909090909,4,2,7,80,0,0
84284,-90.9090909090909,4,2,10,80,0,0
84450,-90.9090909090909,4,2,6,80,0,0
84784,-90.9090909090909,4,2,9,80,0,0
84950,-90.9090909090909,4,2,10,80,0,0
85117,-90.9090909090909,4,2,6,80,0,0
85284,-90.9090909090909,4,2,10,80,0,0
85450,-90.9090909090909,4,2,9,80,0,0
85534,-90.9090909090909,4,2,6,80,0,0
85617,-90.9090909090909,4,2,10,80,0,0
85784,-90.9090909090909,4,2,6,80,0,0
85950,-90.9090909090909,4,2,10,80,0,0
86034,-90.9090909090909,4,2,8,80,0,0
86284,-90.9090909090909,4,2,10,80,0,0
86450,-90.9090909090909,4,2,8,80,0,0
86617,-90.9090909090909,4,2,10,80,0,0
86700,-90.9090909090909,4,2,6,80,0,0
86784,-90.9090909090909,4,2,10,80,0,0
86867,-90.9090909090909,4,2,8,80,0,0
87617,-100,4,2,6,65,0,0
90950,-100,4,2,7,65,0,0
92950,-100,4,2,8,65,0,0
93617,-100,4,2,6,65,0,0
95950,-100,4,2,7,65,0,0
96284,-100,4,2,10,65,0,0
96617,-100,4,2,7,65,0,0
96950,-125,4,2,7,65,0,0
98284,-125,4,2,7,5,0,0
99617,-125,4,2,7,30,0,0
107617,-125,4,2,6,30,0,0
110284,-90.9090909090909,4,2,7,85,0,1
110617,-90.9090909090909,4,2,6,85,0,1
111450,-90.9090909090909,4,2,7,85,0,1
111867,-90.9090909090909,4,2,6,85,0,1
112784,-90.9090909090909,4,2,7,85,0,1
113200,-90.9090909090909,4,2,6,85,0,1
114117,-90.9090909090909,4,2,7,85,0,1
114534,-90.9090909090909,4,2,6,85,0,1
114784,-90.9090909090909,4,2,8,85,0,1
114950,-90.9090909090909,4,2,6,85,0,1
116117,-90.9090909090909,4,2,7,85,0,1
116534,-90.9090909090909,4,2,6,85,0,1
116784,-90.9090909090909,4,2,7,85,0,1
117200,-90.9090909090909,4,2,6,85,0,1
117450,-90.9090909090909,4,2,7,85,0,1
117867,-90.9090909090909,4,2,6,85,0,1
118117,-90.9090909090909,4,2,7,85,0,1
118284,-90.9090909090909,4,2,8,85,0,1
118617,-90.9090909090909,4,2,7,85,0,1
119200,-90.9090909090909,4,2,6,85,0,1
120284,-90.9090909090909,4,2,7,85,0,1
120534,-90.9090909090909,4,2,6,85,0,1
120617,-90.9090909090909,4,2,7,85,0,1
120700,-90.9090909090909,4,2,6,85,0,1
120950,-90.9090909090909,4,2,6,85,0,0
124950,-90.9090909090909,4,2,6,70,0,0
125950,-90.9090909090909,4,2,7,70,0,0
126117,-90.9090909090909,4,2,8,70,0,0
126284,-90.9090909090909,4,2,6,70,0,0
127284,-90.9090909090909,4,2,7,70,0,0
127450,-90.9090909090909,4,2,8,70,0,0
127617,-90.9090909090909,4,2,6,70,0,0
128617,-90.9090909090909,4,2,7,70,0,0
129200,-90.9090909090909,4,2,6,70,0,0
129450,-90.9090909090909,4,2,7,70,0,0
129700,-90.9090909090909,4,2,6,70,0,0
132617,-90.9090909090909,4,2,7,70,0,0
132784,-90.9090909090909,4,2,6,70,0,0
133784,-90.9090909090909,4,2,7,70,0,0
133867,-90.9090909090909,4,2,6,70,0,0
134284,-90.9090909090909,4,2,10,70,0,0
134450,-90.9090909090909,4,2,6,70,0,0
135284,-90.9090909090909,4,2,7,70,0,0
135367,-90.9090909090909,4,2,6,70,0,0
136617,-90.9090909090909,4,2,7,70,0,0
136784,-90.9090909090909,4,2,8,70,0,0
136950,-90.9090909090909,4,2,6,70,0,0
137950,-90.9090909090909,4,2,7,70,0,0
138117,-90.9090909090909,4,2,8,70,0,0
138284,-90.9090909090909,4,2,6,70,0,0
139284,-90.9090909090909,4,2,7,70,0,0
139867,-90.9090909090909,4,2,6,70,0,0
140117,-90.9090909090909,4,2,7,70,0,0
140367,-90.9090909090909,4,2,6,70,0,0
143284,-90.9090909090909,4,2,7,70,0,0
143450,-90.9090909090909,4,2,6,70,0,0
144950,-90.9090909090909,4,2,10,70,0,0
145617,-90.9090909090909,4,2,6,70,0,0
146284,-111.111111111111,4,2,6,70,0,0
147617,-90.9090909090909,4,2,10,70,0,0
148700,-90.9090909090909,4,2,10,70,0,0

[Colours]
Combo1 : 202,68,213
Combo2 : 0,174,11
Combo3 : 96,168,255
Combo4 : 200,183,145

[HitObjects]
59,112,10284,6,0,B|65:64|23:60|35:-2,2,103.499996841431,4|4|8,2:2|2:2|2:1,0:0:0:0:
11,260,11284,2,0,L|23:320,1,51.7499984207154,8|8,2:1|2:1,0:0:0:0:
93,358,11617,6,0,B|142:342|129:305|211:294,1,115,4|4,2:1|2:3,0:0:0:0:
251,238,12117,1,10,2:3:0:0:
251,238,12284,2,0,P|244:193|245:163,1,57.5,4|2,2:3|2:3,0:0:0:0:
216,146,12534,1,8,2:2:0:0:
208,137,12617,2,0,P|215:96|218:56,1,57.5,12|10,2:3|2:3,0:0:0:0:
266,9,12950,2,0,P|310:25|390:23,1,115,4|4,2:3|2:3,0:0:0:0:
463,55,13450,1,10,2:3:0:0:
463,55,13617,1,4,2:3:0:0:
500,218,13950,2,0,L|487:283,1,57.5,12|10,2:3|2:3,0:0:0:0:
438,345,14284,6,0,P|400:324|305:329,1,115,4|4,2:3|2:3,0:0:0:0:
165,374,14950,2,0,P|136:372|111:358,1,57.5,4|2,2:3|2:3,0:0:0:0:
78,330,15200,1,8,2:2:0:0:
70,320,15284,2,0,P|81:282|84:259,1,57.5,12|14,2:3|2:3,0:0:0:0:
148,206,15617,6,0,P|191:215|245:211,1,86.25,4|8,2:3|2:1,0:0:0:0:
362,198,16117,2,0,P|413:175|421:116,1,115,12|8,2:2|2:1,0:0:0:0:
395,39,16617,2,0,L|404:4,2,28.75,8|8|12,2:1|2:1|2:3,0:0:0:0:
312,64,16950,6,0,P|250:55|182:33,1,115,4|4,2:1|2:3,0:0:0:0:
117,52,17450,1,2,2:3:0:0:
117,52,17617,2,0,P|103:102|97:125,1,57.5,4|2,2:3|2:3,0:0:0:0:
65,131,17867,1,8,2:2:0:0:
60,141,17950,2,0,P|76:184|81:210,1,57.5,4|2,2:3|2:3,0:0:0:0:
56,279,18284,1,4,2:3:0:0:
198,376,18617,2,0,B|289:356|263:361,1,57.5,4|2,2:3|2:3,0:0:0:0:
307,295,18950,2,0,P|315:253|272:181,1,115,4|12,2:3|2:3,0:0:0:0:
210,156,19450,1,8,2:1:0:0:
210,156,19617,6,0,P|192:101|217:27,1,115,4|4,2:3|2:3,0:0:0:0:
407,11,20284,2,0,P|421:57|431:83,1,57.5,4|10,2:3|2:3,0:0:0:0:
457,93,20534,1,8,2:1:0:0:
462,103,20617,2,0,P|454:130|444:157,1,57.5,4|8,2:3|2:2,0:0:0:0:
405,236,20950,1,12,2:3:0:0:
405,236,21117,1,12,2:2:0:0:
314,226,21284,2,0,P|261:237|238:240,1,57.5,12|12,2:3|2:2,0:0:0:0:
170,215,21617,6,0,P|123:151|284:89,1,321.99999017334,12|8,2:1|2:1,0:0:0:0:
360,222,23284,1,4,2:3:0:0:
286,360,23617,6,0,P|250:353|181:347,1,103.499996841431,4|4,2:1|2:3,0:0:0:0:
34,301,24284,2,0,P|50:265|50:185,1,103.499996841431,4|4,2:3|2:3,0:0:0:0:
25,129,24784,1,2,2:3:0:0:
25,129,24950,2,0,P|33:86|102:65,1,103.499996841431,4|4,2:3|2:3,0:0:0:0:
232,19,25617,1,4,2:3:0:0:
351,118,25950,2,0,L|342:181,1,51.7499984207154,12|2,2:3|2:3,0:0:0:0:
286,222,26284,6,0,P|295:268|312:339,2,103.499996841431,4|4|4,2:3|2:3|2:3,0:0:0:0:
163,125,27284,1,4,2:3:0:0:
17,180,27617,2,0,P|16:230|56:282,1,103.499996841431,4|4,2:3|2:3,0:0:0:0:
104,331,28117,1,2,2:3:0:0:
104,331,28284,2,0,P|150:314|218:311,1,103.499996841431,4|12,2:3|2:3,0:0:0:0:
344,374,28950,5,12,2:2:0:0:
420,238,29284,2,0,P|406:203|399:177,1,51.7499984207154,4|2,2:3|2:3,0:0:0:0:
338,145,29617,2,0,B|285:160|301:195|243:198,1,103.499996841431,4|4,2:3|2:3,0:0:0:0:
97,174,30284,2,0,P|86:124|132:68,1,103.499996841431,4|4,2:3|2:3,0:0:0:0:
166,26,30784,1,2,2:3:0:0:
166,26,30950,2,0,P|238:42|271:47,1,103.499996841431,4|4,2:3|2:3,0:0:0:0:
417,104,31617,5,12,2:3:0:0:
417,104,31784,2,0,P|411:129|407:154,1,51.7499984207154,10|4,2:3|2:3,0:0:0:0:
345,201,32117,2,0,P|305:181|234:178,1,103.499996841431,2|2,2:3|2:3,0:0:0:0:
173,150,32617,1,4,2:3:0:0:
115,294,32950,2,0,P|71:298|49:298,2,51.7499984207154,4|2|4,2:2|2:3|2:3,0:0:0:0:
179,347,33450,1,2,2:3:0:0:
179,347,33617,2,0,B|227:332|253:327|300:325,1,103.499996841431,4|12,2:3|2:3,0:0:0:0:
449,360,34284,6,0,P|453:322|471:241,1,115,4|12,2:1|2:3,0:0:0:0:
454,166,34784,1,2,2:3:0:0:
454,166,34950,2,0,P|401:162|375:161,1,57.5,4|2,2:3|2:3,0:0:0:0:
331,104,35284,1,12,2:3:0:0:
158,113,35617,2,0,P|138:167|173:234,1,115,4|12,2:3|2:3,0:0:0:0:
214,290,36117,1,2,2:3:0:0:
214,290,36284,1,4,2:3:0:0:
349,183,36617,2,0,P|403:196|417:196,1,57.5,12|2,2:3|2:3,0:0:0:0:
470,252,36950,6,0,P|471:318|444:367,1,115,4|12,2:3|2:3,0:0:0:0:
368,380,37450,1,2,2:3:0:0:
368,380,37617,2,0,P|325:365|237:362,1,115,4|12,2:3|2:3,0:0:0:0:
80,349,38284,2,0,P|34:350|11:350,2,57.5,4|2|12,2:3|2:3|2:3,0:0:0:0:
135,282,38784,1,2,2:3:0:0:
135,282,38950,2,0,P|146:237|154:217,1,57.5,4|10,2:3|2:3,0:0:0:0:
94,159,39284,1,4,2:3:0:0:
234,59,39617,6,0,P|285:81|363:76,1,115,4|12,2:1|2:3,0:0:0:0:
430,61,40117,1,2,2:3:0:0:
430,61,40284,2,0,L|450:128,1,57.5,4|2,2:3|2:3,0:0:0:0:
467,199,40617,1,12,2:3:0:0:
298,236,40950,2,0,P|243:216|171:202,1,115,4|12,2:3|2:3,0:0:0:0:
123,155,41450,1,2,2:3:0:0:
123,155,41617,1,4,2:3:0:0:
15,289,41950,2,0,P|30:339|42:362,1,57.5,12|2,2:3|2:3,0:0:0:0:
113,373,42284,6,0,B|162:364|155:332|220:315,1,115,4|12,2:3|2:3,0:0:0:0:
301,313,42784,1,2,2:3:0:0:
301,313,42950,2,0,P|346:321|362:319,1,57.5,4|2,2:3|2:3,0:0:0:0:
438,289,43284,1,12,2:3:0:0:
461,118,43617,2,0,P|463:71|462:53,2,57.5,4|2|12,2:3|2:3|2:3,0:0:0:0:
385,156,44117,1,10,2:3:0:0:
385,156,44284,2,0,P|332:141|304:131,1,57.5,4|2,2:3|2:3,0:0:0:0:
246,116,44617,1,4,2:3:0:0:
180,275,44950,6,0,B|201:317|193:345|210:363,2,86.25,4|4|4,2:3|2:3|2:3,0:0:0:0:
97,248,45617,2,0,P|71:220|71:150,1,86.25,4|0,2:2|0:0,0:0:0:0:
104,54,46116,1,4,2:3:0:0:
104,54,46284,2,0,P|48:66|17:69,2,86.25,4|4|4,2:3|2:3|2:3,0:0:0:0:
187,73,46950,2,0,P|235:64|288:73,1,86.25,4|0,2:2|0:0,0:0:0:0:
387,136,47450,1,4,2:3:0:0:
387,136,47617,6,0,P|423:124|480:117,2,86.25,4|4|4,2:1|2:3|2:3,0:0:0:0:
343,211,48284,2,0,P|343:265|257:339,1,172.5,12|4,2:2|2:3,0:0:0:0:
182,376,48950,1,6,2:3:0:0:
182,376,49117,1,4,2:3:0:0:
102,341,49284,1,0,0:0:0:0:
33,182,49617,2,0,P|24:143|43:95,2,86.25,12|0|4,2:2|0:0|2:3,0:0:0:0:
111,144,50284,6,0,P|160:122|232:89,1,115,4|8,2:1|2:1,0:0:0:0:
279,38,50784,1,2,2:3:0:0:
279,38,50950,2,0,P|316:33|340:27,1,57.5,4|6,2:3|2:3,0:0:0:0:
421,38,51284,1,8,2:1:0:0:
485,197,51617,2,0,P|496:236|455:310,1,115,4|8,2:3|2:1,0:0:0:0:
413,370,52117,1,2,2:3:0:0:
413,370,52284,1,4,2:3:0:0:
279,274,52617,2,0,P|268:236|259:206,1,57.5,8|2,2:1|2:3,0:0:0:0:
186,179,52950,6,0,P|145:202|57:202,1,115,4|12,2:1|2:2,0:0:0:0:
22,149,53450,1,0,0:0:0:0:
22,149,53617,2,0,P|14:111|7:85,1,57.5,4|4,2:2|2:3,0:0:0:0:
35,10,53950,1,12,2:2:0:0:
206,32,54284,2,0,P|255:37|298:8,2,86.25,4|4|8,2:1|2:3|2:2,0:0:0:0:
131,74,54950,1,4,2:3:0:0:
131,74,55117,1,8,2:2:0:0:
197,128,55284,2,0,P|185:172|178:197,1,57.5,4|4,2:3|2:3,0:0:0:0:
171,277,55617,6,0,P|209:324|296:321,1,126.500003860474,4|4,2:1|2:3,0:0:0:0:
355,377,56117,1,10,2:3:0:0:
416,304,56284,2,0,P|423:248|428:221,1,63.2500019302369,4|2,2:3|2:3,0:0:0:0:
402,198,56534,1,8,2:2:0:0:
393,188,56617,2,0,P|352:195|310:199,1,63.2500019302369,4|10,2:3|2:3,0:0:0:0:
246,224,56950,5,4,2:3:0:0:
246,224,57117,1,2,2:3:0:0:
172,163,57284,2,0,P|174:112|170:74,1,63.2500019302369,4|10,2:3|2:3,0:0:0:0:
213,13,57617,1,4,2:3:0:0:
402,27,57950,1,4,2:3:0:0:
402,27,58117,1,10,2:3:0:0:
485,72,58284,6,0,P|469:130|464:159,1,63.2500019302369,4|2,2:3|2:3,0:0:0:0:
443,224,58617,2,0,L|459:292,1,63.2500019302369,4|10,2:3|2:3,0:0:0:0:
412,369,58950,1,4,2:3:0:0:
337,328,59117,1,2,2:3:0:0:
329,334,59200,1,8,2:2:0:0:
322,341,59284,2,0,P|273:344|243:356,1,63.2500019302369,4|14,2:3|2:3,0:0:0:0:
164,346,59617,6,0,P|117:334|62:311,1,94.8750028953553,4|8,2:3|2:1,0:0:0:0:
103,177,60117,2,0,P|166:192|231:217,1,126.500003860474,12|8,2:1|2:1,0:0:0:0:
314,186,60617,2,0,L|326:157,3,31.6250009651184,8|8|4|4,2:1|2:1|2:3|2:3,0:0:0:0:
360,124,60950,6,0,P|369:82|298:28,1,126.500003860474,4|4,2:1|2:3,0:0:0:0:
221,7,61450,1,10,2:3:0:0:
159,79,61617,2,0,P|168:117|176:165,1,63.2500019302369,4|2,2:3|2:3,0:0:0:0:
204,175,61867,1,8,2:2:0:0:
212,185,61950,2,0,P|200:230|196:262,1,63.2500019302369,4|10,2:3|2:3,0:0:0:0:
211,345,62284,5,4,2:3:0:0:
211,345,62451,1,2,2:3:0:0:
118,362,62617,2,0,P|92:354|36:351,1,63.2500019302369,4|10,2:3|2:3,0:0:0:0:
11,266,62950,1,4,2:3:0:0:
50,67,63284,2,0,P|89:57|117:58,1,63.2500019302369,4|10,2:3|2:3,0:0:0:0:
201,88,63617,6,0,B|268:97|268:97|327:44,1,126.500003860474,4|4,2:3|2:3,0:0:0:0:
398,14,64117,1,10,2:3:0:0:
398,14,64284,2,0,P|410:62|413:88,1,63.2500019302369,4|2,2:3|2:3,0:0:0:0:
445,164,64617,2,0,P|432:212|421:244,1,63.2500019302369,4|10,2:3|2:3,0:0:0:0:
333,238,64950,5,4,2:3:0:0:
262,174,65117,1,8,2:1:0:0:
175,213,65284,2,0,P|123:218|96:222,1,63.2500019302369,4|8,2:3|2:1,0:0:0:0:
28,264,65617,2,0,P|19:319|60:358,1,94.8750028953553,4|8,2:3|2:1,0:0:0:0:
80,369,65950,2,0,L|116:367,3,31.6250009651184,4|2|8|8,2:3|2:3|2:1|2:1,0:0:0:0:
159,362,66284,5,10,2:3:0:0:
323,268,66617,2,0,P|314:237|306:200,1,63.2500019302369,4|2,2:2|2:3,0:0:0:0:
237,142,66950,2,0,P|208:144|161:157,1,63.2500019302369,4|2,2:3|2:3,0:0:0:0:
137,182,67200,1,8,2:2:0:0:
127,190,67284,2,0,P|77:183|48:182,1,63.2500019302369,4|10,2:3|2:3,0:0:0:0:
4,108,67617,6,0,P|19:58|47:32,1,63.2500019302369,4|2,2:3|2:3,0:0:0:0:
114,17,67950,2,0,P|143:27|174:30,1,63.2500019302369,4|10,2:3|2:3,0:0:0:0:
260,84,68284,1,4,2:3:0:0:
183,259,68617,1,4,2:3:0:0:
183,259,68784,1,10,2:3:0:0:
258,315,68950,6,0,P|321:315|383:327,1,126.500003860474,4|4,2:2|2:3,0:0:0:0:
468,368,69450,1,10,2:3:0:0:
500,278,69617,2,0,P|486:230|483:205,1,63.2500019302369,4|2,2:3|2:3,0:0:0:0:
452,186,69867,1,8,2:2:0:0:
442,178,69950,2,0,P|410:179|378:180,1,63.2500019302369,4|14,2:3|2:3,0:0:0:0:
305,118,70284,2,0,P|289:73|294:-1,2,94.8750028953553,4|8|12,2:2|2:1|2:1,0:0:0:0:
378,293,71117,1,8,2:1:0:0:
299,349,71284,2,0,L|249:347,3,31.6250009651184,8|8|4|4,2:1|2:1|2:3|2:3,0:0:0:0:
227,373,71617,6,0,P|185:363|100:369,1,126.500003860474,4|4,2:1|2:3,0:0:0:0:
38,297,72117,1,10,2:3:0:0:
77,210,72284,2,0,L|161:198,1,63.2500019302369,4|2,2:3|2:3,0:0:0:0:
184,217,72534,1,8,2:2:0:0:
193,225,72617,2,0,P|224:225|256:228,1,63.2500019302369,4|10,2:3|2:3,0:0:0:0:
345,272,72950,1,4,2:3:0:0:
345,272,73117,1,2,2:3:0:0:
435,249,73284,2,0,P|442:218|453:178,1,63.2500019302369,4|10,2:3|2:3,0:0:0:0:
489,101,73617,1,4,2:3:0:0:
319,8,73950,2,0,P|282:15|248:18,1,63.2500019302369,4|8,2:3|2:1,0:0:0:0:
178,73,74284,6,0,B|187:117|187:117|218:147|218:147|226:194,1,126.500003860474,4|4,2:2|2:3,0:0:0:0:
161,256,74784,1,10,2:3:0:0:
161,256,74950,2,0,P|119:255|80:249,1,63.2500019302369,4|8,2:2|2:1,0:0:0:0:
53,235,75200,1,8,2:1:0:0:
44,225,75284,2,0,P|40:187|50:145,1,63.2500019302369,4|4,2:3|2:3,0:0:0:0:
61,69,75617,5,4,2:2:0:0:
152,92,75784,1,8,2:1:0:0:
231,41,75950,2,0,L|310:25,1,63.2500019302369,4|4,2:3|2:3,0:0:0:0:
386,10,76284,2,0,P|432:12|468:53,1,94.8750028953553,8|8,2:1|2:1,0:0:0:0:
477,90,76617,2,0,L|466:143,3,31.6250009651184,8|8|8|8,2:1|2:1|2:1|2:1,0:0:0:0:
438,155,76950,6,0,P|445:200|456:290,1,126.500003860474,6|4,2:2|2:3,0:0:0:0:
386,336,77450,2,0,P|337:315|243:330,1,126.500003860474,2|2,2:3|2:3,0:0:0:0:
176,323,77950,2,0,P|173:273|166:256,1,63.2500019302369,14|10,2:3|2:3,0:0:0:0:
100,203,78284,2,0,P|95:170|165:122,1,126.500003860474,6|6,2:2|2:3,0:0:0:0:
245,84,78784,1,2,2:3:0:0:
245,84,78950,1,6,2:3:0:0:
343,231,79284,2,0,P|392:223|418:219,1,63.2500019302369,14|10,2:3|2:3,0:0:0:0:
493,209,79617,6,0,P|489:146|505:54,1,126.500003860474,6|4,2:2|2:3,0:0:0:0:
438,24,80117,1,2,2:3:0:0:
438,24,80284,2,0,P|390:34|358:39,1,63.2500019302369,4|2,2:3|2:3,0:0:0:0:
293,67,80617,2,0,P|246:58|216:52,1,63.2500019302369,12|10,2:3|2:3,0:0:0:0:
137,39,80950,6,0,P|135:86|120:140,1,94.8750028953553,6|14,2:3|2:3,0:0:0:0:
171,274,81450,2,0,P|221:278|288:244,1,126.500003860474,14|8,2:2|2:1,0:0:0:0:
351,183,81950,2,0,L|390:191,3,31.6250009651184,8|8|6|4,2:1|2:1|2:3|2:3,0:0:0:0:
424,202,82284,6,0,P|429:252|449:349,1,126.500003860474,6|14,2:1|2:3,0:0:0:0:
370,374,82784,1,2,2:3:0:0:
370,374,82950,2,0,P|324:351|296:354,1,63.2500019302369,6|2,2:3|2:3,0:0:0:0:
226,329,83284,2,0,P|171:344|147:346,1,63.2500019302369,6|2,2:3|2:3,0:0:0:0:
71,363,83617,1,6,2:3:0:0:
8,197,83950,2,0,L|19:123,1,63.2500019302369,12|2,2:3|2:3,0:0:0:0:
56,54,84284,2,0,P|116:47|175:80,1,126.500003860474,6|4,2:3|2:3,0:0:0:0:
255,120,84784,1,10,2:3:0:0:
255,120,84950,6,0,P|319:107|390:99,1,126.500003860474,6|6,2:3|2:3,0:0:0:0:
470,122,85450,1,2,2:3:0:0:
470,122,85617,2,0,L|471:185,1,63.2500019302369,6|8,2:3|2:1,0:0:0:0:
444,269,85950,2,0,L|438:310,3,31.6250009651184,6|8|10|8,2:3|2:1|2:1|2:1,0:0:0:0:
410,334,86284,6,0,P|358:345|332:348,1,63.2500019302369,14|6,2:3|2:2,0:0:0:0:
272,300,86617,1,6,2:3:0:0:
198,349,86784,1,6,2:3:0:0:
126,297,86950,2,2,P|96:232|164:147,1,189.750005790711,6|2,2:2|2:2,0:0:0:0:
234,99,87617,6,0,P|241:57|247:14,2,86.25,4|4|4,2:1|2:3|2:3,0:0:0:0:
284,169,88284,2,0,P|326:177|369:182,1,86.25,4|0,2:2|0:0,0:0:0:0:
458,283,88784,1,4,2:3:0:0:
458,283,88950,2,0,P|457:317|442:372,2,86.25,4|4|4,2:3|2:3|2:3,0:0:0:0:
499,209,89617,2,0,P|502:148|469:123,1,86.25,4|0,2:2|0:0,0:0:0:0:
385,92,90117,1,4,2:3:0:0:
385,92,90284,6,0,P|393:50|396:-2,2,86.25,4|4|4,2:1|2:3|2:3,0:0:0:0:
315,142,90950,2,0,B|289:180|314:239|329:229|354:282|319:326,1,172.5,12|4,2:2|2:3,0:0:0:0:
272,370,91617,2,0,L|226:360,3,28.75,6|4|4|4,2:3|2:3|2:3|2:3,0:0:0:0:
206,341,91950,2,0,P|162:348|128:359,1,57.5,2|4,2:3|2:3,0:0:0:0:
62,350,92284,2,0,P|28:325|35:264,1,86.25,12|0,2:2|0:0,0:0:0:0:
114,190,92784,1,4,2:3:0:0:
114,190,92950,6,0,P|187:203|248:212,1,115,4|8,2:1|2:1,0:0:0:0:
309,175,93450,1,2,2:3:0:0:
309,175,93617,2,0,P|311:140|308:115,1,57.5,4|6,2:3|2:3,0:0:0:0:
328,33,93950,1,8,2:1:0:0:
489,93,94284,2,0,P|495:134|461:203,1,115,4|8,2:3|2:1,0:0:0:0:
405,261,94784,1,2,2:3:0:0:
405,261,94950,1,4,2:3:0:0:
239,211,95284,2,0,P|202:215|169:219,1,57.5,8|2,2:1|2:3,0:0:0:0:
97,233,95617,6,0,P|110:283|122:359,1,115,4|12,2:1|2:2,0:0:0:0:
198,381,96117,1,0,0:0:0:0:
198,381,96284,2,0,P|242:366|312:364,1,115,4|12,2:2|2:2,0:0:0:0:
395,375,96784,1,0,0:0:0:0:
452,310,96950,6,0,B|462:261|434:220|434:220|534:113|481:43|481:43|444:45|420:86,1,368,4|0,2:1|0:0,0:0:0:0:
495,16,110284,5,12,2:3:0:0:
367,119,110617,2,0,B|310:103|321:60|248:50,1,126.500003860474,12|4,2:1|2:3,0:0:0:0:
167,61,111117,1,2,2:3:0:0:
159,67,111200,1,8,2:2:0:0:
152,73,111284,2,0,P|145:116|140:151,1,63.2500019302369,4|10,2:3|2:3,0:0:0:0:
149,234,111617,5,4,2:3:0:0:
149,234,111784,1,2,2:3:0:0:
240,270,111950,2,0,P|269:260|289:235,1,63.2500019302369,4|10,2:3|2:3,0:0:0:0:
336,152,112284,1,4,2:3:0:0:
487,274,112617,1,4,2:3:0:0:
487,274,112784,1,10,2:3:0:0:
424,345,112950,6,0,P|353:348|289:356,1,126.500003860474,4|4,2:3|2:3,0:0:0:0:
210,318,113450,1,10,2:3:0:0:
255,234,113617,2,0,P|264:202|241:165,1,63.2500019302369,4|2,2:3|2:3,0:0:0:0:
219,141,113867,1,8,2:2:0:0:
208,133,113950,2,0,L|146:148,1,63.2500019302369,4|14,2:3|2:3,0:0:0:0:
54,173,114284,6,0,P|32:219|43:267,1,94.8750028953553,4|8,2:3|2:1,0:0:0:0:
128,372,114784,2,0,B|188:351|161:319|233:295,1,126.500003860474,12|8,2:1|2:1,0:0:0:0:
314,259,115284,2,0,L|347:271,3,31.6250009651184,8|8|4|4,2:1|2:1|2:3|2:3,0:0:0:0:
383,288,115617,6,0,P|430:272|419:197,1,126.500003860474,4|4,2:1|2:3,0:0:0:0:
373,126,116117,1,10,2:3:0:0:
273,136,116284,2,0,P|231:146|191:155,1,63.2500019302369,4|2,2:3|2:3,0:0:0:0:
170,175,116534,1,8,2:2:0:0:
157,174,116617,1,4,2:3:0:0:
76,224,116784,1,10,2:3:0:0:
15,151,116950,2,0,P|2:114|9:86,1,63.2500019302369,4|2,2:3|2:3,0:0:0:0:
74,24,117284,2,0,P|108:24|145:15,1,63.2500019302369,4|10,2:3|2:3,0:0:0:0:
225,50,117617,1,4,2:3:0:0:
412,18,117950,2,0,P|434:66|438:90,1,63.2500019302369,4|10,2:3|2:3,0:0:0:0:
500,146,118284,6,0,P|487:184|469:273,1,126.500003860474,4|4,2:2|2:3,0:0:0:0:
394,326,118784,1,10,2:3:0:0:
330,256,118950,2,0,P|313:219|286:205,1,63.2500019302369,4|10,2:3|2:3,0:0:0:0:
254,181,119200,1,8,2:1:0:0:
243,173,119284,2,0,P|190:192|172:194,1,63.2500019302369,4|6,2:3|2:3,0:0:0:0:
88,190,119617,5,4,2:1:0:0:
58,280,119784,1,8,2:1:0:0:
122,349,119950,2,0,P|161:336|192:330,1,63.2500019302369,2|4,2:3|2:3,0:0:0:0:
265,283,120284,2,0,B|317:302|292:328|350:348,1,94.8750028953553,12|8,2:3|2:1,0:0:0:0:
380,359,120617,2,0,L|411:355,3,31.6250009651184,12|8|8|8,2:3|2:1|2:1|2:1,0:0:0:0:
457,352,120950,5,2,2:2:0:0:
256,192,122950,12,8,124617,2:1:0:0:
255,193,124950,6,0,P|205:201|115:231,1,126.500003860474,4|4,2:1|2:3,0:0:0:0:
54,275,125450,1,10,2:3:0:0:
54,275,125617,2,0,P|41:228|28:193,1,63.2500019302369,4|2,2:3|2:3,0:0:0:0:
4,178,125867,1,8,2:2:0:0:
6,165,125950,2,0,P|20:136|52:109,1,63.2500019302369,12|10,2:3|2:3,0:0:0:0:
109,46,126284,2,0,B|177:56|151:106|211:118,1,126.500003860474,4|4,2:3|2:3,0:0:0:0:
295,76,126784,1,10,2:3:0:0:
295,76,126950,2,0,P|305:127|322:209,1,126.500003860474,4|12,2:3|2:3,0:0:0:0:
265,278,127450,1,10,2:3:0:0:
265,278,127617,5,4,2:3:0:0:
431,373,127950,2,0,P|453:335|451:303,1,63.2500019302369,4|10,2:3|2:3,0:0:0:0:
497,231,128284,2,0,P|471:178|467:161,1,63.2500019302369,4|2,2:3|2:3,0:0:0:0:
440,136,128534,1,8,2:2:0:0:
444,124,128617,1,12,2:3:0:0:
469,39,128784,1,14,2:3:0:0:
373,25,128950,6,0,P|335:42|266:45,1,94.8750028953553,12|8,2:3|2:1,0:0:0:0:
143,14,129450,2,0,P|159:60|177:138,1,126.500003860474,12|8,2:2|2:1,0:0:0:0:
230,214,129950,2,0,L|223:264,3,31.6250009651184,8|8|12|4,2:1|2:1|2:3|2:3,0:0:0:0:
218,292,130284,6,0,P|166:299|74:319,1,126.500003860474,4|4,2:1|2:3,0:0:0:0:
22,250,130784,1,2,2:3:0:0:
22,250,130950,2,0,P|16:203|35:177,1,63.2500019302369,4|2,2:3|2:3,0:0:0:0:
42,150,131200,1,8,2:2:0:0:
52,143,131284,2,0,P|86:149|123:156,1,63.2500019302369,4|2,2:3|2:3,0:0:0:0:
202,190,131617,2,0,B|243:234|243:234|314:229,1,126.500003860474,4|4,2:3|2:3,0:0:0:0:
397,189,132117,1,2,2:3:0:0:
397,189,132284,1,4,2:3:0:0:
492,27,132617,2,0,L|408:38,1,63.2500019302369,12|8,2:3|2:1,0:0:0:0:
335,21,132950,6,0,B|265:27|305:68|210:78,1,126.500003860474,4|4,2:3|2:3,0:0:0:0:
144,36,133450,1,2,2:3:0:0:
144,36,133617,2,0,P|92:25|70:17,1,63.2500019302369,4|10,2:3|2:3,0:0:0:0:
37,38,133867,1,8,2:1:0:0:
29,48,133950,2,0,P|37:78|43:109,1,63.2500019302369,4|8,2:3|2:2,0:0:0:0:
102,191,134284,5,12,2:2:0:0:
102,191,134450,1,2,2:3:0:0:
191,148,134617,2,0,P|248:149|271:160,1,63.2500019302369,4|2,2:3|2:3,0:0:0:0:
324,213,134950,2,0,L|314:283,1,63.2500019302369,4|8,2:3|2:1,0:0:0:0:
267,358,135284,2,0,L|209:368,3,31.6250009651184,12|8|8|8,2:3|2:1|2:1|2:1,0:0:0:0:
189,373,135617,6,0,P|157:337|81:333,1,126.500003860474,4|4,2:1|2:3,0:0:0:0:
12,268,136117,1,10,2:3:0:0:
12,268,136284,2,0,P|26:217|29:192,1,63.2500019302369,4|2,2:3|2:3,0:0:0:0:
16,160,136534,1,8,2:2:0:0:
24,150,136617,1,12,2:3:0:0:
116,127,136784,1,10,2:3:0:0:
180,195,136950,2,0,P|225:199|297:129,1,126.500003860474,4|4,2:3|2:3,0:0:0:0:
324,65,137450,1,10,2:3:0:0:
239,21,137617,2,0,P|188:42|103:43,1,126.500003860474,4|12,2:3|2:3,0:0:0:0:
32,14,138117,1,10,2:3:0:0:
32,14,138284,5,4,2:3:0:0:
15,203,138617,2,0,L|41:273,1,63.2500019302369,4|10,2:3|2:3,0:0:0:0:
105,328,138950,2,0,P|138:312|180:311,1,63.2500019302369,4|2,2:3|2:3,0:0:0:0:
201,338,139200,1,8,2:2:0:0:
210,346,139284,2,0,P|254:353|281:345,1,63.2500019302369,12|14,2:3|2:3,0:0:0:0:
323,269,139617,2,0,P|297:226|298:164,1,94.8750028953553,12|8,2:3|2:1,0:0:0:0:
336,46,140117,2,0,P|368:21|454:28,1,126.500003860474,12|8,2:2|2:1,0:0:0:0:
500,106,140617,2,0,L|492:146,3,31.6250009651184,8|8|12|4,2:1|2:1|2:3|2:3,0:0:0:0:
481,182,140950,6,0,B|425:182|429:226|365:229,1,126.500003860474,4|4,2:1|2:3,0:0:0:0:
275,230,141450,1,2,2:3:0:0:
275,230,141617,2,0,P|248:189|247:169,1,63.2500019302369,4|2,2:3|2:3,0:0:0:0:
234,129,141867,1,8,2:2:0:0:
238,117,141950,1,4,2:3:0:0:
274,29,142117,1,2,2:3:0:0:
182,3,142284,2,0,P|136:16|52:24,1,126.500003860474,4|4,2:3|2:3,0:0:0:0:
5,104,142784,1,2,2:3:0:0:
5,104,142950,1,4,2:3:0:0:
44,290,143284,2,0,P|83:285|128:288,1,63.2500019302369,12|8,2:3|2:1,0:0:0:0:
183,342,143617,6,0,P|215:358|314:363,1,126.500003860474,4|4,2:3|2:3,0:0:0:0:
395,332,144117,1,10,2:3:0:0:
395,332,144284,2,0,P|403:279|410:241,1,63.2500019302369,4|8,2:3|2:1,0:0:0:0:
432,230,144534,1,8,2:1:0:0:
439,219,144617,2,0,P|431:166|424:128,1,63.2500019302369,4|4,2:3|2:3,0:0:0:0:
392,68,144950,5,12,2:3:0:0:
307,111,145117,1,4,2:2:0:0:
233,50,145284,2,0,P|191:49|166:41,1,63.2500019302369,4|4,2:3|2:2,0:0:0:0:
76,50,145617,2,0,P|50:107|71:178,1,126.500003860474,4|8,2:1|2:1,0:0:0:0:
124,311,146284,6,0,L|113:375,2,51.7499984207154
183,253,146784,1,0,0:0:0:0:
183,253,146950,2,0,P|225:273|240:278,1,51.7499984207154
297,323,147284,2,0,L|328:310,3,25.8749992103577
353,280,147617,5,12,2:3:0:0:
353,280,147784,1,12,2:3:0:0:
353,280,147950,2,0,L|361:205,1,63.2500019302369,12|12,2:3|2:3,0:0:0:0:
399,130,148284,1,12,2:2:0:0:
