osu file format v14

[General]
AudioFilename: audio.mp3
AudioLeadIn: 0
PreviewTime: 71557
Countdown: 0
SampleSet: Soft
StackLeniency: 0.4
Mode: 3
LetterboxInBreaks: 0
SpecialStyle: 0
WidescreenStoryboard: 1

[Editor]
Bookmarks: 4957,10957,15757,20557,25357,30157,38557,49357,58957,68557,70957,75757,87757,100957,110557,120157,129757,139357,148957,158557,165757,177757,196957,201757,206557,218557,230557
DistanceSpacing: 0.6
BeatDivisor: 4
GridSize: 4
TimelineZoom: 2.4

[Metadata]
Title:Mazare Party
TitleUnicode:Mazare Party
Artist:kradness
ArtistUnicode:くらっどねす
Creator:-Famous-
Version:Hiranakas Party!!!
Source:
Tags:ななひら nanahira ゆかっこ yukacco かめりあ camellia albmum mind hack produced by exit tunes
BeatmapID:1101901
BeatmapSetID:515946

[Difficulty]
HPDrainRate:8.2
CircleSize:4
OverallDifficulty:8.5
ApproachRate:9.6
SliderMultiplier:2
SliderTickRate:1

[Events]
//Background and Video events
//Break Periods
//Storyboard Layer 0 (Background)
//Storyboard Layer 1 (Fail)
//Storyboard Layer 2 (Pass)
//Storyboard Layer 3 (Foreground)
//Storyboard Sound Samples

[TimingPoints]
157,300,4,2,0,40,1,0

[HitObjects]
64,192,4957,5,0,0:0:0:0:
320,192,4957,1,0,0:0:0:0:
64,192,5257,1,0,0:0:0:0:
320,192,5257,1,0,0:0:0:0:
64,192,5557,1,0,0:0:0:0:
192,192,5632,1,0,0:0:0:0:
320,192,5707,1,0,0:0:0:0:
448,192,5782,1,0,0:0:0:0:
64,192,5857,1,0,0:0:0:0:
192,192,5857,1,0,0:0:0:0:
320,192,5932,1,0,0:0:0:0:
448,192,5932,1,0,0:0:0:0:
64,192,6007,1,0,0:0:0:0:
192,192,6007,1,0,0:0:0:0:
320,192,6082,1,0,0:0:0:0:
448,192,6082,1,0,0:0:0:0:
64,192,6157,128,0,6457:0:0:0:0:
192,192,6157,128,0,6457:0:0:0:0:
320,192,6157,128,0,6457:0:0:0:0:
192,192,7357,128,0,7657:0:0:0:0:
320,192,7357,128,0,7657:0:0:0:0:
448,192,7357,128,0,7657:0:0:0:0:
64,192,8857,128,0,9157:0:0:0:0:
320,192,8857,128,0,9157:0:0:0:0:
448,192,8857,128,0,9157:0:0:0:0:
192,192,9457,128,0,9607:0:0:0:0:
64,192,9457,128,0,9607:0:0:0:0:
448,192,9457,128,0,9607:0:0:0:0:
192,192,9757,1,0,0:0:0:0:
320,192,9757,1,0,0:0:0:0:
448,192,9757,1,0,0:0:0:0:
64,192,9907,1,0,0:0:0:0:
192,192,9982,1,0,0:0:0:0:
320,192,10057,1,0,0:0:0:0:
448,192,10057,1,0,0:0:0:0:
64,192,10057,1,0,0:0:0:0:
448,192,10207,1,0,0:0:0:0:
64,192,10357,1,0,0:0:0:0:
320,192,10357,1,0,0:0:0:0:
192,192,10357,1,0,0:0:0:0:
320,192,10507,1,0,0:0:0:0:
64,192,10657,1,0,0:0:0:0:
448,192,10657,1,0,0:0:0:0:
192,192,10657,1,0,0:0:0:0:
192,192,10807,1,0,0:0:0:0:
64,192,10957,1,0,0:0:0:0:
448,192,10957,1,0,0:0:0:0:
320,192,10957,1,0,0:0:0:0:
64,192,11257,1,0,0:0:0:0:
320,192,11257,1,0,0:0:0:0:
64,192,11557,1,0,0:0:0:0:
320,192,11557,1,0,0:0:0:0:
64,192,11857,1,0,0:0:0:0:
320,192,11857,1,0,0:0:0:0:
64,192,12157,1,0,0:0:0:0:
320,192,12157,1,0,0:0:0:0:
64,192,12457,1,0,0:0:0:0:
320,192,12457,1,0,0:0:0:0:
64,192,12757,1,0,0:0:0:0:
320,192,12757,1,0,0:0:0:0:
64,192,13057,1,0,0:0:0:0:
320,192,13057,1,0,0:0:0:0:
64,192,13357,1,0,0:0:0:0:
320,192,13357,1,0,0:0:0:0:
192,192,13507,1,0,0:0:0:0:
320,192,13507,1,0,0:0:0:0:
64,192,13657,1,0,0:0:0:0:
448,192,13657,1,0,0:0:0:0:
192,192,13807,1,0,0:0:0:0:
448,192,13807,1,0,0:0:0:0:
64,192,13957,1,0,0:0:0:0:
192,192,14032,1,0,0:0:0:0:
448,192,14107,1,0,0:0:0:0:
320,192,14182,1,0,0:0:0:0:
64,192,14257,1,0,0:0:0:0:
192,192,14332,1,0,0:0:0:0:
320,192,14407,1,0,0:0:0:0:
448,192,14482,1,0,0:0:0:0:
320,192,14557,1,0,0:0:0:0:
192,192,14557,1,0,0:0:0:0:
64,192,14557,1,0,0:0:0:0:
64,192,15757,128,0,15907:0:0:0:0:
192,192,15757,128,0,15907:0:0:0:0:
320,192,16057,128,0,16207:0:0:0:0:
64,192,16057,128,0,16207:0:0:0:0:
64,192,16357,128,0,16507:0:0:0:0:
448,192,16357,128,0,16507:0:0:0:0:
320,192,16957,128,0,17107:0:0:0:0:
448,192,16957,128,0,17107:0:0:0:0:
192,192,17257,128,0,17407:0:0:0:0:
448,192,17257,128,0,17407:0:0:0:0:
64,192,17557,128,0,17707:0:0:0:0:
448,192,17557,128,0,17707:0:0:0:0:
192,192,18157,128,0,18307:0:0:0:0:
448,192,18157,128,0,18307:0:0:0:0:
320,192,18457,128,0,18607:0:0:0:0:
64,192,18457,128,0,18607:0:0:0:0:
448,192,18757,1,0,0:0:0:0:
192,192,18757,1,0,0:0:0:0:
64,192,18907,1,0,0:0:0:0:
448,192,18907,1,0,0:0:0:0:
320,192,19057,1,0,0:0:0:0:
64,192,19057,1,0,0:0:0:0:
448,192,19207,1,0,0:0:0:0:
320,192,19207,1,0,0:0:0:0:
64,192,19357,128,0,19507:0:0:0:0:
448,192,19357,128,0,19507:0:0:0:0:
64,192,19657,128,0,19807:0:0:0:0:
192,192,19657,128,0,19807:0:0:0:0:
192,192,19957,128,0,20107:0:0:0:0:
448,192,19957,128,0,20107:0:0:0:0:
64,192,20557,1,0,0:0:0:0:
448,192,20557,1,0,0:0:0:0:
320,192,20707,1,0,0:0:0:0:
64,192,20707,1,0,0:0:0:0:
448,192,20857,1,0,0:0:0:0:
320,192,20857,1,0,0:0:0:0:
448,192,21007,1,0,0:0:0:0:
192,192,21007,1,0,0:0:0:0:
64,192,21157,1,0,0:0:0:0:
192,192,21157,1,0,0:0:0:0:
448,192,21232,1,0,0:0:0:0:
320,192,21307,1,0,0:0:0:0:
192,192,21382,1,0,0:0:0:0:
64,192,21757,1,0,0:0:0:0:
448,192,21757,1,0,0:0:0:0:
192,192,21907,1,0,0:0:0:0:
448,192,21907,1,0,0:0:0:0:
64,192,22057,1,0,0:0:0:0:
192,192,22057,1,0,0:0:0:0:
64,192,22207,1,0,0:0:0:0:
448,192,22207,1,0,0:0:0:0:
320,192,22357,1,0,0:0:0:0:
448,192,22357,1,0,0:0:0:0:
64,192,22432,1,0,0:0:0:0:
192,192,22507,1,0,0:0:0:0:
320,192,22582,1,0,0:0:0:0:
64,192,22957,1,0,0:0:0:0:
192,192,23032,1,0,0:0:0:0:
320,192,23107,1,0,0:0:0:0:
448,192,23182,1,0,0:0:0:0:
64,192,23257,1,0,0:0:0:0:
192,192,23332,1,0,0:0:0:0:
320,192,23407,1,0,0:0:0:0:
448,192,23482,1,0,0:0:0:0:
320,192,23557,1,0,0:0:0:0:
192,192,23632,1,0,0:0:0:0:
64,192,23707,1,0,0:0:0:0:
448,192,23782,1,0,0:0:0:0:
320,192,23857,1,0,0:0:0:0:
192,192,23932,1,0,0:0:0:0:
64,192,24007,1,0,0:0:0:0:
192,192,24082,1,0,0:0:0:0:
448,192,24157,1,0,0:0:0:0:
320,192,24194,1,0,0:0:0:0:
192,192,24232,1,0,0:0:0:0:
64,192,24269,1,0,0:0:0:0:
448,192,24307,1,0,0:0:0:0:
320,192,24344,1,0,0:0:0:0:
192,192,24382,1,0,0:0:0:0:
64,192,24419,1,0,0:0:0:0:
448,192,24457,1,0,0:0:0:0:
320,192,24494,1,0,0:0:0:0:
192,192,24532,1,0,0:0:0:0:
64,192,24569,1,0,0:0:0:0:
448,192,24607,1,0,0:0:0:0:
320,192,24644,1,0,0:0:0:0:
192,192,24682,1,0,0:0:0:0:
64,192,24719,1,0,0:0:0:0:
448,192,24757,1,0,0:0:0:0:
320,192,24794,1,0,0:0:0:0:
64,192,24832,1,0,0:0:0:0:
192,192,24869,1,0,0:0:0:0:
320,192,24907,1,0,0:0:0:0:
448,192,24944,1,0,0:0:0:0:
64,192,24982,1,0,0:0:0:0:
192,192,25019,1,0,0:0:0:0:
320,192,25057,1,0,0:0:0:0:
448,192,25094,1,0,0:0:0:0:
64,192,25132,1,0,0:0:0:0:
192,192,25169,1,0,0:0:0:0:
320,192,25207,1,0,0:0:0:0:
448,192,25244,1,0,0:0:0:0:
192,192,25282,1,0,0:0:0:0:
64,192,25319,1,0,0:0:0:0:
448,192,25357,1,0,0:0:0:0:
192,192,25432,1,0,0:0:0:0:
320,192,25507,1,0,0:0:0:0:
64,192,25582,1,0,0:0:0:0:
448,192,25657,1,0,0:0:0:0:
192,192,25732,1,0,0:0:0:0:
320,192,25807,1,0,0:0:0:0:
64,192,25882,1,0,0:0:0:0:
448,192,25957,1,0,0:0:0:0:
192,192,26032,1,0,0:0:0:0:
320,192,26107,1,0,0:0:0:0:
64,192,26182,1,0,0:0:0:0:
448,192,26257,1,0,0:0:0:0:
192,192,26332,1,0,0:0:0:0:
320,192,26407,1,0,0:0:0:0:
64,192,26482,1,0,0:0:0:0:
448,192,26557,1,0,0:0:0:0:
192,192,26557,1,0,0:0:0:0:
64,192,26632,1,0,0:0:0:0:
192,192,26707,1,0,0:0:0:0:
320,192,26782,1,0,0:0:0:0:
448,192,26857,1,0,0:0:0:0:
64,192,26857,1,0,0:0:0:0:
320,192,26932,1,0,0:0:0:0:
192,192,27007,1,0,0:0:0:0:
64,192,27082,1,0,0:0:0:0:
192,192,27157,1,0,0:0:0:0:
448,192,27157,1,0,0:0:0:0:
320,192,27232,1,0,0:0:0:0:
192,192,27307,1,0,0:0:0:0:
64,192,27382,1,0,0:0:0:0:
320,192,27457,1,0,0:0:0:0:
448,192,27457,1,0,0:0:0:0:
64,192,27532,1,0,0:0:0:0:
192,192,27607,1,0,0:0:0:0:
320,192,27682,1,0,0:0:0:0:
448,192,27757,1,0,0:0:0:0:
64,192,27757,1,0,0:0:0:0:
320,192,27832,1,0,0:0:0:0:
192,192,27907,1,0,0:0:0:0:
64,192,27982,1,0,0:0:0:0:
320,192,28057,1,0,0:0:0:0:
448,192,28057,1,0,0:0:0:0:
192,192,28132,1,0,0:0:0:0:
64,192,28207,1,0,0:0:0:0:
448,192,28282,1,0,0:0:0:0:
192,192,28357,1,0,0:0:0:0:
320,192,28357,1,0,0:0:0:0:
64,192,28432,1,0,0:0:0:0:
448,192,28507,1,0,0:0:0:0:
320,192,28582,1,0,0:0:0:0:
64,192,28657,1,0,0:0:0:0:
192,192,28657,1,0,0:0:0:0:
320,192,28732,1,0,0:0:0:0:
448,192,28732,1,0,0:0:0:0:
192,192,28807,1,0,0:0:0:0:
64,192,28807,1,0,0:0:0:0:
320,192,28882,1,0,0:0:0:0:
448,192,28882,1,0,0:0:0:0:
64,192,28957,1,0,0:0:0:0:
192,192,28957,1,0,0:0:0:0:
448,192,29107,128,0,29182:0:0:0:0:
192,192,29257,128,0,29332:0:0:0:0:
320,192,29407,128,0,29482:0:0:0:0:
64,192,29557,128,0,29632:0:0:0:0:
448,192,29707,128,0,29782:0:0:0:0:
192,192,29857,128,0,29932:0:0:0:0:
320,192,30007,128,0,30082:0:0:0:0:
64,192,30157,1,0,0:0:0:0:
192,192,30157,1,0,0:0:0:0:
320,192,30232,1,0,0:0:0:0:
448,192,30307,1,0,0:0:0:0:
192,192,30457,1,0,0:0:0:0:
64,192,30457,1,0,0:0:0:0:
320,192,30532,1,0,0:0:0:0:
448,192,30607,1,0,0:0:0:0:
64,192,30757,1,0,0:0:0:0:
192,192,30757,1,0,0:0:0:0:
320,192,30832,1,0,0:0:0:0:
64,192,30982,1,0,0:0:0:0:
320,192,31057,1,0,0:0:0:0:
192,192,31057,1,0,0:0:0:0:
64,192,31207,1,0,0:0:0:0:
448,192,31357,1,0,0:0:0:0:
320,192,31357,1,0,0:0:0:0:
64,192,31507,1,0,0:0:0:0:
448,192,31657,1,0,0:0:0:0:
320,192,31732,1,0,0:0:0:0:
192,192,31807,1,0,0:0:0:0:
64,192,31882,1,0,0:0:0:0:
448,192,31957,1,0,0:0:0:0:
192,192,31957,1,0,0:0:0:0:
320,192,32107,1,0,0:0:0:0:
64,192,32257,1,0,0:0:0:0:
448,192,32257,1,0,0:0:0:0:
192,192,32407,1,0,0:0:0:0:
448,192,32557,1,0,0:0:0:0:
64,192,32557,1,0,0:0:0:0:
192,192,32632,1,0,0:0:0:0:
320,192,32707,1,0,0:0:0:0:
448,192,32857,1,0,0:0:0:0:
64,192,32857,1,0,0:0:0:0:
320,192,32932,1,0,0:0:0:0:
192,192,33007,1,0,0:0:0:0:
64,192,33157,1,0,0:0:0:0:
448,192,33157,1,0,0:0:0:0:
192,192,33232,1,0,0:0:0:0:
320,192,33307,1,0,0:0:0:0:
448,192,33382,1,0,0:0:0:0:
192,192,33457,1,0,0:0:0:0:
64,192,33457,1,0,0:0:0:0:
448,192,33607,1,0,0:0:0:0:
64,192,33757,1,0,0:0:0:0:
320,192,33757,1,0,0:0:0:0:
192,192,33907,1,0,0:0:0:0:
64,192,34057,1,0,0:0:0:0:
192,192,34132,1,0,0:0:0:0:
320,192,34207,1,0,0:0:0:0:
448,192,34282,1,0,0:0:0:0:
64,192,34357,1,0,0:0:0:0:
192,192,34357,1,0,0:0:0:0:
448,192,34507,1,0,0:0:0:0:
320,192,34657,1,0,0:0:0:0:
64,192,34657,1,0,0:0:0:0:
192,192,34807,1,0,0:0:0:0:
320,192,34957,1,0,0:0:0:0:
448,192,34957,1,0,0:0:0:0:
192,192,35032,1,0,0:0:0:0:
64,192,35107,1,0,0:0:0:0:
320,192,35257,1,0,0:0:0:0:
448,192,35257,1,0,0:0:0:0:
192,192,35332,1,0,0:0:0:0:
64,192,35407,1,0,0:0:0:0:
320,192,35557,1,0,0:0:0:0:
448,192,35557,1,0,0:0:0:0:
192,192,35632,1,0,0:0:0:0:
64,192,35782,1,0,0:0:0:0:
192,192,35857,1,0,0:0:0:0:
320,192,35857,1,0,0:0:0:0:
64,192,36007,1,0,0:0:0:0:
448,192,36157,1,0,0:0:0:0:
320,192,36157,1,0,0:0:0:0:
192,192,36307,1,0,0:0:0:0:
448,192,36457,1,0,0:0:0:0:
320,192,36532,1,0,0:0:0:0:
192,192,36607,1,0,0:0:0:0:
64,192,36682,1,0,0:0:0:0:
448,192,36757,1,0,0:0:0:0:
192,192,36757,1,0,0:0:0:0:
320,192,36907,1,0,0:0:0:0:
64,192,37057,1,0,0:0:0:0:
448,192,37057,1,0,0:0:0:0:
192,192,37207,1,0,0:0:0:0:
448,192,37357,1,0,0:0:0:0:
64,192,37357,1,0,0:0:0:0:
192,192,37432,1,0,0:0:0:0:
320,192,37507,1,0,0:0:0:0:
64,192,37657,1,0,0:0:0:0:
448,192,37657,1,0,0:0:0:0:
320,192,37732,1,0,0:0:0:0:
192,192,37807,1,0,0:0:0:0:
64,192,37957,1,0,0:0:0:0:
448,192,37957,1,0,0:0:0:0:
192,192,38032,1,0,0:0:0:0:
320,192,38107,1,0,0:0:0:0:
64,192,38257,1,0,0:0:0:0:
192,192,38257,1,0,0:0:0:0:
448,192,38407,1,0,0:0:0:0:
64,192,38557,1,0,0:0:0:0:
320,192,38557,1,0,0:0:0:0:
448,192,38707,1,0,0:0:0:0:
320,192,38782,1,0,0:0:0:0:
64,192,38857,1,0,0:0:0:0:
192,192,38932,1,0,0:0:0:0:
448,192,39007,1,0,0:0:0:0:
320,192,39082,1,0,0:0:0:0:
192,192,39157,1,0,0:0:0:0:
192,192,39307,1,0,0:0:0:0:
192,192,39457,1,0,0:0:0:0:
192,192,39607,1,0,0:0:0:0:
64,192,39757,1,0,0:0:0:0:
448,192,39757,1,0,0:0:0:0:
320,192,39757,1,0,0:0:0:0:
192,192,39907,1,0,0:0:0:0:
448,192,40057,1,0,0:0:0:0:
64,192,40057,1,0,0:0:0:0:
320,192,40207,1,0,0:0:0:0:
192,192,40357,1,0,0:0:0:0:
64,192,40357,1,0,0:0:0:0:
448,192,40507,1,0,0:0:0:0:
320,192,40657,1,0,0:0:0:0:
64,192,40657,1,0,0:0:0:0:
192,192,40807,1,0,0:0:0:0:
448,192,40957,1,0,0:0:0:0:
64,192,40957,1,0,0:0:0:0:
320,192,41107,1,0,0:0:0:0:
64,192,41257,1,0,0:0:0:0:
192,192,41257,1,0,0:0:0:0:
448,192,41407,1,0,0:0:0:0:
320,192,41557,1,0,0:0:0:0:
192,192,41557,1,0,0:0:0:0:
64,192,41707,1,0,0:0:0:0:
448,192,41857,1,0,0:0:0:0:
320,192,41857,1,0,0:0:0:0:
192,192,42007,1,0,0:0:0:0:
64,192,42157,1,0,0:0:0:0:
320,192,42157,1,0,0:0:0:0:
448,192,42307,1,0,0:0:0:0:
320,192,42457,1,0,0:0:0:0:
192,192,42457,1,0,0:0:0:0:
64,192,42607,1,0,0:0:0:0:
448,192,42757,1,0,0:0:0:0:
192,192,42757,1,0,0:0:0:0:
320,192,42907,1,0,0:0:0:0:
64,192,43057,1,0,0:0:0:0:
192,192,43057,1,0,0:0:0:0:
448,192,43207,1,0,0:0:0:0:
320,192,43357,1,0,0:0:0:0:
64,192,43357,1,0,0:0:0:0:
192,192,43507,1,0,0:0:0:0:
448,192,43657,1,0,0:0:0:0:
320,192,43657,1,0,0:0:0:0:
64,192,43807,1,0,0:0:0:0:
448,192,43957,1,0,0:0:0:0:
320,192,43957,1,0,0:0:0:0:
64,192,44032,1,0,0:0:0:0:
192,192,44107,1,0,0:0:0:0:
320,192,44182,1,0,0:0:0:0:
64,192,44257,1,0,0:0:0:0:
192,192,44257,1,0,0:0:0:0:
448,192,44332,1,0,0:0:0:0:
320,192,44407,1,0,0:0:0:0:
192,192,44482,1,0,0:0:0:0:
320,192,44557,1,0,0:0:0:0:
448,192,44557,1,0,0:0:0:0:
64,192,44707,1,0,0:0:0:0:
448,192,44857,1,0,0:0:0:0:
192,192,44857,1,0,0:0:0:0:
320,192,45007,1,0,0:0:0:0:
192,192,45157,1,0,0:0:0:0:
64,192,45157,1,0,0:0:0:0:
448,192,45307,1,0,0:0:0:0:
320,192,45457,1,0,0:0:0:0:
192,192,45457,1,0,0:0:0:0:
64,192,45607,1,0,0:0:0:0:
448,192,45757,1,0,0:0:0:0:
192,192,45757,1,0,0:0:0:0:
320,192,45907,1,0,0:0:0:0:
64,192,46057,1,0,0:0:0:0:
448,192,46057,1,0,0:0:0:0:
192,192,46207,1,0,0:0:0:0:
448,192,46357,1,0,0:0:0:0:
64,192,46357,1,0,0:0:0:0:
320,192,46507,1,0,0:0:0:0:
192,192,46657,1,0,0:0:0:0:
448,192,46657,1,0,0:0:0:0:
320,192,46807,1,0,0:0:0:0:
320,192,46957,1,0,0:0:0:0:
64,192,46957,1,0,0:0:0:0:
192,192,47107,1,0,0:0:0:0:
448,192,47257,1,0,0:0:0:0:
192,192,47257,1,0,0:0:0:0:
64,192,47407,1,0,0:0:0:0:
64,192,47557,1,0,0:0:0:0:
192,192,47557,1,0,0:0:0:0:
448,192,47707,1,0,0:0:0:0:
448,192,47857,1,0,0:0:0:0:
320,192,47857,1,0,0:0:0:0:
192,192,48007,1,0,0:0:0:0:
64,192,48157,1,0,0:0:0:0:
448,192,48157,1,0,0:0:0:0:
320,192,48232,1,0,0:0:0:0:
192,192,48307,1,0,0:0:0:0:
64,192,48382,1,0,0:0:0:0:
320,192,48457,1,0,0:0:0:0:
448,192,48457,1,0,0:0:0:0:
64,192,48532,1,0,0:0:0:0:
192,192,48607,1,0,0:0:0:0:
320,192,48682,1,0,0:0:0:0:
64,192,48757,1,0,0:0:0:0:
448,192,48757,1,0,0:0:0:0:
320,192,48832,1,0,0:0:0:0:
192,192,48907,1,0,0:0:0:0:
64,192,48982,1,0,0:0:0:0:
320,192,49057,1,0,0:0:0:0:
448,192,49057,1,0,0:0:0:0:
64,192,49132,1,0,0:0:0:0:
192,192,49207,1,0,0:0:0:0:
320,192,49282,1,0,0:0:0:0:
448,192,49357,1,0,0:0:0:0:
64,192,49357,1,0,0:0:0:0:
192,192,49507,1,0,0:0:0:0:
320,192,49657,1,0,0:0:0:0:
64,192,49657,1,0,0:0:0:0:
448,192,49807,1,0,0:0:0:0:
320,192,49957,1,0,0:0:0:0:
192,192,49957,1,0,0:0:0:0:
64,192,50107,1,0,0:0:0:0:
192,192,50257,1,0,0:0:0:0:
448,192,50257,1,0,0:0:0:0:
320,192,50407,1,0,0:0:0:0:
192,192,50557,1,0,0:0:0:0:
64,192,50557,1,0,0:0:0:0:
448,192,50707,1,0,0:0:0:0:
192,192,50857,1,0,0:0:0:0:
320,192,50857,1,0,0:0:0:0:
64,192,51007,1,0,0:0:0:0:
448,192,51157,1,0,0:0:0:0:
320,192,51157,1,0,0:0:0:0:
192,192,51307,1,0,0:0:0:0:
64,192,51457,1,0,0:0:0:0:
320,192,51457,1,0,0:0:0:0:
448,192,51607,1,0,0:0:0:0:
192,192,51757,1,0,0:0:0:0:
320,192,51757,1,0,0:0:0:0:
64,192,51907,1,0,0:0:0:0:
448,192,52057,1,0,0:0:0:0:
192,192,52057,1,0,0:0:0:0:
320,192,52207,1,0,0:0:0:0:
64,192,52357,1,0,0:0:0:0:
192,192,52357,1,0,0:0:0:0:
448,192,52507,1,0,0:0:0:0:
320,192,52657,1,0,0:0:0:0:
64,192,52657,1,0,0:0:0:0:
192,192,52807,1,0,0:0:0:0:
448,192,52957,1,0,0:0:0:0:
64,192,52957,1,0,0:0:0:0:
320,192,53107,1,0,0:0:0:0:
64,192,53257,1,0,0:0:0:0:
192,192,53257,1,0,0:0:0:0:
448,192,53407,1,0,0:0:0:0:
64,192,53557,1,0,0:0:0:0:
320,192,53557,1,0,0:0:0:0:
192,192,53707,1,0,0:0:0:0:
320,192,53857,1,0,0:0:0:0:
448,192,53857,1,0,0:0:0:0:
64,192,54007,1,0,0:0:0:0:
192,192,54157,1,0,0:0:0:0:
448,192,54157,1,0,0:0:0:0:
320,192,54157,1,0,0:0:0:0:
64,192,54307,1,0,0:0:0:0:
192,192,54382,1,0,0:0:0:0:
320,192,54457,1,0,0:0:0:0:
320,192,54607,1,0,0:0:0:0:
64,192,54757,1,0,0:0:0:0:
192,192,54757,1,0,0:0:0:0:
448,192,54757,1,0,0:0:0:0:
320,192,54907,1,0,0:0:0:0:
192,192,54982,1,0,0:0:0:0:
64,192,55057,1,0,0:0:0:0:
64,192,55207,1,0,0:0:0:0:
320,192,55357,1,0,0:0:0:0:
448,192,55357,1,0,0:0:0:0:
192,192,55357,1,0,0:0:0:0:
64,192,55507,1,0,0:0:0:0:
192,192,55582,1,0,0:0:0:0:
320,192,55657,1,0,0:0:0:0:
320,192,55807,1,0,0:0:0:0:
448,192,55957,1,0,0:0:0:0:
192,192,55957,1,0,0:0:0:0:
64,192,55957,1,0,0:0:0:0:
320,192,56032,1,0,0:0:0:0:
192,192,56107,1,0,0:0:0:0:
64,192,56182,1,0,0:0:0:0:
448,192,56257,1,0,0:0:0:0:
448,192,56407,1,0,0:0:0:0:
192,192,56557,1,0,0:0:0:0:
64,192,56557,1,0,0:0:0:0:
448,192,56707,1,0,0:0:0:0:
320,192,56782,1,0,0:0:0:0:
320,192,57007,1,0,0:0:0:0:
320,192,57307,1,0,0:0:0:0:
320,192,57457,1,0,0:0:0:0:
192,192,57757,1,0,0:0:0:0:
64,192,57982,1,0,0:0:0:0:
192,192,58057,1,0,0:0:0:0:
192,192,58207,1,0,0:0:0:0:
64,192,58432,1,0,0:0:0:0:
192,192,58507,1,0,0:0:0:0:
192,192,58657,1,0,0:0:0:0:
64,192,58957,1,0,0:0:0:0:
448,192,58957,1,0,0:0:0:0:
320,192,58957,1,0,0:0:0:0:
64,192,59407,1,0,0:0:0:0:
192,192,59407,1,0,0:0:0:0:
448,192,59557,1,0,0:0:0:0:
320,192,59557,1,0,0:0:0:0:
64,192,59857,1,0,0:0:0:0:
320,192,59857,1,0,0:0:0:0:
448,192,60157,1,0,0:0:0:0:
64,192,60157,1,0,0:0:0:0:
192,192,60607,1,0,0:0:0:0:
448,192,60607,1,0,0:0:0:0:
64,192,60757,1,0,0:0:0:0:
320,192,60757,1,0,0:0:0:0:
192,192,61057,1,0,0:0:0:0:
320,192,61057,1,0,0:0:0:0:
448,192,61357,1,0,0:0:0:0:
64,192,61357,1,0,0:0:0:0:
320,192,61807,1,0,0:0:0:0:
448,192,61807,1,0,0:0:0:0:
64,192,61957,1,0,0:0:0:0:
192,192,61957,1,0,0:0:0:0:
320,192,62257,1,0,0:0:0:0:
192,192,62257,1,0,0:0:0:0:
64,192,62557,1,0,0:0:0:0:
448,192,62557,1,0,0:0:0:0:
320,192,62707,1,0,0:0:0:0:
64,192,62707,1,0,0:0:0:0:
448,192,63007,1,0,0:0:0:0:
64,192,63007,1,0,0:0:0:0:
448,192,63157,1,0,0:0:0:0:
192,192,63157,1,0,0:0:0:0:
64,192,63457,1,0,0:0:0:0:
192,192,63457,1,0,0:0:0:0:
448,192,63757,1,0,0:0:0:0:
320,192,63757,1,0,0:0:0:0:
64,192,64207,1,0,0:0:0:0:
320,192,64207,1,0,0:0:0:0:
448,192,64357,1,0,0:0:0:0:
192,192,64357,1,0,0:0:0:0:
320,192,64657,1,0,0:0:0:0:
64,192,64657,1,0,0:0:0:0:
192,192,64957,1,0,0:0:0:0:
448,192,64957,1,0,0:0:0:0:
64,192,65407,1,0,0:0:0:0:
192,192,65407,1,0,0:0:0:0:
448,192,65557,1,0,0:0:0:0:
320,192,65557,1,0,0:0:0:0:
64,192,65857,1,0,0:0:0:0:
448,192,65857,1,0,0:0:0:0:
192,192,66157,1,0,0:0:0:0:
320,192,66157,1,0,0:0:0:0:
64,192,66607,1,0,0:0:0:0:
320,192,66607,1,0,0:0:0:0:
192,192,66757,1,0,0:0:0:0:
448,192,66757,1,0,0:0:0:0:
64,192,67057,1,0,0:0:0:0:
192,192,67057,1,0,0:0:0:0:
448,192,67207,1,0,0:0:0:0:
320,192,67207,1,0,0:0:0:0:
64,192,67507,1,0,0:0:0:0:
320,192,67507,1,0,0:0:0:0:
64,192,67807,1,0,0:0:0:0:
448,192,67807,1,0,0:0:0:0:
192,192,67957,1,0,0:0:0:0:
448,192,67957,1,0,0:0:0:0:
64,192,68257,1,0,0:0:0:0:
320,192,68257,1,0,0:0:0:0:
192,192,68557,1,0,0:0:0:0:
448,192,68557,1,0,0:0:0:0:
320,192,68557,1,0,0:0:0:0:
64,192,69157,1,0,0:0:0:0:
192,192,69232,1,0,0:0:0:0:
320,192,69307,1,0,0:0:0:0:
448,192,69382,1,0,0:0:0:0:
320,192,69457,1,0,0:0:0:0:
192,192,69532,1,0,0:0:0:0:
64,192,69607,1,0,0:0:0:0:
192,192,69682,1,0,0:0:0:0:
320,192,69757,1,0,0:0:0:0:
192,192,69832,1,0,0:0:0:0:
320,192,69907,1,0,0:0:0:0:
192,192,69982,1,0,0:0:0:0:
320,192,70057,1,0,0:0:0:0:
192,192,70132,1,0,0:0:0:0:
320,192,70207,1,0,0:0:0:0:
192,192,70282,1,0,0:0:0:0:
320,192,70357,1,0,0:0:0:0:
64,192,70432,1,0,0:0:0:0:
192,192,70507,1,0,0:0:0:0:
320,192,70582,1,0,0:0:0:0:
448,192,70657,1,0,0:0:0:0:
64,192,70732,1,0,0:0:0:0:
192,192,70807,1,0,0:0:0:0:
320,192,70882,1,0,0:0:0:0:
64,192,70957,128,0,71257:0:0:0:0:
192,192,70957,128,0,71257:0:0:0:0:
448,192,70957,128,0,71257:0:0:0:0:
192,192,72157,128,0,72457:0:0:0:0:
320,192,72157,128,0,72457:0:0:0:0:
448,192,72157,128,0,72457:0:0:0:0:
64,192,73657,128,0,73957:0:0:0:0:
192,192,73657,128,0,73957:0:0:0:0:
448,192,73657,128,0,73957:0:0:0:0:
320,192,74257,128,0,74407:0:0:0:0:
448,192,74257,128,0,74407:0:0:0:0:
192,192,74257,128,0,74407:0:0:0:0:
64,192,74557,1,0,0:0:0:0:
192,192,74557,1,0,0:0:0:0:
448,192,74557,1,0,0:0:0:0:
320,192,74707,1,0,0:0:0:0:
192,192,74782,1,0,0:0:0:0:
448,192,74857,1,0,0:0:0:0:
320,192,74857,1,0,0:0:0:0:
64,192,74857,1,0,0:0:0:0:
320,192,75007,1,0,0:0:0:0:
64,192,75157,1,0,0:0:0:0:
192,192,75157,1,0,0:0:0:0:
448,192,75157,1,0,0:0:0:0:
448,192,75307,1,0,0:0:0:0:
64,192,75457,1,0,0:0:0:0:
192,192,75457,1,0,0:0:0:0:
320,192,75457,1,0,0:0:0:0:
192,192,75607,1,0,0:0:0:0:
448,192,75757,1,0,0:0:0:0:
320,192,75757,1,0,0:0:0:0:
64,192,75757,1,0,0:0:0:0:
192,192,75907,1,0,0:0:0:0:
64,192,75982,1,0,0:0:0:0:
320,192,76057,1,0,0:0:0:0:
448,192,76057,1,0,0:0:0:0:
192,192,76207,1,0,0:0:0:0:
64,192,76357,1,0,0:0:0:0:
320,192,76357,1,0,0:0:0:0:
448,192,76507,1,0,0:0:0:0:
192,192,76657,1,0,0:0:0:0:
320,192,76657,1,0,0:0:0:0:
64,192,76807,1,0,0:0:0:0:
448,192,76957,1,0,0:0:0:0:
192,192,76957,1,0,0:0:0:0:
320,192,77107,1,0,0:0:0:0:
64,192,77257,1,0,0:0:0:0:
448,192,77257,1,0,0:0:0:0:
192,192,77407,1,0,0:0:0:0:
320,192,77557,1,0,0:0:0:0:
64,192,77557,1,0,0:0:0:0:
448,192,77707,1,0,0:0:0:0:
192,192,77857,1,0,0:0:0:0:
320,192,77857,1,0,0:0:0:0:
64,192,78007,1,0,0:0:0:0:
448,192,78157,1,0,0:0:0:0:
192,192,78157,1,0,0:0:0:0:
64,192,78307,1,0,0:0:0:0:
192,192,78382,1,0,0:0:0:0:
320,192,78457,1,0,0:0:0:0:
448,192,78457,1,0,0:0:0:0:
64,192,78607,1,0,0:0:0:0:
192,192,78757,1,0,0:0:0:0:
320,192,78757,1,0,0:0:0:0:
192,192,78907,1,0,0:0:0:0:
320,192,79057,1,0,0:0:0:0:
64,192,79057,1,0,0:0:0:0:
320,192,79207,1,0,0:0:0:0:
64,192,79357,1,0,0:0:0:0:
448,192,79357,1,0,0:0:0:0:
192,192,79432,1,0,0:0:0:0:
320,192,79507,1,0,0:0:0:0:
448,192,79582,1,0,0:0:0:0:
192,192,79657,1,0,0:0:0:0:
64,192,79657,1,0,0:0:0:0:
448,192,79732,1,0,0:0:0:0:
320,192,79807,1,0,0:0:0:0:
192,192,79882,1,0,0:0:0:0:
64,192,79957,1,0,0:0:0:0:
448,192,79957,1,0,0:0:0:0:
192,192,80032,1,0,0:0:0:0:
320,192,80107,1,0,0:0:0:0:
448,192,80182,1,0,0:0:0:0:
192,192,80257,1,0,0:0:0:0:
64,192,80257,1,0,0:0:0:0:
448,192,80332,1,0,0:0:0:0:
320,192,80407,1,0,0:0:0:0:
192,192,80482,1,0,0:0:0:0:
64,192,80557,1,0,0:0:0:0:
448,192,80557,1,0,0:0:0:0:
320,192,80707,1,0,0:0:0:0:
192,192,80857,1,0,0:0:0:0:
64,192,80857,128,0,81307:0:0:0:0:
448,192,81007,1,0,0:0:0:0:
192,192,81157,1,0,0:0:0:0:
320,192,81157,1,0,0:0:0:0:
448,192,81307,1,0,0:0:0:0:
64,192,81457,128,0,81907:0:0:0:0:
192,192,81457,1,0,0:0:0:0:
320,192,81607,1,0,0:0:0:0:
448,192,81757,1,0,0:0:0:0:
192,192,81757,1,0,0:0:0:0:
320,192,81907,1,0,0:0:0:0:
64,192,82057,128,0,82507:0:0:0:0:
448,192,82057,1,0,0:0:0:0:
192,192,82207,1,0,0:0:0:0:
448,192,82357,1,0,0:0:0:0:
320,192,82357,1,0,0:0:0:0:
192,192,82507,1,0,0:0:0:0:
448,192,82657,1,0,0:0:0:0:
320,192,82657,1,0,0:0:0:0:
64,192,82807,1,0,0:0:0:0:
192,192,82957,1,0,0:0:0:0:
320,192,82957,1,0,0:0:0:0:
448,192,83107,1,0,0:0:0:0:
192,192,83257,1,0,0:0:0:0:
64,192,83257,1,0,0:0:0:0:
448,192,83407,1,0,0:0:0:0:
64,192,83557,1,0,0:0:0:0:
320,192,83557,1,0,0:0:0:0:
192,192,83707,1,0,0:0:0:0:
448,192,83857,1,0,0:0:0:0:
320,192,83857,1,0,0:0:0:0:
64,192,84007,1,0,0:0:0:0:
448,192,84157,1,0,0:0:0:0:
192,192,84157,1,0,0:0:0:0:
64,192,84307,1,0,0:0:0:0:
192,192,84382,1,0,0:0:0:0:
448,192,84457,1,0,0:0:0:0:
320,192,84457,1,0,0:0:0:0:
64,192,84607,1,0,0:0:0:0:
64,192,84757,1,0,0:0:0:0:
448,192,84757,1,0,0:0:0:0:
320,192,84907,1,0,0:0:0:0:
64,192,85057,1,0,0:0:0:0:
320,192,85057,1,0,0:0:0:0:
192,192,85207,1,0,0:0:0:0:
320,192,85357,1,0,0:0:0:0:
192,192,85357,1,0,0:0:0:0:
64,192,85507,1,0,0:0:0:0:
192,192,85582,1,0,0:0:0:0:
448,192,85657,128,0,86107:0:0:0:0:
320,192,85657,1,0,0:0:0:0:
192,192,85807,1,0,0:0:0:0:
64,192,85957,1,0,0:0:0:0:
320,192,85957,1,0,0:0:0:0:
192,192,86107,1,0,0:0:0:0:
448,192,86257,128,0,86707:0:0:0:0:
64,192,86257,1,0,0:0:0:0:
320,192,86407,1,0,0:0:0:0:
192,192,86557,1,0,0:0:0:0:
64,192,86557,1,0,0:0:0:0:
320,192,86707,1,0,0:0:0:0:
448,192,86857,128,0,87307:0:0:0:0:
64,192,86857,1,0,0:0:0:0:
320,192,87007,1,0,0:0:0:0:
64,192,87157,1,0,0:0:0:0:
192,192,87157,1,0,0:0:0:0:
320,192,87307,1,0,0:0:0:0:
192,192,87457,1,0,0:0:0:0:
64,192,87457,1,0,0:0:0:0:
320,192,87607,1,0,0:0:0:0:
64,192,87757,1,0,0:0:0:0:
448,192,87757,1,0,0:0:0:0:
192,192,87757,1,0,0:0:0:0:
448,192,88357,1,0,0:0:0:0:
320,192,88432,1,0,0:0:0:0:
192,192,88507,1,0,0:0:0:0:
64,192,88582,1,0,0:0:0:0:
192,192,88657,1,0,0:0:0:0:
320,192,88732,1,0,0:0:0:0:
448,192,88807,1,0,0:0:0:0:
320,192,88882,1,0,0:0:0:0:
192,192,88957,1,0,0:0:0:0:
64,192,89257,1,0,0:0:0:0:
192,192,89332,1,0,0:0:0:0:
320,192,89407,1,0,0:0:0:0:
448,192,89482,1,0,0:0:0:0:
320,192,89557,1,0,0:0:0:0:
192,192,89632,1,0,0:0:0:0:
64,192,89707,1,0,0:0:0:0:
192,192,89782,1,0,0:0:0:0:
320,192,89857,1,0,0:0:0:0:
448,192,89932,1,0,0:0:0:0:
320,192,90007,1,0,0:0:0:0:
192,192,90082,1,0,0:0:0:0:
320,192,90157,128,0,90307:0:0:0:0:
448,192,90157,128,0,90307:0:0:0:0:
64,192,90157,128,0,90307:0:0:0:0:
192,192,90457,128,0,90607:0:0:0:0:
320,192,90457,128,0,90607:0:0:0:0:
448,192,90457,128,0,90607:0:0:0:0:
64,192,90757,128,0,90907:0:0:0:0:
192,192,90757,128,0,90907:0:0:0:0:
448,192,90757,128,0,90907:0:0:0:0:
64,192,91357,128,0,91507:0:0:0:0:
320,192,91357,128,0,91507:0:0:0:0:
448,192,91357,128,0,91507:0:0:0:0:
192,192,91657,128,0,91807:0:0:0:0:
64,192,91657,128,0,91807:0:0:0:0:
320,192,91657,128,0,91807:0:0:0:0:
448,192,91957,128,0,92107:0:0:0:0:
192,192,91957,128,0,92107:0:0:0:0:
64,192,91957,128,0,92107:0:0:0:0:
64,192,92557,128,0,92707:0:0:0:0:
320,192,92557,128,0,92707:0:0:0:0:
448,192,92557,128,0,92707:0:0:0:0:
192,192,92857,128,0,93007:0:0:0:0:
320,192,92857,128,0,93007:0:0:0:0:
448,192,92857,128,0,93007:0:0:0:0:
64,192,93157,1,0,0:0:0:0:
320,192,93157,1,0,0:0:0:0:
64,192,93307,1,0,0:0:0:0:
192,192,93307,1,0,0:0:0:0:
448,192,93457,1,0,0:0:0:0:
192,192,93457,1,0,0:0:0:0:
320,192,93607,1,0,0:0:0:0:
448,192,93607,1,0,0:0:0:0:
320,192,93757,128,0,93907:0:0:0:0:
64,192,93757,128,0,93907:0:0:0:0:
192,192,93757,128,0,93907:0:0:0:0:
448,192,94057,128,0,94207:0:0:0:0:
192,192,94057,128,0,94207:0:0:0:0:
320,192,94057,128,0,94207:0:0:0:0:
64,192,94357,128,0,94507:0:0:0:0:
192,192,94357,128,0,94507:0:0:0:0:
320,192,94357,128,0,94507:0:0:0:0:
64,192,94957,1,0,0:0:0:0:
320,192,94957,1,0,0:0:0:0:
320,192,95107,1,0,0:0:0:0:
448,192,95107,1,0,0:0:0:0:
448,192,95257,1,0,0:0:0:0:
192,192,95257,1,0,0:0:0:0:
192,192,95407,1,0,0:0:0:0:
64,192,95407,1,0,0:0:0:0:
448,192,95557,1,0,0:0:0:0:
320,192,95632,1,0,0:0:0:0:
192,192,95707,1,0,0:0:0:0:
64,192,96157,1,0,0:0:0:0:
320,192,96157,1,0,0:0:0:0:
192,192,96307,1,0,0:0:0:0:
320,192,96307,1,0,0:0:0:0:
448,192,96457,1,0,0:0:0:0:
192,192,96457,1,0,0:0:0:0:
64,192,96607,1,0,0:0:0:0:
448,192,96607,1,0,0:0:0:0:
192,192,96757,1,0,0:0:0:0:
320,192,96832,1,0,0:0:0:0:
448,192,96907,1,0,0:0:0:0:
64,192,97357,1,0,0:0:0:0:
448,192,97357,1,0,0:0:0:0:
320,192,97432,1,0,0:0:0:0:
192,192,97507,1,0,0:0:0:0:
64,192,97582,1,0,0:0:0:0:
320,192,97657,1,0,0:0:0:0:
448,192,97657,1,0,0:0:0:0:
192,192,97732,1,0,0:0:0:0:
64,192,97807,1,0,0:0:0:0:
448,192,97882,1,0,0:0:0:0:
192,192,97957,1,0,0:0:0:0:
320,192,97957,1,0,0:0:0:0:
64,192,98032,1,0,0:0:0:0:
448,192,98107,1,0,0:0:0:0:
320,192,98182,1,0,0:0:0:0:
192,192,98257,1,0,0:0:0:0:
64,192,98257,1,0,0:0:0:0:
448,192,98332,1,0,0:0:0:0:
320,192,98407,1,0,0:0:0:0:
192,192,98482,1,0,0:0:0:0:
64,192,98557,1,0,0:0:0:0:
448,192,98557,1,0,0:0:0:0:
320,192,98594,1,0,0:0:0:0:
192,192,98632,1,0,0:0:0:0:
64,192,98669,1,0,0:0:0:0:
448,192,98707,1,0,0:0:0:0:
320,192,98744,1,0,0:0:0:0:
192,192,98782,1,0,0:0:0:0:
64,192,98819,1,0,0:0:0:0:
448,192,98857,1,0,0:0:0:0:
320,192,98894,1,0,0:0:0:0:
64,192,98932,1,0,0:0:0:0:
192,192,98969,1,0,0:0:0:0:
320,192,99007,1,0,0:0:0:0:
448,192,99044,1,0,0:0:0:0:
64,192,99082,1,0,0:0:0:0:
192,192,99119,1,0,0:0:0:0:
320,192,99157,1,0,0:0:0:0:
448,192,99194,1,0,0:0:0:0:
64,192,99232,1,0,0:0:0:0:
192,192,99269,1,0,0:0:0:0:
320,192,99307,1,0,0:0:0:0:
448,192,99344,1,0,0:0:0:0:
64,192,99382,1,0,0:0:0:0:
192,192,99419,1,0,0:0:0:0:
448,192,99457,1,0,0:0:0:0:
320,192,99494,1,0,0:0:0:0:
192,192,99532,1,0,0:0:0:0:
64,192,99569,1,0,0:0:0:0:
448,192,99607,1,0,0:0:0:0:
320,192,99644,1,0,0:0:0:0:
192,192,99682,1,0,0:0:0:0:
64,192,99719,1,0,0:0:0:0:
448,192,99757,128,0,100657:0:0:0:0:
320,192,99757,128,0,100657:0:0:0:0:
192,192,100657,1,0,0:0:0:0:
64,192,100732,1,0,0:0:0:0:
448,192,100807,1,0,0:0:0:0:
320,192,100882,1,0,0:0:0:0:
64,192,100957,1,0,0:0:0:0:
192,192,100957,1,0,0:0:0:0:
448,192,100957,1,0,0:0:0:0:
320,192,101032,1,0,0:0:0:0:
64,192,101107,1,0,0:0:0:0:
192,192,101182,1,0,0:0:0:0:
320,192,101257,1,0,0:0:0:0:
448,192,101257,1,0,0:0:0:0:
64,192,101332,1,0,0:0:0:0:
192,192,101407,1,0,0:0:0:0:
320,192,101482,1,0,0:0:0:0:
64,192,101557,1,0,0:0:0:0:
448,192,101557,1,0,0:0:0:0:
320,192,101632,1,0,0:0:0:0:
192,192,101707,1,0,0:0:0:0:
64,192,101782,1,0,0:0:0:0:
192,192,101857,1,0,0:0:0:0:
448,192,101857,1,0,0:0:0:0:
320,192,101932,1,0,0:0:0:0:
64,192,102007,1,0,0:0:0:0:
192,192,102082,1,0,0:0:0:0:
448,192,102157,1,0,0:0:0:0:
320,192,102157,1,0,0:0:0:0:
64,192,102232,1,0,0:0:0:0:
192,192,102307,1,0,0:0:0:0:
448,192,102382,1,0,0:0:0:0:
64,192,102457,1,0,0:0:0:0:
320,192,102457,1,0,0:0:0:0:
192,192,102532,1,0,0:0:0:0:
320,192,102607,1,0,0:0:0:0:
448,192,102682,1,0,0:0:0:0:
64,192,102757,1,0,0:0:0:0:
192,192,102757,1,0,0:0:0:0:
448,192,102832,1,0,0:0:0:0:
320,192,102907,1,0,0:0:0:0:
192,192,102982,1,0,0:0:0:0:
64,192,103057,1,0,0:0:0:0:
448,192,103057,1,0,0:0:0:0:
320,192,103132,1,0,0:0:0:0:
192,192,103207,1,0,0:0:0:0:
64,192,103282,1,0,0:0:0:0:
320,192,103357,1,0,0:0:0:0:
448,192,103357,1,0,0:0:0:0:
64,192,103432,1,0,0:0:0:0:
192,192,103507,1,0,0:0:0:0:
320,192,103582,1,0,0:0:0:0:
64,192,103657,1,0,0:0:0:0:
448,192,103657,1,0,0:0:0:0:
192,192,103732,1,0,0:0:0:0:
320,192,103807,1,0,0:0:0:0:
448,192,103882,1,0,0:0:0:0:
64,192,103957,1,0,0:0:0:0:
192,192,103957,1,0,0:0:0:0:
320,192,104032,1,0,0:0:0:0:
448,192,104107,1,0,0:0:0:0:
64,192,104182,1,0,0:0:0:0:
192,192,104257,1,0,0:0:0:0:
320,192,104257,1,0,0:0:0:0:
448,192,104332,1,0,0:0:0:0:
64,192,104407,1,0,0:0:0:0:
192,192,104482,1,0,0:0:0:0:
448,192,104557,1,0,0:0:0:0:
320,192,104557,1,0,0:0:0:0:
192,192,104632,1,0,0:0:0:0:
64,192,104707,1,0,0:0:0:0:
448,192,104782,1,0,0:0:0:0:
320,192,104857,1,0,0:0:0:0:
192,192,104857,1,0,0:0:0:0:
64,192,104932,1,0,0:0:0:0:
192,192,105007,1,0,0:0:0:0:
320,192,105082,1,0,0:0:0:0:
448,192,105157,1,0,0:0:0:0:
64,192,105157,1,0,0:0:0:0:
320,192,105232,1,0,0:0:0:0:
192,192,105307,1,0,0:0:0:0:
64,192,105382,1,0,0:0:0:0:
448,192,105457,1,0,0:0:0:0:
320,192,105457,1,0,0:0:0:0:
192,192,105532,1,0,0:0:0:0:
64,192,105607,1,0,0:0:0:0:
448,192,105682,1,0,0:0:0:0:
64,192,105757,1,0,0:0:0:0:
192,192,105757,1,0,0:0:0:0:
320,192,105757,1,0,0:0:0:0:
448,192,105832,1,0,0:0:0:0:
64,192,105907,1,0,0:0:0:0:
192,192,105982,1,0,0:0:0:0:
320,192,106057,1,0,0:0:0:0:
448,192,106057,1,0,0:0:0:0:
64,192,106057,1,0,0:0:0:0:
192,192,106132,1,0,0:0:0:0:
320,192,106207,1,0,0:0:0:0:
64,192,106282,1,0,0:0:0:0:
192,192,106357,1,0,0:0:0:0:
320,192,106357,1,0,0:0:0:0:
448,192,106357,1,0,0:0:0:0:
64,192,106432,1,0,0:0:0:0:
192,192,106507,1,0,0:0:0:0:
448,192,106582,1,0,0:0:0:0:
320,192,106657,1,0,0:0:0:0:
64,192,106657,1,0,0:0:0:0:
192,192,106657,1,0,0:0:0:0:
448,192,106732,1,0,0:0:0:0:
320,192,106807,1,0,0:0:0:0:
192,192,106882,1,0,0:0:0:0:
64,192,106957,1,0,0:0:0:0:
320,192,106957,1,0,0:0:0:0:
448,192,106957,1,0,0:0:0:0:
192,192,107032,1,0,0:0:0:0:
64,192,107107,1,0,0:0:0:0:
448,192,107182,1,0,0:0:0:0:
320,192,107257,1,0,0:0:0:0:
192,192,107257,1,0,0:0:0:0:
64,192,107257,1,0,0:0:0:0:
448,192,107332,1,0,0:0:0:0:
64,192,107407,1,0,0:0:0:0:
192,192,107482,1,0,0:0:0:0:
320,192,107557,1,0,0:0:0:0:
448,192,107557,1,0,0:0:0:0:
64,192,107557,1,0,0:0:0:0:
192,192,107632,1,0,0:0:0:0:
64,192,107707,1,0,0:0:0:0:
320,192,107782,1,0,0:0:0:0:
192,192,107857,1,0,0:0:0:0:
64,192,107857,1,0,0:0:0:0:
448,192,107857,1,0,0:0:0:0:
320,192,107932,1,0,0:0:0:0:
192,192,108007,1,0,0:0:0:0:
64,192,108082,1,0,0:0:0:0:
320,192,108157,1,0,0:0:0:0:
448,192,108157,1,0,0:0:0:0:
64,192,108232,1,0,0:0:0:0:
192,192,108232,1,0,0:0:0:0:
320,192,108307,1,0,0:0:0:0:
448,192,108307,1,0,0:0:0:0:
192,192,108382,1,0,0:0:0:0:
64,192,108382,1,0,0:0:0:0:
320,192,108457,1,0,0:0:0:0:
448,192,108457,1,0,0:0:0:0:
192,192,108532,1,0,0:0:0:0:
64,192,108532,1,0,0:0:0:0:
320,192,108607,1,0,0:0:0:0:
448,192,108607,1,0,0:0:0:0:
192,192,108682,1,0,0:0:0:0:
64,192,108682,1,0,0:0:0:0:
320,192,108757,1,0,0:0:0:0:
448,192,108757,1,0,0:0:0:0:
64,192,108832,1,0,0:0:0:0:
192,192,108832,1,0,0:0:0:0:
320,192,108907,1,0,0:0:0:0:
448,192,108907,1,0,0:0:0:0:
192,192,108982,1,0,0:0:0:0:
64,192,108982,1,0,0:0:0:0:
448,192,109057,1,0,0:0:0:0:
320,192,109094,1,0,0:0:0:0:
192,192,109132,1,0,0:0:0:0:
64,192,109169,1,0,0:0:0:0:
448,192,109207,1,0,0:0:0:0:
320,192,109244,1,0,0:0:0:0:
192,192,109282,1,0,0:0:0:0:
64,192,109319,1,0,0:0:0:0:
192,192,109357,1,0,0:0:0:0:
320,192,109357,1,0,0:0:0:0:
448,192,109357,1,0,0:0:0:0:
320,192,109507,1,0,0:0:0:0:
320,192,109657,1,0,0:0:0:0:
192,192,109732,1,0,0:0:0:0:
64,192,109807,1,0,0:0:0:0:
448,192,109882,1,0,0:0:0:0:
448,192,110557,1,0,0:0:0:0:
192,192,110557,1,0,0:0:0:0:
64,192,110557,128,0,110707:0:0:0:0:
320,192,110707,1,0,0:0:0:0:
192,192,110857,1,0,0:0:0:0:
320,192,110857,1,0,0:0:0:0:
448,192,110857,128,0,111007:0:0:0:0:
64,192,111007,1,0,0:0:0:0:
64,192,111157,1,0,0:0:0:0:
192,192,111157,1,0,0:0:0:0:
320,192,111157,128,0,111307:0:0:0:0:
448,192,111307,1,0,0:0:0:0:
448,192,111457,1,0,0:0:0:0:
192,192,111457,1,0,0:0:0:0:
64,192,111457,128,0,111607:0:0:0:0:
320,192,111607,1,0,0:0:0:0:
192,192,111757,128,0,111907:0:0:0:0:
64,192,111757,1,0,0:0:0:0:
320,192,111757,1,0,0:0:0:0:
64,192,112057,1,0,0:0:0:0:
320,192,112057,1,0,0:0:0:0:
448,192,112057,128,0,112207:0:0:0:0:
192,192,112357,128,0,112507:0:0:0:0:
64,192,112357,1,0,0:0:0:0:
320,192,112357,1,0,0:0:0:0:
448,192,112657,128,0,112807:0:0:0:0:
320,192,112657,1,0,0:0:0:0:
64,192,112657,1,0,0:0:0:0:
192,192,112957,128,0,113107:0:0:0:0:
320,192,112957,1,0,0:0:0:0:
64,192,112957,1,0,0:0:0:0:
448,192,113107,1,0,0:0:0:0:
448,192,113257,1,0,0:0:0:0:
320,192,113257,128,0,113407:0:0:0:0:
64,192,113257,1,0,0:0:0:0:
192,192,113407,1,0,0:0:0:0:
64,192,113557,128,0,113707:0:0:0:0:
192,192,113557,1,0,0:0:0:0:
448,192,113557,1,0,0:0:0:0:
320,192,113707,1,0,0:0:0:0:
320,192,113857,1,0,0:0:0:0:
448,192,113857,128,0,114007:0:0:0:0:
64,192,113857,1,0,0:0:0:0:
192,192,114007,1,0,0:0:0:0:
64,192,114157,128,0,114307:0:0:0:0:
192,192,114157,1,0,0:0:0:0:
448,192,114157,1,0,0:0:0:0:
320,192,114232,1,0,0:0:0:0:
448,192,114307,1,0,0:0:0:0:
192,192,114382,1,0,0:0:0:0:
320,192,114457,128,0,114607:0:0:0:0:
64,192,114457,1,0,0:0:0:0:
448,192,114457,1,0,0:0:0:0:
192,192,114532,1,0,0:0:0:0:
448,192,114607,1,0,0:0:0:0:
64,192,114682,1,0,0:0:0:0:
448,192,114757,128,0,114907:0:0:0:0:
320,192,114757,1,0,0:0:0:0:
192,192,114757,1,0,0:0:0:0:
64,192,114832,1,0,0:0:0:0:
192,192,114907,1,0,0:0:0:0:
320,192,114982,1,0,0:0:0:0:
192,192,115057,128,0,115207:0:0:0:0:
448,192,115057,1,0,0:0:0:0:
64,192,115057,1,0,0:0:0:0:
320,192,115132,1,0,0:0:0:0:
448,192,115207,1,0,0:0:0:0:
64,192,115282,1,0,0:0:0:0:
448,192,115357,128,0,115507:0:0:0:0:
192,192,115357,1,0,0:0:0:0:
320,192,115357,1,0,0:0:0:0:
64,192,115507,1,0,0:0:0:0:
192,192,115657,128,0,115807:0:0:0:0:
64,192,115657,1,0,0:0:0:0:
320,192,115657,1,0,0:0:0:0:
448,192,115807,1,0,0:0:0:0:
448,192,115957,1,0,0:0:0:0:
320,192,115957,1,0,0:0:0:0:
64,192,115957,128,0,116107:0:0:0:0:
192,192,116107,1,0,0:0:0:0:
192,192,116257,1,0,0:0:0:0:
448,192,116257,1,0,0:0:0:0:
320,192,116257,128,0,116407:0:0:0:0:
64,192,116407,1,0,0:0:0:0:
64,192,116557,1,0,0:0:0:0:
192,192,116557,1,0,0:0:0:0:
448,192,116557,128,0,116707:0:0:0:0:
192,192,116857,128,0,117007:0:0:0:0:
320,192,116857,1,0,0:0:0:0:
64,192,116857,1,0,0:0:0:0:
64,192,117157,1,0,0:0:0:0:
320,192,117157,128,0,117307:0:0:0:0:
448,192,117157,1,0,0:0:0:0:
64,192,117457,128,0,117607:0:0:0:0:
192,192,117457,1,0,0:0:0:0:
448,192,117457,1,0,0:0:0:0:
320,192,117757,128,0,117907:0:0:0:0:
192,192,117757,1,0,0:0:0:0:
448,192,117757,1,0,0:0:0:0:
64,192,117907,1,0,0:0:0:0:
64,192,118057,1,0,0:0:0:0:
448,192,118057,1,0,0:0:0:0:
192,192,118057,128,0,118207:0:0:0:0:
320,192,118207,1,0,0:0:0:0:
320,192,118357,1,0,0:0:0:0:
64,192,118357,128,0,118507:0:0:0:0:
448,192,118357,1,0,0:0:0:0:
192,192,118507,1,0,0:0:0:0:
320,192,118657,128,0,118807:0:0:0:0:
192,192,118657,1,0,0:0:0:0:
448,192,118657,1,0,0:0:0:0:
64,192,118807,1,0,0:0:0:0:
64,192,118957,1,0,0:0:0:0:
192,192,118957,1,0,0:0:0:0:
448,192,119107,1,0,0:0:0:0:
320,192,119107,1,0,0:0:0:0:
192,192,119182,1,0,0:0:0:0:
64,192,119182,1,0,0:0:0:0:
320,192,119257,1,0,0:0:0:0:
448,192,119257,1,0,0:0:0:0:
64,192,119407,1,0,0:0:0:0:
448,192,119407,1,0,0:0:0:0:
192,192,119557,1,0,0:0:0:0:
320,192,119557,1,0,0:0:0:0:
192,192,119707,1,0,0:0:0:0:
320,192,119707,1,0,0:0:0:0:
64,192,119857,1,0,0:0:0:0:
448,192,119857,1,0,0:0:0:0:
64,192,120007,1,0,0:0:0:0:
448,192,120007,1,0,0:0:0:0:
64,192,120157,1,0,0:0:0:0:
320,192,120157,1,0,0:0:0:0:
192,192,120157,128,0,120307:0:0:0:0:
448,192,120307,1,0,0:0:0:0:
320,192,120382,1,0,0:0:0:0:
448,192,120457,1,0,0:0:0:0:
192,192,120457,1,0,0:0:0:0:
64,192,120457,128,0,120607:0:0:0:0:
320,192,120607,1,0,0:0:0:0:
320,192,120757,1,0,0:0:0:0:
448,192,120757,128,0,120907:0:0:0:0:
192,192,120757,1,0,0:0:0:0:
64,192,120907,1,0,0:0:0:0:
64,192,121057,1,0,0:0:0:0:
192,192,121057,128,0,121207:0:0:0:0:
320,192,121057,1,0,0:0:0:0:
448,192,121207,1,0,0:0:0:0:
64,192,121357,1,0,0:0:0:0:
320,192,121357,128,0,121507:0:0:0:0:
448,192,121357,1,0,0:0:0:0:
64,192,121657,1,0,0:0:0:0:
192,192,121657,128,0,121807:0:0:0:0:
448,192,121657,1,0,0:0:0:0:
64,192,121957,128,0,122107:0:0:0:0:
320,192,121957,1,0,0:0:0:0:
448,192,121957,1,0,0:0:0:0:
320,192,122257,128,0,122407:0:0:0:0:
192,192,122257,1,0,0:0:0:0:
448,192,122257,1,0,0:0:0:0:
192,192,122557,128,0,122707:0:0:0:0:
64,192,122557,1,0,0:0:0:0:
448,192,122557,1,0,0:0:0:0:
320,192,122707,1,0,0:0:0:0:
320,192,122857,1,0,0:0:0:0:
64,192,122857,128,0,123007:0:0:0:0:
448,192,122857,1,0,0:0:0:0:
192,192,123007,1,0,0:0:0:0:
192,192,123157,1,0,0:0:0:0:
320,192,123157,128,0,123307:0:0:0:0:
448,192,123157,1,0,0:0:0:0:
64,192,123307,1,0,0:0:0:0:
64,192,123457,1,0,0:0:0:0:
448,192,123457,128,0,123607:0:0:0:0:
192,192,123457,1,0,0:0:0:0:
320,192,123607,1,0,0:0:0:0:
192,192,123757,128,0,123907:0:0:0:0:
320,192,123757,1,0,0:0:0:0:
64,192,123757,1,0,0:0:0:0:
448,192,123832,1,0,0:0:0:0:
64,192,123907,1,0,0:0:0:0:
320,192,123982,1,0,0:0:0:0:
448,192,124057,128,0,124207:0:0:0:0:
192,192,124057,1,0,0:0:0:0:
64,192,124057,1,0,0:0:0:0:
320,192,124132,1,0,0:0:0:0:
192,192,124207,1,0,0:0:0:0:
64,192,124282,1,0,0:0:0:0:
320,192,124357,128,0,124507:0:0:0:0:
192,192,124357,1,0,0:0:0:0:
448,192,124357,1,0,0:0:0:0:
64,192,124432,1,0,0:0:0:0:
448,192,124507,1,0,0:0:0:0:
192,192,124582,1,0,0:0:0:0:
64,192,124657,128,0,124807:0:0:0:0:
320,192,124657,1,0,0:0:0:0:
448,192,124657,1,0,0:0:0:0:
192,192,124732,1,0,0:0:0:0:
448,192,124807,1,0,0:0:0:0:
320,192,124882,1,0,0:0:0:0:
192,192,124957,128,0,125107:0:0:0:0:
448,192,124957,1,0,0:0:0:0:
64,192,124957,1,0,0:0:0:0:
320,192,125107,1,0,0:0:0:0:
320,192,125257,1,0,0:0:0:0:
448,192,125257,128,0,125407:0:0:0:0:
64,192,125257,1,0,0:0:0:0:
192,192,125407,1,0,0:0:0:0:
192,192,125557,1,0,0:0:0:0:
64,192,125557,128,0,125707:0:0:0:0:
320,192,125557,1,0,0:0:0:0:
448,192,125707,1,0,0:0:0:0:
448,192,125857,1,0,0:0:0:0:
192,192,125857,128,0,126007:0:0:0:0:
320,192,125857,1,0,0:0:0:0:
64,192,126007,1,0,0:0:0:0:
64,192,126157,1,0,0:0:0:0:
448,192,126157,1,0,0:0:0:0:
320,192,126157,128,0,126307:0:0:0:0:
448,192,126457,1,0,0:0:0:0:
64,192,126457,128,0,126607:0:0:0:0:
192,192,126457,1,0,0:0:0:0:
192,192,126757,128,0,126907:0:0:0:0:
320,192,126757,1,0,0:0:0:0:
448,192,126757,1,0,0:0:0:0:
64,192,127057,1,0,0:0:0:0:
320,192,127057,1,0,0:0:0:0:
448,192,127057,128,0,127207:0:0:0:0:
64,192,127357,128,0,127507:0:0:0:0:
192,192,127357,1,0,0:0:0:0:
320,192,127357,1,0,0:0:0:0:
448,192,127507,1,0,0:0:0:0:
320,192,127582,1,0,0:0:0:0:
192,192,127657,1,0,0:0:0:0:
64,192,127657,1,0,0:0:0:0:
448,192,127657,128,0,127807:0:0:0:0:
64,192,127957,1,0,0:0:0:0:
320,192,127957,128,0,128107:0:0:0:0:
192,192,127957,1,0,0:0:0:0:
448,192,128032,1,0,0:0:0:0:
64,192,128107,1,0,0:0:0:0:
192,192,128182,1,0,0:0:0:0:
448,192,128257,1,0,0:0:0:0:
64,192,128257,128,0,128407:0:0:0:0:
320,192,128257,1,0,0:0:0:0:
192,192,128332,1,0,0:0:0:0:
448,192,128407,1,0,0:0:0:0:
320,192,128482,1,0,0:0:0:0:
192,192,128557,1,0,0:0:0:0:
64,192,128557,1,0,0:0:0:0:
448,192,128707,1,0,0:0:0:0:
320,192,128782,1,0,0:0:0:0:
64,192,128857,1,0,0:0:0:0:
192,192,128932,1,0,0:0:0:0:
448,192,129007,1,0,0:0:0:0:
320,192,129082,1,0,0:0:0:0:
64,192,129157,1,0,0:0:0:0:
64,192,129307,1,0,0:0:0:0:
64,192,129457,1,0,0:0:0:0:
64,192,129607,1,0,0:0:0:0:
192,192,129757,1,0,0:0:0:0:
320,192,129757,1,0,0:0:0:0:
448,192,129757,1,0,0:0:0:0:
64,192,129832,1,0,0:0:0:0:
192,192,129907,1,0,0:0:0:0:
448,192,130057,1,0,0:0:0:0:
320,192,130207,1,0,0:0:0:0:
64,192,130357,1,0,0:0:0:0:
192,192,130357,1,0,0:0:0:0:
448,192,130357,1,0,0:0:0:0:
320,192,130432,1,0,0:0:0:0:
192,192,130507,1,0,0:0:0:0:
64,192,130657,1,0,0:0:0:0:
448,192,130807,1,0,0:0:0:0:
320,192,130957,1,0,0:0:0:0:
192,192,130957,1,0,0:0:0:0:
64,192,130957,1,0,0:0:0:0:
448,192,131032,1,0,0:0:0:0:
320,192,131107,1,0,0:0:0:0:
64,192,131257,1,0,0:0:0:0:
192,192,131407,1,0,0:0:0:0:
64,192,131557,1,0,0:0:0:0:
448,192,131557,1,0,0:0:0:0:
320,192,131557,1,0,0:0:0:0:
192,192,131632,1,0,0:0:0:0:
64,192,131707,1,0,0:0:0:0:
448,192,131857,1,0,0:0:0:0:
320,192,132007,1,0,0:0:0:0:
448,192,132157,1,0,0:0:0:0:
192,192,132157,1,0,0:0:0:0:
64,192,132157,1,0,0:0:0:0:
320,192,132232,1,0,0:0:0:0:
192,192,132307,1,0,0:0:0:0:
64,192,132457,1,0,0:0:0:0:
448,192,132607,1,0,0:0:0:0:
64,192,132757,1,0,0:0:0:0:
192,192,132757,1,0,0:0:0:0:
320,192,132757,1,0,0:0:0:0:
448,192,132832,1,0,0:0:0:0:
320,192,132907,1,0,0:0:0:0:
64,192,133057,1,0,0:0:0:0:
320,192,133207,1,0,0:0:0:0:
192,192,133357,1,0,0:0:0:0:
448,192,133357,1,0,0:0:0:0:
64,192,133357,1,0,0:0:0:0:
320,192,133432,1,0,0:0:0:0:
448,192,133507,1,0,0:0:0:0:
192,192,133657,1,0,0:0:0:0:
64,192,133807,1,0,0:0:0:0:
192,192,133957,1,0,0:0:0:0:
320,192,133957,1,0,0:0:0:0:
448,192,133957,1,0,0:0:0:0:
64,192,134032,1,0,0:0:0:0:
192,192,134107,1,0,0:0:0:0:
320,192,134182,1,0,0:0:0:0:
448,192,134257,1,0,0:0:0:0:
64,192,134332,1,0,0:0:0:0:
192,192,134407,1,0,0:0:0:0:
320,192,134482,1,0,0:0:0:0:
448,192,134557,1,0,0:0:0:0:
64,192,134557,1,0,0:0:0:0:
192,192,134557,1,0,0:0:0:0:
320,192,134632,1,0,0:0:0:0:
192,192,134707,1,0,0:0:0:0:
448,192,134857,1,0,0:0:0:0:
64,192,135007,1,0,0:0:0:0:
320,192,135157,1,0,0:0:0:0:
448,192,135157,1,0,0:0:0:0:
192,192,135157,1,0,0:0:0:0:
64,192,135232,1,0,0:0:0:0:
192,192,135307,1,0,0:0:0:0:
448,192,135457,1,0,0:0:0:0:
192,192,135607,1,0,0:0:0:0:
64,192,135757,1,0,0:0:0:0:
320,192,135757,1,0,0:0:0:0:
448,192,135757,1,0,0:0:0:0:
192,192,135832,1,0,0:0:0:0:
320,192,135907,1,0,0:0:0:0:
64,192,136057,1,0,0:0:0:0:
448,192,136207,1,0,0:0:0:0:
192,192,136357,1,0,0:0:0:0:
320,192,136357,1,0,0:0:0:0:
64,192,136357,1,0,0:0:0:0:
448,192,136432,1,0,0:0:0:0:
320,192,136507,1,0,0:0:0:0:
64,192,136657,1,0,0:0:0:0:
448,192,136807,1,0,0:0:0:0:
448,192,136957,1,0,0:0:0:0:
320,192,136957,1,0,0:0:0:0:
192,192,136957,1,0,0:0:0:0:
64,192,137032,1,0,0:0:0:0:
192,192,137107,1,0,0:0:0:0:
192,192,137257,1,0,0:0:0:0:
448,192,137407,1,0,0:0:0:0:
64,192,137557,1,0,0:0:0:0:
192,192,137557,1,0,0:0:0:0:
448,192,137557,1,0,0:0:0:0:
320,192,137632,1,0,0:0:0:0:
192,192,137707,1,0,0:0:0:0:
192,192,137857,1,0,0:0:0:0:
448,192,138007,1,0,0:0:0:0:
448,192,138157,1,0,0:0:0:0:
64,192,138157,1,0,0:0:0:0:
320,192,138157,1,0,0:0:0:0:
192,192,138232,1,0,0:0:0:0:
64,192,138307,1,0,0:0:0:0:
448,192,138382,1,0,0:0:0:0:
320,192,138457,1,0,0:0:0:0:
192,192,138532,1,0,0:0:0:0:
64,192,138607,1,0,0:0:0:0:
448,192,138682,1,0,0:0:0:0:
320,192,138757,1,0,0:0:0:0:
192,192,138757,1,0,0:0:0:0:
64,192,138757,1,0,0:0:0:0:
448,192,138832,1,0,0:0:0:0:
320,192,138907,1,0,0:0:0:0:
64,192,138982,1,0,0:0:0:0:
192,192,139057,1,0,0:0:0:0:
320,192,139132,1,0,0:0:0:0:
448,192,139207,1,0,0:0:0:0:
64,192,139282,1,0,0:0:0:0:
192,192,139357,1,0,0:0:0:0:
320,192,139357,1,0,0:0:0:0:
448,192,139357,1,0,0:0:0:0:
64,192,139432,1,0,0:0:0:0:
192,192,139507,1,0,0:0:0:0:
320,192,139582,1,0,0:0:0:0:
64,192,139657,1,0,0:0:0:0:
192,192,139657,1,0,0:0:0:0:
448,192,139732,1,0,0:0:0:0:
320,192,139807,1,0,0:0:0:0:
192,192,139882,1,0,0:0:0:0:
320,192,139957,1,0,0:0:0:0:
448,192,139957,1,0,0:0:0:0:
64,192,140032,1,0,0:0:0:0:
192,192,140107,1,0,0:0:0:0:
448,192,140182,1,0,0:0:0:0:
320,192,140257,1,0,0:0:0:0:
64,192,140257,1,0,0:0:0:0:
192,192,140332,1,0,0:0:0:0:
448,192,140407,1,0,0:0:0:0:
320,192,140482,1,0,0:0:0:0:
192,192,140557,1,0,0:0:0:0:
64,192,140557,1,0,0:0:0:0:
448,192,140632,1,0,0:0:0:0:
320,192,140707,1,0,0:0:0:0:
64,192,140782,1,0,0:0:0:0:
448,192,140857,1,0,0:0:0:0:
192,192,140857,1,0,0:0:0:0:
320,192,140932,1,0,0:0:0:0:
192,192,141007,1,0,0:0:0:0:
64,192,141082,1,0,0:0:0:0:
320,192,141157,1,0,0:0:0:0:
448,192,141157,1,0,0:0:0:0:
64,192,141232,1,0,0:0:0:0:
192,192,141307,1,0,0:0:0:0:
320,192,141382,1,0,0:0:0:0:
64,192,141457,1,0,0:0:0:0:
192,192,141457,1,0,0:0:0:0:
448,192,141532,1,0,0:0:0:0:
320,192,141607,1,0,0:0:0:0:
448,192,141682,1,0,0:0:0:0:
64,192,141757,1,0,0:0:0:0:
320,192,141757,1,0,0:0:0:0:
192,192,141832,1,0,0:0:0:0:
320,192,141907,1,0,0:0:0:0:
448,192,141982,1,0,0:0:0:0:
64,192,142057,1,0,0:0:0:0:
192,192,142057,1,0,0:0:0:0:
320,192,142132,1,0,0:0:0:0:
448,192,142207,1,0,0:0:0:0:
64,192,142282,1,0,0:0:0:0:
192,192,142357,1,0,0:0:0:0:
320,192,142357,1,0,0:0:0:0:
448,192,142432,1,0,0:0:0:0:
320,192,142507,1,0,0:0:0:0:
192,192,142582,1,0,0:0:0:0:
64,192,142657,1,0,0:0:0:0:
448,192,142657,1,0,0:0:0:0:
320,192,142732,1,0,0:0:0:0:
192,192,142807,1,0,0:0:0:0:
64,192,142882,1,0,0:0:0:0:
448,192,142957,1,0,0:0:0:0:
320,192,142957,1,0,0:0:0:0:
64,192,143032,1,0,0:0:0:0:
192,192,143107,1,0,0:0:0:0:
320,192,143182,1,0,0:0:0:0:
448,192,143257,1,0,0:0:0:0:
64,192,143257,1,0,0:0:0:0:
192,192,143332,1,0,0:0:0:0:
320,192,143407,1,0,0:0:0:0:
448,192,143482,1,0,0:0:0:0:
64,192,143557,1,0,0:0:0:0:
320,192,143557,1,0,0:0:0:0:
448,192,143632,1,0,0:0:0:0:
64,192,143707,1,0,0:0:0:0:
192,192,143707,1,0,0:0:0:0:
320,192,143782,1,0,0:0:0:0:
192,192,143857,1,0,0:0:0:0:
448,192,143857,1,0,0:0:0:0:
64,192,143932,1,0,0:0:0:0:
320,192,144007,1,0,0:0:0:0:
448,192,144082,1,0,0:0:0:0:
64,192,144157,1,0,0:0:0:0:
192,192,144157,1,0,0:0:0:0:
320,192,144157,1,0,0:0:0:0:
448,192,144307,1,0,0:0:0:0:
320,192,144382,1,0,0:0:0:0:
192,192,144457,1,0,0:0:0:0:
192,192,144607,1,0,0:0:0:0:
64,192,144757,1,0,0:0:0:0:
320,192,144757,1,0,0:0:0:0:
448,192,144757,1,0,0:0:0:0:
192,192,144907,1,0,0:0:0:0:
320,192,144982,1,0,0:0:0:0:
448,192,145057,1,0,0:0:0:0:
448,192,145207,1,0,0:0:0:0:
320,192,145357,1,0,0:0:0:0:
192,192,145357,1,0,0:0:0:0:
64,192,145357,1,0,0:0:0:0:
448,192,145507,1,0,0:0:0:0:
320,192,145582,1,0,0:0:0:0:
192,192,145657,1,0,0:0:0:0:
192,192,145807,1,0,0:0:0:0:
64,192,145957,1,0,0:0:0:0:
320,192,145957,1,0,0:0:0:0:
448,192,145957,1,0,0:0:0:0:
192,192,146032,1,0,0:0:0:0:
320,192,146107,1,0,0:0:0:0:
448,192,146182,1,0,0:0:0:0:
64,192,146257,1,0,0:0:0:0:
64,192,146407,1,0,0:0:0:0:
448,192,146557,1,0,0:0:0:0:
320,192,146557,1,0,0:0:0:0:
