osu file format v14

[General]
AudioFilename: audio.mp3
AudioLeadIn: 0
PreviewTime: 251327
Countdown: 0
SampleSet: Normal
StackLeniency: 0.9
Mode: 0
LetterboxInBreaks: 0
WidescreenStoryboard: 0

[Editor]
Bookmarks: 15683,19501,21501,22956,42047,44228,47865,50592,63501,66228,85138,110047,139319,139683,140047,140410,140774,141138,141501,141865,160774,185319,185501,190228,194956,201865,204774,207683,219319,238228,246956,247683,248228,249683,251319,300774,308410
DistanceSpacing: 0.8
BeatDivisor: 4
GridSize: 4
TimelineZoom: 1

[Metadata]
Title:Remote Control
TitleUnicode:Remote Control
Artist:kradness & Reol
ArtistUnicode:kradness & Reol
Creator:DRythm
Version:R.I.P. Control
Source:
Tags:Reol kradness Remote Control
BeatmapID:1355427
BeatmapSetID:639040

[Difficulty]
HPDrainRate:5.5
CircleSize:4
OverallDifficulty:9.1
ApproachRate:9.2
SliderMultiplier:1.4
SliderTickRate:1

[Events]
//Background and Video events
0,0,"is this legal questionmark.jpg",0,0
//Break Periods
//Storyboard Layer 0 (Background)
//Storyboard Layer 1 (Fail)
//Storyboard Layer 2 (Pass)
//Storyboard Layer 3 (Foreground)
//Storyboard Sound Samples

[TimingPoints]
1146,363.636363636364,4,1,0,100,1,0
7691,-50,4,1,0,65,0,0
7964,-100,4,1,0,65,0,0
9865,-100,4,1,0,65,0,0
13509,-50,4,1,0,65,0,0
13782,-100,4,1,0,65,0,0
19327,-50,4,1,0,65,0,0
19600,-100,4,1,0,65,0,0
61865,-50,4,1,0,65,0,0
62047,-100,4,1,0,65,0,0
71683,-66.6666666666667,4,1,0,65,0,0
72138,-100,4,1,0,65,0,0
81873,-66.6666666666667,4,1,0,65,0,0
82236,-50,4,1,0,65,0,0
82509,-100,4,1,0,65,0,0
82592,-50,4,1,0,65,0,0
85146,-50,4,1,0,65,0,1
89865,-50,4,1,0,75,0,1
91228,-50,4,1,0,65,0,1
95683,-50,4,1,0,75,0,1
97047,-50,4,1,0,65,0,1
101501,-50,4,1,0,75,0,1
102865,-50,4,1,0,65,0,1
110055,-100,4,1,0,65,0,0
147319,-66.6666666666667,4,1,0,65,0,0
147683,-100,4,1,0,65,0,0
160782,-50,4,1,0,65,0,1
165501,-50,4,1,0,75,0,1
166683,-50,4,1,0,65,0,1
171319,-50,4,1,0,75,0,1
172683,-50,4,1,0,65,0,1
177135,-50,4,1,0,75,0,1
185327,-50,4,1,0,65,0,1
185509,-100,4,1,0,65,0,0
219319,-50,4,1,0,65,0,0
225138,-66.6666666666667,4,1,0,65,0,0
232774,-50,4,1,0,65,0,0
233774,-66.6666666666667,4,1,0,65,0,0
246600,-100,4,1,0,65,0,0
246782,-66.6666666666667,4,1,0,65,0,0
251327,-50,4,1,0,65,0,1
255683,-50,4,1,0,75,0,1
257047,-50,4,1,0,65,0,1
261501,-50,4,1,0,75,0,1
263956,-50,4,1,0,65,0,1
267319,-50,4,1,0,75,0,1
268683,-50,4,1,0,65,0,1
274418,-50,4,1,0,65,0,0
276055,-50,4,1,0,65,0,1
299327,-133.333333333333,4,3,0,70,0,0
299683,-133.333333333333,4,3,0,75,0,0
300047,-133.333333333333,4,3,0,80,0,0
300410,-133.333333333333,4,3,0,90,0,0
300782,-133.333333333333,4,3,0,100,0,0
308319,-133.333333333333,4,1,0,5,0,0
308410,-133.333333333333,4,1,0,5,0,0

[HitObjects]
134,76,4055,6,0,L|167:144,1,70
377,76,4418,2,0,L|344:144,1,70
134,307,4782,2,0,L|167:239,1,70
377,307,5145,2,0,L|344:239,1,70
256,192,5509,5,0,0:0:0:0:
204,288,5691,1,0,0:0:0:0:
140,244,5873,2,0,P|135:219|172:200,1,70
312,192,6236,2,0,L|396:192,1,70
256,236,6600,2,0,L|256:312,1,70
256,148,6964,2,0,L|256:72,1,70
180,190,7327,2,0,P|138:222|153:231,1,70
224,292,7691,2,0,P|208:240|264:272,1,140
411,263,8055,6,0,L|328:312,1,70
101,263,8418,2,0,L|180:308,1,70
206,158,8782,2,0,L|154:109,1,70
306,158,9146,2,0,L|358:109,1,70
253,194,9509,1,0,0:0:0:0:
184,144,9873,6,0,L|254:193,1,70
256,164,10236,2,0,L|256:85,1,70
328,240,10600,2,0,L|258:191,1,70
256,208,10964,2,0,L|256:284,1,70
252,191,11327,1,0,0:0:0:0:
336,126,11691,6,0,P|361:162|325:160,1,70
203,192,12055,2,0,L|125:192,1,70
251,261,12418,2,0,P|274:296|298:269,1,70
376,155,12782,2,0,L|376:56,1,70
164,185,13146,2,0,P|142:227|172:234,1,70
284,288,13509,2,0,P|228:244|292:264,1,140
352,183,13873,6,0,L|412:231,1,70
369,82,14236,2,0,L|436:125,1,70
227,163,14600,2,0,L|285:85,1,70
131,156,14964,2,0,L|176:92,1,70
256,192,15327,2,0,L|256:276,1,70
199,162,15691,6,0,L|140:110,1,70
313,162,16055,2,0,L|372:110,1,70
193,260,16418,2,0,L|134:208,1,70
319,260,16782,2,0,L|378:208,1,70
288,192,17146,2,0,L|190:192,1,70
163,187,17509,6,0,P|131:156|155:139,1,70
249,185,17873,2,0,L|324:185,1,70
327,329,18236,2,0,L|276:274,1,70
260,185,18600,2,0,L|260:114,1,70
370,227,18964,2,0,P|384:186|348:196,1,70
308,196,19236,1,0,0:0:0:0:
268,208,19327,2,0,P|220:188|252:160,1,105
320,262,19691,6,0,P|400:261|402:261,1,70
320,122,20055,2,0,P|400:123|402:123,1,70
231,225,20418,2,0,P|266:184|246:174,1,70
98,116,20782,2,0,L|169:117,1,70
317,207,21146,2,0,L|271:275,1,70
194,168,21509,5,0,0:0:0:0:
162,137,21600,1,0,0:0:0:0:
130,106,21691,1,0,0:0:0:0:
292,217,21873,5,0,0:0:0:0:
324,186,21964,1,0,0:0:0:0:
356,155,22055,1,0,0:0:0:0:
189,298,22236,5,0,0:0:0:0:
157,267,22327,1,0,0:0:0:0:
125,236,22418,1,0,0:0:0:0:
275,352,22600,5,0,0:0:0:0:
307,321,22691,1,0,0:0:0:0:
339,290,22782,1,0,0:0:0:0:
256,192,22964,1,0,0:0:0:0:
173,174,23327,6,0,P|196:143|174:127,1,70
106,121,23691,2,0,L|32:121,1,70
38,218,24055,2,0,P|44:270|64:266,1,70
150,271,24418,2,0,L|150:201,1,70
276,117,24782,2,0,P|253:75|273:67,1,70
378,52,25146,1,0,0:0:0:0:
378,150,25509,6,0,L|418:216,1,70
294,212,25873,2,0,L|331:272,1,70
252,134,26236,2,0,L|336:82,1,70
286,216,26600,2,0,B|363:168|363:168|360:172,1,70
200,201,26964,1,0,0:0:0:0:
188,153,27327,5,0,0:0:0:0:
178,143,27418,1,0,0:0:0:0:
168,133,27509,1,0,0:0:0:0:
105,64,27691,2,0,L|168:64,1,35
168,64,27873,1,0,0:0:0:0:
184,64,27964,1,0,0:0:0:0:
197,63,28055,1,0,0:0:0:0:
300,152,28236,1,0,0:0:0:0:
302,277,28419,2,0,L|404:277,1,70
256,192,28782,5,0,0:0:0:0:
244,192,28873,1,0,0:0:0:0:
232,192,28964,1,0,0:0:0:0:
128,166,29146,2,0,P|126:127|156:116,1,70
244,112,29509,2,0,L|325:112,1,70
360,132,29782,1,0,0:0:0:0:
401,156,29873,2,0,P|439:179|419:203,1,70
316,252,30236,5,0,0:0:0:0:
316,236,30327,1,0,0:0:0:0:
316,220,30418,1,0,0:0:0:0:
302,130,30600,2,0,P|276:98|260:104,1,35
232,132,30782,1,0,0:0:0:0:
224,140,30873,1,0,0:0:0:0:
216,148,30964,1,0,0:0:0:0:
144,220,31146,1,0,0:0:0:0:
180,284,31327,6,0,L|256:312,1,70
284,220,31691,2,0,L|364:244,1,70
392,172,32055,2,0,L|352:96,1,70
260,92,32418,2,0,L|184:112,1,70
256,192,32782,1,0,0:0:0:0:
180,156,33146,5,0,0:0:0:0:
172,144,33236,1,0,0:0:0:0:
164,132,33327,1,0,0:0:0:0:
300,180,33509,2,0,L|376:216,1,70
180,204,33873,5,0,0:0:0:0:
172,216,33963,1,0,0:0:0:0:
164,228,34054,1,0,0:0:0:0:
300,180,34236,2,0,L|376:144,1,70
256,192,34600,5,0,0:0:0:0:
315,122,34964,6,0,P|354:96|365:112,1,70
404,192,35327,1,0,0:0:0:0:
388,192,35418,1,0,0:0:0:0:
372,192,35509,1,0,0:0:0:0:
240,192,35691,2,0,P|216:228|240:240,1,70
332,240,36055,1,0,0:0:0:0:
332,224,36146,1,0,0:0:0:0:
332,212,36236,1,0,0:0:0:0:
332,112,36418,2,0,P|328:64|284:68,1,70
224,80,36782,1,0,0:0:0:0:
216,92,36873,1,0,0:0:0:0:
208,104,36964,1,0,0:0:0:0:
128,192,37146,6,0,L|128:272,1,70
388,192,37509,6,0,L|388:112,1,70
252,48,37873,2,0,L|224:128,1,70
260,192,38236,2,0,L|340:192,1,70
392,288,38600,1,0,0:0:0:0:
76,112,38964,6,0,P|132:56|176:72,1,105
300,116,39327,1,0,0:0:0:0:
376,176,39509,1,0,0:0:0:0:
428,272,39691,1,0,0:0:0:0:
408,280,39782,1,0,0:0:0:0:
392,288,39873,1,0,0:0:0:0:
240,304,40055,6,0,B|244:276|276:252|276:252|248:216|288:192,1,105
272,104,40418,1,0,0:0:0:0:
168,196,40600,1,0,0:0:0:0:
264,280,40782,1,0,0:0:0:0:
376,172,40964,1,0,0:0:0:0:
268,220,41146,2,0,P|230:202|265:183,1,70
380,220,41509,1,0,0:0:0:0:
372,88,41691,2,0,P|409:105|374:124,1,70
280,280,42055,5,0,0:0:0:0:
272,276,42236,1,0,0:0:0:0:
148,224,42418,1,0,0:0:0:0:
280,112,42600,1,0,0:0:0:0:
116,144,42782,1,0,0:0:0:0:
280,192,42964,1,0,0:0:0:0:
236,240,43327,5,0,0:0:0:0:
248,144,43509,1,0,0:0:0:0:
348,232,43691,1,0,0:0:0:0:
192,276,43873,1,0,0:0:0:0:
208,104,44055,1,0,0:0:0:0:
388,268,44236,1,0,0:0:0:0:
272,256,44418,6,0,B|276:228|308:204|308:204|280:168|320:144,1,105
324,96,44782,1,0,0:0:0:0:
286,79,44964,1,0,0:0:0:0:
251,73,45146,1,0,0:0:0:0:
209,79,45328,1,0,0:0:0:0:
154,136,45509,2,0,L|151:231,1,70
172,293,45873,1,0,0:0:0:0:
185,289,45964,1,0,0:0:0:0:
198,285,46055,1,0,0:0:0:0:
340,272,46236,1,0,0:0:0:0:
440,132,46418,1,0,0:0:0:0:
420,252,46600,1,0,0:0:0:0:
368,84,46782,1,0,0:0:0:0:
476,204,46964,2,0,B|464:230|427:244|427:244|445:286|400:299,1,105
320,324,47327,1,0,0:0:0:0:
220,282,47509,2,0,B|197:264|191:225|191:225|146:234|142:187,1,105
112,196,47873,5,0,0:0:0:0:
123,176,48236,1,0,0:0:0:0:
304,120,48418,1,0,0:0:0:0:
176,280,48600,1,0,0:0:0:0:
268,96,49146,5,0,0:0:0:0:
88,256,49327,1,0,0:0:0:0:
200,104,49509,1,0,0:0:0:0:
112,324,49691,1,0,0:0:0:0:
232,216,49873,1,0,0:0:0:0:
112,136,50055,1,0,0:0:0:0:
248,96,50236,1,0,0:0:0:0:
248,268,50418,1,0,0:0:0:0:
418,247,50600,1,0,0:0:0:0:
90,166,50782,6,0,P|117:110|132:101,1,70
223,55,51146,2,0,P|271:41|298:46,1,70
409,88,51509,2,0,P|445:137|432:164,1,70
400,232,51873,1,0,0:0:0:0:
292,144,52055,1,0,0:0:0:0:
280,280,52236,1,0,0:0:0:0:
295,259,52418,2,0,P|327:212|327:180,1,70
300,80,52782,5,0,0:0:0:0:
160,124,52964,2,0,P|127:165|137:209,1,70
160,288,53327,1,0,0:0:0:0:
262,335,53509,6,0,P|307:323|316:301,1,70
337,243,53782,1,0,0:0:0:0:
334,191,53873,2,0,P|299:159|302:135,1,70
336,94,54146,1,0,0:0:0:0:
456,103,54418,1,0,0:0:0:0:
342,241,54600,1,0,0:0:0:0:
216,164,54782,1,0,0:0:0:0:
312,52,54964,1,0,0:0:0:0:
368,88,55146,2,0,P|390:144|338:244,1,175
294,290,55691,6,0,L|201:290,1,70
112,288,56055,1,0,0:0:0:0:
188,148,56236,2,0,L|104:148,1,70
304,84,56600,5,0,0:0:0:0:
232,232,56782,1,0,0:0:0:0:
102,172,56964,2,0,P|114:118|122:117,1,70
224,174,57327,2,0,P|251:203|281:209,1,70
376,160,57691,1,0,0:0:0:0:
164,92,57873,1,0,0:0:0:0:
120,244,58055,1,0,0:0:0:0:
164,92,58236,1,0,0:0:0:0:
224,264,58418,2,0,P|280:245|294:210,1,70
192,288,58782,6,0,P|248:269|262:234,1,70
328,196,59146,1,0,0:0:0:0:
176,140,59327,1,0,0:0:0:0:
203,250,59509,2,0,L|226:281,1,35
285,325,59691,1,0,0:0:0:0:
400,296,59873,1,0,0:0:0:0:
180,160,60055,1,0,0:0:0:0:
212,296,60236,1,0,0:0:0:0:
264,116,60418,1,0,0:0:0:0:
332,200,60600,1,0,0:0:0:0:
168,216,60782,5,0,0:0:0:0:
360,144,60964,1,0,0:0:0:0:
168,288,61146,2,0,P|103:284|68:200,1,140
64,184,61873,6,0,P|112:112|136:160,1,140
323,323,62236,5,0,0:0:0:0:
395,290,62327,1,0,0:0:0:0:
443,226,62418,2,0,L|442:156,1,70
283,47,62782,6,0,L|192:47,1,70
92,164,63146,2,0,L|92:244,1,70
296,335,63509,5,0,0:0:0:0:
401,225,63691,1,0,0:0:0:0:
270,249,63873,5,0,0:0:0:0:
177,125,64055,1,0,0:0:0:0:
162,257,64236,5,0,0:0:0:0:
269,104,64418,1,0,0:0:0:0:
419,267,64600,5,0,0:0:0:0:
244,252,64782,1,0,0:0:0:0:
298,314,64964,5,0,0:0:0:0:
391,166,65146,1,0,0:0:0:0:
308,199,65327,5,0,0:0:0:0:
189,121,65509,1,0,0:0:0:0:
290,119,65691,5,0,0:0:0:0:
145,197,65873,1,0,0:0:0:0:
83,176,65964,1,0,0:0:0:0:
52,117,66055,1,0,0:0:0:0:
158,52,66236,5,0,0:0:0:0:
331,305,66418,5,0,0:0:0:0:
392,108,66600,1,0,0:0:0:0:
404,260,66782,1,0,0:0:0:0:
302,65,66964,1,0,0:0:0:0:
189,159,67146,2,0,P|187:232|244:279,1,140
326,286,67691,2,0,P|366:252|375:224,1,70
212,72,68055,5,0,0:0:0:0:
300,72,68236,1,0,0:0:0:0:
144,36,68418,1,0,0:0:0:0:
368,40,68599,1,0,0:0:0:0:
212,312,68782,5,0,0:0:0:0:
300,312,68963,1,0,0:0:0:0:
144,348,69146,1,0,0:0:0:0:
368,344,69327,1,0,0:0:0:0:
216,212,69509,6,0,P|264:204|256:180,1,70
236,88,69873,2,0,P|248:48|272:60,1,70
320,160,70236,1,0,0:0:0:0:
332,160,70327,1,0,0:0:0:0:
344,160,70418,1,0,0:0:0:0:
420,172,70600,2,0,P|448:192|424:228,1,70
316,240,70964,1,0,0:0:0:0:
316,228,71055,1,0,0:0:0:0:
316,216,71146,1,0,0:0:0:0:
308,112,71327,2,0,P|288:64|256:72,1,70
180,96,71691,2,0,P|120:104|200:132,1,210.000008010865
303,111,72236,5,0,0:0:0:0:
372,208,72418,1,0,0:0:0:0:
262,272,72600,5,0,0:0:0:0:
193,177,72782,1,0,0:0:0:0:
196,80,73146,2,0,P|248:45|283:46,1,70
304,44,73509,1,0,0:0:0:0:
352,56,73691,1,0,0:0:0:0:
444,132,73873,1,0,0:0:0:0:
196,136,74236,6,0,P|160:184|188:244,1,105
188,240,74600,2,0,L|276:232,1,70
376,208,74964,1,0,0:0:0:0:
404,124,75146,2,0,L|384:72,1,35
339,47,75327,1,0,0:0:0:0:
242,43,75509,1,0,0:0:0:0:
151,86,75691,1,0,0:0:0:0:
141,186,75873,1,0,0:0:0:0:
192,264,76055,1,0,0:0:0:0:
279,296,76236,1,0,0:0:0:0:
364,235,76418,1,0,0:0:0:0:
357,219,76600,1,0,0:0:0:0:
313,144,76782,6,0,P|308:76|319:66,1,70
223,145,77146,2,0,P|200:52|107:179,1,350
168,203,78236,1,0,0:0:0:0:
234,295,78600,1,0,0:0:0:0:
414,179,78782,1,0,0:0:0:0:
403,72,78964,5,0,0:0:0:0:
304,54,79327,2,0,L|259:54,1,35
220,74,79509,2,0,L|143:108,1,70
117,205,80055,5,0,0:0:0:0:
269,306,80418,2,0,P|329:272|339:210,1,105
346,174,80782,1,0,0:0:0:0:
187,206,80964,1,0,0:0:0:0:
100,183,81146,2,0,P|95:139|104:130,1,35
104,120,81327,2,0,P|119:79|110:70,1,35
86,41,81509,1,0,0:0:0:0:
228,90,81691,1,0,0:0:0:0:
346,113,81873,2,0,P|403:132|420:192,1,105.000004005432
440,220,82236,2,0,P|420:296|384:268,1,140
121,326,82600,5,0,0:0:0:0:
349,59,82782,1,0,0:0:0:0:
390,326,83327,5,0,0:0:0:0:
162,59,83509,1,0,0:0:0:0:
456,124,83873,5,0,0:0:0:0:
104,48,84055,1,0,0:0:0:0:
248,156,84236,1,0,0:0:0:0:
32,224,84418,1,0,0:0:0:0:
391,336,84600,2,0,P|428:276|304:140,1,280
216,116,85146,1,0,0:0:0:0:
354,71,85327,5,0,0:0:0:0:
176,289,85509,1,0,0:0:0:0:
342,347,85691,1,0,0:0:0:0:
354,341,85782,1,0,0:0:0:0:
365,333,85873,1,0,0:0:0:0:
158,313,86055,5,0,0:0:0:0:
336,95,86237,1,0,0:0:0:0:
170,37,86419,1,0,0:0:0:0:
158,43,86510,1,0,0:0:0:0:
148,52,86600,5,0,0:0:0:0:
200,240,86782,1,0,0:0:0:0:
379,67,86964,1,0,0:0:0:0:
403,303,87146,1,0,0:0:0:0:
207,86,87327,1,0,0:0:0:0:
159,248,87509,2,0,L|264:356,1,140
338,273,87964,6,0,B|313:237|349:228|349:228|348:218|288:160,1,140
336,156,88236,2,0,B|293:142|316:114|316:114|310:106|244:80,1,140
184,36,88600,6,0,L|64:120,1,140
68,216,88964,1,0,0:0:0:0:
386,282,89146,1,0,0:0:0:0:
136,156,89327,5,0,0:0:0:0:
132,220,89509,2,0,L|140:296,1,70
152,304,89691,2,0,L|220:336,1,70
256,341,89873,5,0,0:0:0:0:
256,42,90055,1,0,0:0:0:0:
164,309,90237,1,0,0:0:0:0:
347,74,90419,1,0,0:0:0:0:
111,230,90601,1,0,0:0:0:0:
400,153,90783,1,0,0:0:0:0:
116,138,90964,1,0,0:0:0:0:
395,245,91146,1,0,0:0:0:0:
80,80,91328,5,0,0:0:0:0:
424,300,91510,1,0,0:0:0:0:
40,336,91873,5,0,0:0:0:0:
444,64,92055,2,0,P|464:140|440:208,1,140
432,240,92418,5,0,0:0:0:0:
104,88,92782,1,0,0:0:0:0:
328,100,92964,1,0,0:0:0:0:
132,208,93146,1,0,0:0:0:0:
328,100,93327,1,0,0:0:0:0:
340,96,93418,1,0,0:0:0:0:
352,96,93509,1,0,0:0:0:0:
172,312,93873,6,0,B|168:236|168:236|248:268|176:104|368:236|368:236,1,280
408,184,94418,5,0,0:0:0:0:
392,72,94600,1,0,0:0:0:0:
268,32,94782,1,0,0:0:0:0:
128,88,94964,2,0,P|104:164|180:272,1,210
252,308,95327,5,0,0:0:0:0:
260,296,95509,1,0,0:0:0:0:
356,28,95691,1,0,0:0:0:0:
328,304,95873,1,0,0:0:0:0:
288,32,96055,1,0,0:0:0:0:
396,308,96236,1,0,0:0:0:0:
192,40,96418,2,0,P|60:136|120:252,1,280
228,344,96964,1,0,0:0:0:0:
148,336,97146,5,0,0:0:0:0:
352,104,97327,1,0,0:0:0:0:
352,104,97418,1,0,0:0:0:0:
352,104,97509,1,0,0:0:0:0:
384,344,97691,5,0,0:0:0:0:
120,36,97873,1,0,0:0:0:0:
116,32,97964,1,0,0:0:0:0:
112,28,98055,1,0,0:0:0:0:
140,136,98236,6,0,P|116:224|136:276,1,105.000004005432
180,308,98600,2,0,P|240:272|264:272,1,52.5000020027161
256,268,98782,2,0,B|304:352|304:352|368:300|348:176,1,280
360,164,99327,2,0,B|336:112|308:124|308:124|376:84|200:64,1,210
156,144,99691,6,0,L|176:216,1,52.5000020027161
236,204,99873,2,0,L|180:296,1,105.000004005432
336,312,100236,5,0,0:0:0:0:
380,184,100600,1,0,0:0:0:0:
228,40,100782,1,0,0:0:0:0:
128,288,101146,5,0,0:0:0:0:
256,168,101327,1,0,0:0:0:0:
256,192,101509,5,0,0:0:0:0:
76,192,101691,1,0,0:0:0:0:
256,192,101873,1,0,0:0:0:0:
92,115,102055,1,0,0:0:0:0:
256,192,102236,1,0,0:0:0:0:
140,54,102418,1,0,0:0:0:0:
256,192,102600,1,0,0:0:0:0:
209,18,102782,1,0,0:0:0:0:
316,56,102964,6,0,P|380:88|280:276,1,350
264,248,103509,2,0,P|340:184|176:160,1,350
208,176,104055,1,0,0:0:0:0:
136,52,104236,5,0,0:0:0:0:
148,288,104418,1,0,0:0:0:0:
300,120,104600,1,0,0:0:0:0:
308,112,104691,1,0,0:0:0:0:
316,104,104782,1,0,0:0:0:0:
324,96,104873,1,0,0:0:0:0:
332,88,104964,1,0,0:0:0:0:
428,44,105146,2,0,P|456:144|432:172,1,105.000004005432
428,196,105418,6,0,L|372:212,1,52.5000020027161
368,256,105509,2,0,B|292:296|292:296|252:244|252:244|160:340,1,280
116,284,106055,5,0,0:0:0:0:
180,152,106236,1,0,0:0:0:0:
268,280,106418,1,0,0:0:0:0:
336,152,106600,1,0,0:0:0:0:
408,276,106782,1,0,0:0:0:0:
452,136,106964,1,0,0:0:0:0:
304,68,107146,1,0,0:0:0:0:
160,152,107327,1,0,0:0:0:0:
236,256,107509,1,0,0:0:0:0:
348,160,107691,1,0,0:0:0:0:
168,128,107873,2,0,P|104:200|104:280,1,140
104,268,108146,1,0,0:0:0:0:
116,288,108236,2,0,P|256:216|440:252,1,350
256,192,108782,12,0,110055,0:0:0:0:
184,128,110236,5,0,0:0:0:0:
204,128,110600,1,0,0:0:0:0:
308,272,110782,1,0,0:0:0:0:
424,144,110964,5,0,0:0:0:0:
188,248,111146,1,0,0:0:0:0:
292,104,111328,1,0,0:0:0:0:
312,224,111691,5,0,0:0:0:0:
288,212,112055,1,0,0:0:0:0:
116,224,112418,1,0,0:0:0:0:
188,104,112600,1,0,0:0:0:0:
328,116,112782,1,0,0:0:0:0:
424,180,113146,6,0,L|368:284,1,105
356,304,113509,2,0,P|264:316|216:268,1,140
72,148,114055,1,0,0:0:0:0:
212,32,114236,1,0,0:0:0:0:
300,136,114418,1,0,0:0:0:0:
152,252,114600,6,0,P|172:288|192:284,1,35
208,284,114782,2,0,P|232:248|240:252,1,35
252,244,114964,2,0,P|260:292|280:284,1,70
416,256,115327,2,0,L|360:204,1,70
220,92,115691,1,0,0:0:0:0:
196,76,115782,1,0,0:0:0:0:
172,60,115873,1,0,0:0:0:0:
80,168,116055,1,0,0:0:0:0:
176,296,116236,1,0,0:0:0:0:
284,96,116418,1,0,0:0:0:0:
280,260,116600,2,0,P|296:308|300:308,1,35
332,312,116782,6,0,P|368:260|356:232,1,70
204,188,117327,2,0,P|188:136|204:100,1,70
328,84,117691,1,0,0:0:0:0:
344,92,118055,1,0,0:0:0:0:
360,288,118236,1,0,0:0:0:0:
188,108,118418,1,0,0:0:0:0:
160,260,118964,1,0,0:0:0:0:
252,116,119146,1,0,0:0:0:0:
328,312,119327,1,0,0:0:0:0:
424,164,119509,1,0,0:0:0:0:
244,288,119691,1,0,0:0:0:0:
344,136,119873,1,0,0:0:0:0:
272,112,120055,6,0,P|220:136|224:160,1,70
308,312,120418,5,0,0:0:0:0:
324,304,120782,1,0,0:0:0:0:
412,140,120964,1,0,0:0:0:0:
220,248,121146,1,0,0:0:0:0:
104,72,121509,5,0,0:0:0:0:
120,80,121600,1,0,0:0:0:0:
136,88,121691,1,0,0:0:0:0:
248,192,121873,1,0,0:0:0:0:
372,100,122055,1,0,0:0:0:0:
392,268,122236,1,0,0:0:0:0:
280,348,122418,1,0,0:0:0:0:
264,240,122600,6,0,P|228:220|220:188,1,70
212,104,122964,1,0,0:0:0:0:
104,140,123146,2,0,P|108:104|80:80,1,70
124,280,123509,5,0,0:0:0:0:
144,280,123873,1,0,0:0:0:0:
160,132,124055,1,0,0:0:0:0:
248,320,124236,1,0,0:0:0:0:
348,272,124418,1,0,0:0:0:0:
348,216,124509,1,0,0:0:0:0:
348,160,124600,1,0,0:0:0:0:
436,92,124782,5,0,0:0:0:0:
172,88,124964,1,0,0:0:0:0:
436,108,125146,1,0,0:0:0:0:
236,212,125327,1,0,0:0:0:0:
152,324,125509,1,0,0:0:0:0:
76,144,125691,1,0,0:0:0:0:
160,96,125873,2,0,P|204:64|292:64,1,140
400,84,126418,5,0,0:0:0:0:
384,232,126600,1,0,0:0:0:0:
252,68,126782,1,0,0:0:0:0:
308,164,126964,1,0,0:0:0:0:
292,312,127146,1,0,0:0:0:0:
128,192,127327,2,0,P|112:236|120:248,1,35
148,244,127509,2,0,P|156:280|144:284,1,35
184,332,127691,6,0,P|220:308|240:292,1,35
236,256,127873,2,0,P|268:284|296:292,1,70
408,280,128236,1,0,0:0:0:0:
440,112,128600,5,0,0:0:0:0:
280,80,128782,1,0,0:0:0:0:
312,192,128964,1,0,0:0:0:0:
428,232,129146,2,0,P|408:296|400:296,1,70
308,296,129509,1,0,0:0:0:0:
200,212,129691,1,0,0:0:0:0:
288,104,129873,2,0,P|344:72|388:88,1,105
444,128,130236,5,0,0:0:0:0:
444,244,130418,1,0,0:0:0:0:
340,136,130600,1,0,0:0:0:0:
272,256,130782,1,0,0:0:0:0:
216,152,130964,1,0,0:0:0:0:
176,68,131146,2,0,B|128:52|128:52|88:144,1,140
104,224,131873,1,0,0:0:0:0:
116,240,132055,1,0,0:0:0:0:
264,284,132236,6,0,L|320:272,1,35
328,224,132418,2,0,L|272:216,1,35
272,160,132600,2,0,L|324:160,1,35
328,108,132782,2,0,L|268:96,1,35
280,52,132964,2,0,L|328:48,1,35
444,72,133146,1,0,0:0:0:0:
480,216,133327,1,0,0:0:0:0:
432,312,133509,2,0,L|388:320,1,35
352,320,133691,2,0,P|324:268|260:264,1,105
240,272,134055,2,0,P|232:224|248:204,1,70
368,160,134418,5,0,0:0:0:0:
196,104,134600,1,0,0:0:0:0:
144,212,134782,2,0,P|140:248|160:264,1,35
120,276,134964,2,0,P|124:312|84:324,1,70
244,300,135327,6,0,P|244:256|228:244,1,35
296,248,135509,2,0,P|312:212|400:160,1,140
456,104,136055,1,0,0:0:0:0:
296,160,136236,1,0,0:0:0:0:
352,72,136418,1,0,0:0:0:0:
392,216,136600,1,0,0:0:0:0:
272,304,136782,2,0,P|224:316|172:244,1,140
160,124,137327,5,0,0:0:0:0:
244,296,137509,1,0,0:0:0:0:
332,40,137691,1,0,0:0:0:0:
368,220,137873,1,0,0:0:0:0:
380,240,137964,1,0,0:0:0:0:
392,261,138055,1,0,0:0:0:0:
256,136,138236,5,0,0:0:0:0:
256,76,138327,1,0,0:0:0:0:
256,16,138418,1,0,0:0:0:0:
312,192,138600,5,0,0:0:0:0:
372,192,138691,1,0,0:0:0:0:
432,192,138782,1,0,0:0:0:0:
256,248,138964,5,0,0:0:0:0:
256,308,139055,1,0,0:0:0:0:
256,368,139146,1,0,0:0:0:0:
88,280,139327,5,0,0:0:0:0:
223,218,139509,1,0,0:0:0:0:
155,122,139691,5,0,0:0:0:0:
163,297,139873,1,0,0:0:0:0:
75,252,140055,5,0,0:0:0:0:
245,161,140236,1,0,0:0:0:0:
221,260,140418,5,0,0:0:0:0:
213,243,140782,1,0,0:0:0:0:
61,166,141146,5,0,0:0:0:0:
296,193,141327,1,0,0:0:0:0:
240,80,141509,1,0,0:0:0:0:
424,96,141873,6,0,P|396:132|384:132,1,35
336,140,142055,1,0,0:0:0:0:
208,120,142236,1,0,0:0:0:0:
252,252,142418,1,0,0:0:0:0:
380,272,142600,1,0,0:0:0:0:
432,152,142782,2,0,P|400:112|312:72,1,140
256,48,143327,5,0,0:0:0:0:
140,56,143509,1,0,0:0:0:0:
104,136,143691,2,0,L|16:232,1,105
64,232,144055,2,0,L|160:176,1,105
172,200,144418,2,0,L|84:296,1,105
132,296,144782,2,0,L|228:240,1,105
248,240,145146,2,0,L|324:256,1,70
368,268,145509,6,0,P|408:244|408:212,1,70
376,180,145873,2,0,L|296:180,1,70
248,180,146236,2,0,P|224:148|240:112,1,70
276,112,146600,2,0,L|276:32,1,70
264,16,146964,2,0,P|212:12|196:32,1,70
184,76,147327,2,0,P|148:120|212:108,1,157.500006008148
272,72,147873,5,0,0:0:0:0:
412,88,148055,2,0,L|452:156,1,70
448,252,148418,1,0,0:0:0:0:
304,284,148600,2,0,P|252:252|200:184,1,140
220,192,149146,6,0,L|372:192,1,140
404,192,149873,5,0,0:0:0:0:
408,212,150236,1,0,0:0:0:0:
444,340,150600,1,0,0:0:0:0:
452,148,150782,1,0,0:0:0:0:
356,240,150964,1,0,0:0:0:0:
512,352,151146,1,0,0:0:0:0:
416,244,151327,1,0,0:0:0:0:
380,336,151509,1,0,0:0:0:0:
320,216,151691,2,0,P|320:172|312:168,1,35
272,180,151873,2,0,P|272:144|252:120,1,35
212,100,152055,1,0,0:0:0:0:
96,160,152236,1,0,0:0:0:0:
200,224,152418,6,0,P|152:284|240:288,1,175
264,268,152964,2,0,P|320:236|276:180,1,140
168,136,153509,6,0,L|228:72,1,70
296,92,153873,2,0,L|344:156,1,70
300,200,154146,2,0,B|352:240|352:240|312:336|196:248,1,245
100,200,154964,1,0,0:0:0:0:
196,112,155146,1,0,0:0:0:0:
216,104,155327,2,0,P|268:68|272:108,1,105
296,164,155691,5,0,0:0:0:0:
188,260,155873,1,0,0:0:0:0:
212,268,156236,1,0,0:0:0:0:
348,260,156418,1,0,0:0:0:0:
192,172,156600,1,0,0:0:0:0:
352,112,156782,1,0,0:0:0:0:
224,84,156964,2,0,P|260:108|260:120,1,35
260,176,157146,1,0,0:0:0:0:
204,320,157327,5,0,0:0:0:0:
336,128,157509,1,0,0:0:0:0:
364,276,157691,1,0,0:0:0:0:
372,288,157782,1,0,0:0:0:0:
380,300,157873,2,0,P|348:336|328:324,1,70
47,250,158237,5,0,0:0:0:0:
468,128,158418,1,0,0:0:0:0:
47,133,158964,5,0,0:0:0:0:
468,255,159145,1,0,0:0:0:0:
372,336,159509,5,0,0:0:0:0:
268,53,159691,1,0,0:0:0:0:
124,336,159873,1,0,0:0:0:0:
446,144,160055,1,0,0:0:0:0:
90,144,160236,1,0,0:0:0:0:
232,236,160782,6,0,P|240:156|316:216,1,210
328,300,161146,5,0,0:0:0:0:
424,64,161327,1,0,0:0:0:0:
432,336,161509,1,0,0:0:0:0:
256,56,161691,5,0,0:0:0:0:
212,308,161873,1,0,0:0:0:0:
120,144,162055,1,0,0:0:0:0:
112,284,162236,5,0,0:0:0:0:
400,124,162418,1,0,0:0:0:0:
240,264,162600,1,0,0:0:0:0:
408,52,162782,1,0,0:0:0:0:
420,40,162873,1,0,0:0:0:0:
436,28,162964,1,0,0:0:0:0:
444,304,163146,1,0,0:0:0:0:
268,168,163327,1,0,0:0:0:0:
192,240,163691,6,0,B|128:192|128:192|104:276|104:276|28:120,1,280
80,72,164237,5,0,0:0:0:0:
104,72,164600,1,0,0:0:0:0:
348,100,164782,1,0,0:0:0:0:
440,84,165146,5,0,0:0:0:0:
236,40,165328,1,0,0:0:0:0:
360,232,165509,1,0,0:0:0:0:
64,32,165691,1,0,0:0:0:0:
184,308,165873,1,0,0:0:0:0:
36,140,166055,5,0,0:0:0:0:
380,128,166236,1,0,0:0:0:0:
100,268,166418,1,0,0:0:0:0:
336,324,166600,2,0,P|396:308|416:280,1,70
444,232,166782,5,0,0:0:0:0:
240,72,166964,1,0,0:0:0:0:
164,332,167146,2,0,P|128:264|160:204,1,140
320,184,167509,5,0,0:0:0:0:
408,60,167691,1,0,0:0:0:0:
456,244,167873,2,0,P|432:324|396:340,1,70
388,328,168055,6,0,P|352:248|256:188,1,140
64,176,168418,1,0,0:0:0:0:
440,116,168600,1,0,0:0:0:0:
96,288,168782,2,0,P|144:224|216:220,1,140
272,272,169145,1,0,0:0:0:0:
265,290,169236,1,0,0:0:0:0:
258,309,169327,1,0,0:0:0:0:
188,336,169509,6,0,B|145:268|145:268|92:338|92:338|80:191,1,280
96,88,170055,5,0,0:0:0:0:
108,76,170418,1,0,0:0:0:0:
204,64,170600,2,0,P|280:60|336:88,1,140
444,128,170964,2,0,P|452:188|440:200,1,70
432,224,171146,2,0,P|432:272|448:284,1,70
360,344,171327,5,0,0:0:0:0:
256,44,171509,1,0,0:0:0:0:
152,344,171691,1,0,0:0:0:0:
420,160,171873,1,0,0:0:0:0:
92,160,172055,1,0,0:0:0:0:
240,300,172236,1,0,0:0:0:0:
248,312,172327,1,0,0:0:0:0:
256,324,172418,2,0,P|328:356|400:324,1,140
464,220,172782,5,0,0:0:0:0:
280,32,172964,1,0,0:0:0:0:
80,232,173146,1,0,0:0:0:0:
400,144,173327,5,0,0:0:0:0:
136,328,173509,1,0,0:0:0:0:
360,48,173691,1,0,0:0:0:0:
272,248,173873,6,0,P|344:192|304:144,1,140
172,96,174236,5,0,0:0:0:0:
208,332,174418,1,0,0:0:0:0:
436,124,174600,1,0,0:0:0:0:
320,136,174782,2,0,B|252:88|252:88|240:160|164:88|164:88|156:176|124:148,1,280
104,224,175327,6,0,L|184:248,1,70
176,292,175509,2,0,L|280:192,1,140
404,80,175873,5,0,0:0:0:0:
420,224,176055,1,0,0:0:0:0:
248,120,176236,1,0,0:0:0:0:
228,264,176418,2,0,P|260:344|300:332,1,140
424,316,176782,5,0,0:0:0:0:
296,72,176964,1,0,0:0:0:0:
452,224,177146,1,0,0:0:0:0:
208,44,177327,1,0,0:0:0:0:
464,128,177509,1,0,0:0:0:0:
124,320,177691,1,0,0:0:0:0:
456,124,177873,1,0,0:0:0:0:
72,88,178055,1,0,0:0:0:0:
320,304,178236,1,0,0:0:0:0:
476,44,178418,1,0,0:0:0:0:
248,144,178600,6,0,P|360:220|240:232,1,280
240,260,179055,1,0,0:0:0:0:
220,240,179146,1,0,0:0:0:0:
204,220,179236,1,0,0:0:0:0:
184,184,179327,2,0,P|92:144|136:280,1,280
200,332,179873,1,0,0:0:0:0:
376,96,180055,1,0,0:0:0:0:
388,324,180236,1,0,0:0:0:0:
264,60,180418,1,0,0:0:0:0:
116,260,180600,1,0,0:0:0:0:
256,272,180782,2,0,L|384:176,1,140
424,196,181146,6,0,B|369:137|369:137|331:216|331:216|290:75,1,280
300,36,181691,5,0,0:0:0:0:
284,56,182055,1,0,0:0:0:0:
136,128,182236,1,0,0:0:0:0:
376,176,182418,1,0,0:0:0:0:
52,212,182600,1,0,0:0:0:0:
416,276,182782,1,0,0:0:0:0:
404,72,182964,1,0,0:0:0:0:
284,260,183146,1,0,0:0:0:0:
216,132,183327,2,0,P|180:56|136:44,1,70
172,56,183509,2,0,P|72:20|68:112,1,210
80,132,183873,2,0,P|148:152|172:216,1,140
256,192,184236,12,0,185327,0:0:0:0:
160,240,185509,5,0,0:0:0:0:
212,176,185691,1,0,0:0:0:0:
240,240,185873,5,0,0:0:0:0:
292,176,186055,1,0,0:0:0:0:
316,236,186236,5,0,0:0:0:0:
368,172,186418,1,0,0:0:0:0:
376,224,186600,5,0,0:0:0:0:
324,160,186782,1,0,0:0:0:0:
308,216,186964,5,0,0:0:0:0:
256,152,187146,1,0,0:0:0:0:
240,208,187327,5,0,0:0:0:0:
188,144,187509,1,0,0:0:0:0:
176,204,187691,5,0,0:0:0:0:
124,140,187873,1,0,0:0:0:0:
116,200,188055,5,0,0:0:0:0:
64,136,188237,1,0,0:0:0:0:
72,184,188418,5,0,0:0:0:0:
124,120,188600,1,0,0:0:0:0:
248,112,188782,6,0,L|328:112,1,70
300,176,189146,6,0,L|380:176,1,70
436,196,189509,5,0,0:0:0:0:
384,260,189691,1,0,0:0:0:0:
432,256,189873,5,0,0:0:0:0:
380,192,190055,1,0,0:0:0:0:
252,128,190236,5,0,0:0:0:0:
252,220,190418,1,0,0:0:0:0:
152,220,190600,1,0,0:0:0:0:
152,124,190782,1,0,0:0:0:0:
256,124,190964,5,0,0:0:0:0:
256,20,191146,1,0,0:0:0:0:
360,20,191327,1,0,0:0:0:0:
360,124,191509,1,0,0:0:0:0:
256,124,191691,5,0,0:0:0:0:
140,124,191873,1,0,0:0:0:0:
140,252,192055,1,0,0:0:0:0:
256,252,192236,1,0,0:0:0:0:
256,124,192418,5,0,0:0:0:0:
388,124,192600,1,0,0:0:0:0:
392,252,192782,2,0,L|348:252,1,35
256,252,192964,1,0,0:0:0:0:
256,124,193146,5,0,0:0:0:0:
388,124,193327,1,0,0:0:0:0:
388,4,193509,1,0,0:0:0:0:
256,4,193691,1,0,0:0:0:0:
256,124,193873,6,0,L|316:124,1,35
388,124,194055,1,0,0:0:0:0:
388,260,194236,1,0,0:0:0:0:
256,260,194418,1,0,0:0:0:0:
256,124,194600,1,0,0:0:0:0:
252,120,194691,1,0,0:0:0:0:
248,116,194782,1,0,0:0:0:0:
244,112,194873,1,0,0:0:0:0:
240,108,194964,6,0,L|184:68,1,35
159,34,195146,5,0,0:0:0:0:
43,175,195327,1,0,0:0:0:0:
178,288,195509,1,0,0:0:0:0:
336,186,195691,1,0,0:0:0:0:
174,144,196055,1,0,0:0:0:0:
212,52,196236,5,0,0:0:0:0:
277,152,196418,1,0,0:0:0:0:
329,55,196600,1,0,0:0:0:0:
337,222,196782,1,0,0:0:0:0:
274,87,196964,1,0,0:0:0:0:
219,242,197146,1,0,0:0:0:0:
164,119,197327,1,0,0:0:0:0:
158,108,197509,5,0,0:0:0:0:
106,237,197691,1,0,0:0:0:0:
90,54,197873,1,0,0:0:0:0:
276,47,198055,1,0,0:0:0:0:
311,201,198236,2,0,B|269:236|272:233,1,35
255,243,198418,2,0,P|222:227|221:221,1,35
235,200,198600,2,0,P|249:157|176:112,1,140
116,187,199146,5,0,0:0:0:0:
246,129,199327,1,0,0:0:0:0:
292,232,199509,2,0,P|336:228|336:224,1,35
362,225,199691,2,0,P|349:187|367:162,1,70
449,144,200055,5,0,0:0:0:0:
315,56,200236,1,0,0:0:0:0:
267,241,200418,1,0,0:0:0:0:
346,165,200600,1,0,0:0:0:0:
189,126,200782,1,0,0:0:0:0:
95,214,200964,2,0,P|102:252|106:252,1,35
127,270,201146,2,0,P|155:223|221:205,1,105
209,254,201509,2,0,P|276:271|351:251,1,140
218,158,202055,6,0,P|235:126|243:129,1,35
264,146,202236,2,0,P|316:163|307:107,1,105
282,59,202600,1,0,0:0:0:0:
393,107,202782,1,0,0:0:0:0:
339,212,202964,2,0,P|301:230|296:227,1,35
274,203,203146,2,0,P|300:167|296:148,1,35
285,95,203327,1,0,0:0:0:0:
134,138,203509,1,0,0:0:0:0:
121,297,203691,1,0,0:0:0:0:
176,165,203873,1,0,0:0:0:0:
210,294,204055,2,0,B|308:310|291:224,1,105
292,217,204418,2,0,P|356:185|371:115,1,140
251,99,204964,5,0,0:0:0:0:
134,134,205146,2,0,P|127:194|164:220,1,105
260,236,205509,1,0,0:0:0:0:
361,142,205691,2,0,L|363:182,1,35
367,254,205873,1,0,0:0:0:0:
251,146,206055,1,0,0:0:0:0:
169,216,206236,2,0,P|106:183|106:151,1,105
138,91,206600,1,0,0:0:0:0:
313,105,206782,1,0,0:0:0:0:
326,207,206964,2,0,P|283:233|289:246,1,70
332,294,207327,2,0,P|293:310|254:300,1,70
170,240,207691,1,0,0:3:0:0:
233,174,207873,6,0,P|255:139|274:140,1,35
299,160,208055,2,0,P|327:136|324:130,1,35
293,105,208236,2,0,P|327:84|341:90,1,35
362,127,208418,2,0,P|371:172|415:243,1,105
454,285,208782,1,0,0:0:0:0:
296,291,208964,2,0,P|258:260|259:255,1,35
229,213,209146,1,0,0:0:0:0:
224,110,209327,1,0,0:0:0:0:
324,194,209509,1,0,0:0:0:0:
328,99,209691,1,0,0:0:0:0:
184,183,209873,1,0,0:0:0:0:
109,257,210055,2,0,P|109:295|111:296,1,35
142,312,210236,2,0,P|178:272|267:270,1,140
347,299,210782,5,0,0:0:0:0:
422,159,210964,2,0,P|389:179|394:185,1,35
329,174,211146,1,0,0:0:0:0:
256,289,211327,1,0,0:0:0:0:
261,148,211509,1,0,0:0:0:0:
148,263,211691,2,0,P|139:212|137:152,1,105
142,94,212055,1,0,0:0:0:0:
253,72,212236,1,0,0:0:0:0:
267,235,212418,1,0,0:0:0:0:
364,92,212600,1,0,0:0:0:0:
408,199,212782,2,0,P|398:243|396:244,1,35
383,277,212964,2,0,P|363:230|353:226,1,35
327,256,213146,2,0,P|315:203|372:159,1,105
397,149,213509,1,0,0:0:0:0:
364,114,213691,6,0,B|227:96|257:143,1,105
222,176,214055,1,0,0:0:0:0:
83,196,214236,2,0,P|82:160|84:160,1,35
136,114,214418,1,0,0:0:0:0:
371,125,214600,1,0,0:0:0:0:
366,131,214782,1,0,0:0:0:0:
192,195,214964,1,0,0:0:0:0:
331,225,215146,1,0,0:0:0:0:
253,103,215327,1,0,0:0:0:0:
139,80,215509,2,0,P|98:87|87:154,1,105
118,172,215873,2,0,P|136:140|156:130,1,35
184,127,216055,2,0,P|216:167|174:241,1,140
91,281,216600,5,0,0:0:0:0:
189,323,216782,1,0,0:0:0:0:
280,256,216964,1,0,0:0:0:0:
177,200,217146,1,0,0:0:0:0:
193,291,217327,1,0,0:0:0:0:
339,229,217509,1,0,0:0:0:0:
297,152,217691,2,0,P|280:116|256:103,1,35
222,121,217873,2,0,P|224:87|241:72,1,35
280,83,218055,2,0,P|273:45|255:38,1,35
182,51,218236,1,0,0:0:0:0:
91,132,218418,2,0,P|81:181|144:301,1,175
197,272,218964,2,0,P|192:209|205:178,1,70
298,131,219327,6,0,L|350:111,30,35
155,147,220782,6,0,L|117:188,30,35
277,164,222236,6,0,L|330:149,15,35
192,156,222964,6,0,L|160:109,15,35
87,132,223691,2,0,P|67:237|130:308,1,210
152,284,224055,2,0,P|132:171|208:124,1,210
200,199,224418,2,0,P|207:231|240:234,1,70
264,225,224600,2,0,P|240:201|244:168,1,70
288,156,224782,2,0,P|332:120|360:136,1,70
372,136,224964,2,0,P|360:215|332:268,1,140
186,337,225873,6,0,L|222:148,1,157.500006008148
258,152,226236,2,0,P|331:112|280:63,1,157.500006008148
242,52,226600,1,0,0:0:0:0:
223,65,226964,1,0,0:0:0:0:
114,171,227146,1,0,0:0:0:0:
185,302,227327,2,0,B|354:296|354:296|444:168|335:133,1,367.500014019013
307,125,228055,1,0,0:0:0:0:
291,121,228146,1,0,0:0:0:0:
275,118,228236,1,0,0:0:0:0:
176,147,228782,5,0,0:0:0:0:
169,162,228873,1,0,0:0:0:0:
164,177,228963,1,0,0:0:0:0:
133,269,229146,2,0,L|296:270,1,157.500006008148
322,270,229509,6,0,B|328:134|415:143|415:143|306:41|190:124|190:124|129:197|92:139|92:139|144:50|291:16,1,787.500030040742
348,26,230964,2,0,B|478:124|478:124|396:200|282:106|282:106|241:225|412:304|412:304|271:318|256:367,1,787.500030040742
213,327,232418,2,0,P|163:279|162:272,1,52.5000020027161
196,267,232600,2,0,P|230:224|222:214,1,52.5000020027161
209,169,232782,2,0,P|196:191|172:197,1,52.5000020027161
143,145,232964,2,0,P|238:101|308:204,1,210
293,232,233327,2,0,P|444:318|439:161,1,350
460,173,233873,1,0,0:0:0:0:
361,94,234055,1,0,0:0:0:0:
319,198,234236,1,0,0:0:0:0:
268,87,234418,2,0,P|214:92|209:103,1,52.5000020027161
231,148,234600,2,0,B|160:250|90:250|90:250|82:112|82:81|82:81|130:52|178:65,1,420.000016021729
258,83,235509,5,0,0:0:0:0:
347,148,235691,1,0,0:0:0:0:
360,159,235782,1,0,0:0:0:0:
371,169,235873,1,0,0:0:0:0:
391,263,236055,2,0,P|296:280|244:212,1,157.500006008148
251,196,236418,2,0,P|298:130|239:47,1,157.500006008148
224,44,236782,1,0,0:0:0:0:
202,63,237146,1,0,0:0:0:0:
124,170,237327,1,0,0:0:0:0:
151,262,237509,2,0,P|202:279|223:268,1,52.5000020027161
258,271,237691,5,0,0:0:0:0:
305,60,237873,1,0,0:0:0:0:
318,339,238055,1,0,0:0:0:0:
206,132,238236,1,0,0:0:0:0:
418,165,238600,6,0,P|372:222|376:225,1,105.000004005432
422,227,238964,2,0,P|409:288|351:290,1,105.000004005432
265,261,239327,1,0,0:0:0:0:
280,112,239509,1,0,0:0:0:0:
141,109,239691,2,0,P|115:176|119:199,1,52.5000020027161
158,187,239873,2,0,B|189:132|187:135,1,52.5000020027161
222,87,240055,2,0,P|302:34|344:110,1,157.500006008148
363,131,240418,1,0,0:0:0:0:
292,244,240600,2,0,L|224:251,1,52.5000020027161
172,277,240782,2,0,P|143:230|152:183,1,105.000004005432
212,86,241146,6,0,P|292:98|412:206,1,210.000008010865
410,265,241691,2,0,B|217:309|217:309|202:197|233:147|332:142|333:143|333:143|318:81|304:80,1,472.500018024445
316,60,242600,6,0,P|180:66|118:207,1,262.500010013581
146,192,243146,2,0,P|220:176|379:212,1,210.000008010865
430,270,243691,1,0,0:0:0:0:
458,183,243873,2,0,P|465:114|241:137,1,367.500014019013
223,164,244600,5,0,0:0:0:0:
350,336,244782,1,0,0:0:0:0:
283,132,245146,1,0,0:0:0:0:
92,60,245327,1,0,0:0:0:0:
340,82,245509,5,0,0:0:0:0:
299,243,245691,1,0,0:0:0:0:
84,191,245873,1,0,0:0:0:0:
373,147,246055,1,0,0:0:0:0:
71,85,246236,5,0,0:0:0:0:
341,232,246418,1,0,0:0:0:0:
224,92,246600,2,0,P|224:48|256:24,1,70
355,32,246964,5,0,0:0:0:0:
487,350,247146,1,0,0:0:0:0:
157,32,247691,5,0,0:0:0:0:
25,350,247873,1,0,0:0:0:0:
429,189,248236,5,0,0:0:0:0:
115,43,248418,1,0,0:0:0:0:
432,228,248600,1,0,0:0:0:0:
115,341,248782,1,0,0:0:0:0:
427,144,248964,1,0,0:0:0:0:
48,106,249691,5,0,0:0:0:0:
453,273,249873,1,0,0:0:0:0:
48,277,250055,5,0,0:0:0:0:
453,110,250237,1,0,0:0:0:0:
235,325,250418,1,0,0:0:0:0:
188,336,251145,5,0,0:0:0:0:
256,48,251327,1,0,0:0:0:0:
324,340,251509,1,0,0:0:0:0:
188,48,251872,5,0,0:0:0:0:
256,336,252054,1,0,0:0:0:0:
324,44,252236,1,0,0:0:0:0:
72,223,252418,6,0,P|73:130|171:199,1,210
184,218,252782,5,0,0:0:0:0:
425,72,252964,1,0,0:0:0:0:
148,301,253146,1,0,0:0:0:0:
309,73,253418,1,0,0:0:0:0:
313,59,253509,1,0,0:0:0:0:
317,43,253600,1,0,0:0:0:0:
226,48,253873,6,0,B|156:88|156:88|224:143|224:143|78:150,1,280
46,158,254418,5,0,0:0:0:0:
64,190,254782,1,0,0:0:0:0:
234,288,254964,1,0,0:0:0:0:
405,312,255327,5,0,0:0:0:0:
107,72,255509,1,0,0:0:0:0:
136,341,255691,1,0,0:0:0:0:
375,42,255873,1,0,0:0:0:0:
77,261,256055,1,0,0:0:0:0:
434,122,256237,1,0,0:0:0:0:
77,122,256418,1,0,0:0:0:0:
434,261,256600,1,0,0:0:0:0:
280,349,256782,1,0,0:0:0:0:
229,32,256964,1,0,0:0:0:0:
229,349,257146,5,0,0:0:0:0:
280,32,257328,1,0,0:0:0:0:
439,315,257691,5,0,0:0:0:0:
70,65,257873,1,0,0:0:0:0:
332,199,258236,6,0,P|290:96|407:112,1,210
427,82,258600,5,0,0:0:0:0:
77,344,258964,1,0,0:0:0:0:
256,64,259327,1,0,0:0:0:0:
262,56,259418,1,0,0:0:0:0:
270,46,259509,1,0,0:0:0:0:
347,40,259691,6,0,B|303:108|303:108|389:124|389:124|264:199,1,280
231,242,260236,5,0,0:0:0:0:
116,99,260418,1,0,0:0:0:0:
329,126,260600,1,0,0:0:0:0:
367,272,260782,2,0,P|286:316|203:297,1,140
120,227,261146,1,0,0:0:0:0:
117,190,261327,1,0,0:0:0:0:
54,120,261509,5,0,0:0:0:0:
473,246,261691,1,0,0:0:0:0:
458,120,261873,5,0,0:0:0:0:
39,246,262055,1,0,0:0:0:0:
191,354,262236,5,0,0:0:0:0:
298,29,262418,1,0,0:0:0:0:
341,229,262600,2,0,B|377:291|377:291|252:290|202:216,1,210
191,235,262964,5,0,0:0:0:0:
154,54,263146,1,0,0:0:0:0:
430,339,263327,1,0,0:0:0:0:
432,235,263509,5,0,0:0:0:0:
469,54,263691,1,0,0:0:0:0:
150,295,263872,1,0,0:0:0:0:
151,204,264055,6,0,P|162:100|258:129,1,210
309,163,264418,1,0,0:0:0:0:
239,313,264600,1,0,0:0:0:0:
390,293,264782,2,0,P|375:223|384:221,1,70
389,220,264964,2,0,B|464:256|464:256|482:46,1,280
407,37,265509,6,0,B|331:66|331:66|391:129|391:129|246:116,1,280
197,153,266055,6,0,B|133:216|148:275|148:275|256:279|258:229,1,210
223,217,266418,2,0,B|186:227|294:223|294:223|309:164|195:70,1,280
116,56,266964,5,0,0:0:0:0:
76,166,267146,1,0,0:0:0:0:
200,324,267327,5,0,0:0:0:0:
405,100,267509,1,0,0:0:0:0:
293,308,267691,1,0,0:0:0:0:
349,32,267873,1,0,0:0:0:0:
377,263,268055,1,0,0:0:0:0:
269,9,268236,1,0,0:0:0:0:
441,189,268418,1,0,0:0:0:0:
164,0,268600,1,0,0:0:0:0:
178,322,268782,5,0,0:0:0:0:
84,34,268964,1,0,0:0:0:0:
297,79,269146,1,0,0:0:0:0:
282,307,269327,5,0,0:0:0:0:
193,57,269509,1,0,0:0:0:0:
67,290,269691,1,0,0:0:0:0:
269,265,269873,6,0,P|241:175|346:198,1,210
380,208,270236,2,0,P|438:117|340:59,1,210
323,52,270600,2,0,P|314:178|226:205,1,210
189,199,270964,2,0,P|271:73|229:36,1,210
143,197,271327,6,0,B|137:116|137:116|58:155|58:155|113:20,1,280
229,47,271873,5,0,0:0:0:0:
295,200,272055,1,0,0:0:0:0:
210,291,272236,1,0,0:0:0:0:
356,103,272418,1,0,0:0:0:0:
388,223,272600,1,0,0:0:0:0:
142,236,272782,2,0,P|132:132|216:76,1,210
266,97,273146,5,0,0:0:0:0:
287,305,273327,1,0,0:0:0:0:
385,98,273509,1,0,0:0:0:0:
404,279,273691,1,0,0:0:0:0:
192,110,273873,1,0,0:0:0:0:
148,291,274055,1,0,0:0:0:0:
404,187,274236,1,0,0:0:0:0:
256,192,274418,12,0,275146,0:0:0:0:
199,193,275327,6,0,B|246:128|246:128|264:210|308:128|320:241|320:241|379:116|378:116|377:116|377:116|418:196|484:128,1,490
378,294,276055,5,0,0:0:0:0:
62,121,276236,1,0,0:0:0:0:
378,90,276782,5,0,0:0:0:0:
62,263,276963,1,0,0:0:0:0:
210,209,277327,5,0,0:0:0:0:
286,109,277509,2,0,B|352:52|350:54,1,70
367,61,277691,2,0,P|431:95|432:101,1,70
435,121,277873,2,0,L|351:263,1,140
300,282,278236,2,0,P|336:134|235:81,1,280
162,128,278782,5,0,0:0:0:0:
155,153,278964,1,0,0:0:0:0:
283,287,279146,5,0,0:0:0:0:
87,118,279327,1,0,0:0:0:0:
189,284,279509,5,0,0:0:0:0:
248,126,279691,1,0,0:0:0:0:
342,248,280055,5,0,0:0:0:0:
336,236,280418,1,0,0:0:0:0:
256,97,280600,5,0,0:0:0:0:
213,293,280782,1,0,0:0:0:0:
116,212,280964,5,0,0:0:0:0:
349,154,281146,1,0,0:0:0:0:
131,112,281327,5,0,0:0:0:0:
307,247,281509,1,0,0:0:0:0:
116,320,281691,5,0,0:0:0:0:
256,44,281873,1,0,0:0:0:0:
396,320,282055,1,0,0:0:0:0:
116,64,282418,5,0,0:0:0:0:
256,340,282600,1,0,0:0:0:0:
396,64,282782,1,0,0:0:0:0:
128,168,283146,5,0,0:0:0:0:
240,284,283327,1,0,0:0:0:0:
320,224,283509,1,0,0:0:0:0:
260,152,283691,2,0,B|240:48|240:48|296:64|340:112,1,210
364,144,284055,2,0,P|408:248|288:152,1,420
148,216,284782,6,0,L|72:76,1,140
104,76,285146,2,0,L|208:216,1,140
212,184,285509,2,0,L|152:40,1,140
188,40,285873,2,0,L|280:192,1,140
256,252,286236,5,0,0:0:0:0:
424,84,286418,1,0,0:0:0:0:
428,308,286600,1,0,0:0:0:0:
252,96,286782,1,0,0:0:0:0:
84,192,286964,1,0,0:0:0:0:
212,324,287146,1,0,0:0:0:0:
388,192,287327,1,0,0:0:0:0:
428,80,287509,5,0,0:0:0:0:
47,191,287691,1,0,0:0:0:0:
428,304,287873,1,0,0:0:0:0:
84,80,288236,5,0,0:0:0:0:
464,191,288418,1,0,0:0:0:0:
84,304,288600,1,0,0:0:0:0:
204,256,289146,5,0,0:0:0:0:
324,104,289327,1,0,0:0:0:0:
440,280,289509,2,0,P|292:324|192:304,1,210
176,312,289873,2,0,P|240:176|188:64,1,280
320,240,290418,5,0,0:0:0:0:
328,232,290600,5,0,0:0:0:0:
428,76,290782,1,0,0:0:0:0:
244,112,290964,5,0,0:0:0:0:
468,336,291327,1,0,0:0:0:0:
240,328,291691,5,0,0:0:0:0:
232,304,292055,1,0,0:0:0:0:
420,84,292418,1,0,0:0:0:0:
116,152,292782,5,0,0:0:0:0:
332,232,292964,1,0,0:0:0:0:
228,272,293146,5,0,0:0:0:0:
192,48,293327,5,0,0:0:0:0:
428,176,293509,1,0,0:0:0:0:
304,352,293691,1,0,0:0:0:0:
68,224,293873,1,0,0:0:0:0:
68,224,294054,5,0,0:0:0:0:
216,48,294236,1,0,0:0:0:0:
428,176,294418,1,0,0:0:0:0:
188,116,294782,5,0,0:0:0:0:
180,216,294964,2,0,P|132:272|132:280,1,70
152,296,295146,2,0,P|208:244|220:252,1,70
220,260,295327,2,0,P|180:320|188:328,1,70
204,328,295509,2,0,P|340:328|400:84,1,420
256,40,296600,5,0,0:0:0:0:
256,328,296782,1,0,0:0:0:0:
408,92,296964,1,0,0:0:0:0:
100,300,297146,2,0,P|92:196|248:128,1,280
256,344,297691,5,0,0:0:0:0:
256,56,297873,1,0,0:0:0:0:
408,292,298055,1,0,0:0:0:0:
104,92,298237,1,0,0:0:0:0:
192,276,298418,1,0,0:0:0:0:
292,224,298600,2,0,P|360:176|344:120,1,140
300,168,298964,2,0,P|296:96|388:80,1,140
460,84,299327,5,4,0:3:0:0:
72,336,299691,1,4,0:3:0:0:
72,40,300055,1,4,0:3:0:0:
432,332,300418,1,4,0:3:0:0:
88,344,300782,6,0,B|48:240|48:240|48:156|112:40|112:40|244:152|164:196|164:196|120:200|120:200|140:288|248:312|248:312|296:104|296:104|252:60|320:28|320:28|404:92|448:136|448:136|324:100|324:100|300:332|300:332|448:196|448:196|392:288|392:288|488:368|488:368|312:360,1,2178.75008311272,4|0,0:0|0:0,2:2:0:0:
256,192,308418,12,0,309509,0:0:0:0:
