osu file format v14

[General]
AudioFilename: audio.mp3
AudioLeadIn: 0
PreviewTime: 85370
Countdown: 0
SampleSet: Soft
StackLeniency: 0.4
Mode: 0
LetterboxInBreaks: 0
WidescreenStoryboard: 1

[Editor]
Bookmarks: 27370
DistanceSpacing: 1.1
BeatDivisor: 4
GridSize: 32
TimelineZoom: 1.4

[Metadata]
Title:Remote Control (Cut Ver.)
TitleUnicode:リモコン (Cut Ver.)
Artist:kradness & Reol
ArtistUnicode:kradness&れをる
Creator:Darkpit
Version:Insane
Source:
Tags:Jesus-P じーざすP Giga Official Rimokon Wonderful*Opportunity Kagamine Rin Len Glider Deca Arf ImpurePug Darkpit Enkrypton Electronic Japanese
BeatmapID:2803005
BeatmapSetID:1354117

[Difficulty]
HPDrainRate:4
CircleSize:3.8
OverallDifficulty:8.8
ApproachRate:9
SliderMultiplier:1.4
SliderTickRate:1

[Events]
//Background and Video events
0,0,"reol.jpg",0,0
//Break Periods
//Storyboard Layer 0 (Background)
//Storyboard Layer 1 (Fail)
//Storyboard Layer 2 (Pass)
//Storyboard Layer 3 (Foreground)
//Storyboard Layer 4 (Overlay)
//Storyboard Sound Samples

[TimingPoints]
1189,363.636363636364,4,2,1,60,1,0
27370,-83.3333333333333,4,2,1,60,0,0
33189,-83.3333333333333,4,2,1,80,0,0
39007,-83.3333333333333,4,2,1,90,0,0
50643,-93.4579439252336,4,2,1,70,0,0
61916,-80,4,2,1,70,0,0
62280,-80,4,2,1,80,0,0
73916,-80,4,2,1,70,0,0
82643,-68.9655172413793,4,2,1,85,0,0
85370,-60.6060606060606,4,2,1,85,0,0
87007,-66.6666666666667,4,2,1,95,0,0
110825,-66.6666666666667,4,2,1,30,0,0
111007,-66.6666666666667,4,2,1,70,0,0
111370,-71.4285714285714,4,2,1,70,0,0
111734,-71.4285714285714,4,2,1,95,0,0
136825,-71.4285714285714,4,2,1,85,0,0
137552,-71.4285714285714,4,2,1,75,0,0
138279,-71.4285714285714,4,2,1,65,0,0
139007,-71.4285714285714,4,2,1,55,0,0
139734,-71.4285714285714,4,2,1,45,0,0
140461,-71.4285714285714,4,2,1,35,0,0
141189,-71.4285714285714,4,2,1,25,0,0
141916,-71.4285714285714,4,2,1,20,0,0
142643,-71.4285714285714,4,2,1,15,0,0
143370,-71.4285714285714,4,2,1,10,0,0
144098,-71.4285714285714,4,2,1,5,0,0

[Colours]
Combo1 : 116,201,188
Combo2 : 231,160,90
Combo3 : 91,225,211
Combo4 : 220,191,95

[HitObjects]
88,303,27370,5,12,0:1:0:0:
208,384,27552,1,0,3:0:0:0:
208,384,27643,1,0,3:0:0:0:
208,384,27734,2,0,L|301:376,1,83.9999974365235,2|0,0:0|0:0,0:0:0:0:
451,295,28097,1,0,1:0:0:0:
331,214,28279,1,0,3:0:0:0:
331,214,28370,1,0,3:0:0:0:
331,214,28461,2,0,L|238:222,1,83.9999974365235,2|0,3:3|0:0,0:0:0:0:
49,305,28825,5,8,0:1:0:0:
118,112,29007,1,0,3:0:0:0:
185,308,29189,1,2,0:0:0:0:
8,202,29370,1,0,0:0:0:0:
216,127,29552,2,0,P|258:113|298:125,1,83.9999974365235,0|0,1:0|0:0,0:0:0:0:
413,237,29916,2,0,P|371:251|331:239,1,83.9999974365235,2|0,3:3|0:0,0:0:0:0:
444,91,30279,5,8,0:1:0:0:
289,15,30461,1,0,3:0:0:0:
289,15,30552,1,0,3:0:0:0:
289,15,30643,2,0,L|189:19,1,83.9999974365235,2|0,0:0|0:0,0:0:0:0:
58,153,31007,2,0,L|158:149,1,83.9999974365235,0|0,1:0|0:0,0:0:0:0:
116,263,31370,2,0,L|216:259,1,83.9999974365235,2|0,3:3|0:0,0:0:0:0:
338,360,31734,5,8,3:1:0:0:
418,241,31916,1,0,3:0:0:0:
418,241,32007,1,0,3:0:0:0:
418,241,32098,2,0,P|428:181|410:129,1,83.9999974365235,2|0,0:0|0:0,0:0:0:0:
254,90,32461,1,0,1:0:0:0:
174,209,32643,1,2,0:0:0:0:
174,209,32734,1,2,0:0:0:0:
174,209,32825,2,0,P|164:269|182:321,1,83.9999974365235,2|0,3:3|0:0,0:0:0:0:
329,35,33189,5,12,0:1:0:0:
416,159,33370,1,0,3:0:0:0:
416,159,33461,1,0,3:0:0:0:
416,159,33552,2,0,L|408:277,1,83.9999974365235,0|0,1:0|0:0,0:0:0:0:
221,354,33916,1,10,0:1:0:0:
119,260,34097,1,0,3:0:0:0:
119,260,34188,1,0,3:0:0:0:
119,260,34279,2,0,L|127:142,1,83.9999974365235,0|0,1:0|0:0,0:0:0:0:
192,22,34643,5,10,0:1:0:0:
379,100,34825,1,0,0:0:0:0:
193,147,35007,1,0,1:0:0:0:
307,0,35189,1,0,0:0:0:0:
339,196,35370,2,0,P|332:235|341:306,1,83.9999974365235,8|2,0:1|0:0,0:0:0:0:
161,342,35734,2,0,P|168:303|159:232,1,83.9999974365235,0|2,1:0|0:0,0:0:0:0:
107,75,36098,5,8,0:1:0:0:
193,147,36279,2,0,L|287:139,1,83.9999974365235,0|0,3:0|1:0,0:0:0:0:
371,208,36643,1,0,0:0:0:0:
453,122,36825,2,0,L|446:53,2,41.9999987182618,10|0|0,0:1|3:0|3:0,0:0:0:0:
433,298,37189,2,0,P|390:319|299:290,1,125.999996154785,0|0,1:0|0:0,0:0:0:0:
288,279,37552,5,4,3:3:0:0:
306,100,37734,1,0,0:0:0:0:
180,230,37916,1,2,0:0:0:0:
377,199,38098,1,2,0:0:0:0:
180,230,38279,5,8,0:3:0:0:
306,100,38461,1,4,0:3:0:0:
276,290,38643,2,0,P|241:336|157:332,1,125.999996154785,0|0,1:0|0:0,0:0:0:0:
156,333,39007,5,12,0:1:0:0:
61,255,39189,1,0,3:0:0:0:
61,255,39279,1,0,3:0:0:0:
61,255,39370,2,0,L|69:146,1,83.9999974365235,0|0,1:0|0:0,0:0:0:0:
241,37,39734,2,0,P|254:84|224:139,1,83.9999974365235,10|0,0:1|0:0,0:0:0:0:
129,90,40098,5,0,1:0:0:0:
129,90,40189,1,0,3:0:0:0:
129,90,40279,1,0,3:0:0:0:
129,90,40370,1,0,0:0:0:0:
129,90,40461,1,10,0:1:0:0:
314,153,40643,1,2,0:0:0:0:
127,194,40825,1,0,1:0:0:0:
241,37,41007,1,2,0:0:0:0:
293,231,41189,2,0,P|347:248|423:199,1,125.999996154785,8|0,0:1|0:0,0:0:0:0:
491,155,41552,2,0,L|491:238,1,83.9999974365235,0|2,1:0|0:3,0:0:0:0:
461,342,41916,5,8,0:1:0:0:
341,161,42098,1,2,0:0:0:0:
289,339,42279,1,0,1:0:0:0:
289,339,42370,1,0,3:0:0:0:
289,339,42461,1,2,3:2:0:0:
209,183,42643,1,8,0:1:0:0:
163,358,42825,1,2,0:0:0:0:
80,206,43007,5,0,1:0:0:0:
80,206,43098,1,0,3:0:0:0:
80,206,43189,1,0,3:0:0:0:
328,172,43370,1,8,0:1:0:0:
148,79,43552,1,2,0:0:0:0:
242,281,43734,1,0,1:0:0:0:
307,77,43916,1,2,0:0:0:0:
388,276,44098,1,8,0:1:0:0:
326,29,44279,1,2,0:3:0:0:
209,191,44461,6,0,P|177:226|91:220,1,125.999996154785,0|0,1:0|0:0,0:0:0:0:
15,260,44825,2,0,L|15:156,1,83.9999974365235,8|0,0:1|0:0,0:0:0:0:
61,64,45189,5,0,1:0:0:0:
160,249,45370,1,0,0:0:0:0:
231,87,45552,2,0,P|268:80|322:95,1,83.9999974365235,10|0,0:1|0:0,0:0:0:0:
441,157,45916,5,0,1:0:0:0:
441,157,46007,1,0,3:0:0:0:
441,157,46098,1,0,3:0:0:0:
273,231,46279,1,10,0:1:0:0:
465,271,46461,1,2,0:0:0:0:
328,110,46643,5,0,1:0:0:0:
370,297,46825,1,2,0:0:0:0:
418,74,47007,2,0,P|389:37|343:16,1,83.9999974365235,8|2,0:1|0:3,0:0:0:0:
188,115,47370,6,0,L|198:219,1,83.9999974365235,0|2,1:0|0:3,0:0:0:0:
215,343,47734,1,8,0:1:0:0:
215,343,47825,1,0,3:0:0:0:
215,343,47916,1,2,3:2:0:0:
97,212,48098,5,0,1:0:0:0:
295,235,48279,1,2,0:0:0:0:
108,309,48461,2,0,L|17:316,1,83.9999974365235,8|0,0:1|3:0,0:0:0:0:
85,132,48825,1,0,1:0:0:0:
85,132,48916,1,0,3:0:0:0:
85,132,49007,1,0,3:0:0:0:
272,206,49189,5,10,0:1:0:0:
201,10,49370,1,2,1:2:0:0:
150,201,49552,1,0,1:0:0:0:
334,92,49734,1,2,0:0:0:0:
109,37,49916,1,4,0:3:0:0:
165,232,50098,5,2,1:3:0:0:
165,232,50279,2,0,P|207:244|272:215,1,83.9999974365235,0|2,1:0|1:3,0:0:0:0:
381,242,50643,5,4,3:2:0:0:
463,349,50825,2,0,L|469:243,1,74.8999977142335,0|8,0:0|0:0,0:0:0:0:
419,146,51189,2,0,P|363:139|324:158,2,74.8999977142335,2|8|0,0:0|0:1|0:0,0:0:0:0:
271,71,51734,6,0,P|246:89|224:153,1,74.8999977142335,8|2,0:0|0:0,0:0:0:0:
252,229,52098,2,0,P|211:275|116:256,1,149.799995428467,8|8,0:1|0:0,0:0:0:0:
65,180,52643,2,0,L|73:79,1,74.8999977142335,2|8,0:0|0:1,0:0:0:0:
157,3,53007,5,0,3:0:0:0:
308,61,53189,1,8,0:0:0:0:
143,108,53370,1,0,0:0:0:0:
321,83,53552,2,0,P|338:133|309:207,1,112.34999657135,4|0,0:3|0:0,0:0:0:0:
278,264,53916,2,0,P|273:310|291:347,1,74.8999977142335,8|0,0:0|0:0,0:0:0:0:
418,243,54279,6,0,P|414:190|461:126,1,112.34999657135,10|0,0:1|0:0,0:0:0:0:
512,53,54643,1,8,0:0:0:0:
512,216,54825,1,2,0:0:0:0:
370,63,55007,1,8,0:1:0:0:
307,192,55189,2,0,P|273:199|226:183,1,74.8999977142335,2|8,0:0|0:0,0:0:0:0:
117,121,55552,5,2,0:0:0:0:
52,227,55734,2,0,L|54:310,1,74.8999977142335,8|0,0:1|3:0,0:0:0:0:
55,332,56007,1,2,0:0:0:0:
55,356,56098,1,8,0:0:0:0:
205,257,56279,1,2,0:3:0:0:
94,144,56461,2,0,P|45:148|0:129,1,74.8999977142335,8|0,0:1|0:0,0:0:0:0:
120,23,56825,2,0,P|169:19|214:38,1,74.8999977142335,8|2,0:0|0:0,0:0:0:0:
304,144,57189,5,8,0:1:0:0:
148,212,57370,1,2,0:0:0:0:
328,269,57552,1,8,0:0:0:0:
212,121,57734,1,2,0:0:0:0:
395,179,57916,2,0,P|399:115|328:50,1,149.799995428467,8|8,0:1|0:0,0:0:0:0:
356,270,58461,2,0,P|396:279|440:271,1,74.8999977142335,2|0,0:0|0:0,0:0:0:0:
214,103,58825,6,0,L|222:23,2,74.8999977142335,2|8|0,0:0|0:0|3:0,0:0:0:0:
113,196,59370,2,0,L|104:314,1,112.34999657135,4|0,3:3|0:0,0:0:0:0:
126,342,59734,1,8,0:0:0:0:
254,253,59916,1,0,3:0:0:0:
373,355,60098,2,0,P|427:361|463:331,1,74.8999977142335,10|0,0:1|0:0,0:0:0:0:
450,57,60461,6,0,L|445:144,1,74.8999977142335,8|2,0:0|0:0,0:0:0:0:
320,174,60825,1,8,0:1:0:0:
320,174,61007,2,0,P|281:159|222:167,1,74.8999977142335,2|8,0:0|0:0,0:0:0:0:
152,287,61370,1,2,0:0:0:0:
152,287,61552,2,0,P|188:295|225:290,1,74.8999977142335,2|0,0:3|1:0,0:0:0:0:
80,121,61916,2,0,L|77:229,1,87.5,0|0,1:0|1:0,0:0:0:0:
323,307,62279,6,0,P|318:256|289:216,1,87.5,12|0,0:1|0:0,0:0:0:0:
401,45,62643,2,0,P|396:96|417:140,1,87.5,0|0,1:0|0:0,0:0:0:0:
501,262,63007,5,10,0:1:0:0:
501,75,63189,1,0,0:0:0:0:
352,189,63370,2,0,L|274:243,1,87.5,0|0,1:0|3:0,0:0:0:0:
102,266,63734,5,10,0:1:0:0:
102,266,63916,1,0,0:0:0:0:
138,73,64098,1,0,1:0:0:0:
138,73,64279,1,0,0:0:0:0:
10,282,64461,5,8,0:1:0:0:
10,282,64643,1,2,0:0:0:0:
57,27,64825,1,0,1:0:0:0:
57,27,65006,1,2,0:0:0:0:
305,94,65189,6,0,L|177:82,1,87.5,8|0,0:1|0:0,0:0:0:0:
0,207,65552,2,0,L|102:198,1,87.5,0|0,1:0|3:0,0:0:0:0:
287,182,65916,5,10,0:1:0:0:
102,112,66098,1,0,0:0:0:0:
178,285,66279,1,0,1:0:0:0:
226,97,66461,5,2,0:0:0:0:
302,270,66643,2,0,P|350:277|414:250,1,87.5,8|2,0:1|0:0,0:0:0:0:
423,68,67007,1,0,1:0:0:0:
488,269,67189,1,0,0:0:0:0:
331,108,67370,2,0,P|321:58|334:13,1,87.5,8|2,0:1|3:3,0:0:0:0:
249,183,67734,2,0,P|199:192|154:179,1,87.5,0|2,1:0|0:3,0:0:0:0:
3,11,68098,6,0,L|-1:122,1,87.5,8|0,0:1|0:0,0:0:0:0:
80,246,68461,2,0,L|76:158,1,87.5,0|0,1:0|0:0,0:0:0:0:
188,33,68825,5,10,0:1:0:0:
165,188,69007,1,0,0:0:0:0:
298,109,69189,2,0,P|346:89|401:101,1,87.5,0|0,1:0|3:0,0:0:0:0:
512,236,69552,5,10,0:1:0:0:
512,236,69734,1,0,0:0:0:0:
311,311,69916,1,0,1:0:0:0:
311,311,70007,1,0,3:0:0:0:
311,311,70098,1,0,3:0:0:0:
507,137,70279,5,8,0:1:0:0:
507,137,70461,1,2,0:0:0:0:
248,232,70643,1,0,1:0:0:0:
248,232,70825,1,0,0:0:0:0:
396,66,71007,5,10,0:1:0:0:
396,66,71189,1,0,0:0:0:0:
425,276,71371,1,0,1:0:0:0:
425,276,71461,1,0,3:0:0:0:
425,276,71553,1,0,3:0:0:0:
309,64,71734,6,0,L|116:64,1,175,10|0,0:1|1:0,0:0:0:0:
120,79,72189,1,0,3:0:0:0:
120,79,72279,1,0,3:0:0:0:
30,175,72461,2,0,P|16:217|50:289,1,87.5,4|2,3:3|0:0,0:0:0:0:
144,341,72825,2,0,P|158:299|124:227,2,87.5,2|8|4,0:0|0:3|0:3,0:0:0:0:
253,175,73370,5,0,1:0:0:0:
254,338,73552,1,0,1:0:0:0:
230,134,73734,1,0,1:0:0:0:
413,246,73916,2,0,L|520:310,1,87.5,4|0,3:2|0:0,0:0:0:0:
452,120,74279,6,0,L|325:186,1,131.25,8|0,0:0|0:0,0:0:0:0:
265,251,74643,2,0,P|261:305|293:363,1,87.5,10|0,0:1|0:0,0:0:0:0:
117,297,75007,6,0,P|121:241|113:203,1,87.5,8|0,0:0|3:0,0:0:0:0:
51,85,75370,1,8,0:1:0:0:
211,170,75552,1,0,3:0:0:0:
38,247,75734,2,0,P|25:301|52:362,1,87.5,8|2,0:0|0:0,0:0:0:0:
290,210,76098,2,0,P|296:167|283:125,2,87.5,8|2|8,0:1|3:2|0:0,0:0:0:0:
210,309,76643,5,0,3:0:0:0:
315,373,76825,2,0,L|495:339,1,175,8|8,0:1|0:0,0:0:0:0:
482,250,77370,1,0,0:0:0:0:
357,260,77552,6,0,L|365:157,1,87.5,8|2,0:1|0:3,0:0:0:0:
371,145,77825,1,0,3:0:0:0:
371,145,77916,1,8,0:0:0:0:
495,264,78098,1,2,0:3:0:0:
390,106,78279,6,0,P|368:75|317:57,1,87.5,8|0,0:1|3:0,0:0:0:0:
284,62,78552,1,0,3:0:0:0:
284,62,78643,1,8,0:0:0:0:
162,137,78825,1,2,0:0:0:0:
218,269,79007,2,0,P|213:302|115:346,1,131.25,8|0,0:1|0:0,0:0:0:0:
98,338,79370,5,8,0:0:0:0:
162,137,79552,1,2,0:3:0:0:
307,231,79734,2,0,P|313:284|296:344,1,87.5,8|0,0:1|0:0,0:0:0:0:
377,87,80098,6,0,P|375:34|381:-13,1,87.5,8|0,0:0|0:0,0:0:0:0:
506,125,80461,2,0,P|508:178|502:225,1,87.5,10|0,0:1|3:0,0:0:0:0:
391,338,80825,1,8,0:0:0:0:
350,168,81007,1,2,0:0:0:0:
475,308,81189,2,0,P|420:255|326:270,1,175,8|8,0:1|0:0,0:0:0:0:
197,236,81734,1,0,0:0:0:0:
278,123,81916,2,0,L|289:29,1,87.5,10|0,0:1|0:0,0:0:0:0:
68,4,82279,2,0,L|79:107,1,87.5,10|0,0:0|0:0,0:0:0:0:
142,232,82643,5,0,1:2:0:0:
351,270,82825,1,0,1:0:0:0:
114,227,83370,5,0,1:0:0:0:
373,170,83552,1,0,1:0:0:0:
34,336,83916,6,0,P|14:269|66:124,1,203.000006195069,4|0,1:2|1:0,0:0:0:0:
142,48,84461,5,0,1:0:0:0:
306,221,84643,1,0,1:0:0:0:
474,351,85370,6,0,P|499:285|441:127,1,231.000002202988,4|0,1:2|1:0,0:0:0:0:
370,48,85915,5,0,1:0:0:0:
107,214,86097,1,0,1:0:0:0:
305,360,87007,5,12,0:1:0:0:
393,242,87189,2,0,B|402:192|402:192|374:121,1,105.000004005432,2|0,0:0|1:0,0:0:0:0:
82,43,87552,5,2,0:0:0:0:
259,156,87734,1,8,0:1:0:0:
55,227,87916,1,2,0:0:0:0:
322,88,88098,6,0,P|294:34|216:80,1,157.500006008148,0|0,1:0|0:0,0:0:0:0:
168,161,88461,2,0,L|190:284,1,105.000004005432,10|0,0:1|0:0,0:0:0:0:
432,294,88825,2,0,L|410:171,1,105.000004005432,2|0,1:2|0:0,0:0:0:0:
126,97,89189,2,0,L|148:220,1,105.000004005432,8|2,0:1|0:0,0:0:0:0:
350,342,89552,2,0,P|395:338|433:276,2,105.000004005432,0|2|8,1:0|0:0|0:1,0:0:0:0:
252,188,90098,5,2,0:0:0:0:
252,359,90279,1,0,1:0:0:0:
201,161,90461,1,0,3:0:0:0:
158,361,90643,2,0,P|111:356|66:311,1,105.000004005432,10|0,0:1|0:0,0:0:0:0:
360,57,91007,6,0,L|357:169,1,105.000004005432,0|0,1:0|3:0,0:0:0:0:
199,289,91370,1,10,0:1:0:0:
262,84,91552,1,2,0:0:0:0:
353,274,91734,1,0,1:0:0:0:
353,274,91825,1,0,3:0:0:0:
353,274,91916,1,2,3:0:0:0:
150,173,92098,1,8,0:1:0:0:
364,99,92279,1,2,0:3:0:0:
414,318,92461,2,0,P|475:287|484:215,1,105.000004005432,0|2,1:0|0:3,0:0:0:0:
318,33,92825,6,0,L|92:53,1,210.000008010865,12|0,0:1|1:0,0:0:0:0:
13,193,93370,1,2,0:0:0:0:
105,290,93552,2,0,L|299:268,1,157.500006008148,8|0,0:1|0:0,0:0:0:0:
331,221,93916,6,0,P|379:210|441:256,1,105.000004005432,0|0,1:0|3:0,0:0:0:0:
150,357,94279,2,0,P|100:369|34:329,1,105.000004005432,10|0,0:1|0:0,0:0:0:0:
321,135,94643,2,0,P|382:124|445:146,1,105.000004005432,0|0,1:0|3:0,0:0:0:0:
105,290,95007,2,0,P|62:263|50:205,1,105.000004005432,10|0,0:1|0:0,0:0:0:0:
484,220,95370,5,0,1:0:0:0:
484,220,95552,2,0,L|477:327,1,105.000004005432,2|8,0:0|0:1,0:0:0:0:
219,185,95916,5,0,3:0:0:0:
351,118,96098,1,0,1:0:0:0:
206,67,96279,1,0,3:0:0:0:
329,216,96461,2,0,P|315:290|275:327,1,105.000004005432,10|0,0:1|0:0,0:0:0:0:
28,125,96825,6,0,P|89:117|136:137,1,105.000004005432,0|0,1:0|3:0,0:0:0:0:
200,309,97189,1,10,0:1:0:0:
247,90,97370,1,2,0:0:0:0:
69,211,97552,1,0,1:0:0:0:
282,261,97734,1,2,0:0:0:0:
138,76,97916,5,10,0:1:0:0:
200,309,98097,1,2,0:3:0:0:
16,142,98279,1,0,1:0:0:0:
290,145,98461,1,2,0:3:0:0:
115,314,98643,5,12,0:1:0:0:
289,373,98825,2,0,L|404:310,1,105.000004005432,2|0,0:0|1:0,0:0:0:0:
512,193,99189,5,2,0:0:0:0:
338,134,99371,2,0,L|223:197,1,105.000004005432,8|2,0:1|0:0,0:0:0:0:
41,58,99734,6,0,P|34:123|44:240,1,157.500006008148,0|0,1:0|0:0,0:0:0:0:
116,303,100098,2,0,P|170:293|160:216,1,105.000004005432,8|0,0:1|0:0,0:0:0:0:
418,184,100461,2,0,P|361:165|306:188,1,105.000004005432,0|0,1:0|3:0,0:0:0:0:
172,40,100825,2,0,P|155:105|176:146,1,105.000004005432,10|0,0:1|0:0,0:0:0:0:
414,308,101189,5,0,1:0:0:0:
414,308,101370,2,0,L|421:197,1,105.000004005432,2|8,0:0|0:1,0:0:0:0:
305,80,101734,1,2,3:2:0:0:
308,233,101916,1,0,1:0:0:0:
425,112,102098,1,2,0:0:0:0:
225,130,102279,2,0,L|111:143,1,105.000004005432,10|0,0:1|0:0,0:0:0:0:
48,356,102643,2,0,L|162:343,1,105.000004005432,0|0,1:0|3:0,0:0:0:0:
221,206,103007,5,10,0:1:0:0:
289,375,103189,1,2,0:0:0:0:
327,142,103370,1,0,1:0:0:0:
408,352,103552,1,2,0:0:0:0:
185,277,103734,5,8,0:1:0:0:
415,245,103916,1,2,0:3:0:0:
231,120,104098,1,0,1:0:0:0:
313,273,104279,5,2,0:3:0:0:
373,143,104461,2,0,P|370:83|321:24,1,105.000004005432,12|0,0:1|0:0,0:0:0:0:
65,159,104825,6,0,P|33:209|110:221,1,157.500006008148,4|0,1:2|0:0,0:0:0:0:
193,242,105189,2,0,P|205:297|194:357,1,105.000004005432,8|2,0:1|0:0,0:0:0:0:
156,157,105552,6,0,P|149:95|157:48,1,105.000004005432,0|0,1:2|0:0,0:0:0:0:
338,223,105916,2,0,P|345:285|337:332,1,105.000004005432,10|0,0:1|3:0,0:0:0:0:
67,119,106279,2,0,P|70:54|86:10,1,105.000004005432,0|0,1:0|0:0,0:0:0:0:
435,230,106643,2,0,P|422:156|320:120,1,157.500006008148,8|0,0:1|0:0,0:0:0:0:
321,124,107007,5,0,1:0:0:0:
213,307,107189,2,0,L|211:202,1,105.000004005432,2|8,0:0|0:1,0:0:0:0:
284,55,107552,5,0,3:0:0:0:
100,122,107734,1,0,1:0:0:0:
285,194,107916,1,0,3:0:0:0:
210,15,108098,1,8,0:1:0:0:
105,210,108279,2,0,P|93:268|117:342,1,105.000004005432,2|0,0:0|1:0,0:0:0:0:
285,327,108643,5,2,3:2:0:0:
340,243,108825,1,10,0:1:0:0:
401,357,109007,1,2,0:0:0:0:
386,178,109189,1,0,1:0:0:0:
233,266,109370,1,2,0:0:0:0:
495,333,109552,1,8,0:1:0:0:
252,83,109734,1,0,1:0:0:0:
194,360,109916,1,8,1:0:0:0:
485,196,110098,1,0,1:0:0:0:
256,192,110189,12,2,111370,0:3:0:0:
446,45,111552,5,2,0:0:0:0:
512,136,111734,2,0,P|518:197|488:244,1,97.9999970092774,12|2,0:1|0:0,0:0:0:0:
396,271,112098,2,0,L|339:253,2,48.9999985046387,0|0|2,1:0|3:0|3:2,0:0:0:0:
289,75,112461,6,0,P|224:66|171:107,1,97.9999970092774,8|2,0:1|0:0,0:0:0:0:
95,182,112825,2,0,L|91:279,1,97.9999970092774,0|0,1:0|0:0,0:0:0:0:
212,383,113189,5,10,0:1:0:0:
353,310,113370,1,0,0:0:0:0:
214,228,113552,2,0,P|253:196|322:203,1,97.9999970092774,0|0,1:0|0:0,0:0:0:0:
479,43,113916,5,8,0:1:0:0:
412,213,114098,1,0,3:0:0:0:
333,66,114279,2,0,P|279:60|220:93,1,97.9999970092774,0|2,1:2|0:0,0:0:0:0:
113,181,114643,5,4,3:2:0:0:
113,181,114825,1,0,0:0:0:0:
171,375,115007,1,0,1:0:0:0:
171,375,115189,1,2,0:0:0:0:
281,145,115370,5,8,0:1:0:0:
281,145,115552,1,0,3:0:0:0:
351,382,115734,1,0,1:0:0:0:
351,382,115916,1,2,0:0:0:0:
512,149,116098,5,8,0:1:0:0:
281,145,116280,1,2,0:3:0:0:
281,145,116370,1,0,3:0:0:0:
281,145,116462,1,0,1:0:0:0:
466,31,116644,1,2,0:3:0:0:
397,244,116825,5,8,0:1:0:0:
322,39,117007,1,2,0:3:0:0:
322,39,117098,1,0,3:0:0:0:
322,39,117189,1,0,1:0:0:0:
241,242,117370,1,2,0:3:0:0:
47,33,117552,6,0,P|29:103|49:173,1,146.999995513916,12|0,0:1|0:0,0:0:0:0:
143,232,117916,2,0,P|162:181|145:130,1,97.9999970092774,0|0,1:0|3:0,0:0:0:0:
476,41,118279,6,0,P|494:111|474:181,1,146.999995513916,8|0,0:1|0:0,0:0:0:0:
380,240,118643,2,0,P|361:189|378:138,1,97.9999970092774,0|0,1:0|0:0,0:0:0:0:
174,98,119007,5,10,0:1:0:0:
214,264,119189,1,0,0:0:0:0:
296,80,119370,1,0,1:0:0:0:
287,266,119552,1,0,3:0:0:0:
104,143,119734,6,0,P|65:119|9:122,1,97.9999970092774,8|0,0:1|0:0,0:0:0:0:
88,322,120098,2,0,P|127:343|183:337,1,97.9999970092774,0|0,1:0|0:0,0:0:0:0:
320,140,120461,5,4,3:2:0:0:
320,140,120643,1,0,0:0:0:0:
300,355,120825,1,0,1:0:0:0:
300,355,121007,1,0,3:0:0:0:
434,123,121189,5,8,0:1:0:0:
434,123,121371,1,2,0:0:0:0:
409,382,121553,1,0,1:0:0:0:
409,382,121735,1,0,0:0:0:0:
160,209,121916,5,10,0:1:0:0:
346,206,122098,1,2,0:3:0:0:
216,299,122279,1,0,1:0:0:0:
404,299,122461,1,2,0:3:0:0:
304,116,122643,5,8,0:1:0:0:
425,313,122825,1,2,0:3:0:0:
180,198,123007,2,0,L|81:147,1,97.9999970092774,0|2,1:0|0:3,0:0:0:0:
375,62,123370,6,0,P|390:108|382:168,1,97.9999970092774,12|2,0:1|0:0,0:0:0:0:
132,358,123734,2,0,P|120:311|132:251,1,97.9999970092774,0|2,1:0|0:0,0:0:0:0:
444,230,124098,6,0,P|417:269|353:285,1,97.9999970092774,8|2,0:1|0:0,0:0:0:0:
93,138,124461,2,0,P|120:99|184:83,1,97.9999970092774,0|2,1:0|3:2,0:0:0:0:
238,242,124825,5,8,0:1:0:0:
323,93,125007,1,2,0:0:0:0:
353,269,125189,1,0,1:0:0:0:
214,144,125370,1,2,0:0:0:0:
412,175,125552,2,0,L|511:192,1,97.9999970092774,8|2,0:1|0:0,0:0:0:0:
270,325,125916,2,0,L|173:341,1,97.9999970092774,0|0,1:0|0:0,0:0:0:0:
33,220,126279,5,4,3:2:0:0:
33,220,126461,1,0,0:0:0:0:
125,41,126643,1,0,1:0:0:0:
125,41,126825,1,0,0:0:0:0:
124,283,127007,5,8,0:1:0:0:
124,283,127189,1,0,3:0:0:0:
238,56,127371,1,0,1:0:0:0:
238,56,127553,1,0,0:0:0:0:
376,279,127734,5,10,0:1:0:0:
124,283,127916,1,2,0:3:0:0:
124,283,128007,1,0,3:0:0:0:
124,283,128098,1,0,1:0:0:0:
303,114,128280,1,2,0:3:0:0:
260,336,128462,5,8,0:1:0:0:
133,158,128643,1,2,0:3:0:0:
133,158,128734,1,0,3:0:0:0:
133,158,128826,1,0,1:0:0:0:
370,225,129007,1,2,0:3:0:0:
260,42,129189,6,0,P|320:21|401:37,1,146.999995513916,12|0,0:1|0:0,0:0:0:0:
447,128,129552,2,0,P|381:145|342:127,1,97.9999970092774,0|2,1:0|0:0,0:0:0:0:
249,359,129916,6,0,L|251:261,1,97.9999970092774,8|2,0:1|0:0,0:0:0:0:
66,127,130279,2,0,L|68:224,1,97.9999970092774,0|0,1:0|0:0,0:0:0:0:
152,337,130643,5,8,0:1:0:0:
231,188,130825,1,0,0:0:0:0:
321,343,131007,1,0,1:0:0:0:
137,244,131189,1,0,0:0:0:0:
349,196,131370,2,0,P|402:185|482:214,1,97.9999970092774,10|0,0:1|0:0,0:0:0:0:
137,244,131734,2,0,P|129:185|138:142,1,97.9999970092774,0|0,1:0|0:0,0:0:0:0:
271,33,132098,5,8,0:1:0:0:
271,33,132279,1,2,0:0:0:0:
273,215,132461,1,0,1:0:0:0:
401,93,132643,1,2,0:0:0:0:
194,92,132825,1,8,0:1:0:0:
354,235,133007,2,0,P|325:283|271:301,1,97.9999970092774,2|0,0:0|1:0,0:0:0:0:
81,220,133370,5,2,3:2:0:0:
160,48,133552,1,8,0:1:0:0:
221,246,133734,1,8,0:0:0:0:
57,116,133916,1,0,1:0:0:0:
301,97,134098,1,8,0:0:0:0:
20,117,134279,5,8,0:1:0:0:
170,288,134461,1,2,1:3:0:0:
181,25,134643,1,0,1:0:0:0:
330,269,134825,1,2,1:3:0:0:
407,39,135007,5,8,3:1:0:0:
81,132,135370,1,8,3:1:0:0:
451,304,135734,1,4,3:2:0:0:
72,278,136098,1,8,0:1:0:0:
399,188,136461,5,12,0:1:0:0:
256,192,136643,12,0,144098,0:0:0:0:
