osu file format v14

[General]
AudioFilename: audio.mp3
AudioLeadIn: 0
PreviewTime: 85370
Countdown: 0
SampleSet: Soft
StackLeniency: 0.7
Mode: 0
LetterboxInBreaks: 0
WidescreenStoryboard: 1

[Editor]
Bookmarks: 27370,116825
DistanceSpacing: 1.3
BeatDivisor: 4
GridSize: 4
TimelineZoom: 1

[Metadata]
Title:Remote Control (Cut Ver.)
TitleUnicode:リモコン (Cut Ver.)
Artist:kradness & Reol
ArtistUnicode:kradness&れをる
Creator:Darkpit
Version:Arf's Hard
Source:
Tags:Jesus-P じーざすP Giga Official Rimokon Wonderful*Opportunity Kagamine Rin Len Glider Deca Arf ImpurePug Darkpit Enkrypton Electronic Japanese
BeatmapID:2803002
BeatmapSetID:1354117

[Difficulty]
HPDrainRate:4
CircleSize:3.4
OverallDifficulty:6.5
ApproachRate:7.5
SliderMultiplier:1.45
SliderTickRate:1

[Events]
//Background and Video events
0,0,"reol.jpg",0,0
//Break Periods
//Storyboard Layer 0 (Background)
//Storyboard Layer 1 (Fail)
//Storyboard Layer 2 (Pass)
//Storyboard Layer 3 (Foreground)
//Storyboard Layer 4 (Overlay)
//Storyboard Sound Samples

[TimingPoints]
1189,363.636363636364,4,2,1,60,1,0
27370,-125,4,2,1,60,0,0
33189,-125,4,2,1,80,0,0
39007,-100,4,2,1,90,0,0
50643,-100,4,2,1,70,0,0
50825,-125,4,2,1,70,0,0
62279,-100,4,2,1,80,0,0
73916,-125,4,2,1,70,0,0
82643,-125,4,2,1,85,0,0
87007,-100,4,2,1,95,0,1
110098,-100,4,2,1,95,0,0
110825,-100,4,2,1,30,0,0
111007,-100,4,2,1,70,0,0
111734,-100,4,2,1,95,0,0
136825,-100,4,2,1,85,0,0
137552,-100,4,2,1,75,0,0
138279,-100,4,2,1,65,0,0
139007,-100,4,2,1,55,0,0
139734,-100,4,2,1,45,0,0
140461,-100,4,2,1,35,0,0
141189,-100,4,2,1,25,0,0
141916,-100,4,2,1,20,0,0
142643,-100,4,2,1,15,0,0
143370,-100,4,2,1,10,0,0
144098,-100,4,2,1,5,0,0

[Colours]
Combo1 : 116,201,188
Combo2 : 231,160,90
Combo3 : 91,225,211
Combo4 : 220,191,95

[HitObjects]
179,71,27370,6,0,P|144:69|112:65,1,58,12|0,0:1|3:0,0:0:0:0:
86,153,27734,2,0,P|114:149|143:148,1,58,0|8,1:0|0:1,0:0:0:0:
189,229,28098,2,0,P|154:227|122:223,1,58,10|8,0:1|0:1,0:0:0:0:
96,311,28462,2,0,P|124:307|153:306,1,58,2|0,0:3|1:0,0:0:0:0:
242,347,28825,5,8,0:1:0:0:
242,347,29189,1,2,0:0:0:0:
487,332,29552,1,0,1:0:0:0:
487,332,29916,1,2,3:3:0:0:
473,107,30279,5,8,0:1:0:0:
473,107,30643,1,2,0:0:0:0:
228,122,31006,1,0,1:0:0:0:
228,122,31370,1,2,3:3:0:0:
392,208,31734,6,0,P|388:244|389:290,1,58,8|0,3:1|0:0,0:0:0:0:
298,292,32098,2,0,P|302:256|301:210,1,58,2|8,0:0|0:1,0:0:0:0:
219,191,32461,2,0,P|215:227|216:273,1,58,0|8,1:0|0:1,0:0:0:0:
125,275,32825,2,0,P|129:239|128:193,1,58,2|0,3:3|0:0,0:0:0:0:
65,99,33189,6,0,P|120:107|169:67,1,116,12|0,0:1|1:0,0:0:0:0:
253,41,33734,1,0,3:0:0:0:
253,41,33916,2,0,P|245:93|245:120,1,58,10|0,0:1|0:0,0:0:0:0:
293,177,34279,1,0,1:0:0:0:
293,177,34370,1,0,3:0:0:0:
293,177,34461,1,0,3:0:0:0:
372,128,34643,6,0,B|401:120|401:120|448:128,2,58,10|0|0,0:1|0:0|1:0,0:0:0:0:
293,177,35189,1,0,0:0:0:0:
378,212,35370,2,0,P|383:250|385:285,1,58,8|2,0:1|0:0,0:0:0:0:
344,353,35734,2,0,L|300:357,2,29,0|0|2,1:0|3:0|3:2,0:0:0:0:
441,349,36098,5,8,0:1:0:0:
441,349,36279,2,0,P|470:351|499:355,1,58,0|0,0:0|1:0,0:0:0:0:
506,265,36643,1,0,3:0:0:0:
506,265,36825,2,0,P|477:261|448:259,1,58,10|0,0:1|0:0,0:0:0:0:
337,207,37189,6,0,P|315:249|258:255,1,87,0|0,1:0|0:0,0:0:0:0:
253,298,37552,2,0,P|211:276|205:219,1,87,4|0,3:3|0:0,0:0:0:0:
157,220,37916,2,0,P|179:178|236:172,1,87,2|0,0:0|0:0,0:0:0:0:
242,129,38279,2,0,P|284:151|290:208,1,87,8|0,0:3|0:0,0:0:0:0:
284,232,38643,1,0,1:0:0:0:
455,75,39007,6,0,L|362:71,1,72.5,12|0,0:1|0:0,0:0:0:0:
337,154,39370,2,0,L|409:150,1,72.5,0|0,1:0|3:0,0:0:0:0:
456,233,39734,2,0,L|383:236,1,72.5,10|0,0:1|0:0,0:0:0:0:
305,289,40098,2,0,L|308:338,2,36.25,0|0|0,1:0|3:0|3:0,0:0:0:0:
230,240,40461,5,10,0:1:0:0:
230,240,40643,1,2,0:0:0:0:
310,188,40825,1,0,1:0:0:0:
310,188,41007,1,2,0:0:0:0:
224,147,41189,1,8,0:1:0:0:
36,126,41552,2,0,L|27:77,2,36.25,0|0|2,1:0|3:0|3:3,0:0:0:0:
54,218,41916,5,8,0:1:0:0:
54,218,42098,2,0,P|118:222|147:307,1,145,2|2,0:0|0:0,0:0:0:0:
121,377,42643,2,0,L|218:372,1,72.5,8|0,0:1|3:0,0:0:0:0:
276,327,43007,1,0,1:0:0:0:
276,327,43098,1,0,3:0:0:0:
276,327,43189,1,0,3:0:0:0:
359,368,43370,5,8,0:1:0:0:
359,368,43552,1,2,0:0:0:0:
351,278,43734,1,0,1:0:0:0:
351,278,43916,1,2,0:0:0:0:
438,312,44098,2,0,L|521:321,2,72.5,8|2|0,0:1|0:3|1:0,0:0:0:0:
355,150,44825,6,0,P|309:172|289:193,1,72.5,8|0,0:1|0:0,0:0:0:0:
205,221,45189,2,0,P|208:170|200:142,1,72.5,0|0,1:0|3:0,0:0:0:0:
211,55,45552,2,0,P|253:83|281:90,1,72.5,10|0,0:1|0:0,0:0:0:0:
368,94,45916,2,0,L|421:84,2,36.25,0|0|0,1:0|3:0|3:2,0:0:0:0:
317,173,46279,5,10,0:1:0:0:
317,173,46461,1,2,0:0:0:0:
406,215,46643,1,0,1:0:0:0:
406,215,46825,1,2,0:0:0:0:
323,261,47007,1,8,0:1:0:0:
135,277,47370,2,0,L|113:308,2,36.25,0|0|2,1:0|3:2|3:3,0:0:0:0:
182,185,47734,5,8,0:1:0:0:
182,185,47916,2,0,P|262:180|294:124,1,145,2|2,0:0|0:0,0:0:0:0:
347,52,48461,2,0,L|265:43,1,72.5,8|0,0:1|3:0,0:0:0:0:
197,92,48825,1,0,1:0:0:0:
197,92,48916,1,0,3:0:0:0:
197,92,49007,1,0,3:0:0:0:
272,148,49189,6,0,L|355:143,1,72.5,10|2,0:1|1:2,0:0:0:0:
301,227,49552,2,0,L|218:222,1,72.5,0|2,1:0|0:0,0:0:0:0:
274,305,49916,2,0,L|357:300,1,72.5,4|2,1:0|0:0,0:0:0:0:
424,267,50279,2,0,P|430:307|428:343,2,72.5,0|2|4,1:0|1:3|3:2,0:0:0:0:
383,192,50825,5,0,0:0:0:0:
383,192,51007,2,0,P|407:189|449:172,1,58,8|2,0:0|0:0,0:0:0:0:
418,94,51370,2,0,P|393:96|351:113,2,58,8|0|8,0:1|0:0|0:0,0:0:0:0:
501,119,51916,1,2,0:0:0:0:
427,12,52098,5,8,0:1:0:0:
427,12,52279,2,0,P|369:22|293:45,1,116,2|2,0:0|0:0,0:0:0:0:
151,151,53007,1,0,3:0:0:0:
223,114,53189,1,8,0:0:0:0:
284,166,53370,1,2,0:0:0:0:
208,234,53552,6,0,P|201:277|208:364,1,116,4|8,0:3|0:0,0:0:0:0:
307,349,54098,1,2,0:0:0:0:
307,349,54279,2,0,P|311:291|304:234,1,116,8|8,0:1|0:0,0:0:0:0:
259,164,54825,1,2,0:0:0:0:
346,112,55007,5,8,0:1:0:0:
346,112,55189,2,0,L|414:118,1,58,2|8,0:0|0:0,0:0:0:0:
411,37,55552,2,0,L|343:31,1,58,2|8,0:0|0:1,0:0:0:0:
152,102,56098,2,0,P|143:46|137:23,2,58,8|2|8,0:0|0:3|0:1,0:0:0:0:
138,187,56643,5,0,0:0:0:0:
138,187,56825,2,0,P|132:215|128:244,1,58,8|2,0:0|0:0,0:0:0:0:
104,328,57189,2,0,P|82:308|59:290,1,58,8|2,0:1|0:0,0:0:0:0:
0,226,57552,2,0,P|27:217|54:206,1,58,8|2,0:0|0:0,0:0:0:0:
172,123,57916,5,8,0:1:0:0:
172,123,58098,2,0,P|187:173|190:249,1,116,2|2,0:0|0:0,0:0:0:0:
364,322,58825,1,2,0:0:0:0:
427,271,59007,1,8,0:0:0:0:
402,193,59189,1,0,3:0:0:0:
286,243,59370,6,0,P|228:236|174:217,1,116,4|8,3:3|0:0,0:0:0:0:
173,133,59916,1,0,3:0:0:0:
173,133,60098,2,0,P|227:113|285:107,1,116,10|8,0:1|0:0,0:0:0:0:
352,163,60643,1,2,0:0:0:0:
417,52,60825,5,8,0:1:0:0:
417,52,61007,2,0,P|421:111|425:130,1,58,2|8,0:0|0:0,0:0:0:0:
497,142,61370,1,2,0:0:0:0:
418,305,61734,1,0,1:0:0:0:
338,269,61916,1,0,1:0:0:0:
286,339,62098,1,0,1:0:0:0:
275,202,62279,6,0,P|314:183|354:174,1,72.5,12|0,0:1|0:0,0:0:0:0:
474,151,62643,2,0,P|435:132|395:123,1,72.5,0|0,1:0|0:0,0:0:0:0:
273,105,63007,2,0,P|312:86|352:77,1,72.5,10|0,0:1|0:0,0:0:0:0:
472,54,63371,2,0,P|433:35|393:26,1,72.5,0|0,1:0|3:0,0:0:0:0:
214,49,63734,6,0,L|223:120,1,72.5,10|0,0:1|0:0,0:0:0:0:
156,219,64098,2,0,L|146:147,1,72.5,0|0,1:0|0:0,0:0:0:0:
240,34,64461,2,0,L|249:105,1,72.5,8|2,0:1|0:0,0:0:0:0:
132,235,64825,2,0,L|122:163,1,72.5,0|2,1:0|0:0,0:0:0:0:
121,36,65189,6,0,B|83:30|83:30|50:38,1,72.5,8|0,0:1|0:0,0:0:0:0:
52,166,65552,2,0,B|90:172|90:172|122:163,1,72.5,0|0,1:0|3:0,0:0:0:0:
228,112,65916,2,0,B|266:106|266:106|298:114,2,72.5,10|0|0,0:1|0:0|1:0,0:0:0:0:
212,222,66461,5,2,0:0:0:0:
212,222,66643,1,10,0:1:0:0:
212,222,66825,1,2,0:0:0:0:
262,302,67007,2,0,P|196:313|128:262,2,145,0|8|0,1:0|0:1|1:0,0:0:0:0:
438,193,68098,6,0,L|365:193,1,72.5,8|0,0:1|0:0,0:0:0:0:
306,117,68461,2,0,L|379:117,1,72.5,0|0,1:0|0:0,0:0:0:0:
286,197,68825,2,0,L|213:197,1,72.5,10|0,0:1|0:0,0:0:0:0:
154,121,69188,2,0,L|227:121,1,72.5,0|0,1:0|3:0,0:0:0:0:
89,185,69552,6,0,B|110:217|110:217|104:266,1,72.5,10|0,0:1|0:0,0:0:0:0:
66,370,69916,2,0,B|45:338|45:338|51:289,1,72.5,0|0,1:0|0:0,0:0:0:0:
97,168,70279,2,0,B|118:200|118:200|112:249,1,72.5,8|2,0:1|0:0,0:0:0:0:
54,384,70643,2,0,B|33:352|33:352|39:303,1,72.5,0|0,1:0|0:0,0:0:0:0:
211,235,71007,5,10,0:1:0:0:
54,44,71370,1,0,1:0:0:0:
308,16,71734,1,10,0:1:0:0:
308,16,72279,5,0,3:0:0:0:
308,16,72461,2,0,P|296:60|355:148,1,145,4|2,3:3|0:0,0:0:0:0:
487,263,73189,2,0,L|400:256,1,72.5,4|0,0:3|1:0,0:0:0:0:
310,280,73552,1,0,1:0:0:0:
339,190,73734,1,0,1:0:0:0:
247,213,73916,5,4,3:2:0:0:
131,68,74279,2,0,P|98:86|12:82,2,116,8|10|8,0:0|0:1|0:0,0:0:0:0:
213,23,75189,1,0,3:0:0:0:
214,115,75370,5,8,0:1:0:0:
214,115,75552,1,0,3:0:0:0:
298,71,75734,1,8,0:0:0:0:
298,71,75916,1,2,0:0:0:0:
292,163,76098,2,0,L|285:232,1,58,8|2,0:1|3:2,0:0:0:0:
193,212,76461,2,0,L|186:281,1,58,8|0,0:0|3:0,0:0:0:0:
236,349,76825,6,0,P|183:326|120:346,1,116,8|8,0:1|0:0,0:0:0:0:
41,308,77370,2,0,L|53:168,1,116,2|2,0:0|0:3,0:0:0:0:
132,146,77916,2,0,L|127:207,1,58,8|2,0:0|0:3,0:0:0:0:
190,272,78279,5,8,0:1:0:0:
270,225,78461,1,0,3:0:0:0:
270,225,78552,1,0,3:0:0:0:
270,225,78643,1,8,0:0:0:0:
333,293,78825,1,2,0:0:0:0:
408,238,79007,2,0,L|417:141,1,87,8|0,0:1|0:0,0:0:0:0:
451,121,79370,2,0,L|354:112,1,87,10|0,0:0|0:0,0:0:0:0:
326,81,79734,5,8,0:1:0:0:
378,309,80098,2,0,P|440:335|508:309,2,116,10|8|8,0:0|0:1|0:0,0:0:0:0:
318,237,81007,1,2,0:0:0:0:
286,324,81189,5,8,0:1:0:0:
286,324,81370,1,0,3:0:0:0:
225,253,81552,1,8,0:0:0:0:
225,253,81734,1,2,0:0:0:0:
188,338,81916,2,0,L|115:348,1,58,10|0,0:1|0:0,0:0:0:0:
53,275,82279,2,0,L|110:267,1,58,10|0,0:0|0:0,0:0:0:0:
256,151,82643,5,0,1:2:0:0:
98,173,82825,1,0,1:0:0:0:
304,76,83370,1,0,1:0:0:0:
150,99,83552,1,0,1:0:0:0:
328,162,83916,6,0,P|282:194|258:258,1,116,4|0,1:2|1:0,0:0:0:0:
353,255,84461,1,0,1:0:0:0:
206,146,84643,1,0,1:0:0:0:
358,194,85370,6,0,P|312:226|288:290,1,116,4|0,1:2|1:0,0:0:0:0:
383,287,85915,1,0,1:0:0:0:
236,178,86097,1,0,1:0:0:0:
493,20,86825,5,0,0:0:0:0:
399,32,87007,1,12,0:1:0:0:
457,105,87189,2,0,L|469:185,1,72.5,2|0,0:0|1:0,0:0:0:0:
418,248,87552,1,2,0:0:0:0:
512,260,87734,1,10,0:1:0:0:
512,260,87916,1,2,0:0:0:0:
464,341,88098,2,0,L|380:333,1,72.5,0|0,1:0|0:0,0:0:0:0:
282,262,88461,6,0,P|298:301|299:344,1,72.5,10|0,0:1|0:0,0:0:0:0:
270,178,88825,2,0,P|295:144|332:122,1,72.5,2|0,1:2|0:0,0:0:0:0:
198,225,89189,2,0,P|156:219|118:198,1,72.5,8|2,0:1|0:0,0:0:0:0:
69,133,89552,2,0,P|102:118|137:114,2,72.5,0|2|8,1:0|0:0|0:1,0:0:0:0:
31,249,90098,6,0,P|92:282|111:368,1,145,2|0,0:0|3:0,0:0:0:0:
19,346,90643,1,10,0:1:0:0:
238,343,91007,2,0,L|233:249,1,72.5,0|0,1:0|3:0,0:0:0:0:
279,186,91370,5,10,0:1:0:0:
357,171,91553,1,2,0:0:0:0:
383,95,91735,1,0,1:0:0:0:
331,35,91917,1,2,0:0:0:0:
253,50,92098,1,8,0:1:0:0:
227,126,92280,1,2,0:3:0:0:
279,186,92461,1,0,1:0:0:0:
347,251,92643,6,0,L|433:255,2,72.5,2|12|2,0:3|0:1|0:0,0:0:0:0:
165,251,93370,2,0,L|79:255,2,72.5,2|8|2,0:0|0:1|0:0,0:0:0:0:
256,276,93916,2,0,L|256:196,1,72.5,0|0,1:0|3:0,0:0:0:0:
206,61,94279,6,0,P|166:86|145:120,1,72.5,10|0,0:1|0:0,0:0:0:0:
360,105,94643,2,0,P|337:78|306:61,1,72.5,0|0,1:0|3:0,0:0:0:0:
220,185,95007,2,0,P|254:194|298:184,1,72.5,10|0,0:1|0:0,0:0:0:0:
366,243,95370,2,0,P|348:274|321:297,2,72.5,0|2|8,1:0|0:0|0:1,0:0:0:0:
392,151,95916,5,0,3:0:0:0:
483,126,96098,1,0,1:0:0:0:
508,216,96279,1,0,3:0:0:0:
417,241,96461,2,0,P|463:300|549:303,1,145,10|0,0:1|1:0,0:0:0:0:
508,216,97007,1,0,3:0:0:0:
359,170,97189,5,10,0:1:0:0:
167,347,97552,5,0,1:0:0:0:
197,135,97916,5,10,0:1:0:0:
7,312,98279,5,0,1:0:0:0:
53,230,98461,1,2,0:3:0:0:
118,298,98643,1,12,0:1:0:0:
72,380,98825,1,2,0:0:0:0:
264,353,99189,1,2,0:0:0:0:
199,285,99371,1,8,0:1:0:0:
245,203,99553,1,2,0:0:0:0:
309,271,99734,2,0,L|396:262,1,72.5,0|0,1:0|0:0,0:0:0:0:
506,176,100098,6,0,P|476:193|446:232,1,72.5,8|0,0:1|0:0,0:0:0:0:
465,369,100461,2,0,P|465:334|446:289,1,72.5,0|0,1:0|3:0,0:0:0:0:
314,239,100825,2,0,P|343:256|392:262,1,72.5,10|0,0:1|0:0,0:0:0:0:
413,173,101189,2,0,P|383:155|334:149,2,72.5,0|2|8,1:0|0:0|0:1,0:0:0:0:
471,67,101734,6,0,P|399:37|314:22,1,145,2|2,3:2|0:0,0:0:0:0:
239,31,102279,1,10,0:1:0:0:
385,149,102643,2,0,L|365:218,1,72.5,0|0,1:0|3:0,0:0:0:0:
274,291,103007,5,10,0:1:0:0:
192,274,103190,1,2,0:0:0:0:
165,195,103370,1,0,1:0:0:0:
219,131,103552,1,2,0:0:0:0:
301,147,103735,1,8,0:1:0:0:
329,228,103917,1,2,0:3:0:0:
274,291,104098,1,0,1:0:0:0:
373,309,104279,6,0,L|361:381,2,72.5,2|12|0,0:3|0:1|0:0,0:0:0:0:
436,136,105007,1,0,3:0:0:0:
436,136,105098,1,0,3:0:0:0:
436,136,105189,2,0,L|364:124,1,72.5,8|2,0:1|0:0,0:0:0:0:
282,77,105552,2,0,P|271:113|276:155,1,72.5,0|0,1:2|0:0,0:0:0:0:
317,283,105916,6,0,P|328:247|323:205,1,72.5,10|0,0:1|3:0,0:0:0:0:
203,139,106279,2,0,P|239:150|281:145,1,72.5,0|0,1:0|0:0,0:0:0:0:
396,221,106643,2,0,P|360:210|318:215,1,72.5,8|0,0:1|3:0,0:0:0:0:
267,287,107007,2,0,P|232:276|196:278,2,72.5,0|2|8,1:0|0:0|0:1,0:0:0:0:
363,349,107552,5,0,3:0:0:0:
387,257,107734,1,0,1:0:0:0:
478,280,107916,1,0,3:0:0:0:
457,372,108098,1,8,0:1:0:0:
457,372,108279,2,0,P|377:344|296:342,1,145,2|2,0:0|3:2,0:0:0:0:
226,297,108825,6,0,P|229:258|245:216,2,72.5,10|2|0,0:1|0:0|1:0,0:0:0:0:
153,357,109370,1,2,0:0:0:0:
153,357,109552,1,8,0:1:0:0:
49,300,109734,1,0,1:3:0:0:
105,193,109916,1,0,1:0:0:0:
211,248,110098,1,0,1:0:0:0:
106,36,111734,6,0,L|20:28,2,72.5,12|2|0,0:1|0:0|1:0,0:0:0:0:
180,94,112279,1,2,0:0:0:0:
180,94,112461,2,0,L|266:86,2,72.5,8|2|0,0:1|0:0|1:0,0:0:0:0:
106,153,113007,1,0,0:0:0:0:
106,153,113189,6,0,L|177:195,1,72.5,10|0,0:1|0:0,0:0:0:0:
250,237,113552,2,0,L|178:277,1,72.5,0|0,1:0|0:0,0:0:0:0:
107,324,113916,2,0,L|107:241,1,72.5,8|0,0:1|3:0,0:0:0:0:
187,200,114279,2,0,L|186:272,1,72.5,0|2,1:2|0:0,0:0:0:0:
241,349,114643,6,0,P|282:345|317:347,1,72.5,4|0,3:2|0:0,0:0:0:0:
368,269,115007,2,0,P|327:265|292:267,1,72.5,0|2,1:0|0:0,0:0:0:0:
237,192,115370,2,0,P|278:188|313:190,1,72.5,8|0,0:1|3:0,0:0:0:0:
364,112,115734,2,0,P|323:108|288:110,1,72.5,0|2,1:0|0:0,0:0:0:0:
193,86,116098,6,0,P|188:47|196:0,1,72.5,8|2,0:1|0:0,0:0:0:0:
111,106,116461,2,0,P|107:141|112:177,1,72.5,0|2,1:0|0:0,0:0:0:0:
25,87,116825,2,0,B|30:48|24:25|22:1,2,72.5,8|2|0,0:1|0:3|1:0,0:0:0:0:
10,180,117370,5,2,0:3:0:0:
99,149,117552,1,12,0:1:0:0:
81,241,117734,1,0,0:0:0:0:
266,273,118098,1,0,3:0:0:0:
195,212,118280,1,8,0:1:0:0:
177,304,118462,1,2,0:0:0:0:
482,165,119007,6,0,P|442:180|399:174,1,72.5,10|0,0:1|0:0,0:0:0:0:
304,75,119370,2,0,P|336:102|353:142,1,72.5,0|0,1:0|3:0,0:0:0:0:
315,273,119734,2,0,P|322:230|348:196,1,72.5,8|0,0:1|0:0,0:0:0:0:
426,240,120098,2,0,P|418:282|392:316,1,72.5,0|0,1:0|0:0,0:0:0:0:
307,360,120461,6,0,L|225:356,1,72.5,4|0,3:2|0:0,0:0:0:0:
185,275,120825,2,0,L|267:271,1,72.5,0|0,1:0|3:0,0:0:0:0:
153,361,121189,2,0,L|71:357,1,72.5,8|2,0:1|0:0,0:0:0:0:
31,276,121553,2,0,L|113:272,1,72.5,0|0,1:0|0:0,0:0:0:0:
159,196,121916,5,10,0:1:0:0:
90,130,122098,1,2,0:0:0:0:
141,51,122279,2,0,L|218:44,1,72.5,0|2,1:0|0:0,0:0:0:0:
304,69,122643,1,8,0:1:0:0:
235,135,122825,1,0,0:3:0:0:
286,214,123006,2,0,L|363:221,1,72.5,0|0,1:0|0:3,0:0:0:0:
448,282,123370,6,0,P|450:325|469:370,2,72.5,12|2|0,0:1|0:0|1:0,0:0:0:0:
460,187,123916,1,2,0:0:0:0:
460,187,124098,2,0,P|458:144|439:99,2,72.5,8|2|0,0:1|0:0|1:0,0:0:0:0:
287,324,124825,6,0,P|254:291|225:277,1,72.5,8|2,0:1|0:0,0:0:0:0:
250,187,125189,2,0,P|294:174|321:156,1,72.5,0|2,1:0|0:0,0:0:0:0:
395,222,125552,2,0,P|383:266|385:299,1,72.5,8|2,0:1|0:0,0:0:0:0:
478,307,125916,2,0,P|489:262|487:229,1,72.5,0|0,1:0|0:0,0:0:0:0:
472,123,126279,6,0,L|384:110,1,72.5,4|0,3:2|0:0,0:0:0:0:
320,163,126643,2,0,L|232:150,1,72.5,0|0,1:0|0:0,0:0:0:0:
230,59,127007,2,0,L|142:46,1,72.5,8|0,0:1|3:0,0:0:0:0:
78,99,127371,2,0,L|-10:86,1,72.5,0|0,1:0|0:0,0:0:0:0:
18,227,127734,6,0,L|106:214,1,72.5,10|2,0:1|0:0,0:0:0:0:
170,267,128098,2,0,L|258:254,1,72.5,0|2,1:0|0:0,0:0:0:0:
287,173,128462,2,0,L|375:160,2,72.5,8|2|0,0:1|0:3|1:0,0:0:0:0:
208,120,129007,5,2,0:3:0:0:
251,36,129189,1,12,0:1:0:0:
327,90,129370,1,2,0:0:0:0:
254,303,129734,1,2,0:0:0:0:
330,357,129916,1,8,0:1:0:0:
373,273,130097,1,2,0:0:0:0:
188,58,130643,6,0,P|171:145|172:157,1,72.5,8|0,0:1|0:0,0:0:0:0:
244,187,131007,2,0,P|249:151|261:117,1,72.5,0|0,1:0|0:0,0:0:0:0:
352,92,131370,2,0,P|335:179|336:191,1,72.5,10|0,0:1|0:0,0:0:0:0:
371,249,131734,2,0,P|406:254|440:266,2,72.5,0|0|8,1:0|0:0|0:1,0:0:0:0:
278,320,132279,5,2,0:0:0:0:
253,228,132461,1,0,1:0:0:0:
161,251,132643,1,2,0:0:0:0:
186,343,132825,1,8,0:1:0:0:
186,343,133007,2,0,P|108:333|72:279,1,145,2|2,0:0|3:2,0:0:0:0:
60,142,133552,5,8,0:1:0:0:
130,204,133734,1,8,0:0:0:0:
162,115,133916,1,0,1:0:0:0:
94,57,134098,1,8,0:0:0:0:
94,57,134279,1,8,0:1:0:0:
184,29,134461,2,0,L|262:12,2,72.5,2|0|2,1:3|1:0|1:3,0:0:0:0:
134,136,135007,6,0,P|192:125|277:164,1,145,8|8,3:1|3:1,0:0:0:0:
291,248,135552,1,0,0:0:0:0:
247,331,135734,2,0,P|189:342|104:303,2,145,4|8|12,3:2|0:1|0:1,0:0:0:0:
256,192,136825,12,0,144098,0:0:0:0:
