osu file format v14

[General]
AudioFilename: audio.mp3
AudioLeadIn: 0
PreviewTime: 120804
Countdown: 0
SampleSet: Soft
StackLeniency: 0.4
Mode: 0
LetterboxInBreaks: 0
WidescreenStoryboard: 0

[Editor]
Bookmarks: 365,6927,13302,18927,25115,37115,49115,56428,77526,80164,90804,102804,114804,122116,132665,143214,157720,162995,176181,179148,197280,199918
DistanceSpacing: 1.2
BeatDivisor: 4
GridSize: 32
TimelineZoom: 2.899999

[Metadata]
Title:Oni KYOKAN
TitleUnicode:鬼KYOKAN
Artist:kradness & Reol
ArtistUnicode:kradness&れをる
Creator:buckfro
Version:Extra
Source:
Tags:rock jrock j-rock japanese oriental atipir riana amamya erisu lanzhu konami benami sdvx 3rd sdvx3 video rhythm game vgm KRAD MATRiX SOUND VOLTEX III GRAVITY WARS じーざすP Jesus-P Jizasu-P ギガ Giga ワンダフル★オポチュニティ! Wonderful Opportunity!
BeatmapID:3601025
BeatmapSetID:1726038

[Difficulty]
HPDrainRate:6
CircleSize:4
OverallDifficulty:9
ApproachRate:9.6
SliderMultiplier:2
SliderTickRate:1

[Events]
//Background and Video events
0,0,"95706917_p0.jpg",0,0
//Break Periods
//Storyboard Layer 0 (Background)
//Storyboard Layer 1 (Fail)
//Storyboard Layer 2 (Pass)
//Storyboard Layer 3 (Foreground)
//Storyboard Layer 4 (Overlay)
//Storyboard Sound Samples

[TimingPoints]
-385,375,4,2,3,35,1,0
365,-100,4,2,3,35,0,0
1115,-100,4,2,3,35,0,0
2427,-200,4,2,3,35,0,0
2802,-100,4,2,3,35,0,0
3552,-57.1428571428571,4,2,3,35,0,0
3927,-100,4,2,3,35,0,0
4677,-100,4,2,3,35,0,0
5615,-100,4,2,3,40,0,0
5990,-66.6666666666667,4,2,3,40,0,0
6365,-66.6666666666667,4,2,3,40,0,0
6646,-55.5555555555556,4,2,3,40,0,0
6927,-38.4615384615385,4,2,3,50,0,0
7115,-57.1428571428571,4,2,3,50,0,0
7302,-111.111111111111,4,2,3,50,0,0
7958,-76.9230769230769,4,2,3,50,0,0
8427,-142.857142857143,4,2,3,50,0,0
8802,-111.111111111111,4,2,3,50,0,0
9458,-76.9230769230769,4,2,3,50,0,0
9927,-142.857142857143,4,2,3,50,0,0
10302,-111.111111111111,4,2,3,50,0,0
11615,-50,4,2,3,50,0,0
11802,-66.6666666666667,4,2,3,50,0,0
11990,-50,4,2,3,50,0,0
12177,-66.6666666666667,4,2,3,50,0,0
12365,-40,4,2,3,50,0,0
12927,-50,4,2,3,50,0,0
13302,-111.111111111111,4,2,3,50,0,0
13958,-76.923076923077,4,2,3,50,0,0
14240,-142.857142857143,4,2,3,50,0,0
14802,-111.111111111111,4,2,3,50,0,0
15458,-76.923076923077,4,2,3,50,0,0
15740,-142.857142857143,4,2,3,50,0,0
16302,-111.111111111111,4,2,3,50,0,0
17615,-50,4,2,3,50,0,0
17990,-66.6666666666667,4,2,3,50,0,0
18365,-40,4,2,3,50,0,0
18833,-43.4782608695652,4,2,3,50,0,0
19115,-28.5714285714286,4,2,3,50,0,0
19490,-100,4,2,3,40,0,0
20052,-333.333333333333,4,2,3,40,0,0
20427,-100,4,2,3,40,0,0
25115,-76.9230769230769,4,2,3,45,0,0
26240,-200,4,2,3,45,0,0
26615,-76.9230769230769,4,2,3,45,0,0
28865,-100,4,2,3,45,0,0
29240,-76.9230769230769,4,2,3,45,0,0
29990,-66.6666666666667,4,2,3,45,0,0
30740,-66.6666666666667,4,2,3,45,0,0
31115,-76.9230769230769,4,2,3,45,0,0
32240,-200,4,2,3,45,0,0
32615,-76.9230769230769,4,2,3,45,0,0
33365,-100,4,2,3,45,0,0
33740,-76.9230769230769,4,2,3,45,0,0
34490,-66.6666666666667,4,2,3,45,0,0
34865,-76.9230769230769,4,2,3,45,0,0
35427,-76.9230769230769,4,2,3,45,0,0
35990,-50,4,2,3,45,0,0
36365,-55.5555555555556,4,2,3,45,0,0
36740,-66.6666666666667,4,2,3,45,0,0
37115,-66.6666666666667,4,2,3,60,0,0
48365,-55.5555555555556,4,2,3,50,0,0
49490,-100,4,2,3,50,0,0
50146,-66.6666666666667,4,2,3,50,0,0
50990,-66.6666666666667,4,2,3,50,0,0
51740,-83.3333333333333,4,2,3,50,0,0
52115,-66.6666666666667,4,2,3,50,0,0
52490,-100,4,2,3,50,0,0
53052,-66.6666666666667,4,2,3,50,0,0
53990,-66.6666666666667,4,2,3,50,0,0
55115,329.67032967033,4,2,3,35,1,0
55115,-66.6666666666667,4,2,3,50,0,0
56428,329.67032967033,4,2,3,70,1,0
56428,-66.6666666666667,4,2,3,70,0,0
56757,-55.5555555555556,4,2,3,70,0,0
57087,-66.6666666666667,4,2,3,70,0,0
57252,-100,4,2,3,70,0,0
57581,-50,4,2,3,70,0,0
57911,-66.6666666666667,4,2,3,70,0,0
58735,-100,4,2,3,70,0,0
59395,-50,4,2,3,70,0,0
60384,-66.6666666666667,4,2,3,70,0,0
64340,-50,4,2,3,70,0,0
65329,-40,4,2,3,70,0,0
65658,-66.6666666666667,4,2,3,70,0,0
67307,-55.5555555555556,4,2,3,70,0,0
67636,-66.6666666666667,4,2,3,70,0,0
67801,-100,4,2,3,70,0,0
68131,-50,4,2,3,70,0,0
68460,-66.6666666666667,4,2,3,70,0,0
69285,-100,4,2,3,70,0,0
69944,-50,4,2,3,70,0,0
70933,-66.6666666666667,4,2,3,70,0,0
71922,-100,4,2,3,70,0,0
72252,-50,4,2,3,70,0,0
72746,-40,4,2,3,70,0,0
73570,-50,4,2,3,70,0,0
74065,-40,4,2,3,70,0,0
74889,-66.6666666666667,4,2,3,70,0,0
77526,-100,4,2,3,70,0,0
78021,-100,4,2,3,50,0,0
80164,-125,4,2,3,55,0,0
82142,-83.3333333333333,4,2,3,55,0,0
83296,-125,4,2,3,55,0,0
84449,-83.3333333333333,4,2,3,55,0,0
85438,-125,4,2,3,55,0,0
87417,-83.3333333333333,4,2,3,55,0,0
88570,-125,4,2,3,55,0,0
90054,375,4,2,3,55,1,0
90804,375,4,2,3,45,1,0
90804,-76.9230769230769,4,2,3,45,0,0
91929,-200,4,2,3,45,0,0
92304,-76.9230769230769,4,2,3,45,0,0
94554,-100,4,2,3,45,0,0
94929,-76.9230769230769,4,2,3,45,0,0
95679,-66.6666666666667,4,2,3,45,0,0
96429,-66.6666666666667,4,2,3,45,0,0
96804,-76.9230769230769,4,2,3,45,0,0
97929,-200,4,2,3,45,0,0
98304,-76.9230769230769,4,2,3,45,0,0
99054,-100,4,2,3,45,0,0
99429,-76.9230769230769,4,2,3,45,0,0
100179,-66.6666666666667,4,2,3,45,0,0
100554,-76.9230769230769,4,2,3,45,0,0
101116,-76.9230769230769,4,2,3,45,0,0
101679,-50,4,2,3,45,0,0
102054,-66.6666666666667,4,2,3,45,0,0
102804,-66.6666666666667,4,2,3,60,0,0
114054,-55.5555555555556,4,2,3,50,0,0
115179,-100,4,2,3,50,0,0
115835,-66.6666666666667,4,2,3,50,0,0
116679,-66.6666666666667,4,2,3,50,0,0
117429,-83.3333333333333,4,2,3,50,0,0
117804,-66.6666666666667,4,2,3,50,0,0
118179,-100,4,2,3,50,0,0
118741,-66.6666666666667,4,2,3,50,0,0
119679,-66.6666666666667,4,2,3,50,0,0
120804,329.67032967033,4,2,3,35,1,0
120804,-200,4,2,3,50,0,0
121628,-100,4,2,3,50,0,0
122116,329.67032967033,4,2,3,70,1,0
122116,-66.6666666666667,4,2,3,70,0,0
122445,-55.5555555555556,4,2,3,70,0,0
122775,-66.6666666666667,4,2,3,70,0,0
122940,-100,4,2,3,70,0,0
123269,-50,4,2,3,70,0,0
123599,-66.6666666666667,4,2,3,70,0,0
124423,-100,4,2,3,70,0,0
125083,-50,4,2,3,70,0,0
126072,-66.6666666666667,4,2,3,70,0,0
130028,-50,4,2,3,70,0,0
131017,-40,4,2,3,70,0,0
131346,-66.6666666666667,4,2,3,70,0,0
132665,-50,4,2,3,75,0,0
133324,-40,4,2,3,75,0,0
134313,-50,4,2,3,75,0,0
136621,-40,4,2,3,75,0,0
137033,-50,4,2,3,75,0,0
137940,-40,4,2,3,75,0,0
138352,-50,4,2,3,75,0,0
141566,-66.6666666666667,4,2,3,75,0,0
143214,-76.9230769230769,4,2,3,55,0,0
152775,-66.6666666666667,4,2,3,65,0,0
156401,-66.6666666666667,4,2,3,65,0,0
157720,-100,4,2,3,65,0,0
162006,-66.6666666666667,4,2,3,70,0,0
165632,-50,4,2,3,70,0,0
166621,-40,4,2,3,70,0,0
166951,-66.6666666666667,4,2,3,70,0,0
168269,-66.6666666666667,4,2,3,70,0,0
168599,-55.5555555555556,4,2,3,70,0,0
168929,-66.6666666666667,4,2,3,70,0,0
169094,-100,4,2,3,70,0,0
169423,-50,4,2,3,70,0,0
169753,-66.6666666666667,4,2,3,70,0,0
170577,-100,4,2,3,70,0,0
171236,-50,4,2,3,70,0,0
172225,-66.6666666666667,4,2,3,70,0,0
173214,-100,4,2,3,70,0,0
173544,-50,4,2,3,70,0,0
174039,-40,4,2,3,70,0,0
174863,-50,4,2,3,70,0,0
175357,-40,4,2,3,70,0,0
176181,-100,4,2,3,70,0,0
176676,-66.6666666666667,4,2,3,70,0,0
177170,-50,4,2,3,70,0,0
177665,-33.3333333333333,4,2,3,70,0,0
177747,-33.3333333333333,4,2,3,5,0,0
177830,-33.3333333333333,4,2,3,70,0,0
177912,-33.3333333333333,4,2,3,5,0,0
177995,-33.3333333333333,4,2,3,70,0,0
178077,-33.3333333333333,4,2,3,5,0,0
178159,-33.3333333333333,4,2,3,70,0,0
178242,-33.3333333333333,4,2,3,5,0,0
178324,-33.3333333333333,4,2,3,70,0,0
178407,-33.3333333333333,4,2,3,5,0,0
178489,-33.3333333333333,4,2,3,70,0,0
179148,-66.6666666666667,4,2,3,70,0,0
181126,-100,4,2,3,70,0,0
181786,-50,4,2,3,70,0,0
182775,-66.6666666666667,4,2,3,70,0,0
184094,-66.6666666666667,4,2,3,70,0,0
186731,-50,4,2,3,70,0,0
188050,-66.6666666666667,4,2,3,70,0,0
189698,-55.5555555555556,4,2,3,70,0,0
190028,-66.6666666666667,4,2,3,70,0,0
190192,-100,4,2,3,70,0,0
190522,-50,4,2,3,70,0,0
190852,-66.6666666666667,4,2,3,70,0,0
191676,-100,4,2,3,70,0,0
192335,-50,4,2,3,70,0,0
193324,-66.6666666666667,4,2,3,70,0,0
194313,-100,4,2,3,70,0,0
194643,-50,4,2,3,70,0,0
195137,-40,4,2,3,70,0,0
195962,-50,4,2,3,70,0,0
196456,-40,4,2,3,70,0,0
197280,-66.6666666666667,4,2,3,70,0,0
199918,-100,4,2,3,70,0,0
200412,-100,4,2,3,50,0,0
202225,-66.6666666666667,4,2,3,50,0,0
204533,-500,4,2,3,50,0,0
204616,-500,4,2,3,5,0,0

[Colours]
Combo1 : 255,182,108
Combo2 : 232,232,232
Combo3 : 185,185,255
Combo4 : 74,165,255

[HitObjects]
26,16,365,5,8,0:2:0:0:
100,73,458,2,0,P|119:89|124:115,1,50,8|0,0:2|0:0,0:0:0:0:
130,203,646,1,8,3:2:0:0:
130,203,740,1,8,3:2:0:0:
138,323,927,6,0,B|83:329|75:274|88:242|161:213|198:276,1,200,10|2,3:2|3:2,0:0:0:0:
256,223,1396,1,2,1:2:0:0:
256,208,1490,1,2,3:2:0:0:
268,215,1583,2,0,P|292:220|316:215,1,50,2|2,1:2|1:2,0:0:0:0:
429,221,1771,1,2,1:2:0:0:
439,218,1865,2,0,P|398:167|429:80,1,150,2|2,3:2|1:2,0:0:0:0:
425,79,2240,1,0,3:0:0:0:
436,290,2427,6,0,B|456:295|471:286|471:286|475:302|437:315,1,75,2|0,1:2|0:0,0:0:0:0:
344,331,2802,1,2,1:2:0:0:
345,317,2896,1,2,1:2:0:0:
360,316,2990,1,2,3:2:0:0:
360,331,3083,2,0,P|339:343|314:342,1,50,2|2,3:2|1:2,0:0:0:0:
166,331,3271,1,2,3:2:0:0:
166,321,3365,2,0,P|187:309|212:310,1,50,2|0,3:2|0:0,0:0:0:0:
314,342,3552,6,0,P|243:275|270:187,1,175.00000166893,10|0,1:2|3:0,0:0:0:0:
166,321,3927,6,0,P|264:308|337:235,1,200,14|2,3:2|1:2,0:0:0:0:
407,209,4396,1,2,1:2:0:0:
422,209,4490,1,2,3:2:0:0:
415,197,4583,2,0,P|410:173|415:149,1,50,2|10,1:2|0:2,0:0:0:0:
481,48,4771,1,10,0:2:0:0:
467,48,4865,2,0,P|432:63|418:60,1,50,2|8,3:2|0:2,0:0:0:0:
337,98,5052,2,0,P|324:76|302:65,1,50,2|0,3:2|3:2,0:0:0:0:
175,98,5240,6,0,P|187:76|209:65,1,50,10|0,0:2|0:0,0:0:0:0:
337,98,5427,2,0,P|324:76|302:65,1,50,2|0,3:2|3:2,0:0:0:0:
156,168,5615,6,0,P|165:187|180:170,1,50,10|0,3:2|0:0,0:0:0:0:
357,168,5802,2,0,P|347:187|332:170,1,50,2|0,3:2|0:0,0:0:0:0:
111,237,5990,6,0,P|142:256|179:257,1,75.0000028610231,10|0,3:2|0:0,0:0:0:0:
401,237,6177,2,0,P|369:256|332:257,1,75.0000028610231,10|0,3:2|0:0,0:0:0:0:
214,360,6365,6,0,P|249:306|286:358,1,150.000005722046,14|0,3:2|0:0,0:0:0:0:
201,361,6646,6,0,P|178:276|228:204,1,179.999994506836,14|0,3:2|0:0,0:0:0:0:
111,237,6927,6,0,P|231:280|347:227,1,259.999988098145,6|0,3:2|0:0,0:0:0:0:
422,126,7302,5,2,3:2:0:0:
416,116,7396,1,2,1:2:0:0:
396,108,7490,1,2,3:2:0:0:
367,121,7583,1,2,1:2:0:0:
354,160,7677,1,2,1:2:0:0:
390,196,7771,1,10,1:2:0:0:
453,196,7865,1,2,3:2:0:0:
490,134,7958,2,0,P|476:73|422:40,1,129.999994049073,10|2,1:2|0:2,0:0:0:0:
423,41,8240,1,8,3:2:0:0:
221,62,8427,6,0,B|233:35|264:35|264:35|245:54|244:79,1,104.999996795654,2|0,1:2|0:0,0:0:0:0:
328,91,8802,1,2,1:2:0:0:
324,100,8896,1,2,1:2:0:0:
314,118,8990,1,10,3:2:0:0:
291,139,9083,1,2,1:2:0:0:
253,155,9177,1,2,1:2:0:0:
201,146,9271,1,10,1:2:0:0:
164,94,9365,1,2,3:2:0:0:
105,49,9458,2,0,P|42:54|1:102,1,129.999994049073,10|2,1:2|0:2,0:0:0:0:
1,103,9740,1,8,3:2:0:0:
31,295,9927,6,0,B|29:261|17:241|17:241|34:257|62:260,1,104.999996795654,2|0,1:2|0:0,0:0:0:0:
108,319,10302,1,2,1:2:0:0:
117,323,10396,1,2,1:2:0:0:
136,315,10490,1,10,3:2:0:0:
166,326,10583,1,2,1:2:0:0:
206,310,10677,1,2,1:2:0:0:
255,332,10771,1,10,1:2:0:0:
314,309,10865,6,0,P|321:282|315:256,1,44.999998626709,2|8,3:2|0:2,0:0:0:0:
290,138,11052,2,0,P|306:153|327:159,1,44.999998626709,2|0,1:2|0:0,0:0:0:0:
314,309,11240,6,0,P|321:282|315:256,1,44.999998626709,2|8,3:2|0:2,0:0:0:0:
286,122,11427,2,0,P|269:106|248:100,1,44.999998626709,2|0,1:2|0:0,0:0:0:0:
9,43,11615,22,0,P|58:41|105:57,1,100,10|0,3:2|0:0,0:0:0:0:
149,120,11802,2,0,B|161:139|178:140|178:140|171:122|148:120,1,75.0000028610231,2|0,3:2|0:0,0:0:0:0:
9,341,11990,22,0,P|58:343|105:327,1,100,10|0,3:2|0:0,0:0:0:0:
149,264,12177,2,0,B|161:245|178:244|178:244|171:262|148:264,1,75.0000028610231,2|0,3:2|0:0,0:0:0:0:
480,219,12365,6,0,P|420:209|369:242,1,125,10|0,3:2|0:0,0:0:0:0:
227,357,12552,1,0,3:0:0:0:
214,363,12646,2,0,P|252:316|249:255,1,125,10|0,3:2|0:0,0:0:0:0:
282,106,12833,1,0,3:0:0:0:
267,106,12927,6,0,P|300:246|437:291,1,300,10|0,3:2|0:0,0:0:0:0:
368,242,13302,5,2,3:2:0:0:
361,250,13396,1,2,1:2:0:0:
350,267,13490,1,2,3:2:0:0:
334,294,13583,1,2,1:2:0:0:
299,317,13677,1,2,1:2:0:0:
246,319,13771,1,10,1:2:0:0:
196,281,13865,1,2,3:2:0:0:
185,208,13958,2,0,P|209:145|305:148,1,129.999994049073,8|2,1:2|0:2,0:0:0:0:
265,129,14240,1,8,3:2:0:0:
492,119,14427,6,0,B|511:103|511:103|468:125|435:99,1,104.999996795654,2|0,1:2|0:0,0:0:0:0:
477,29,14802,1,2,1:2:0:0:
466,25,14896,1,2,1:2:0:0:
444,23,14990,1,10,3:2:0:0:
413,24,15083,1,2,1:2:0:0:
375,42,15177,1,2,1:2:0:0:
350,87,15271,1,10,1:2:0:0:
366,147,15365,1,2,3:2:0:0:
431,182,15458,2,0,P|463:237|434:322,1,129.999994049073,8|2,1:2|0:2,0:0:0:0:
452,299,15740,1,8,3:2:0:0:
257,349,15927,6,0,B|284:337|284:306|284:306|265:325|240:326,1,104.999996795654,2|0,1:2|0:0,0:0:0:0:
230,248,16302,1,2,1:2:0:0:
220,252,16396,1,2,1:2:0:0:
202,244,16490,1,10,3:2:0:0:
173,254,16583,1,2,1:2:0:0:
135,239,16677,1,2,1:2:0:0:
88,260,16771,1,10,1:2:0:0:
32,238,16865,6,0,P|25:212|30:187,1,44.999998626709,2|8,3:2|0:2,0:0:0:0:
66,63,17052,2,0,P|87:68|103:84,1,44.999998626709,2|0,1:2|0:0,0:0:0:0:
262,65,17240,2,0,P|240:70|224:86,1,44.999998626709,2|0,3:2|0:0,0:0:0:0:
66,63,17427,2,0,P|87:68|103:84,1,44.999998626709,2|0,1:2|0:0,0:0:0:0:
271,138,17615,6,0,P|319:145|348:184,1,100,10|0,3:2|0:0,0:0:0:0:
481,324,17802,2,0,P|433:317|404:278,1,100,2|0,3:2|0:0,0:0:0:0:
433,194,17990,6,0,B|441:154|482:176|460:207|416:190,1,75.0000028610231,10|0,3:2|0:0,0:0:0:0:
326,262,18177,2,0,B|317:301|276:279|298:248|342:265,1,75.0000028610231,2|0,3:2|0:0,0:0:0:0:
500,60,18365,6,0,P|449:95|389:89,1,125,10|0,3:2|0:0,0:0:0:0:
222,184,18552,1,0,3:0:0:0:
205,180,18646,6,0,P|199:119|235:69,1,125,10|0,3:2|0:0,0:0:0:0:
16,13,18833,1,0,3:0:0:0:
0,80,18927,6,0,B|-43:42|16:-21|112:-18|107:93|104:100|101:106|54:188|210:184|239:179|242:19|125:60,1,460.000008773804,14|0,3:2|3:0,0:0:0:0:
265,66,19490,6,0,B|363:83,1,100,8|2,3:2|1:2,0:0:0:0:
254,67,19865,1,0,3:0:0:0:
244,68,19958,1,8,1:2:0:0:
234,69,20052,2,0,L|204:74,1,29.9999990844727,2|0,1:2|3:0,0:0:0:0:
363,83,20427,5,2,1:2:0:0:
393,79,20521,1,8,1:2:0:0:
423,76,20615,1,0,3:0:0:0:
389,256,20802,6,0,L|405:158,1,100,2|8,1:2|3:2,0:0:0:0:
389,266,21177,5,2,1:2:0:0:
390,276,21271,1,8,1:2:0:0:
391,286,21365,2,0,L|400:335,1,50,0|8,3:0|1:2,0:0:0:0:
257,269,21552,2,0,L|241:171,1,100,2|8,1:2|3:2,0:0:0:0:
175,233,21927,5,0,1:0:0:0:
165,234,22021,1,8,1:2:0:0:
155,235,22115,1,0,3:0:0:0:
319,212,22302,5,0,1:0:0:0:
329,211,22396,1,0,1:0:0:0:
339,210,22490,1,8,1:2:0:0:
241,171,22677,2,0,L|225:73,1,100,2|0,1:2|3:0,0:0:0:0:
209,0,23052,1,0,1:0:0:0:
241,171,23240,1,8,3:2:0:0:
306,90,23427,5,2,1:2:0:0:
305,80,23521,1,10,1:2:0:0:
304,70,23615,2,0,L|295:21,1,50,0|8,3:0|1:2,0:0:0:0:
147,91,23802,2,0,L|163:189,1,100,2|8,1:2|3:2,0:0:0:0:
145,79,24177,5,2,1:2:0:0:
144,69,24271,1,10,1:2:0:0:
143,59,24365,2,0,L|134:10,2,50,0|2|2,3:0|3:2|3:2,0:0:0:0:
163,189,24740,5,8,3:2:0:0:
164,199,24833,1,0,1:0:0:0:
165,209,24927,2,0,L|174:258,1,50,2|0,3:2|3:0,0:0:0:0:
62,358,25115,6,0,B|53:309|109:299|109:299|279:268,1,259.999988098145,6|10,3:2|3:2,0:0:0:0:
318,182,25677,2,0,P|345:177|325:191,1,64.9999970245363,2|8,1:2|0:2,0:0:0:0:
340,321,25865,1,2,3:2:0:0:
349,323,25958,1,8,0:2:0:0:
358,325,26052,2,0,P|383:329|368:307,1,64.9999970245363,2|0,1:2|0:0,0:0:0:0:
453,226,26240,2,0,L|404:235,1,50,10|2,3:2|1:2,0:0:0:0:
490,297,26521,1,10,1:2:0:0:
499,288,26615,6,0,P|480:228|500:167,2,129.999994049073,2|2|10,3:2|1:2|0:2,0:0:0:0:
498,155,27177,2,0,P|496:122|477:97,1,64.9999970245363,2|8,1:2|0:2,0:0:0:0:
507,10,27365,2,0,P|478:-4|446:0,1,64.9999970245363,2|8,3:2|0:2,0:0:0:0:
398,81,27552,1,2,1:2:0:0:
398,66,27646,1,0,1:0:0:0:
385,73,27740,2,0,L|247:97,1,129.999994049073,2|0,3:2|1:0,0:0:0:0:
168,41,28021,1,10,1:2:0:0:
175,51,28115,6,0,B|186:15|225:-2|299:93|220:155|156:149|104:90,1,259.999988098145,0|10,3:0|3:2,0:0:0:0:
204,165,28677,1,2,1:2:0:0:
208,172,28771,1,8,1:2:0:0:
212,178,28865,2,0,P|172:239|201:304,1,150,2|2,3:2|1:2,0:0:0:0:
220,314,29240,1,8,3:2:0:0:
137,225,29427,2,0,P|96:211|71:217,1,64.9999970245363,2|8,1:2|0:2,0:0:0:0:
6,233,29615,1,0,3:0:0:0:
7,78,29802,5,0,1:0:0:0:
7,63,29896,1,0,1:0:0:0:
19,70,29990,2,0,P|53:84|90:78,1,75.0000028610231,10|0,3:2|1:0,0:0:0:0:
144,138,30177,1,2,1:2:0:0:
157,141,30271,2,0,P|191:126|213:97,1,75.0000028610231,2|0,1:2|3:0,0:0:0:0:
284,40,30458,1,8,0:2:0:0:
275,32,30552,2,0,P|268:9|273:33,1,75.0000028610231,2|0,1:2|0:0,0:0:0:0:
330,101,30740,6,0,B|363:129|363:129|414:174|471:115|420:70|420:70|383:40,1,225.000008583069,10|0,3:2|0:0,0:0:0:0:
495,0,31115,6,0,P|447:66|521:229,1,259.999988098145,6|10,3:2|3:2,0:0:0:0:
475,320,31677,2,0,B|493:324|505:313|505:313|489:306|471:322,1,64.9999970245363,2|8,1:2|0:2,0:0:0:0:
364,277,31865,1,2,3:2:0:0:
365,268,31958,1,8,0:2:0:0:
368,259,32052,2,0,B|372:240|361:228|361:228|354:244|370:262,1,64.9999970245363,2|2,1:2|0:2,0:0:0:0:
400,349,32240,2,8,L|350:357,1,50,8|10,3:2|1:2,3:2:0:0:
238,306,32521,1,10,1:2:0:0:
228,300,32615,6,0,B|233:332|233:332|242:379|321:365|313:317|313:317|293:204,1,259.999988098145,2|8,3:2|3:2,0:0:0:0:
132,52,33177,1,2,1:2:0:0:
139,54,33271,1,8,1:2:0:0:
146,55,33365,2,0,P|216:75|218:154,1,150,2|0,3:2|1:0,0:0:0:0:
261,65,33740,2,0,P|323:68|366:22,1,129.999994049073,10|0,3:2|1:0,0:0:0:0:
359,99,34021,1,8,1:2:0:0:
363,107,34115,1,0,3:0:0:0:
512,124,34302,6,0,P|513:150|501:130,1,64.9999970245363,2|0,1:2|0:0,0:0:0:0:
432,95,34490,2,0,P|404:162|426:233,1,150.000005722046,10|0,3:2|1:0,0:0:0:0:
494,314,34771,1,8,1:2:0:0:
499,301,34865,6,0,P|516:282|490:283,1,64.9999970245363,2|8,3:2|1:2,0:0:0:0:
427,234,35052,2,0,P|368:208|307:223,1,129.999994049073,2|8,1:2|3:2,0:0:0:0:
229,236,35427,6,0,P|210:253|236:252,1,64.9999970245363,2|8,1:2|0:2,0:0:0:0:
318,353,35615,2,0,L|306:222,1,129.999994049073,0|2,3:0|3:2,0:0:0:0:
265,8,35990,6,0,P|252:55|212:82,1,100,10|0,3:2|1:0,0:0:0:0:
15,110,36177,2,0,P|62:96|105:118,1,100,2|0,1:2|0:0,0:0:0:0:
251,158,36365,6,0,B|274:171|290:149|290:149|269:136|247:161,1,89.9999972534181,2|0,3:2|0:0,0:0:0:0:
91,193,36552,2,0,B|68:180|51:201|51:201|73:215|95:190,1,89.9999972534181,2|0,3:2|3:0,0:0:0:0:
150,56,36740,6,0,P|191:42|232:58,1,75.0000028610231,10|0,3:2|0:0,0:0:0:0:
384,32,36927,5,10,3:2:0:0:
445,64,37021,1,8,3:2:0:0:
448,132,37115,1,6,3:2:0:0:
402,246,37302,6,0,P|402:282|426:310,1,75.0000028610231,0|0,0:2|0:0,0:0:0:0:
389,232,37490,2,0,P|318:212|254:248,1,150.000005722046,10|0,3:2|1:0,0:0:0:0:
113,334,37865,6,0,P|149:334|177:358,1,75.0000028610231,2|8,3:2|0:2,0:0:0:0:
99,321,38052,2,0,P|79:250|115:186,1,150.000005722046,2|8,1:2|3:2,0:0:0:0:
46,15,38427,6,0,P|82:15|110:39,1,75.0000028610231,2|8,1:2|0:2,0:0:0:0:
223,12,38615,2,0,P|159:47|169:121,1,150.000005722046,0|2,3:0|1:2,0:0:0:0:
410,136,38990,2,0,P|347:94|276:70,1,150.000005722046,2|2,3:2|1:2,0:0:0:0:
377,68,39271,101,8,0:2:0:0:
388,55,39365,2,0,P|421:37|457:31,1,75.0000028610231,2|8,3:2|1:2,0:0:0:0:
481,197,39552,2,0,P|483:232|467:268,1,75.0000028610231,2|0,1:2|0:0,0:0:0:0:
424,336,39740,1,0,3:0:0:0:
279,270,39927,6,0,P|260:302|253:338,1,75.0000028610231,2|8,1:2|0:2,0:0:0:0:
254,188,40115,2,0,P|310:237|383:250,1,150.000005722046,0|2,3:0|1:2,0:0:0:0:
424,336,40490,1,10,3:2:0:0:
253,339,40677,6,0,P|260:303|279:271,1,75.0000028610231,2|8,1:2|0:2,0:0:0:0:
382,250,40865,2,0,P|375:213|356:181,1,75.0000028610231,0|8,3:0|0:2,0:0:0:0:
120,141,41052,2,0,P|194:145|255:188,1,150.000005722046,2|8,1:2|3:2,0:0:0:0:
331,34,41427,6,0,P|311:66|305:103,1,75.0000028610231,2|8,1:2|0:2,0:0:0:0:
434,41,41615,2,0,P|378:90|305:103,1,150.000005722046,0|2,3:0|1:2,0:0:0:0:
181,173,41990,101,2,3:2:0:0:
123,321,42177,1,2,1:2:0:0:
128,332,42271,1,8,0:2:0:0:
133,343,42365,2,0,P|173:333|207:331,1,75.0000028610231,2|8,1:2|0:2,0:0:0:0:
71,262,42552,2,0,P|111:252|145:250,1,75.0000028610231,2|0,1:2|0:0,0:0:0:0:
9,181,42740,5,2,3:2:0:0:
54,63,42927,1,2,3:2:0:0:
254,17,43115,5,6,3:2:0:0:
207,141,43302,2,0,P|207:105|183:77,1,75.0000028610231,2|0,1:2|0:0,0:0:0:0:
220,155,43490,2,0,P|291:175|355:139,1,150.000005722046,10|0,3:2|1:0,0:0:0:0:
485,89,43865,2,0,P|495:66|481:87,1,75.0000028610231,2|8,3:2|0:2,0:0:0:0:
433,155,44052,2,0,P|452:187|459:223,1,75.0000028610231,2|0,1:2|0:0,0:0:0:0:
462,346,44240,5,10,3:2:0:0:
382,220,44427,2,0,P|345:228|314:248,1,75.0000028610231,2|8,1:2|0:2,0:0:0:0:
359,381,44615,2,0,P|358:306|314:248,1,150.000005722046,0|2,3:0|1:2,0:0:0:0:
355,55,44990,2,0,P|295:99|222:99,1,150.000005722046,10|2,3:2|1:2,0:0:0:0:
123,25,45271,1,8,0:2:0:0:
109,18,45365,2,0,P|84:46|69:80,1,75.0000028610231,2|8,3:2|0:2,0:0:0:0:
144,238,45552,2,0,P|115:213|81:198,1,75.0000028610231,2|0,1:2|0:0,0:0:0:0:
6,147,45740,1,0,3:0:0:0:
79,281,45927,6,0,P|57:312|54:348,1,75.0000028610231,2|8,1:2|0:2,0:0:0:0:
81,198,46115,2,0,P|149:266|224:276,1,150.000005722046,0|2,3:0|1:2,0:0:0:0:
328,368,46490,1,2,3:2:0:0:
278,231,46677,6,0,P|282:194|303:163,1,75.0000028610231,2|8,1:2|0:2,0:0:0:0:
408,298,46865,2,0,P|373:285|336:286,1,75.0000028610231,2|8,1:2|0:2,0:0:0:0:
170,146,47052,2,0,P|208:208|279:231,1,150.000005722046,2|8,1:2|3:2,0:0:0:0:
455,188,47427,6,0,P|439:154|412:128,1,75.0000028610231,2|8,1:2|0:2,0:0:0:0:
493,11,47615,2,0,P|469:81|412:129,1,150.000005722046,0|2,3:0|1:2,0:0:0:0:
170,146,47990,1,14,3:2:0:0:
403,320,48177,1,2,1:2:0:0:
265,155,48365,6,0,P|282:243|294:333,2,179.999994506836,10|2|2,3:2|3:2|3:2,0:0:0:0:
244,255,48927,1,2,3:2:0:0:
123,212,49115,85,10,3:2:0:0:
110,256,49208,1,10,3:2:0:0:
98,219,49302,85,10,3:2:0:0:
92,241,49396,1,10,3:2:0:0:
83,228,49490,6,0,P|145:125|161:24,1,200,2|2,3:2|3:2,0:0:0:0:
316,24,50052,5,10,3:2:0:0:
375,74,50146,2,0,P|341:59|309:38,1,75.0000028610231,10|0,3:2|3:0,0:0:0:0:
460,106,50427,5,10,3:2:0:0:
401,156,50521,2,0,P|435:141|467:120,1,75.0000028610231,10|0,3:2|3:0,0:0:0:0:
472,217,50802,5,2,1:2:0:0:
396,315,50990,5,2,3:2:0:0:
423,341,51083,1,2,0:2:0:0:
450,315,51177,1,2,1:2:0:0:
423,288,51271,1,2,0:2:0:0:
356,252,51365,5,2,3:2:0:0:
342,239,51458,1,2,0:2:0:0:
329,252,51552,1,2,1:2:0:0:
342,265,51646,1,2,0:2:0:0:
395,314,51740,6,0,P|337:302|279:315,1,119.999996337891,2|2,3:2|1:2,0:0:0:0:
146,316,52115,85,10,3:2:0:0:
159,360,52208,1,10,3:2:0:0:
171,323,52302,85,10,3:2:0:0:
177,345,52396,1,10,3:2:0:0:
185,331,52490,6,0,P|131:248|108:151,1,200,2|2,3:2|3:2,0:0:0:0:
19,67,53052,5,10,3:2:0:0:
78,17,53146,2,0,P|44:32|12:53,1,75.0000028610231,10|0,3:2|3:0,0:0:0:0:
193,129,53427,5,10,3:2:0:0:
134,79,53521,2,0,P|168:94|200:115,1,75.0000028610231,10|0,3:2|3:0,0:0:0:0:
210,23,53802,5,2,1:2:0:0:
296,168,53990,1,10,3:2:0:0:
319,204,54083,1,0,3:0:0:0:
342,242,54177,1,2,3:2:0:0:
365,279,54271,1,8,3:2:0:0:
378,349,54365,6,0,P|409:359|417:327,1,75.0000028610231,2|0,3:2|0:0,0:0:0:0:
270,259,54740,6,0,P|377:292|488:307,1,225.000008583069,14|0,3:2|0:0,0:0:0:0:
385,315,55115,5,2,3:2:0:0:
213,349,55279,1,8,1:2:0:0:
400,313,55444,5,8,1:2:0:0:
415,311,55527,1,8,1:2:0:0:
198,351,55691,5,8,1:2:0:0:
183,353,55774,1,8,1:2:0:0:
286,263,56104,5,10,1:2:0:0:
386,69,56428,6,0,B|383:22|290:9|273:109|339:151|397:147,1,225.000008583069,6|0,3:2|0:0,0:0:0:0:
512,70,56757,6,0,P|410:85|221:32,1,269.999991760254,2|0,3:2|0:0,0:0:0:0:
109,22,57087,2,0,P|128:54|135:90,1,75.0000028610231,2|0,3:2|0:0,0:0:0:0:
178,274,57252,2,0,B|199:249|209:233|209:266|262:225|177:157|154:249|183:281,1,150,10|0,3:2|0:0,0:0:0:0:
87,268,57581,6,0,B|152:245|165:295|167:298|169:302|202:348|263:319,1,200,10|0,3:2|3:0,0:0:0:0:
477,322,57829,1,0,1:0:0:0:
488,314,57911,2,0,B|496:352|438:359|410:341|404:292|458:249,2,150.000005722046,10|2|10,3:2|3:2|3:2,0:0:0:0:
449,194,58323,1,8,1:2:0:0:
433,191,58406,2,0,P|397:200|374:229,1,75.0000028610231,2|0,3:2|0:0,0:0:0:0:
262,319,58570,2,0,P|271:283|257:249,1,75.0000028610231,10|0,3:2|0:0,0:0:0:0:
56,167,58735,6,0,P|77:188|108:193,1,50,2|0,3:2|0:0,0:0:0:0:
94,274,58900,2,0,P|123:274|149:254,1,50,10|0,3:2|0:0,0:0:0:0:
181,195,59065,1,2,3:2:0:0:
181,195,59230,1,0,3:0:0:0:
32,8,59395,6,0,B|-10:5|-13:70|39:119|95:57|97:52|99:47|117:-20|198:64|211:82|128:163|81:91,1,300,14|0,3:2|0:0,0:0:0:0:
133,18,59724,1,2,3:2:0:0:
133,18,59889,1,2,3:2:0:0:
31,194,60054,6,0,P|159:123|313:84,1,300,14|0,3:2|0:0,0:0:0:0:
456,70,60384,2,0,B|500:69|443:-9|413:6|374:59|400:113,1,150.000005722046,0|10,3:0|3:2,0:0:0:0:
348,163,60631,1,0,1:0:0:0:
336,171,60713,2,0,P|372:180|402:200,1,75.0000028610231,2|0,3:2|0:0,0:0:0:0:
512,335,60878,101,10,3:2:0:0:
496,331,60960,1,0,1:0:0:0:
481,329,61043,2,0,P|444:338|414:358,1,75.0000028610231,0|0,3:0|0:0,0:0:0:0:
262,248,61208,101,8,3:2:0:0:
277,243,61290,1,8,1:2:0:0:
293,240,61373,2,0,P|329:249|360:269,2,75.0000028610231,0|0|10,3:0|1:0|3:2,0:0:0:0:
90,339,61702,6,0,B|107:376|181:334|153:281|111:258,1,150.000005722046,2|10,3:2|3:2,0:0:0:0:
10,154,61949,1,0,1:0:0:0:
16,139,62032,2,0,P|54:127|96:122,1,75.0000028610231,2|0,3:2|0:0,0:0:0:0:
214,83,62197,1,10,3:2:0:0:
226,92,62279,1,10,1:2:0:0:
236,103,62362,2,0,P|255:134|252:172,1,75.0000028610231,2|0,3:2|0:0,0:0:0:0:
115,260,62526,2,0,P|153:272|195:277,1,75.0000028610231,10|0,3:2|0:0,0:0:0:0:
390,349,62691,6,0,P|384:311|373:276,1,75.0000028610231,2|0,3:2|0:0,0:0:0:0:
252,171,62856,2,0,P|289:175|325:186,1,75.0000028610231,10|0,3:2|0:0,0:0:0:0:
511,279,63021,6,0,B|475:205|422:236|418:237|413:238|347:249|320:174,1,225.000008583069,2|0,3:2|0:0,0:0:0:0:
262,92,63351,2,0,P|266:69|268:95,1,75.0000028610231,2|0,3:2|0:0,0:0:0:0:
455,72,63515,101,10,3:2:0:0:
440,80,63598,1,8,1:2:0:0:
428,89,63680,2,0,P|408:121|401:156,1,75.0000028610231,0|0,3:0|0:0,0:0:0:0:
465,336,63845,6,0,P|432:316|397:309,1,75.0000028610231,10|0,3:2|0:0,0:0:0:0:
252,171,64010,2,0,P|215:178|183:198,1,75.0000028610231,2|0,3:2|0:0,0:0:0:0:
455,21,64175,2,0,P|447:57|428:89,1,75.0000028610231,10|0,3:2|0:0,0:0:0:0:
307,313,64340,6,0,B|301:244|353:244|356:243|361:242|414:222|401:156,1,200,14|0,3:2|3:0,0:0:0:0:
311,25,64587,5,0,1:0:0:0:
240,13,64669,2,0,B|302:42|276:87|275:90|273:95|264:150|328:173,1,200,14|0,3:2|3:0,0:0:0:0:
465,233,64917,5,0,1:0:0:0:
510,177,64999,2,0,B|453:216|427:171|424:168|421:165|378:129|326:173,1,200,14|0,3:2|3:0,0:0:0:0:
124,341,65329,6,0,B|76:343|74:272|132:218|194:286|196:291|198:297|218:372|307:279|321:259|229:164|185:256,1,375,14|0,3:2|0:0,0:0:0:0:
71,269,65658,6,0,P|51:237|42:201,1,75.0000028610231,2|0,3:2|0:0,0:0:0:0:
30,56,65823,5,10,3:2:0:0:
95,35,65906,1,8,3:2:0:0:
145,81,65988,1,0,3:0:0:0:
318,30,66153,5,8,3:2:0:0:
338,94,66235,1,8,3:2:0:0:
293,143,66318,1,0,3:0:0:0:
477,254,66482,101,10,3:2:0:0:
402,239,66565,1,8,3:2:0:0:
329,263,66647,1,10,3:2:0:0:
254,248,66730,1,8,3:2:0:0:
181,272,66812,1,10,3:2:0:0:
106,257,66895,1,8,3:2:0:0:
20,292,66977,6,0,B|83:248|134:192|61:88|39:167,1,225.000008583069,6|0,3:2|0:0,0:0:0:0:
106,257,67307,6,0,B|146:192|197:185|272:175|316:294|229:307,1,269.999991760254,10|0,3:2|0:0,0:0:0:0:
381,303,67636,2,0,P|404:274|401:238,1,75.0000028610231,2|0,3:2|0:0,0:0:0:0:
378,30,67801,2,0,B|353:51|337:61|370:61|329:114|261:29|353:6|385:35,1,150,2|0,1:2|0:0,0:0:0:0:
240,20,68131,6,0,P|309:77|433:125,1,200,2|0,1:2|3:0,0:0:0:0:
437,285,68378,1,0,1:0:0:0:
421,278,68460,2,0,B|391:217|456:172|512:181|492:219,2,150.000005722046,2|10|2,1:2|3:2|1:2,0:0:0:0:
366,353,68873,1,8,1:2:0:0:
351,351,68955,2,0,P|319:331|296:301,1,75.0000028610231,2|8,3:2|1:2,0:0:0:0:
224,150,69120,2,0,P|261:144|298:154,1,75.0000028610231,2|0,1:2|1:0,0:0:0:0:
216,281,69285,6,0,P|194:294|170:299,1,50,2|0,0:2|0:0,0:0:0:0:
162,216,69449,2,0,P|137:210|116:197,1,50,2|0,1:2|0:0,0:0:0:0:
68,283,69614,1,2,3:2:0:0:
68,283,69779,1,0,3:0:0:0:
19,58,69944,6,0,B|65:11|148:-17|211:61|194:161|101:148|98:101,1,300,14|0,3:2|0:0,0:0:0:0:
184,33,70274,1,2,3:2:0:0:
184,33,70438,1,2,3:2:0:0:
396,70,70603,6,0,B|401:72|382:107|314:127|303:61|302:57|301:53|288:-22|186:11|171:74|219:117|255:130,1,300,12|0,3:2|0:0,0:0:0:0:
233,275,70933,6,0,B|228:220|269:221|272:220|275:219|317:203|307:151,1,150.000005722046,0|2,3:0|1:2,0:0:0:0:
409,174,71180,1,0,1:0:0:0:
421,182,71263,2,0,P|450:207|469:239,1,75.0000028610231,10|0,3:2|0:0,0:0:0:0:
342,360,71428,2,0,P|361:327|389:303,1,75.0000028610231,2|0,1:2|0:0,0:0:0:0:
506,165,71592,1,0,3:0:0:0:
356,103,71757,2,0,P|327:127|308:159,1,75.0000028610231,2|0,1:2|0:0,0:0:0:0:
178,200,71922,6,0,P|175:224|185:247,1,50,10|0,3:2|0:0,0:0:0:0:
147,324,72087,2,0,P|169:334|194:331,1,50,2|0,1:2|0:0,0:0:0:0:
342,360,72252,6,0,B|380:343|368:308|344:288|344:288|238:199,1,200,10|0,3:2|3:0,0:0:0:0:
66,264,72499,2,0,B|27:247|39:212|63:192|63:192|169:103,1,200,10|0,3:2|3:0,0:0:0:0:
444,12,72746,6,0,B|538:80|463:168|369:176|358:100|358:94|360:88|334:-2|242:-37|168:57|197:116|261:148,1,500,14|2,3:2|3:2,0:0:0:0:
259,217,73158,1,0,3:0:0:0:
264,225,73241,1,8,3:2:0:0:
197,300,73406,1,2,3:2:0:0:
33,346,73570,6,0,B|-2:312|-22:251|35:205|108:218|98:286|65:288,1,200,10|0,3:2|3:0,0:0:0:0:
241,360,73818,2,0,B|275:326|295:265|238:219|165:232|175:300|208:302,1,200,10|0,3:2|3:0,0:0:0:0:
382,367,74065,6,0,B|434:401|484:322|454:221|337:258|331:262|326:267|253:340|212:174|209:142|378:93|367:229,1,500,14|2,3:2|3:2,0:0:0:0:
448,270,74477,1,0,3:0:0:0:
453,262,74559,1,10,3:2:0:0:
500,189,74724,1,2,3:2:0:0:
369,35,74889,6,0,P|440:54|500:99,2,150.000005722046,6|0|8,3:2|1:0|3:2,0:0:0:0:
212,93,75384,2,0,P|183:116|164:148,1,75.0000028610231,2|8,1:2|1:2,0:0:0:0:
7,205,75548,2,0,P|30:233|62:252,1,75.0000028610231,2|8,3:2|1:2,0:0:0:0:
236,370,75713,2,0,P|207:346|188:314,1,75.0000028610231,0|0,1:0|0:0,0:0:0:0:
150,237,75878,5,8,3:2:0:0:
150,237,76043,1,2,1:2:0:0:
212,93,76208,6,0,P|249:89|285:98,1,75.0000028610231,2|0,3:2|0:0,0:0:0:0:
476,50,76373,5,8,3:2:0:0:
497,115,76455,1,8,3:2:0:0:
451,165,76537,1,0,3:0:0:0:
261,170,76702,5,8,3:2:0:0:
240,235,76785,1,8,3:2:0:0:
286,285,76867,1,0,3:0:0:0:
475,350,77032,101,8,3:2:0:0:
488,267,77114,1,8,3:2:0:0:
454,200,77197,1,10,3:2:0:0:
401,170,77279,1,8,3:2:0:0:
349,178,77362,1,8,3:2:0:0:
316,210,77444,1,8,3:2:0:0:
286,285,77526,1,6,3:2:0:0:
475,350,78021,5,10,3:2:0:0:
286,285,78186,1,10,3:2:0:0:
198,105,78351,1,10,3:2:0:0:
198,105,78680,5,10,3:2:0:0:
286,285,78845,1,10,3:2:0:0:
475,350,79010,1,10,3:2:0:0:
198,105,79175,1,10,3:2:0:0:
198,105,79504,5,2,3:2:0:0:
51,94,80164,6,0,L|24:252,1,160,4|2,3:2|1:2,0:0:0:0:
162,278,80658,1,2,3:2:0:0:
162,278,80741,1,0,3:0:0:0:
162,278,80823,2,0,L|256:294,1,80,8|2,3:2|3:2,0:0:0:0:
482,334,81318,2,0,L|324:306,1,160,6|2,3:2|3:2,0:0:0:0:
439,67,81977,5,0,3:0:0:0:
439,67,82059,1,0,3:0:0:0:
439,67,82142,2,0,B|418:185|418:185|299:164,2,239.999992675781,10|10|0,3:2|3:2|3:0,0:0:0:0:
482,334,83296,5,2,3:2:0:0:
482,334,83378,1,0,3:0:0:0:
482,334,83460,2,0,L|388:318,2,80,10|2|2,3:2|3:2|1:2,0:0:0:0:
241,291,83955,1,14,3:2:0:0:
51,94,84285,5,2,3:2:0:0:
51,94,84367,1,0,3:0:0:0:
51,94,84449,2,0,B|31:213|31:213|150:234,2,239.999992675781,10|10|2,3:2|3:2|3:2,0:0:0:0:
439,67,85438,6,0,L|411:224,1,160,4|2,3:2|1:2,0:0:0:0:
482,334,85933,1,2,3:2:0:0:
482,334,86015,1,0,3:0:0:0:
482,334,86098,2,0,L|388:318,2,80,8|2|2,3:2|3:2|1:2,0:0:0:0:
411,224,86592,2,0,L|439:67,1,160,4|2,3:2|3:2,0:0:0:0:
148,233,87252,5,0,3:0:0:0:
148,233,87334,1,0,3:0:0:0:
148,233,87417,2,0,B|31:213|31:213|51:94,2,239.999992675781,10|10|2,3:2|3:2|1:2,0:0:0:0:
482,334,88570,5,0,3:0:0:0:
482,334,88653,1,0,3:0:0:0:
482,334,88735,2,0,L|388:318,1,80,8|0,3:2|3:0,0:0:0:0:
162,278,89230,2,0,L|256:294,1,80,0|8,3:0|3:2,0:0:0:0:
162,278,90054,5,4,3:2:0:0:
482,334,90429,1,4,3:2:0:0:
162,278,90804,6,0,B|202:295|212:249|212:249|235:122|235:122|242:88|287:96,1,259.999988098145,6|10,3:2|3:2,0:0:0:0:
440,110,91366,2,0,P|457:130|435:120,1,64.9999970245363,2|8,1:2|0:2,0:0:0:0:
282,95,91554,1,2,3:2:0:0:
275,90,91647,1,8,0:2:0:0:
267,85,91741,2,0,P|246:70|272:65,1,64.9999970245363,2|0,1:2|0:0,0:0:0:0:
339,184,91929,2,0,L|348:135,1,50,8|2,3:2|1:2,0:0:0:0:
365,38,92210,1,10,1:2:0:0:
373,47,92304,6,0,P|434:33|493:58,2,129.999994049073,2|2|10,3:2|1:2|3:2,0:0:0:0:
503,72,92866,2,0,P|501:105|482:130,1,64.9999970245363,2|8,1:2|0:2,0:0:0:0:
512,217,93054,2,0,P|483:231|451:227,1,64.9999970245363,2|8,3:2|0:2,0:0:0:0:
381,289,93241,1,2,1:2:0:0:
381,304,93335,1,2,1:2:0:0:
367,297,93429,2,0,P|312:273|248:292,1,129.999994049073,8|2,3:2|1:2,0:0:0:0:
139,344,93710,1,10,0:2:0:0:
149,337,93804,6,0,B|158:388|236:348|236:348|203:313|218:248|155:236|113:265,1,259.999988098145,2|10,3:2|3:2,0:0:0:0:
247,292,94366,1,2,1:2:0:0:
254,289,94460,1,8,1:2:0:0:
261,288,94554,2,0,L|287:140,1,150,2|2,3:2|1:2,0:0:0:0:
291,128,94929,1,8,3:2:0:0:
187,218,95116,2,0,P|228:204|253:210,1,64.9999970245363,2|8,1:2|0:2,0:0:0:0:
323,224,95304,1,0,3:0:0:0:
452,314,95491,5,0,1:0:0:0:
467,314,95585,1,0,1:0:0:0:
460,302,95679,2,0,P|446:268|452:231,1,75.0000028610231,10|2,3:2|1:2,0:0:0:0:
374,139,95866,1,2,1:2:0:0:
361,136,95960,2,0,P|327:122|290:128,1,75.0000028610231,2|0,1:2|3:0,0:0:0:0:
468,137,96147,1,8,0:2:0:0:
476,128,96241,2,0,P|499:121|475:126,1,75.0000028610231,2|0,1:2|0:0,0:0:0:0:
375,220,96429,6,0,B|324:263|324:263|273:308|330:367|400:337|363:300,1,225.000008583069,10|0,3:2|0:0,0:0:0:0:
480,352,96804,6,0,P|359:318|214:354,1,259.999988098145,6|10,3:2|3:2,0:0:0:0:
156,282,97366,2,0,B|168:278|174:257|174:257|154:256|148:273,1,64.9999970245363,2|8,1:2|0:2,0:0:0:0:
27,297,97554,1,2,3:2:0:0:
22,288,97647,1,8,0:2:0:0:
20,280,97741,2,0,B|2:274|3:254|3:254|24:260|28:274,1,64.9999970245363,0|2,1:2|1:2,0:0:0:0:
79,164,97929,2,0,L|87:214,1,50,8|2,3:2|1:2,0:0:0:0:
6,150,98210,1,10,1:2:0:0:
10,136,98304,6,0,B|53:186|117:192|196:130|122:35|83:52|72:88,1,259.999988098145,2|10,3:2|3:2,0:0:0:0:
160,159,98866,1,2,1:2:0:0:
166,161,98960,1,8,1:2:0:0:
173,163,99054,2,0,B|211:162|246:184|246:184|216:159|213:108,1,150,2|2,3:2|1:2,0:0:0:0:
293,120,99429,2,0,P|355:123|398:77,1,129.999994049073,8|0,3:2|1:0,0:0:0:0:
398,76,99710,1,8,1:2:0:0:
398,76,99804,1,0,3:0:0:0:
240,46,99991,6,0,P|266:42|247:56,1,64.9999970245363,2|0,1:2|0:0,0:0:0:0:
214,119,100179,2,0,P|193:189|221:257,1,150.000005722046,10|0,3:2|1:0,0:0:0:0:
284,196,100460,1,8,1:2:0:0:
287,182,100554,6,0,P|311:174|288:162,1,64.9999970245363,2|8,3:2|1:2,0:0:0:0:
214,119,100741,2,0,P|154:99|94:119,1,129.999994049073,2|8,1:2|3:2,0:0:0:0:
240,46,101116,6,0,P|266:42|247:56,1,64.9999970245363,2|8,1:2|1:2,0:0:0:0:
328,95,101304,2,0,P|388:75|448:95,1,129.999994049073,0|2,3:0|3:2,0:0:0:0:
511,221,101679,6,0,P|498:268|458:295,1,100,10|0,3:2|3:0,0:0:0:0:
366,179,101866,2,0,P|331:144|328:96,1,100,2|0,1:2|1:0,0:0:0:0:
106,21,102054,5,10,3:2:0:0:
32,61,102147,1,8,3:2:0:0:
75,132,102241,1,10,3:2:0:0:
146,91,102335,1,8,3:2:0:0:
90,76,102429,5,10,3:2:0:0:
28,107,102522,1,8,3:2:0:0:
26,176,102616,1,10,3:2:0:0:
71,225,102710,1,8,3:2:0:0:
138,228,102804,1,6,3:2:0:0:
289,354,102991,6,0,P|289:318|313:290,1,75.0000028610231,2|0,1:2|0:0,0:0:0:0:
508,252,103179,2,0,P|437:272|373:236,1,150.000005722046,10|0,3:2|1:0,0:0:0:0:
231,32,103554,6,0,P|267:32|295:56,1,75.0000028610231,2|8,3:2|0:2,0:0:0:0:
374,237,103741,2,0,P|338:172|358:102,1,150.000005722046,2|8,1:2|3:2,0:0:0:0:
512,18,104116,6,0,P|476:18|448:42,1,75.0000028610231,2|8,1:2|0:2,0:0:0:0:
358,103,104304,2,0,P|287:78|225:37,1,150.000005722046,0|2,3:0|1:2,0:0:0:0:
78,175,104679,2,0,P|36:237|12:307,1,150.000005722046,10|2,3:2|1:2,0:0:0:0:
240,335,104960,101,8,0:2:0:0:
223,338,105054,2,0,P|185:333|152:318,1,75.0000028610231,2|8,3:2|0:2,0:0:0:0:
78,175,105241,2,0,P|76:140|92:104,1,75.0000028610231,2|0,1:2|0:0,0:0:0:0:
129,17,105429,1,8,3:2:0:0:
293,63,105616,6,0,P|261:44|225:37,1,75.0000028610231,2|8,1:2|0:2,0:0:0:0:
312,171,105804,2,0,P|325:98|374:42,1,150.000005722046,0|2,3:0|1:2,0:0:0:0:
465,40,106179,1,10,3:2:0:0:
312,171,106366,6,0,P|319:207|338:239,1,75.0000028610231,2|8,1:2|0:2,0:0:0:0:
441,260,106554,2,0,P|434:297|415:329,1,75.0000028610231,0|8,3:0|0:2,0:0:0:0:
197,230,106741,2,0,P|269:214|339:240,1,150.000005722046,2|8,1:2|3:2,0:0:0:0:
512,214,107116,6,0,P|503:177|481:146,1,75.0000028610231,2|8,1:2|0:2,0:0:0:0:
512,20,107304,2,0,P|456:69|383:82,1,150.000005722046,0|2,3:0|1:2,0:0:0:0:
224,0,107679,101,10,3:2:0:0:
166,148,107866,1,2,1:2:0:0:
171,159,107960,1,8,0:2:0:0:
176,170,108054,2,0,P|216:160|250:158,1,75.0000028610231,2|8,3:2|0:2,0:0:0:0:
347,234,108241,2,0,P|357:274|359:308,1,75.0000028610231,2|0,3:2|0:0,0:0:0:0:
194,349,108429,5,10,3:2:0:0:
76,304,108616,1,2,3:2:0:0:
0,124,108804,5,6,3:2:0:0:
123,29,108991,2,0,P|147:56|147:93,1,75.0000028610231,2|0,1:2|0:0,0:0:0:0:
136,17,109179,2,0,P|204:43|271:12,1,150.000005722046,10|0,3:2|1:0,0:0:0:0:
394,101,109554,2,0,P|417:111|396:97,1,75.0000028610231,2|8,3:2|0:2,0:0:0:0:
472,34,109741,2,0,P|491:66|498:102,1,75.0000028610231,2|0,1:2|0:0,0:0:0:0:
464,227,109929,5,8,3:2:0:0:
342,315,110116,2,0,P|321:283|314:247,1,75.0000028610231,2|8,1:2|0:2,0:0:0:0:
182,203,110304,2,0,P|255:203|314:247,1,150.000005722046,0|2,3:0|1:2,0:0:0:0:
125,353,110679,6,0,P|124:279|81:219,1,150.000005722046,10|2,3:2|1:2,0:0:0:0:
0,73,110960,1,8,0:2:0:0:
4,58,111054,2,0,P|41:60|76:73,1,75.0000028610231,2|8,3:2|0:2,0:0:0:0:
247,20,111241,2,0,P|226:51|198:74,1,75.0000028610231,2|0,1:2|0:0,0:0:0:0:
136,149,111429,1,0,3:0:0:0:
0,211,111616,6,0,P|6:248|29:276,1,75.0000028610231,2|8,1:2|0:2,0:0:0:0:
125,353,111804,2,0,P|190:319|264:325,1,150.000005722046,0|2,3:0|1:2,0:0:0:0:
354,362,112179,1,10,3:2:0:0:
478,268,112366,6,0,P|486:231|477:195,1,75.0000028610231,2|8,1:2|0:2,0:0:0:0:
331,286,112554,2,0,P|368:285|402:299,1,75.0000028610231,2|8,3:2|0:2,0:0:0:0:
459,77,112741,2,0,P|402:126|378:196,1,150.000005722046,2|8,1:2|3:2,0:0:0:0:
264,325,113116,6,0,P|248:291|221:265,1,75.0000028610231,2|8,1:2|0:2,0:0:0:0:
96,162,113304,2,0,P|169:168|236:135,1,150.000005722046,0|2,3:0|1:2,0:0:0:0:
459,77,113679,1,14,3:2:0:0:
264,325,113866,1,2,1:2:0:0:
332,79,114054,6,0,P|406:129|478:184,2,179.999994506836,2|2|10,3:2|3:2|3:2,0:0:0:0:
400,175,114616,1,2,1:2:0:0:
450,312,114804,85,10,3:2:0:0:
494,325,114897,1,10,3:2:0:0:
457,337,114991,85,10,3:2:0:0:
479,343,115085,1,10,3:2:0:0:
466,352,115179,6,0,P|350:318|248:329,1,200,2|2,3:2|3:2,0:0:0:0:
133,312,115741,5,10,3:2:0:0:
192,362,115835,2,0,P|158:347|126:326,1,75.0000028610231,10|0,3:2|3:0,0:0:0:0:
260,217,116116,5,10,3:2:0:0:
201,267,116210,2,0,P|235:252|267:231,1,75.0000028610231,10|0,3:2|3:0,0:0:0:0:
184,167,116491,5,2,1:2:0:0:
25,127,116679,5,10,3:2:0:0:
52,153,116772,1,2,0:2:0:0:
79,127,116866,1,2,3:2:0:0:
52,100,116960,1,2,0:2:0:0:
114,54,117054,5,2,3:2:0:0:
127,41,117147,1,2,0:2:0:0:
140,54,117241,1,2,3:2:0:0:
127,68,117335,1,2,3:2:0:0:
157,141,117429,6,0,P|215:127|273:139,1,119.999996337891,14|2,3:2|1:2,0:0:0:0:
354,20,117804,85,10,3:2:0:0:
398,33,117897,1,10,3:2:0:0:
361,45,117991,85,10,3:2:0:0:
383,51,118085,1,10,3:2:0:0:
369,59,118179,6,0,P|315:141|332:241,1,200,2|2,3:2|3:2,0:0:0:0:
429,356,118741,5,10,3:2:0:0:
370,306,118835,2,0,P|404:321|436:342,1,75.0000028610231,10|0,3:2|3:0,0:0:0:0:
201,322,119116,5,10,3:2:0:0:
260,272,119210,2,0,P|226:287|194:308,1,75.0000028610231,10|0,3:2|3:0,0:0:0:0:
329,237,119491,5,2,1:2:0:0:
204,148,119679,1,10,3:2:0:0:
167,124,119772,1,8,3:2:0:0:
130,101,119866,1,10,3:2:0:0:
92,77,119960,1,8,3:2:0:0:
22,65,120054,6,0,P|12:34|44:26,1,75.0000028610231,2|0,3:2|0:0,0:0:0:0:
229,19,120429,6,0,P|196:126|181:237,1,225.000008583069,14|0,3:2|0:0,0:0:0:0:
113,269,120804,2,0,L|99:283,4,12.5,0|0|0|0|0,1:0|1:0|1:0|1:0|1:0,0:0:0:0:
242,274,121051,2,0,L|258:290,4,12.5,0|0|0|0|0,1:0|1:0|1:0|1:0|1:0,0:0:0:0:
174,337,121298,2,0,L|174:354,5,12.5,0|0|0|0|0|0,1:0|1:0|1:0|1:0|1:0|1:0,0:0:0:0:
178,221,121628,6,0,L|178:169,1,50,2|0,3:2|3:0,0:0:0:0:
174,35,121793,1,10,3:2:0:0:
0,98,122116,6,0,B|31:56|80:83|143:124|100:244|58:173,1,225.000008583069,6|0,3:2|0:0,0:0:0:0:
113,80,122445,6,0,B|267:154|311:83|291:14|225:24,1,269.999991760254,2|0,3:2|0:0,0:0:0:0:
213,144,122775,2,0,P|222:180|242:210,1,75.0000028610231,2|0,3:2|0:0,0:0:0:0:
456,270,122940,2,0,B|481:238|519:238|519:238|515:231|515:231|479:228|449:265,1,150,10|0,3:2|0:0,0:0:0:0:
436,351,123269,6,0,B|465:290|419:257|414:255|412:253|362:240|385:175,1,200,10|0,3:2|3:0,0:0:0:0:
469,43,123517,1,0,1:0:0:0:
482,40,123599,2,0,B|458:44|429:32|429:32|462:69|463:101|442:141,2,150.000005722046,10|2|10,3:2|3:2|3:2,0:0:0:0:
373,89,124011,1,0,1:0:0:0:
357,93,124094,2,0,P|321:102|297:131,1,75.0000028610231,2|0,3:2|0:0,0:0:0:0:
96,131,124258,2,0,P|132:140|155:169,1,75.0000028610231,10|0,3:2|0:0,0:0:0:0:
23,316,124423,6,0,P|53:316|79:298,1,50,2|0,3:2|0:0,0:0:0:0:
125,364,124588,2,0,P|146:343|151:311,1,50,10|0,3:2|0:0,0:0:0:0:
131,247,124753,1,2,3:2:0:0:
131,247,124918,1,0,3:0:0:0:
375,300,125083,6,0,B|369:320|369:320|350:383|296:371|272:342|284:298|284:298|316:178,1,300,14|0,3:2|0:0,0:0:0:0:
393,216,125412,1,2,3:2:0:0:
393,216,125577,1,2,3:2:0:0:
151,323,125742,6,0,P|281:327|493:369,1,300,14|0,3:2|0:0,0:0:0:0:
512,292,126072,2,0,B|540:290|550:225|539:194|444:208|474:240,1,150.000005722046,0|10,3:0|3:2,0:0:0:0:
445,142,126319,1,0,1:0:0:0:
451,127,126401,2,0,P|426:99|393:80,1,75.0000028610231,2|0,3:2|0:0,0:0:0:0:
262,29,126566,5,10,3:2:0:0:
245,34,126648,1,0,1:0:0:0:
231,40,126731,2,0,P|210:70|200:107,1,75.0000028610231,0|0,3:0|0:0,0:0:0:0:
376,217,126896,5,8,3:2:0:0:
375,200,126978,1,8,1:2:0:0:
373,185,127061,2,0,P|349:157|316:138,2,75.0000028610231,0|0|10,3:0|1:0|3:2,0:0:0:0:
353,319,127390,6,0,B|332:356|279:384|237:310|273:293,1,150.000005722046,2|10,3:2|3:2,0:0:0:0:
82,259,127637,1,2,1:2:0:0:
88,244,127720,2,0,P|126:232|168:227,1,75.0000028610231,2|0,3:2|0:0,0:0:0:0:
269,89,127885,1,10,3:2:0:0:
254,87,127967,1,10,1:2:0:0:
239,82,128050,2,0,P|209:55|184:21,1,75.0000028610231,2|0,3:2|0:0,0:0:0:0:
52,173,128214,2,0,P|90:161|132:156,1,75.0000028610231,10|0,3:2|0:0,0:0:0:0:
103,335,128379,6,0,P|138:324|175:319,1,75.0000028610231,2|0,3:2|0:0,0:0:0:0:
274,258,128544,2,0,P|311:262|347:273,1,75.0000028610231,10|0,3:2|0:0,0:0:0:0:
512,349,128709,6,0,B|517:266|456:267|452:266|447:264|384:241|399:162,1,225.000008583069,2|0,3:2|0:0,0:0:0:0:
500,106,129039,2,0,P|477:110|503:112,1,75.0000028610231,2|0,3:2|0:0,0:0:0:0:
269,22,129203,1,10,3:2:0:0:
284,30,129286,1,8,1:2:0:0:
296,39,129368,2,0,P|316:71|323:106,1,75.0000028610231,0|0,3:0|0:0,0:0:0:0:
202,320,129533,6,0,P|235:300|270:293,1,75.0000028610231,10|0,3:2|0:0,0:0:0:0:
449,330,129698,2,0,P|429:298|421:261,1,75.0000028610231,2|0,3:2|0:0,0:0:0:0:
467,28,129863,2,0,P|431:36|399:56,1,75.0000028610231,10|0,3:2|0:0,0:0:0:0:
47,71,130028,6,0,B|91:124|128:87|131:85|135:83|187:59|224:115,1,200,14|0,3:2|3:0,0:0:0:0:
430,176,130275,5,0,1:0:0:0:
461,107,130357,2,0,B|431:169|385:143|382:142|378:141|321:131|300:195,1,200,14|0,3:2|3:0,0:0:0:0:
424,338,130605,5,0,1:0:0:0:
505,349,130687,2,0,B|492:280|441:294|438:294|433:294|376:288|372:221,1,200,14|0,3:2|3:0,0:0:0:0:
201,30,131017,6,0,B|233:-5|285:43|282:122|190:118|185:116|179:113|112:74|115:203|119:227|251:229|217:133,1,375,14|0,3:2|0:0,0:0:0:0:
62,99,131346,6,0,P|88:125|106:158,1,75.0000028610231,2|0,3:2|0:0,0:0:0:0:
203,336,131511,5,10,3:2:0:0:
269,320,131594,1,8,3:2:0:0:
289,256,131676,1,2,3:2:0:0:
175,79,131841,6,0,P|201:105|219:138,1,75.0000028610231,2|0,3:2|0:0,0:0:0:0:
289,256,132006,1,0,3:0:0:0:
425,51,132170,5,8,3:2:0:0:
349,67,132253,1,8,3:2:0:0:
293,119,132335,1,10,3:2:0:0:
219,138,132418,1,8,3:2:0:0:
162,190,132500,1,10,3:2:0:0:
88,209,132583,1,8,3:2:0:0:
25,259,132665,6,0,P|55:297|104:296,1,100,6|0,3:2|0:0,0:0:0:0:
228,360,132830,1,10,3:2:0:0:
223,169,132995,6,0,P|246:126|293:119,1,100,2|0,3:2|3:0,0:0:0:0:
350,264,133159,2,0,P|301:265|271:227,1,100,10|8,3:2|3:2,0:0:0:0:
49,31,133324,6,0,B|113:17|173:55|212:151|80:167|87:108,2,250,2|10|2,3:2|3:2|3:2,0:0:0:0:
54,300,133819,2,0,B|110:184|188:90,2,250,10|0|8,3:2|3:0|3:2,0:0:0:0:
272,304,134313,6,0,P|238:268|191:273,1,100,2|0,3:2|3:0,0:0:0:0:
381,309,134478,2,0,P|361:353|314:363,1,100,10|0,3:2|1:0,0:0:0:0:
115,357,134643,2,0,B|142:281|211:182,1,200,2|8,3:2|3:2,0:0:0:0:
393,31,134973,6,0,P|365:45|375:157,1,100,2|0,3:2|0:0,0:0:0:0:
448,169,135137,1,8,3:2:0:0:
437,335,135302,5,2,3:2:0:0:
381,309,135385,1,2,1:2:0:0:
408,255,135467,1,10,3:2:0:0:
461,280,135550,1,2,1:2:0:0:
419,294,135632,5,2,3:2:0:0:
372,242,135714,1,2,3:2:0:0:
302,227,135797,1,10,3:2:0:0:
255,175,135879,1,2,3:2:0:0:
190,146,135962,5,2,3:2:0:0:
166,125,136044,1,2,1:2:0:0:
186,102,136126,1,10,3:2:0:0:
209,122,136209,1,2,1:2:0:0:
191,220,136291,6,0,B|199:249|177:303|110:333|70:268|77:236|114:230,1,200,2|10,3:2|3:2,0:0:0:0:
17,44,136621,2,0,P|114:121|191:219,2,250,2|10|2,3:2|3:2|3:2,0:0:0:0:
160,29,137033,2,0,P|201:33|255:56,1,100,0|8,3:0|3:2,0:0:0:0:
428,233,137280,6,0,B|433:162|380:162|376:161|372:160|318:140|330:72,1,200,2|10,3:2|3:2,0:0:0:0:
416,7,137528,1,8,1:2:0:0:
489,11,137610,2,0,B|500:73|446:93|442:95|438:96|385:95|391:166,1,200,2|10,3:2|3:2,0:0:0:0:
464,308,137857,5,8,1:2:0:0:
410,365,137940,2,0,B|346:379|286:341|247:245|379:229|372:288,2,250,6|8|2,3:2|3:2|3:2,0:0:0:0:
288,331,138352,2,0,P|241:314|209:276,1,100,2|10,3:2|3:2,0:0:0:0:
35,189,138599,5,2,3:2:0:0:
1,125,138681,1,2,1:2:0:0:
65,92,138764,1,10,3:2:0:0:
221,163,138929,6,0,B|246:177|303:170|350:113|298:58|265:56|250:90,1,200,2|10,3:2|3:2,0:0:0:0:
461,12,139258,5,2,3:2:0:0:
490,61,139341,1,2,1:2:0:0:
441,90,139423,1,10,3:2:0:0:
470,139,139506,1,2,1:2:0:0:
421,168,139588,5,2,3:2:0:0:
440,200,139670,1,2,3:2:0:0:
459,232,139753,1,10,3:2:0:0:
478,264,139835,1,2,1:2:0:0:
497,296,139918,1,2,3:2:0:0:
328,165,140083,6,0,P|273:193|264:236,1,100,8|0,3:2|0:0,0:0:0:0:
181,326,140247,1,0,3:0:0:0:
28,315,140412,2,0,P|43:267|65:222,1,100,8|0,3:2|0:0,0:0:0:0:
26,21,140577,5,10,3:2:0:0:
82,39,140659,1,2,3:2:0:0:
138,57,140742,1,2,3:2:0:0:
194,75,140824,1,2,3:2:0:0:
250,93,140907,5,10,3:2:0:0:
242,113,140989,1,2,3:2:0:0:
234,133,141072,1,2,3:2:0:0:
226,153,141154,1,2,3:2:0:0:
218,173,141236,5,10,3:2:0:0:
282,193,141319,1,2,1:2:0:0:
346,214,141401,1,2,3:2:0:0:
411,235,141484,1,2,1:2:0:0:
474,255,141566,6,0,P|468:291|451:324,1,75.0000028610231,10|0,3:2|0:0,0:0:0:0:
313,365,141731,2,0,P|295:331|289:295,1,75.0000028610231,0|0,3:0|0:0,0:0:0:0:
218,173,141896,5,6,3:2:0:0:
273,25,142061,1,8,3:2:0:0:
329,43,142143,1,8,3:2:0:0:
341,100,142225,2,0,P|335:136|318:169,1,75.0000028610231,0|0,3:0|0:0,0:0:0:0:
51,325,142390,5,10,3:2:0:0:
72,256,142473,1,8,3:2:0:0:
142,240,142555,2,0,P|178:246|211:263,1,75.0000028610231,6|0,3:2|0:0,0:0:0:0:
472,332,142720,101,8,3:2:0:0:
428,267,142802,1,8,3:2:0:0:
359,232,142885,1,8,3:2:0:0:
317,169,142967,1,8,3:2:0:0:
248,134,143050,1,8,3:2:0:0:
207,70,143132,1,8,3:2:0:0:
138,35,143214,1,4,3:2:0:0:
138,35,143709,5,2,3:2:0:0:
136,68,143791,1,0,3:0:0:0:
134,101,143874,1,10,3:2:0:0:
117,213,144039,2,0,B|92:204|76:167|76:167|101:191|138:189,2,129.999994049073,2|0|2,3:2|1:0|3:2,0:0:0:0:
189,255,144533,1,2,1:2:0:0:
255,355,144698,5,2,3:2:0:0:
257,322,144780,1,0,3:0:0:0:
259,289,144863,5,2,3:2:0:0:
189,255,145028,1,2,3:2:0:0:
134,101,145192,5,10,3:2:0:0:
64,135,145357,1,0,3:0:0:0:
156,326,145522,1,2,3:2:0:0:
204,67,145852,5,0,3:0:0:0:
374,349,146346,5,2,3:2:0:0:
376,316,146429,1,0,3:0:0:0:
378,283,146511,1,8,3:2:0:0:
363,196,146676,2,0,B|388:139|388:139|408:203,1,129.999994049073,2|2,3:2|1:2,0:0:0:0:
374,349,147006,1,14,3:2:0:0:
255,29,147335,5,0,3:0:0:0:
257,62,147418,1,0,3:0:0:0:
259,95,147500,5,10,3:2:0:0:
189,129,147665,1,2,3:2:0:0:
363,196,147830,5,10,3:2:0:0:
433,230,147995,1,0,3:0:0:0:
182,206,148159,1,2,3:2:0:0:
478,325,148489,21,4,3:2:0:0:
433,230,148654,2,0,L|421:165,1,64.9999970245363,2|0,1:2|0:0,0:0:0:0:
334,217,148819,2,0,L|322:152,1,64.9999970245363,10|0,3:2|0:0,0:0:0:0:
381,97,148984,1,2,1:2:0:0:
281,301,149148,21,2,3:2:0:0:
235,204,149313,2,0,L|223:139,1,64.9999970245363,2|0,3:2|0:0,0:0:0:0:
136,191,149478,2,0,L|124:126,1,64.9999970245363,2|0,3:2|0:0,0:0:0:0:
181,284,149643,1,2,3:2:0:0:
181,284,149725,1,0,3:0:0:0:
181,284,149808,1,0,3:0:0:0:
30,61,150137,6,0,L|95:49,1,64.9999970245363,10|0,3:2|0:0,0:0:0:0:
270,79,150302,2,0,L|335:67,1,64.9999970245363,10|0,3:2|0:0,0:0:0:0:
494,34,150467,2,0,P|456:85|467:147,2,129.999994049073,2|8|2,3:2|3:2|3:2,0:0:0:0:
375,148,150962,1,8,3:2:0:0:
331,329,151126,1,0,3:0:0:0:
33,339,151456,6,0,L|98:327,1,64.9999970245363,10|0,3:2|0:0,0:0:0:0:
186,310,151621,1,2,1:2:0:0:
74,217,151786,5,2,3:2:0:0:
74,217,151868,1,0,1:0:0:0:
74,217,151951,2,0,L|139:205,1,64.9999970245363,2|0,3:2|0:0,0:0:0:0:
186,310,152116,2,0,L|251:298,1,64.9999970245363,2|0,3:2|0:0,0:0:0:0:
353,275,152280,1,2,3:2:0:0:
353,275,152363,1,0,3:0:0:0:
353,275,152445,1,6,3:2:0:0:
256,32,152775,6,0,L|329:45,1,75.0000028610231,10|0,3:2|0:0,0:0:0:0:
256,192,152940,2,0,L|182:205,1,75.0000028610231,10|0,3:2|0:0,0:0:0:0:
25,320,153105,5,2,3:2:0:0:
35,276,153187,1,0,1:0:0:0:
45,232,153269,1,0,1:0:0:0:
55,188,153352,1,0,1:0:0:0:
65,144,153434,6,0,L|139:131,1,75.0000028610231,2|0,3:2|0:0,0:0:0:0:
373,131,153599,2,0,L|447:144,1,75.0000028610231,8|0,3:2|0:0,0:0:0:0:
256,352,153764,1,2,3:2:0:0:
256,32,153929,5,8,3:2:0:0:
196,78,154011,1,8,3:2:0:0:
222,148,154094,1,8,3:2:0:0:
297,146,154176,1,8,3:2:0:0:
318,73,154258,1,8,3:2:0:0:
256,352,154423,5,8,3:2:0:0:
208,315,154506,1,8,3:2:0:0:
229,260,154588,1,8,3:2:0:0:
288,261,154670,1,8,3:2:0:0:
304,319,154753,1,8,3:2:0:0:
256,32,154918,5,8,3:2:0:0:
215,63,155000,1,8,3:2:0:0:
232,110,155083,1,8,3:2:0:0:
288,112,155165,1,8,3:2:0:0:
296,60,155247,1,8,3:2:0:0:
256,352,155412,5,8,3:2:0:0:
219,324,155495,1,8,3:2:0:0:
234,282,155577,1,8,3:2:0:0:
280,283,155659,1,8,3:2:0:0:
291,326,155742,1,8,3:2:0:0:
256,352,155824,1,8,3:2:0:0:
256,320,155907,5,8,3:2:0:0:
272,288,155989,1,8,3:2:0:0:
240,256,156072,1,8,3:2:0:0:
272,224,156154,1,8,3:2:0:0:
240,192,156236,1,8,3:2:0:0:
272,160,156319,1,8,3:2:0:0:
240,128,156401,5,0,1:0:0:0:
256,32,157720,5,6,3:2:0:0:
256,352,158379,1,6,3:2:0:0:
256,96,159039,1,6,3:2:0:0:
256,288,159698,1,2,1:2:0:0:
256,192,160357,5,10,3:2:0:0:
256,192,160440,1,0,1:0:0:0:
256,192,160522,1,0,3:0:0:0:
320,128,160687,1,2,3:2:0:0:
416,128,160852,1,0,3:0:0:0:
496,16,161017,1,10,3:2:0:0:
496,16,161099,1,8,3:2:0:0:
496,16,161181,1,2,3:2:0:0:
496,16,161511,6,0,P|425:77|366:181,1,200,6|2,3:2|3:2,0:0:0:0:
285,325,162006,2,0,P|277:288|247:257,1,75.0000028610231,10|0,0:2|3:0,0:0:0:0:
121,102,162170,2,0,P|157:109|195:111,1,75.0000028610231,10|0,3:2|0:0,0:0:0:0:
371,168,162335,1,0,3:0:0:0:
402,180,162418,1,8,1:2:0:0:
433,192,162500,1,0,3:0:0:0:
454,352,162665,6,0,P|434:321|433:278,1,75.0000028610231,8|0,3:2|0:0,0:0:0:0:
428,30,162830,1,8,3:2:0:0:
397,42,162912,1,8,3:2:0:0:
366,54,162995,6,0,B|324:63|283:107|344:167|370:136,1,150.000005722046,2|10,3:2|3:2,0:0:0:0:
349,263,163242,1,0,1:0:0:0:
343,278,163324,2,0,P|305:290|263:295,1,75.0000028610231,2|0,3:2|0:0,0:0:0:0:
121,347,163489,1,10,3:2:0:0:
106,342,163572,1,8,1:2:0:0:
93,335,163654,2,0,P|85:298|84:261,1,75.0000028610231,2|0,3:2|0:0,0:0:0:0:
33,91,163819,2,0,P|71:79|113:74,1,75.0000028610231,10|0,3:2|0:0,0:0:0:0:
266,22,163984,6,0,P|277:57|282:94,1,75.0000028610231,2|0,3:2|0:0,0:0:0:0:
166,223,164148,2,0,P|201:211|238:206,1,75.0000028610231,10|0,3:2|0:0,0:0:0:0:
390,78,164313,6,0,P|413:186|415:298,1,225.000008583069,2|0,3:2|0:0,0:0:0:0:
335,343,164643,2,0,P|312:347|338:348,1,75.0000028610231,2|0,3:2|0:0,0:0:0:0:
505,216,164808,5,10,3:2:0:0:
497,201,164890,1,8,1:2:0:0:
488,189,164973,2,0,P|456:169|421:162,1,75.0000028610231,0|0,3:0|0:0,0:0:0:0:
266,22,165137,6,0,P|277:57|282:94,1,75.0000028610231,10|0,3:2|0:0,0:0:0:0:
382,231,165302,2,0,P|351:250|316:265,1,75.0000028610231,2|0,3:2|0:0,0:0:0:0:
143,349,165467,2,0,P|150:313|165:278,1,75.0000028610231,10|0,3:2|0:0,0:0:0:0:
342,360,165632,6,0,B|380:343|368:308|344:288|344:288|259:217,1,200,14|0,3:2|3:0,0:0:0:0:
101,104,165879,5,0,1:0:0:0:
34,148,165962,2,0,B|29:189|66:196|95:185|95:185|198:148,1,200,14|0,3:2|3:0,0:0:0:0:
366,47,166209,5,0,1:0:0:0:
434,81,166291,2,0,B|405:51|376:74|365:103|365:103|328:207,1,200,14|0,3:2|3:0,0:0:0:0:
121,342,166621,6,0,B|75:341|59:288|68:241|191:205|171:280|170:286|169:291|184:350|263:354|315:337|345:287,1,375,14|0,3:2|0:0,0:0:0:0:
504,339,166951,6,0,P|471:319|435:311,1,75.0000028610231,2|0,3:2|0:0,0:0:0:0:
256,200,167116,5,10,3:2:0:0:
188,202,167198,1,8,3:2:0:0:
157,263,167280,1,0,3:0:0:0:
22,130,167445,5,8,3:2:0:0:
24,62,167528,1,8,3:2:0:0:
84,31,167610,1,0,3:0:0:0:
294,115,167775,5,10,3:2:0:0:
341,173,167857,1,8,3:2:0:0:
337,247,167940,1,10,3:2:0:0:
360,319,168022,1,8,3:2:0:0:
429,347,168105,1,10,3:2:0:0:
500,323,168187,1,8,3:2:0:0:
508,248,168269,6,0,B|449:199|374:183|357:263|295:260,1,225.000008583069,6|0,3:2|0:0,0:0:0:0:
176,134,168599,6,0,B|216:199|267:206|342:216|386:97|240:90,1,269.999991760254,2|0,3:2|0:0,0:0:0:0:
167,49,168929,2,0,P|130:58|102:92,1,75.0000028610231,2|0,3:2|0:0,0:0:0:0:
79,293,169094,2,0,B|60:262|26:286|-37:247|32:200|95:234|89:267,1,150,2|0,1:2|0:0,0:0:0:0:
13,370,169423,6,0,P|82:313|206:265,1,200,2|0,1:2|3:0,0:0:0:0:
351,351,169670,1,0,1:0:0:0:
361,336,169753,2,0,B|356:268|277:261|233:297|270:320,2,150.000005722046,2|10|2,1:2|3:2|1:2,0:0:0:0:
424,226,170165,1,8,1:2:0:0:
426,211,170247,2,0,P|446:178|475:156,1,75.0000028610231,2|8,3:2|1:2,0:0:0:0:
398,27,170412,2,0,P|361:17|325:23,1,75.0000028610231,2|0,1:2|0:0,0:0:0:0:
112,47,170577,6,0,P|118:71|131:92,1,50,2|0,3:2|0:0,0:0:0:0:
196,37,170742,2,0,P|217:50|241:56,1,50,2|0,1:2|0:0,0:0:0:0:
214,152,170907,1,2,3:2:0:0:
214,152,171072,1,0,3:0:0:0:
8,45,171236,6,0,B|-7:20|41:-8|88:13|123:60|84:109|79:112|77:115|26:144|63:208|118:221,1,300,14|0,3:2|0:0,0:0:0:0:
218,156,171566,1,2,3:2:0:0:
218,156,171731,1,2,3:2:0:0:
22,305,171896,6,0,B|92:219|143:212|218:202|262:321|175:353,1,300,12|0,3:2|0:0,0:0:0:0:
355,335,172225,2,0,B|385:366|289:381|279:349|289:284|345:264,1,150.000005722046,0|2,3:0|1:2,0:0:0:0:
460,280,172473,1,0,1:0:0:0:
454,266,172555,2,0,P|437:231|411:204,1,75.0000028610231,10|0,3:2|0:0,0:0:0:0:
315,37,172720,2,0,P|351:27|388:29,1,75.0000028610231,2|0,1:2|1:0,0:0:0:0:
498,30,172885,1,0,3:0:0:0:
366,134,173050,2,0,P|337:158|318:190,1,75.0000028610231,2|0,1:2|0:0,0:0:0:0:
316,283,173214,6,0,P|306:306|287:321,1,50,10|0,3:2|0:0,0:0:0:0:
318,190,173379,2,0,P|298:175|290:152,1,50,2|0,1:2|0:0,0:0:0:0:
229,25,173544,6,0,B|166:55|192:100|193:104|194:108|204:164|139:186,1,200,10|0,3:2|3:0,0:0:0:0:
17,332,173791,2,0,B|76:360|108:314|110:311|113:306|127:257|192:279,1,200,10|0,3:2|3:0,0:0:0:0:
425,178,174039,6,0,B|485:109|582:211|507:299|413:307|402:231|402:225|404:219|378:129|286:94|212:188|241:247|283:281,1,500,14|2,3:2|3:2,0:0:0:0:
362,328,174451,1,0,3:0:0:0:
368,334,174533,1,8,3:2:0:0:
454,284,174698,1,2,3:2:0:0:
493,129,174863,6,0,B|459:94|398:74|352:131|365:204|433:194|435:161,1,200,10|0,3:2|3:0,0:0:0:0:
274,273,175110,2,0,B|308:239|328:178|271:132|198:145|208:213|241:215,1,200,10|0,3:2|3:0,0:0:0:0:
98,27,175357,6,0,B|-5:76|14:167|107:218|163:109|165:102|165:95|165:-8|311:80|332:113|276:188|201:216,1,500,14|2,3:2|3:2,0:0:0:0:
187,295,175769,1,0,3:0:0:0:
182,303,175852,1,10,3:2:0:0:
79,342,176017,1,2,3:2:0:0:
2,191,176181,6,0,P|25:183|50:181,1,50,14|0,3:2|0:0,0:0:0:0:
256,96,176346,1,0,3:0:0:0:
256,146,176429,1,0,3:0:0:0:
213,121,176511,1,2,3:2:0:0:
382,0,176676,6,0,P|372:36|350:66,1,75.0000028610231,14|0,3:2|0:0,0:0:0:0:
256,288,176841,1,0,3:0:0:0:
256,219,176923,1,0,3:0:0:0:
315,254,177006,1,2,3:2:0:0:
106,24,177170,6,0,P|155:23|199:46,1,100,14|0,3:2|0:0,0:0:0:0:
406,117,177335,1,0,3:0:0:0:
447,190,177418,1,0,3:0:0:0:
363,189,177500,1,2,3:2:0:0:
162,152,177665,6,0,B|117:147|102:191|102:191|117:231|157:228,1,150.000005722046,10|0,3:2|0:0,0:0:0:0:
202,288,177830,2,0,B|183:328|220:356|220:356|263:354|273:315,1,150.000005722046,10|0,3:2|0:0,0:0:0:0:
343,291,177995,2,0,B|376:321|414:294|414:294|425:253|391:232,1,150.000005722046,10|0,3:2|0:0,0:0:0:0:
389,157,178159,2,0,B|427:134|414:90|414:90|378:66|347:92,1,150.000005722046,10|0,3:2|0:0,0:0:0:0:
275,71,178324,2,0,B|265:27|219:26|219:26|185:53|201:90,1,150.000005722046,10|0,3:2|0:0,0:0:0:0:
146,262,178489,5,8,3:2:0:0:
103,249,178572,1,8,3:2:0:0:
136,287,178654,5,8,3:2:0:0:
93,274,178736,1,8,3:2:0:0:
111,300,178819,5,2,3:2:0:0:
106,314,178901,1,0,3:0:0:0:
100,328,178984,1,0,3:0:0:0:
95,341,179066,1,0,3:0:0:0:
90,355,179148,6,0,B|18:329|-45:287|-1:168|61:224,1,225.000008583069,6|0,3:2|0:0,0:0:0:0:
28,72,179478,5,2,3:2:0:0:
36,87,179561,1,8,1:2:0:0:
45,99,179643,2,0,P|77:119|112:126,1,75.0000028610231,2|0,1:2|0:0,0:0:0:0:
213,269,179808,6,0,P|246:251|269:224,1,75.0000028610231,10|0,3:2|0:0,0:0:0:0:
430,332,179973,2,0,P|394:321|357:324,1,75.0000028610231,2|0,1:2|0:0,0:0:0:0:
264,354,180137,1,0,3:0:0:0:
508,311,180302,2,0,P|492:277|465:251,1,75.0000028610231,2|0,1:2|0:0,0:0:0:0:
489,87,180467,2,0,P|451:83|416:94,1,75.0000028610231,10|0,3:2|0:0,0:0:0:0:
221,76,180632,5,2,1:2:0:0:
237,71,180714,1,8,1:2:0:0:
252,68,180797,2,0,P|288:76|318:96,1,75.0000028610231,2|8,3:2|1:2,0:0:0:0:
235,234,180962,2,0,P|242:197|262:165,1,75.0000028610231,2|0,1:2|0:0,0:0:0:0:
134,131,181126,6,0,P|109:131|85:139,1,50,10|0,3:2|0:0,0:0:0:0:
133,213,181291,2,0,P|108:213|84:221,1,50,2|0,1:2|0:0,0:0:0:0:
4,240,181456,1,2,3:2:0:0:
4,240,181621,1,0,3:0:0:0:
290,338,181786,6,0,B|291:368|202:410|170:319|186:238|273:221|340:250,1,300,14|0,3:2|0:0,0:0:0:0:
410,330,182116,1,2,3:2:0:0:
410,330,182280,1,2,3:2:0:0:
190,283,182445,6,0,B|140:180|89:174|14:163|-29:283|56:296,1,300,14|0,3:2|0:0,0:0:0:0:
138,177,182775,2,0,B|169:125|129:68|61:91|77:137,1,150.000005722046,0|0,3:0|1:0,0:0:0:0:
68,27,183022,1,0,1:0:0:0:
82,20,183105,2,0,P|119:19|153:30,1,75.0000028610231,10|0,3:2|0:0,0:0:0:0:
296,165,183269,101,2,1:2:0:0:
282,157,183352,1,0,1:0:0:0:
270,148,183434,2,0,P|251:116|244:81,1,75.0000028610231,0|0,3:0|0:0,0:0:0:0:
410,160,183599,101,0,1:0:0:0:
424,170,183681,1,0,1:0:0:0:
433,181,183764,2,0,P|445:216|442:252,2,75.0000028610231,8|0|2,3:2|1:0|1:2,0:0:0:0:
274,360,184094,6,0,B|315:367|371:345|341:265|306:281,1,150.000005722046,2|0,3:2|1:0,0:0:0:0:
191,326,184341,1,2,1:2:0:0:
177,319,184423,2,0,P|158:283|132:250,1,75.0000028610231,10|0,3:2|0:0,0:0:0:0:
15,122,184588,1,2,1:2:0:0:
27,113,184670,1,2,1:2:0:0:
42,106,184753,2,0,P|82:103|124:110,1,75.0000028610231,2|0,3:2|0:0,0:0:0:0:
228,258,184918,2,0,P|233:220|244:185,1,75.0000028610231,2|0,1:2|0:0,0:0:0:0:
409,226,185083,6,0,P|373:214|336:209,1,75.0000028610231,10|0,3:2|0:0,0:0:0:0:
292,355,185247,2,0,P|297:317|308:282,1,75.0000028610231,2|0,1:2|0:0,0:0:0:0:
428,109,185412,6,0,P|402:209|513:283,1,225.000008583069,2|0,3:2|0:0,0:0:0:0:
400,341,185742,2,0,P|373:346|396:332,1,75.0000028610231,10|0,3:2|0:0,0:0:0:0:
250,358,185907,5,2,1:2:0:0:
235,350,185989,1,8,1:2:0:0:
223,341,186072,2,0,P|203:309|196:274,1,75.0000028610231,0|8,3:0|1:2,0:0:0:0:
56,255,186236,6,0,P|89:235|124:228,1,75.0000028610231,2|0,1:2|0:0,0:0:0:0:
303,265,186401,2,0,P|283:233|275:196,1,75.0000028610231,2|0,3:2|0:0,0:0:0:0:
101,42,186566,2,0,P|138:51|168:70,1,75.0000028610231,2|0,1:2|0:0,0:0:0:0:
474,92,186731,6,0,B|479:49|443:42|413:53|413:53|311:91,1,200,14|0,3:2|3:0,0:0:0:0:
282,287,186978,5,0,1:0:0:0:
335,348,187061,2,0,B|368:321|347:290|319:277|319:277|220:231,1,200,14|0,3:2|3:0,0:0:0:0:
22,113,187308,5,0,1:0:0:0:
54,40,187390,2,0,B|80:6|111:26|124:54|124:54|170:153,1,200,14|0,3:2|3:0,0:0:0:0:
335,348,187720,6,0,B|248:381|200:362|130:333|155:207|222:232,1,300,14|0,3:2|0:0,0:0:0:0:
313,262,188050,6,0,P|345:246|373:220,1,75.0000028610231,2|0,3:2|0:0,0:0:0:0:
445,39,188214,5,10,3:2:0:0:
505,71,188297,1,8,3:2:0:0:
508,138,188379,1,2,3:2:0:0:
374,219,188544,5,10,3:2:0:0:
354,284,188626,1,8,3:2:0:0:
399,333,188709,1,0,3:0:0:0:
508,138,188874,5,10,3:2:0:0:
433,112,188956,1,8,3:2:0:0:
358,130,189039,1,10,3:2:0:0:
301,182,189121,1,8,3:2:0:0:
277,254,189203,1,10,3:2:0:0:
219,306,189286,1,8,3:2:0:0:
143,321,189368,6,0,B|94:324|28:282|45:182|138:195|141:242,1,225.000008583069,6|0,3:2|0:0,0:2:0:0:
23,342,189698,6,0,P|101:233|130:102,1,269.999991760254,10|0,3:2|0:0,0:0:0:0:
7,148,190028,2,0,P|47:158|76:175,1,75.0000028610231,2|0,3:2|0:0,0:0:0:0:
219,306,190192,2,0,B|249:335|283:314|283:314|246:264|213:312,1,150,2|0,1:2|0:0,0:0:0:0:
316,384,190522,6,0,B|293:319|343:306|346:304|350:302|395:269|367:207,1,200,2|0,1:2|3:0,0:0:0:0:
472,111,190769,1,0,1:0:0:0:
477,96,190852,2,0,B|509:74|473:28|440:21|402:52|409:120,2,150.000005722046,2|10|2,1:2|3:2|1:2,0:0:0:0:
453,222,191264,1,8,1:2:0:0:
440,212,191346,2,0,P|403:203|365:208,1,75.0000028610231,2|8,3:2|1:2,0:0:0:0:
226,118,191511,2,0,P|195:139|176:173,1,75.0000028610231,2|0,1:2|0:0,0:0:0:0:
125,319,191676,6,0,P|147:332|171:337,1,50,10|0,3:2|0:0,0:0:0:0:
179,254,191841,2,0,P|204:248|225:235,1,50,2|0,1:2|0:0,0:0:0:0:
273,321,192006,1,2,3:2:0:0:
273,321,192170,1,0,3:0:0:0:
12,349,192335,6,0,B|77:349|156:310|145:211|62:152|6:227|37:262,1,300,14|0,3:2|0:0,0:0:0:0:
128,341,192665,1,2,3:2:0:0:
128,341,192830,1,2,3:2:0:0:
25,116,192995,6,0,B|20:118|39:153|107:173|118:107|119:103|120:99|133:24|235:57|250:120|202:163|166:176,1,300,14|0,3:2|0:0,0:0:0:0:
297,159,193324,2,0,P|348:114|392:41,1,150.000005722046,0|2,3:0|1:2,0:0:0:0:
472,119,193572,1,0,1:0:0:0:
481,129,193654,2,0,P|502:160|512:196,1,75.0000028610231,10|0,3:2|0:0,0:0:0:0:
494,347,193819,2,0,P|456:347|421:334,1,75.0000028610231,2|0,1:2|0:0,0:0:0:0:
305,364,193984,1,0,3:0:0:0:
144,331,194148,2,0,P|144:293|157:258,1,75.0000028610231,2|0,1:2|0:0,0:0:0:0:
95,172,194313,6,0,P|119:169|142:179,1,50,10|0,3:2|0:0,0:0:0:0:
225,106,194478,2,0,P|227:130|217:153,1,50,2|0,1:2|0:0,0:0:0:0:
24,64,194643,6,0,B|12:11|50:4|112:-21|156:98|131:104,1,200,10|0,3:2|3:0,0:0:0:0:
54,314,194890,2,0,B|8:285|29:253|56:191|171:244|157:266,1,200,10|0,3:2|3:0,0:0:0:0:
397,383,195137,6,0,B|456:402|483:313|428:223|325:289|320:294|317:300|265:390|182:240|171:210|322:119|346:253,1,500,14|2,3:2|3:2,0:0:0:0:
280,338,195550,1,0,3:0:0:0:
275,346,195632,1,10,3:2:0:0:
174,369,195797,1,2,3:2:0:0:
0,337,195962,6,0,B|11:269|62:282|65:282|70:282|127:277|131:210,1,200,10|0,3:2|3:0,0:0:0:0:
112,26,196209,2,0,B|177:12|197:66|199:71|199:74|200:126|268:120,1,200,10|0,3:2|3:0,0:0:0:0:
501,333,196456,6,0,B|520:308|492:284|461:279|461:279|252:242|252:242|193:233|209:144|273:113|332:178|315:200,1,500,14|2,3:2|3:2,0:0:0:0:
449,237,196868,1,0,3:0:0:0:
457,233,196951,1,10,3:2:0:0:
512,156,197116,1,2,3:2:0:0:
476,29,197280,5,2,3:2:0:0:
418,30,197363,1,0,1:0:0:0:
385,79,197445,2,0,P|362:114|349:164,1,75.0000028610231,0|0,1:0|0:0,0:0:0:0:
256,353,197610,5,8,3:2:0:0:
255,295,197692,1,0,1:0:0:0:
206,262,197775,2,0,P|170:239|121:226,1,75.0000028610231,2|8,1:2|1:2,0:0:0:0:
43,41,197940,5,2,3:2:0:0:
59,106,198022,1,8,3:2:0:0:
75,171,198105,1,0,0:0:0:0:
42,350,198269,6,0,P|142:301|254:294,1,225.000008583069,8|0,3:2|0:0,0:0:0:0:
365,367,198599,2,0,P|377:331|398:300,1,75.0000028610231,2|0,3:2|0:0,0:0:0:0:
471,56,198764,5,8,3:2:0:0:
451,134,198846,1,8,3:2:0:0:
432,212,198929,1,8,3:2:0:0:
273,372,199094,5,0,3:0:0:0:
254,294,199176,1,0,3:0:0:0:
234,216,199258,1,0,3:0:0:0:
110,23,199423,5,8,3:2:0:0:
90,101,199506,1,8,3:2:0:0:
71,179,199588,1,10,3:2:0:0:
137,195,199670,1,8,3:2:0:0:
184,206,199753,1,8,3:2:0:0:
217,213,199835,1,8,3:2:0:0:
234,216,199918,1,6,3:2:0:0:
234,216,200412,5,2,1:2:0:0:
334,217,200577,1,10,1:2:0:0:
410,151,200742,1,2,1:2:0:0:
410,151,200907,1,8,3:2:0:0:
266,32,201072,5,10,3:2:0:0:
215,118,201236,1,10,3:2:0:0:
234,216,201401,1,10,3:2:0:0:
90,336,201566,5,10,3:2:0:0:
139,248,201731,1,8,3:2:0:0:
334,217,201896,1,10,3:2:0:0:
334,217,202225,6,0,P|376:154|427:99,2,150.000005722046,2|0|6,3:2|3:0|3:2,0:0:0:0:
90,336,203050,5,10,3:2:0:0:
234,216,203214,1,10,3:2:0:0:
420,232,203379,1,10,3:2:0:0:
420,232,203709,5,10,3:2:0:0:
234,216,203874,1,10,3:2:0:0:
90,336,204039,1,10,3:2:0:0:
420,232,204203,1,10,3:2:0:0:
90,336,204533,6,0,L|90:326,1,10,14|0,3:2|0:0,0:0:0:0:
