osu file format v14

[General]
AudioFilename: audio.mp3
AudioLeadIn: 0
PreviewTime: 120804
Countdown: 0
SampleSet: Soft
StackLeniency: 0.4
Mode: 0
LetterboxInBreaks: 0
WidescreenStoryboard: 1

[Editor]
Bookmarks: 365,6927,13302,18927,25115,37115,49115,56428,77526,80164,90804,102804,114804,122116,132665,143214,157720,162995,176181,179148,197280,199918
DistanceSpacing: 0.3
BeatDivisor: 4
GridSize: 32
TimelineZoom: 2.399999

[Metadata]
Title:Oni KYOKAN
TitleUnicode:鬼KYOKAN
Artist:kradness & Reol
ArtistUnicode:kradness&れをる
Creator:buckfro
Version:Expert
Source:
Tags:rock jrock j-rock japanese oriental atipir riana amamya erisu lanzhu konami benami sdvx 3rd sdvx3 video rhythm game vgm KRAD MATRiX SOUND VOLTEX III GRAVITY WARS じーざすP Jesus-P Jizasu-P ギガ Giga ワンダフル★オポチュニティ! Wonderful Opportunity!
BeatmapID:3598185
BeatmapSetID:1726038

[Difficulty]
HPDrainRate:5.5
CircleSize:4.2
OverallDifficulty:8.5
ApproachRate:9.3
SliderMultiplier:2
SliderTickRate:1

[Events]
//Background and Video events
0,0,"95706917_p0.jpg",0,0
//Break Periods
//Storyboard Layer 0 (Background)
//Storyboard Layer 1 (Fail)
//Storyboard Layer 2 (Pass)
//Storyboard Layer 3 (Foreground)
//Storyboard Layer 4 (Overlay)
//Storyboard Sound Samples

[TimingPoints]
-385,375,4,2,3,35,1,0
365,-100,4,2,3,35,0,0
927,-100,4,2,3,35,0,0
1865,-125,4,2,3,35,0,0
2427,-250,4,2,3,35,0,0
2802,-100,4,2,3,35,0,0
3552,-66.6666666666667,4,2,3,35,0,0
3927,-100,4,2,3,35,0,0
4677,-100,4,2,3,35,0,0
5615,-125,4,2,3,40,0,0
5990,-71.4285714285714,4,2,3,40,0,0
6365,-166.666666666667,4,2,3,40,0,0
6646,-62.5,4,2,3,40,0,0
6927,-45.4545454545455,4,2,3,50,0,0
7302,-111.111111111111,4,2,3,50,0,0
7958,-76.9230769230769,4,2,3,50,0,0
8427,-142.857142857143,4,2,3,50,0,0
8802,-111.111111111111,4,2,3,50,0,0
9458,-76.9230769230769,4,2,3,50,0,0
9927,-142.857142857143,4,2,3,50,0,0
10302,-111.111111111111,4,2,3,50,0,0
11615,-50,4,2,3,50,0,0
11802,-100,4,2,3,50,0,0
11990,-50,4,2,3,50,0,0
12177,-100,4,2,3,50,0,0
12365,-50,4,2,3,50,0,0
12646,-66.6666666666667,4,2,3,50,0,0
12927,-76.9230769230769,4,2,3,50,0,0
13302,-111.111111111111,4,2,3,50,0,0
13958,-76.923076923077,4,2,3,50,0,0
14240,-142.857142857143,4,2,3,50,0,0
14802,-111.111111111111,4,2,3,50,0,0
15458,-76.923076923077,4,2,3,50,0,0
15740,-142.857142857143,4,2,3,50,0,0
16302,-111.111111111111,4,2,3,50,0,0
17615,-50,4,2,3,50,0,0
17990,-66.6666666666667,4,2,3,50,0,0
18365,-50,4,2,3,50,0,0
18646,-66.6666666666667,4,2,3,50,0,0
18833,-50,4,2,3,50,0,0
19490,-100,4,2,3,40,0,0
20052,-333.333333333333,4,2,3,40,0,0
20427,-100,4,2,3,40,0,0
25115,-76.9230769230769,4,2,3,45,0,0
26240,-200,4,2,3,45,0,0
26615,-76.9230769230769,4,2,3,45,0,0
27740,-200,4,2,3,45,0,0
28115,-100,4,2,3,45,0,0
28865,-200,4,2,3,45,0,0
29240,-76.9230769230769,4,2,3,45,0,0
29990,-66.6666666666667,4,2,3,45,0,0
30740,-66.6666666666667,4,2,3,45,0,0
31115,-76.9230769230769,4,2,3,45,0,0
32240,-200,4,2,3,45,0,0
32615,-76.9230769230769,4,2,3,45,0,0
33365,-200,4,2,3,45,0,0
33740,-76.9230769230769,4,2,3,45,0,0
34490,-66.6666666666667,4,2,3,45,0,0
34865,-76.9230769230769,4,2,3,45,0,0
35052,-66.6666666666667,4,2,3,45,0,0
35427,-76.9230769230769,4,2,3,45,0,0
35990,-50,4,2,3,45,0,0
36552,-55.5555555555556,4,2,3,45,0,0
36740,-100,4,2,3,45,0,0
37115,-66.6666666666667,4,2,3,60,0,0
48365,-55.5555555555556,4,2,3,50,0,0
48740,-166.666666666667,4,2,3,50,0,0
49490,-100,4,2,3,50,0,0
50146,-66.6666666666667,4,2,3,50,0,0
50990,-66.6666666666667,4,2,3,50,0,0
51740,-83.3333333333333,4,2,3,50,0,0
52115,-66.6666666666667,4,2,3,50,0,0
52490,-100,4,2,3,50,0,0
53052,-66.6666666666667,4,2,3,50,0,0
53990,-66.6666666666667,4,2,3,50,0,0
55115,329.67032967033,4,2,3,35,1,0
55115,-66.6666666666667,4,2,3,35,0,0
56428,329.67032967033,4,2,3,70,1,0
56428,-100,4,2,3,70,0,0
56757,-66.6666666666667,4,2,3,70,0,0
57087,-66.6666666666667,4,2,3,70,0,0
57252,-200,4,2,3,70,0,0
57581,-66.6666666666667,4,2,3,70,0,0
57911,-66.6666666666667,4,2,3,70,0,0
58735,-100,4,2,3,70,0,0
59395,-55.5555555555556,4,2,3,70,0,0
60384,-66.6666666666667,4,2,3,70,0,0
64340,-58.8235294117647,4,2,3,70,0,0
65329,-50,4,2,3,70,0,0
65658,-66.6666666666667,4,2,3,70,0,0
66977,-100,4,2,3,70,0,0
67307,-66.6666666666667,4,2,3,70,0,0
67636,-66.6666666666667,4,2,3,70,0,0
67801,-200,4,2,3,70,0,0
68131,-66.6666666666667,4,2,3,70,0,0
68460,-66.6666666666667,4,2,3,70,0,0
69285,-100,4,2,3,70,0,0
69944,-55.5555555555556,4,2,3,70,0,0
70933,-66.6666666666667,4,2,3,70,0,0
71922,-100,4,2,3,70,0,0
72252,-55.5555555555556,4,2,3,70,0,0
72746,-50,4,2,3,70,0,0
73570,-55.5555555555556,4,2,3,70,0,0
74065,-50,4,2,3,70,0,0
74889,-66.6666666666667,4,2,3,70,0,0
77526,-100,4,2,3,70,0,0
78021,-100,4,2,3,50,0,0
80164,-166.666666666667,4,2,3,55,0,0
82142,-100,4,2,3,55,0,0
83296,-166.666666666667,4,2,3,55,0,0
84449,-100,4,2,3,55,0,0
85438,-166.666666666667,4,2,3,55,0,0
87417,-100,4,2,3,55,0,0
88570,-166.666666666667,4,2,3,55,0,0
90054,375,4,2,3,55,1,0
90804,375,4,2,3,45,1,0
90804,-76.9230769230769,4,2,3,45,0,0
91929,-200,4,2,3,45,0,0
92304,-76.9230769230769,4,2,3,45,0,0
93429,-200,4,2,3,45,0,0
93804,-100,4,2,3,45,0,0
94554,-200,4,2,3,45,0,0
94929,-76.9230769230769,4,2,3,45,0,0
95679,-66.6666666666667,4,2,3,45,0,0
96429,-66.6666666666667,4,2,3,45,0,0
96804,-76.9230769230769,4,2,3,45,0,0
97929,-200,4,2,3,45,0,0
98304,-76.9230769230769,4,2,3,45,0,0
99054,-200,4,2,3,45,0,0
99429,-76.9230769230769,4,2,3,45,0,0
100179,-66.6666666666667,4,2,3,45,0,0
100554,-76.9230769230769,4,2,3,45,0,0
100741,-66.6666666666667,4,2,3,45,0,0
101116,-76.9230769230769,4,2,3,45,0,0
101679,-50,4,2,3,45,0,0
102804,-66.6666666666667,4,2,3,60,0,0
114054,-55.5555555555556,4,2,3,50,0,0
114429,-100,4,2,3,50,0,0
115179,-100,4,2,3,50,0,0
115835,-66.6666666666667,4,2,3,50,0,0
116679,-66.6666666666667,4,2,3,50,0,0
117429,-83.3333333333333,4,2,3,50,0,0
117804,-66.6666666666667,4,2,3,50,0,0
118179,-100,4,2,3,50,0,0
118741,-66.6666666666667,4,2,3,50,0,0
119679,-66.6666666666667,4,2,3,50,0,0
120804,329.67032967033,4,2,3,35,1,0
120804,-200,4,2,3,35,0,0
121628,-100,4,2,3,35,0,0
122116,329.67032967033,4,2,3,70,1,0
122116,-100,4,2,3,70,0,0
122445,-66.6666666666667,4,2,3,70,0,0
122775,-66.6666666666667,4,2,3,70,0,0
122940,-200,4,2,3,70,0,0
123269,-66.6666666666667,4,2,3,70,0,0
123599,-66.6666666666667,4,2,3,70,0,0
124423,-100,4,2,3,70,0,0
125083,-55.5555555555556,4,2,3,70,0,0
126072,-66.6666666666667,4,2,3,70,0,0
130028,-55.5555555555556,4,2,3,70,0,0
131017,-50,4,2,3,70,0,0
131346,-66.6666666666667,4,2,3,70,0,0
132665,-66.6666666666667,4,2,3,75,0,0
143214,-100,4,2,3,55,0,0
148489,-76.9230769230769,4,2,3,55,0,0
152775,-66.6666666666667,4,2,3,65,0,0
156401,-66.6666666666667,4,2,3,65,0,0
157720,-100,4,2,3,65,0,0
162006,-66.6666666666667,4,2,3,70,0,0
165632,-58.8235294117647,4,2,3,70,0,0
166621,-50,4,2,3,70,0,0
166951,-66.6666666666667,4,2,3,70,0,0
168269,-100,4,2,3,70,0,0
168599,-66.6666666666667,4,2,3,70,0,0
168929,-66.6666666666667,4,2,3,70,0,0
169094,-200,4,2,3,70,0,0
169423,-66.6666666666667,4,2,3,70,0,0
169753,-66.6666666666667,4,2,3,70,0,0
170577,-100,4,2,3,70,0,0
171236,-55.5555555555556,4,2,3,70,0,0
172225,-66.6666666666667,4,2,3,70,0,0
173214,-100,4,2,3,70,0,0
173544,-55.5555555555556,4,2,3,70,0,0
174039,-50,4,2,3,70,0,0
174863,-55.5555555555556,4,2,3,70,0,0
175357,-50,4,2,3,70,0,0
176181,-100,4,2,3,70,0,0
176676,-66.6666666666667,4,2,3,70,0,0
177170,-50,4,2,3,70,0,0
177665,-50,4,2,3,70,0,0
177747,-50,4,2,3,5,0,0
177830,-50,4,2,3,70,0,0
177912,-50,4,2,3,5,0,0
177995,-50,4,2,3,70,0,0
178077,-50,4,2,3,5,0,0
178159,-50,4,2,3,70,0,0
178242,-50,4,2,3,5,0,0
178324,-50,4,2,3,70,0,0
178407,-50,4,2,3,5,0,0
178489,-50,4,2,3,70,0,0
179148,-133.333333333333,4,2,3,70,0,0
179478,-66.6666666666667,4,2,3,70,0,0
181126,-100,4,2,3,70,0,0
181786,-55.5555555555556,4,2,3,70,0,0
182775,-66.6666666666667,4,2,3,70,0,0
186731,-58.8235294117647,4,2,3,70,0,0
187720,-50,4,2,3,70,0,0
188050,-66.6666666666667,4,2,3,70,0,0
189368,-100,4,2,3,70,0,0
189698,-66.6666666666667,4,2,3,70,0,0
190028,-66.6666666666667,4,2,3,70,0,0
190192,-200,4,2,3,70,0,0
190522,-66.6666666666667,4,2,3,70,0,0
190852,-66.6666666666667,4,2,3,70,0,0
191676,-100,4,2,3,70,0,0
192335,-55.5555555555556,4,2,3,70,0,0
193324,-66.6666666666667,4,2,3,70,0,0
194313,-100,4,2,3,70,0,0
194643,-55.5555555555556,4,2,3,70,0,0
195137,-50,4,2,3,70,0,0
195962,-55.5555555555556,4,2,3,70,0,0
196456,-50,4,2,3,70,0,0
197280,-66.6666666666667,4,2,3,70,0,0
199918,-100,4,2,3,70,0,0
200412,-100,4,2,3,50,0,0
202225,-66.6666666666667,4,2,3,50,0,0
204533,-500,4,2,3,50,0,0
204616,-500,4,2,3,5,0,0

[Colours]
Combo1 : 255,182,108
Combo2 : 232,232,232
Combo3 : 185,185,255
Combo4 : 74,165,255

[HitObjects]
465,186,365,5,8,0:2:0:0:
380,325,458,2,0,P|400:311|408:287,1,50,8|0,0:2|0:0,0:0:0:0:
371,201,646,1,8,3:2:0:0:
371,201,740,1,8,3:2:0:0:
482,358,927,6,0,P|385:339|287:355,1,200,10|2,3:2|3:2,0:0:0:0:
202,334,1396,1,2,1:2:0:0:
191,330,1490,1,2,3:2:0:0:
180,326,1583,2,0,P|155:322|131:328,2,50,2|2|2,1:2|1:2|1:2,0:0:0:0:
266,268,1865,2,0,P|267:209|252:151,1,120,2|2,3:2|1:2,0:0:0:0:
251,150,2240,1,0,3:0:0:0:
118,40,2427,6,0,B|125:13|125:13|152:40,1,60,2|0,1:2|0:0,0:0:0:0:
149,116,2802,1,2,1:2:0:0:
139,122,2896,1,2,1:2:0:0:
129,128,2990,1,2,3:2:0:0:
119,134,3083,2,0,P|94:137|70:131,2,50,2|2|2,3:2|1:2|3:2,0:0:0:0:
177,197,3365,2,0,P|198:184|213:164,1,50,2|0,3:2|0:0,0:0:0:0:
227,79,3552,2,0,P|295:56|353:100,1,150.000005722046,10|0,1:2|3:0,0:0:0:0:
478,21,3927,6,0,P|460:119|458:219,1,200,14|0,3:2|1:0,0:0:0:0:
422,304,4396,1,2,1:2:0:0:
417,314,4490,1,2,3:2:0:0:
412,325,4583,2,0,P|397:345|375:358,1,50,2|10,1:2|0:2,0:0:0:0:
267,365,4771,1,10,0:2:0:0:
262,354,4865,2,0,P|247:333|225:320,1,50,2|8,3:2|0:2,0:0:0:0:
65,249,5052,1,2,3:2:0:0:
50,280,5146,1,0,3:2:0:0:
37,312,5240,6,0,P|80:335|127:323,1,100,10|2,0:2|3:2,0:0:0:0:
176,248,5521,1,0,3:2:0:0:
172,232,5615,2,0,P|177:214|195:207,1,40,10|0,3:2|0:0,0:0:0:0:
204,118,5802,2,0,P|220:108|238:116,1,40,2|0,3:2|0:0,0:0:0:0:
337,68,5990,6,0,P|363:57|353:84,1,69.9999978637696,10|0,3:2|0:0,0:0:0:0:
460,180,6177,2,0,P|482:197|454:202,1,69.9999978637696,10|0,3:2|0:0,0:0:0:0:
357,329,6365,6,0,P|349:299|345:270,1,59.9999981689454,14|0,3:2|0:0,0:0:0:0:
423,377,6646,6,0,P|355:338|276:343,1,160,14|0,3:2|0:0,0:0:0:0:
178,378,6927,6,0,B|190:230|190:230|198:218|198:218|212:51,1,330.000010070801,6|0,3:2|0:0,0:0:0:0:
160,127,7302,1,2,3:2:0:0:
153,135,7396,1,2,1:2:0:0:
146,143,7490,1,2,3:2:0:0:
138,150,7583,1,2,1:2:0:0:
131,158,7677,2,0,L|74:167,2,44.999998626709,2|10|2,1:2|1:2|3:2,0:0:0:0:
225,213,7958,2,0,P|248:272|236:335,1,129.999994049073,10|0,1:2|0:0,0:0:0:0:
236,335,8240,1,8,3:2:0:0:
228,198,8427,6,0,L|246:94,1,104.999996795654,2|0,1:2|0:0,0:0:0:0:
320,49,8802,1,2,1:2:0:0:
328,42,8896,1,2,1:2:0:0:
336,35,8990,1,10,3:2:0:0:
343,27,9083,1,2,1:2:0:0:
351,20,9177,2,0,L|408:29,2,44.999998626709,2|10|2,1:2|1:2|3:2,0:0:0:0:
441,108,9458,2,0,P|477:160|472:223,1,129.999994049073,10|0,1:2|0:0,0:0:0:0:
472,223,9740,1,8,3:2:0:0:
510,354,9927,6,0,L|406:335,1,104.999996795654,2|0,1:2|0:0,0:0:0:0:
328,356,10302,1,2,1:2:0:0:
320,363,10396,1,2,1:2:0:0:
312,370,10490,1,10,3:2:0:0:
304,377,10583,1,2,1:2:0:0:
296,384,10677,2,0,L|239:375,1,44.999998626709,2|10,1:2|1:2,0:0:0:0:
345,287,10865,6,0,L|335:235,1,44.999998626709,2|0,3:2|0:0,0:0:0:0:
259,290,11052,2,0,L|250:245,1,44.999998626709,2|0,1:2|0:0,0:0:0:0:
357,79,11240,6,0,L|367:131,1,44.999998626709,2|0,3:2|0:0,0:0:0:0:
443,76,11427,2,0,L|452:121,1,44.999998626709,2|0,1:2|0:0,0:0:0:0:
490,286,11615,6,0,P|460:246|413:230,1,100,10|0,3:2|0:0,0:0:0:0:
287,251,11802,2,0,L|337:243,1,50,2|0,3:2|0:0,0:0:0:0:
366,123,11990,6,0,P|336:83|289:67,1,100,10|0,3:2|0:0,0:0:0:0:
163,88,12177,2,0,L|212:79,1,50,2|0,3:2|0:0,0:0:0:0:
370,142,12365,6,0,L|173:176,1,200,10|0,3:2|3:0,0:0:0:0:
24,165,12646,6,0,L|171:191,1,150.000005722046,10|0,3:2|3:0,0:0:0:0:
163,88,12927,6,0,L|197:285,1,194.999991073609,10|0,3:2|0:0,0:0:0:0:
273,330,13302,1,2,3:2:0:0:
266,338,13396,1,2,1:2:0:0:
259,346,13490,1,2,3:2:0:0:
251,353,13583,1,2,1:2:0:0:
244,361,13677,2,0,L|187:370,2,44.999998626709,2|10|2,1:2|1:2|3:2,0:0:0:0:
343,368,13958,2,0,P|368:309|340:253,1,129.999994049073,8|0,1:2|1:0,0:0:0:0:
340,253,14240,1,8,3:2:0:0:
197,281,14427,6,0,L|93:299,1,104.999996795654,2|0,1:2|0:0,0:0:0:0:
125,207,14802,1,2,1:2:0:0:
127,196,14896,1,2,1:2:0:0:
131,186,14990,1,10,3:2:0:0:
133,176,15083,1,2,1:2:0:0:
137,165,15177,2,0,L|128:117,2,44.999998626709,2|10|2,1:2|1:2|3:2,0:0:0:0:
122,48,15458,2,0,P|70:13|7:22,1,129.999994049073,8|0,1:2|1:0,0:0:0:0:
6,22,15740,1,8,3:2:0:0:
138,50,15927,6,0,L|242:32,1,104.999996795654,2|0,1:2|0:0,0:0:0:0:
334,16,16302,1,2,1:2:0:0:
342,23,16396,1,2,1:2:0:0:
350,30,16490,1,10,3:2:0:0:
358,37,16583,1,2,1:2:0:0:
366,44,16677,2,0,L|410:36,1,44.999998626709,2|10,1:2|1:2,0:0:0:0:
393,123,16865,6,0,L|403:175,1,44.999998626709,2|8,3:2|0:2,0:0:0:0:
418,247,17052,2,0,L|427:292,1,44.999998626709,2|0,1:2|0:0,0:0:0:0:
230,173,17240,6,0,L|240:225,1,44.999998626709,2|0,3:2|0:0,0:0:0:0:
255,297,17427,2,0,L|264:342,1,44.999998626709,2|0,1:2|0:0,0:0:0:0:
492,354,17615,6,0,P|472:309|427:291,1,100,10|0,3:2|0:0,0:0:0:0:
318,174,17802,2,0,P|269:179|239:217,1,100,2|0,3:2|0:0,0:0:0:0:
96,342,17990,6,0,L|169:328,1,75.0000028610231,10|0,3:2|0:0,0:0:0:0:
338,355,18177,2,0,L|264:341,1,75.0000028610231,2|0,3:2|0:0,0:0:0:0:
43,255,18365,6,0,L|239:217,1,200,10|0,3:2|3:0,0:0:0:0:
100,148,18646,6,0,L|248:120,1,150.000005722046,10|0,3:2|3:0,0:0:0:0:
448,200,18927,6,0,B|504:208|515:122|451:51|369:126|365:133|363:139|330:228|233:105|218:80|339:-24|382:91,1,400,14|0,3:2|3:0,0:0:0:0:
362,155,19490,6,0,B|379:253,1,100,8|2,3:2|1:2,0:0:0:0:
452,302,19865,1,0,3:0:0:0:
453,312,19958,1,8,1:2:0:0:
454,322,20052,2,0,L|459:352,1,29.9999990844727,2|0,1:2|3:0,0:0:0:0:
379,253,20427,5,2,1:2:0:0:
349,256,20521,1,8,1:2:0:0:
319,260,20615,1,0,3:0:0:0:
362,155,20802,6,0,L|346:57,1,100,2|8,1:2|3:2,0:0:0:0:
257,18,21177,1,2,1:2:0:0:
247,19,21271,1,8,1:2:0:0:
237,20,21365,2,0,L|188:29,1,50,0|8,3:0|1:2,0:0:0:0:
135,104,21552,2,0,L|37:120,1,100,2|8,1:2|3:2,0:0:0:0:
30,218,21927,5,0,1:0:0:0:
31,228,22021,1,8,1:2:0:0:
32,238,22115,1,0,3:0:0:0:
171,195,22302,5,0,1:0:0:0:
172,205,22396,1,0,1:0:0:0:
173,215,22490,1,8,1:2:0:0:
116,301,22677,6,0,L|214:285,1,100,2|0,1:2|3:0,0:0:0:0:
292,331,23052,1,0,1:0:0:0:
339,185,23240,1,8,3:2:0:0:
349,266,23427,5,2,1:2:0:0:
359,265,23521,1,10,1:2:0:0:
369,264,23615,2,0,L|418:255,1,50,0|8,3:0|1:2,0:0:0:0:
324,182,23802,2,0,L|226:198,1,100,2|8,1:2|3:2,0:0:0:0:
400,169,24177,5,2,1:2:0:0:
410,168,24271,1,10,1:2:0:0:
420,167,24365,2,0,L|469:158,2,50,0|2|2,3:0|3:2|3:2,0:0:0:0:
454,24,24740,1,8,3:2:0:0:
444,25,24833,1,0,1:0:0:0:
434,26,24927,2,0,L|385:35,1,50,2|0,3:2|3:0,0:0:0:0:
278,8,25115,5,6,3:2:0:0:
336,121,25302,1,0,1:0:0:0:
266,9,25490,2,0,L|137:31,1,129.999994049073,10|2,3:2|1:2,0:0:0:0:
106,117,25865,1,2,3:2:0:0:
103,125,25958,1,8,0:2:0:0:
100,133,26052,1,2,1:2:0:0:
2,185,26240,2,0,P|21:200|32:222,1,50,10|2,3:2|1:2,0:0:0:0:
75,306,26521,1,10,1:2:0:0:
83,312,26615,6,0,P|147:320|201:287,1,129.999994049073,2|2,3:2|1:2,0:0:0:0:
335,328,26990,2,0,P|359:270|342:209,1,129.999994049073,10|2,0:2|1:2,0:0:0:0:
279,140,27365,1,2,3:2:0:0:
161,240,27552,1,2,1:2:0:0:
163,247,27646,1,0,1:0:0:0:
166,255,27740,2,0,P|178:275|200:286,1,50,2|0,3:2|1:0,0:0:0:0:
265,362,28021,1,10,1:2:0:0:
271,349,28115,6,0,P|308:318|357:315,1,100,0|0,3:0|1:0,0:0:0:0:
500,247,28490,1,10,3:2:0:0:
509,364,28677,1,2,1:2:0:0:
500,362,28771,1,8,1:2:0:0:
490,361,28865,2,0,P|458:342|441:309,1,75,2|0,3:2|0:0,0:0:0:0:
500,247,29240,1,8,3:2:0:0:
358,315,29427,2,0,L|384:167,1,129.999994049073,2|0,1:2|3:0,0:0:0:0:
485,72,29802,5,0,1:0:0:0:
476,65,29896,1,0,1:0:0:0:
464,58,29990,2,0,P|430:44|393:50,1,75.0000028610231,10|0,3:2|0:0,0:0:0:0:
306,21,30177,1,2,1:2:0:0:
291,20,30271,2,0,P|262:43|248:76,1,75.0000028610231,2|0,1:2|3:0,0:0:0:0:
153,100,30458,1,8,0:2:0:0:
141,109,30552,2,0,P|136:145|151:179,1,75.0000028610231,2|0,1:2|0:0,0:0:0:0:
83,323,30740,6,0,P|177:279|151:179,1,225.000008583069,10|0,3:2|0:0,0:0:0:0:
208,301,31115,5,6,3:2:0:0:
276,190,31302,1,0,0:0:0:0:
201,312,31490,2,0,L|330:334,1,129.999994049073,10|2,3:2|1:2,0:0:0:0:
439,346,31865,1,2,3:2:0:0:
443,338,31958,1,8,0:2:0:0:
447,331,32052,1,2,1:2:0:0:
512,253,32240,2,0,L|462:245,1,50,8|10,3:2|1:2,0:0:0:0:
499,164,32521,1,10,1:2:0:0:
494,149,32615,6,0,P|452:101|389:97,1,129.999994049073,2|0,3:2|1:0,0:0:0:0:
289,27,32990,2,0,P|226:39|191:91,1,129.999994049073,8|2,3:2|1:2,0:0:0:0:
110,150,33271,1,8,1:2:0:0:
120,160,33365,2,0,P|147:184|184:186,1,75,2|0,3:2|0:0,0:0:0:0:
133,267,33740,2,0,P|113:323|46:355,1,129.999994049073,10|0,3:2|1:0,0:0:0:0:
46,268,34021,1,8,1:2:0:0:
41,261,34115,1,0,3:0:0:0:
274,331,34302,6,0,P|275:357|263:337,1,64.9999970245363,2|0,1:2|0:0,0:0:0:0:
213,276,34490,2,0,L|360:302,1,150.000005722046,10|0,3:2|1:0,0:0:0:0:
451,153,34865,6,0,P|450:127|462:147,1,64.9999970245363,2|0,3:2|0:0,0:0:0:0:
512,208,35052,2,0,L|364:181,1,150.000005722046,2|8,1:2|3:2,0:0:0:0:
251,79,35427,6,0,P|250:53|262:73,1,64.9999970245363,2|8,1:2|0:2,0:0:0:0:
361,89,35615,1,0,3:0:0:0:
361,89,35802,1,2,3:2:0:0:
187,7,35990,6,0,P|162:49|172:96,1,100,10|0,3:2|0:0,0:0:0:0:
298,255,36177,2,0,P|274:211|228:197,1,100,2|0,1:2|0:0,0:0:0:0:
16,224,36365,2,0,P|65:225|102:193,1,100,2|0,3:2|0:0,0:0:0:0:
172,96,36552,6,0,B|190:78|174:56|174:56|155:73|173:100,1,89.9999972534181,2|0,3:2|0:0,0:0:0:0:
165,229,36740,6,0,P|177:250|199:260,1,50,10|0,3:2|0:0,0:0:0:0:
282,360,36927,5,10,3:2:0:0:
299,315,37021,1,8,3:2:0:0:
316,269,37115,1,6,3:2:0:0:
481,349,37302,6,0,L|467:275,1,75.0000028610231,0|0,0:2|0:0,0:0:0:0:
430,138,37490,2,0,P|472:196|456:267,1,150.000005722046,10|0,3:2|1:0,0:0:0:0:
300,315,37865,6,0,L|226:329,1,75.0000028610231,2|8,3:2|0:2,0:0:0:0:
89,366,38052,2,0,P|147:324|218:340,1,150.000005722046,2|8,1:2|3:2,0:0:0:0:
364,384,38427,6,0,L|337:236,2,150.000005722046,2|0|2,1:2|3:0|1:2,0:0:0:0:
333,217,38990,2,0,P|285:160|213:147,1,150.000005722046,2|2,3:2|1:2,0:0:0:0:
135,96,39271,1,8,0:2:0:0:
119,103,39365,2,0,P|86:123|77:163,1,75.0000028610231,2|8,3:2|1:2,0:0:0:0:
165,12,39552,2,0,P|183:111|224:156,1,150.000005722046,2|0,1:2|3:0,0:0:0:0:
364,227,39927,6,0,P|437:221|505:253,2,150.000005722046,2|0|2,1:2|3:0|1:2,0:0:0:0:
285,367,40490,1,10,3:2:0:0:
286,236,40677,1,2,1:2:0:0:
288,216,40771,1,8,0:2:0:0:
293,198,40865,2,0,P|315:165|349:152,1,75.0000028610231,0|8,3:0|0:2,0:0:0:0:
505,253,41052,2,0,P|437:221|364:227,1,150.000005722046,2|8,1:2|3:2,0:0:0:0:
189,309,41427,6,0,L|41:282,2,150.000005722046,2|0|2,1:2|3:0|1:2,0:0:0:0:
355,311,41990,1,2,3:2:0:0:
246,254,42177,1,2,1:2:0:0:
239,245,42271,1,8,0:2:0:0:
231,235,42365,2,0,L|155:221,1,75.0000028610231,2|8,1:2|0:2,0:0:0:0:
115,294,42552,2,0,L|39:280,1,75.0000028610231,2|0,1:2|0:0,0:0:0:0:
31,125,42740,5,2,3:2:0:0:
86,11,42927,1,2,3:2:0:0:
115,294,43115,5,6,3:2:0:0:
231,235,43302,2,0,L|157:221,1,75.0000028610231,2|0,1:2|0:0,0:0:0:0:
293,337,43490,2,0,P|272:266|308:202,1,150.000005722046,10|0,3:2|1:0,0:0:0:0:
314,43,43865,6,0,L|388:57,1,75.0000028610231,2|8,3:2|0:2,0:0:0:0:
469,29,44052,2,0,P|498:50|512:85,1,75.0000028610231,2|0,1:2|0:0,0:0:0:0:
511,227,44240,1,10,3:2:0:0:
307,203,44427,6,0,L|159:176,2,150.000005722046,2|0|2,1:2|3:0|1:2,0:0:0:0:
465,160,44990,2,0,P|478:231|435:290,1,150.000005722046,10|2,3:2|1:2,0:0:0:0:
410,372,45271,1,8,0:2:0:0:
396,379,45365,2,0,P|350:374|330:345,1,75.0000028610231,2|8,3:2|0:2,0:0:0:0:
155,333,45552,2,0,P|209:285|283:287,1,150.000005722046,2|0,1:2|3:0,0:0:0:0:
160,175,45927,6,0,P|157:101|205:46,2,150.000005722046,2|0|2,1:2|3:0|1:2,0:0:0:0:
278,83,46490,1,2,3:2:0:0:
141,94,46677,1,2,1:2:0:0:
122,102,46771,1,8,0:2:0:0:
107,112,46865,2,0,P|82:143|82:179,1,75.0000028610231,2|8,1:2|0:2,0:0:0:0:
206,304,47052,2,0,P|208:230|160:175,1,150.000005722046,2|8,1:2|3:2,0:0:0:0:
329,254,47427,6,0,L|477:281,2,150.000005722046,2|0|2,1:2|3:0|1:2,0:0:0:0:
102,108,47990,1,14,3:2:0:0:
347,53,48177,1,2,1:2:0:0:
492,205,48365,6,0,L|314:173,1,179.999994506836,10|2,3:2|3:2,0:0:0:0:
463,357,48740,6,0,L|403:346,1,59.9999981689454,2|2,3:2|3:2,0:0:0:0:
256,384,49115,85,10,3:2:0:0:
212,371,49208,1,10,3:2:0:0:
161,323,49302,5,10,3:2:0:0:
139,317,49396,1,10,3:2:0:0:
117,311,49490,6,0,P|95:206|170:145,1,200,2|2,3:2|3:2,0:0:0:0:
0,39,50052,5,10,3:2:0:0:
20,87,50146,2,0,L|93:100,1,75.0000028610231,10|0,3:2|3:0,0:0:0:0:
23,249,50427,5,10,3:2:0:0:
43,297,50521,2,0,L|116:310,1,75.0000028610231,10|0,3:2|3:0,0:0:0:0:
255,379,50802,5,2,1:2:0:0:
320,192,50990,5,2,3:2:0:0:
287,160,51083,1,2,0:2:0:0:
241,161,51177,1,2,1:2:0:0:
210,193,51271,1,2,0:2:0:0:
168,264,51365,5,2,3:2:0:0:
187,273,51458,1,2,0:2:0:0:
209,275,51552,1,2,1:2:0:0:
232,272,51646,1,2,0:2:0:0:
210,193,51740,6,0,P|198:135|232:78,1,119.999996337891,2|2,3:2|1:2,0:0:0:0:
365,22,52115,85,10,3:2:0:0:
403,46,52208,1,10,3:2:0:0:
438,111,52302,5,10,3:2:0:0:
458,99,52396,1,10,3:2:0:0:
477,86,52490,6,0,P|389:119|380:218,1,200,2|2,3:2|3:2,0:0:0:0:
412,375,53052,5,10,3:2:0:0:
362,358,53146,2,0,L|349:285,1,75.0000028610231,10|0,3:2|3:0,0:0:0:0:
256,160,53427,5,10,3:2:0:0:
306,142,53521,2,0,L|319:69,1,75.0000028610231,10|0,3:2|3:0,0:0:0:0:
256,0,53802,5,2,1:2:0:0:
256,160,53990,1,10,3:2:0:0:
256,192,54083,1,0,3:0:0:0:
256,224,54177,1,2,3:2:0:0:
256,256,54271,1,8,3:2:0:0:
256,336,54365,2,0,P|291:346|327:337,1,75.0000028610231,2|0,3:2|0:0,0:0:0:0:
110,384,54740,6,0,P|77:277|62:166,1,225.000008583069,14|0,3:2|0:0,0:0:0:0:
30,68,55115,5,2,3:2:0:0:
202,102,55279,1,8,1:2:0:0:
109,84,55444,5,8,1:2:0:0:
124,86,55527,1,8,1:2:0:0:
281,118,55691,5,8,1:2:0:0:
296,120,55774,1,8,1:2:0:0:
375,136,56104,5,10,1:2:0:0:
442,348,56428,6,0,B|395:357|359:270|460:254|469:266|465:297,1,150,6|0,3:2|0:0,0:0:0:0:
454,354,56757,2,0,P|440:242|459:130,1,225.000008583069,2|0,3:2|0:0,0:0:0:0:
501,28,57087,1,2,3:2:0:0:
361,71,57252,6,0,P|353:106|375:136,1,75,10|0,3:2|0:0,0:0:0:0:
354,56,57581,6,0,P|281:42|216:77,1,150.000005722046,10|0,3:2|3:0,0:0:0:0:
58,90,57911,2,0,B|55:153|98:168|165:143|124:86,2,150.000005722046,10|2|10,3:2|3:2|3:2,0:0:0:0:
160,19,58323,1,8,1:2:0:0:
175,21,58406,2,0,P|205:41|217:76,1,75.0000028610231,2|0,3:2|0:0,0:0:0:0:
311,162,58570,2,0,P|291:193|257:207,1,75.0000028610231,10|0,3:2|0:0,0:0:0:0:
217,376,58735,6,0,P|195:354|190:323,1,50,2|0,3:2|0:0,0:0:0:0:
304,302,58900,2,0,P|279:303|256:292,1,50,10|0,3:2|0:0,0:0:0:0:
182,248,59065,1,2,3:2:0:0:
182,248,59230,1,0,3:0:0:0:
1,358,59395,6,0,B|-10:279|32:223|79:212|150:250|137:327|51:318,1,269.999991760254,14|0,3:2|0:0,0:0:0:0:
37,229,59724,1,2,3:2:0:0:
37,229,59889,1,2,3:2:0:0:
217,376,60054,6,0,P|157:259|211:140,1,269.999991760254,14|0,3:2|0:0,0:0:0:0:
223,70,60384,2,0,B|267:69|210:-9|180:6|141:59|167:113,1,150.000005722046,0|10,3:0|3:2,0:0:0:0:
150,209,60713,1,2,3:2:0:0:
54,72,60878,5,10,3:2:0:0:
70,68,60960,1,0,1:0:0:0:
85,66,61043,2,0,L|162:79,1,75.0000028610231,0|0,3:0|0:0,0:0:0:0:
369,47,61208,5,8,3:2:0:0:
354,42,61290,1,8,1:2:0:0:
338,39,61373,2,0,L|254:53,1,75.0000028610231,0|0,3:0|1:0,0:0:0:0:
230,133,61537,1,10,3:2:0:0:
298,255,61702,5,2,3:2:0:0:
440,109,61867,2,0,P|390:124|370:219,1,150.000005722046,10|2,3:2|3:2,0:0:0:0:
315,333,62197,1,10,3:2:0:0:
324,344,62279,1,10,1:2:0:0:
335,353,62362,2,0,L|409:339,1,75.0000028610231,2|0,3:2|0:0,0:0:0:0:
512,199,62526,2,0,L|437:185,1,75.0000028610231,10|0,3:2|0:0,0:0:0:0:
349,102,62691,6,0,P|314:113|295:144,1,75.0000028610231,2|0,3:2|0:0,0:0:0:0:
206,160,62856,2,0,P|197:195|214:227,1,75.0000028610231,10|0,3:2|0:0,0:0:0:0:
77,330,63021,6,0,B|130:267|174:311|177:313|182:315|243:343|288:278,1,225.000008583069,2|0,3:2|0:0,0:0:0:0:
215,228,63351,1,2,3:2:0:0:
167,346,63515,5,10,3:2:0:0:
177,357,63598,1,8,1:2:0:0:
190,366,63680,2,0,P|226:377|264:369,1,75.0000028610231,0|0,3:0|0:0,0:0:0:0:
413,367,63845,6,0,L|398:283,1,75.0000028610231,10|0,3:2|0:0,0:0:0:0:
280,288,64010,2,0,L|294:204,1,75.0000028610231,2|0,3:2|0:0,0:0:0:0:
255,57,64175,2,0,L|268:130,1,75.0000028610231,10|0,3:2|0:0,0:0:0:0:
122,330,64340,6,0,P|206:348|264:279,1,170.000003242493,14|0,3:2|3:0,0:0:0:0:
360,249,64587,1,0,1:0:0:0:
367,234,64669,2,0,P|345:155|267:130,1,170.000003242493,14|0,3:2|3:0,0:0:0:0:
198,45,64917,1,0,1:0:0:0:
182,44,64999,2,0,P|124:102|142:182,1,170.000003242493,14|0,3:2|3:0,0:0:0:0:
281,323,65329,6,0,B|271:306|255:302|213:261|173:324|174:329|173:334|180:402|79:352|54:335|121:226|170:292,1,300,14|0,3:2|0:0,0:0:0:0:
199,370,65658,1,2,3:2:0:0:
141,181,65823,5,10,3:2:0:0:
156,139,65906,1,8,3:2:0:0:
171,99,65988,1,0,3:0:0:0:
271,204,66153,5,8,3:2:0:0:
286,245,66235,1,8,3:2:0:0:
301,285,66318,1,0,3:0:0:0:
490,339,66482,5,10,3:2:0:0:
501,285,66565,1,8,3:2:0:0:
482,236,66647,1,10,3:2:0:0:
440,205,66730,1,8,3:2:0:0:
387,201,66812,1,10,3:2:0:0:
341,226,66895,1,8,3:2:0:0:
301,285,66977,6,0,P|241:302|207:225,1,150,6|0,3:2|0:0,0:0:0:0:
315,271,67307,2,0,B|355:206|406:199|481:189|525:308|438:321,1,225.000008583069,10|0,3:2|0:0,0:0:0:0:
482,375,67636,1,2,3:2:0:0:
392,239,67801,6,0,P|394:202|406:167,1,75,2|0,1:2|0:0,0:0:0:0:
512,129,68131,6,0,P|437:126|367:100,1,150.000005722046,2|0,1:2|3:0,0:0:0:0:
206,7,68460,2,0,B|210:74|289:81|333:46|296:23,2,150.000005722046,2|10|2,1:2|3:2|1:2,0:0:0:0:
284,143,68873,1,8,1:2:0:0:
293,155,68955,2,0,P|300:190|283:223,1,75.0000028610231,2|8,3:2|1:2,0:0:0:0:
288,351,69120,2,0,P|251:358|217:344,1,75.0000028610231,2|0,1:2|0:0,0:0:0:0:
70,379,69285,6,0,P|92:357|123:352,1,50,2|0,3:2|0:0,0:0:0:0:
53,260,69449,2,0,P|78:259|101:270,1,50,2|0,1:2|0:0,0:0:0:0:
190,254,69614,1,2,3:2:0:0:
190,254,69779,1,0,3:0:0:0:
0,135,69944,6,0,B|64:231|179:184|182:82|55:64,1,269.999991760254,14|0,3:2|0:0,0:0:0:0:
49,201,70274,1,2,3:2:0:0:
49,201,70438,1,2,3:2:0:0:
201,21,70603,6,0,B|206:12|149:-17|95:18|99:125|174:111|178:111|182:110|238:123|282:128,1,269.999991760254,12|0,3:2|0:0,0:0:0:0:
289,212,70933,6,0,B|284:157|325:158|328:157|331:156|373:140|363:88,1,150.000005722046,0|2,3:0|1:2,0:0:0:0:
289,4,71263,1,10,3:2:0:0:
470,48,71428,5,2,1:2:0:0:
475,64,71510,1,0,0:0:0:0:
477,79,71592,2,0,L|491:155,1,75.0000028610231,0|0,3:0|0:0,0:0:0:0:
372,185,71757,2,0,L|357:261,1,75.0000028610231,2|0,1:2|0:0,0:0:0:0:
304,332,71922,6,0,P|281:342|257:340,1,50,10|0,3:2|0:0,0:0:0:0:
389,337,72087,2,0,P|413:333|436:343,1,50,2|0,1:2|0:0,0:0:0:0:
358,258,72252,6,0,B|319:176|319:176|306:148|276:127|249:159,1,179.999994506836,10|0,3:2|3:0,0:0:0:0:
114,229,72499,2,0,B|109:270|146:277|175:266|175:266|259:235,1,179.999994506836,10|0,3:2|3:0,0:0:0:0:
479,203,72746,6,0,B|441:196|411:204|386:225|395:273|396:280|397:285|371:375|279:410|205:316|259:214|322:217|372:271,1,400,14|2,3:2|3:2,0:0:0:0:
467,290,73158,1,0,3:0:0:0:
472,298,73241,1,8,3:2:0:0:
392,188,73406,1,2,3:2:0:0:
220,355,73570,6,0,B|171:355|113:326|121:253|182:211|223:266|201:291,1,179.999994506836,10|0,3:2|3:0,0:0:0:0:
337,128,73818,2,0,B|325:175|282:223|213:196|188:127|252:101|270:129,1,179.999994506836,10|0,3:2|3:0,0:0:0:0:
24,34,74065,6,0,B|-32:163|74:190|145:164|124:69|121:64|117:60|96:-15|198:-23|234:4|235:52,1,400,14|2,3:2|3:2,0:0:0:0:
317,36,74477,1,0,3:0:0:0:
323,29,74559,1,10,3:2:0:0:
416,107,74724,1,2,3:2:0:0:
330,313,74889,6,0,L|478:288,2,150.000005722046,6|0|8,3:2|1:0|3:2,0:0:0:0:
415,380,75384,1,2,1:2:0:0:
434,189,75548,2,0,L|507:175,2,75.0000028610231,2|8|0,3:2|1:2|1:0,0:0:0:0:
478,288,75878,5,8,3:2:0:0:
330,314,76043,1,2,1:2:0:0:
317,113,76208,2,0,L|243:126,1,75.0000028610231,2|0,3:2|0:0,0:0:0:0:
135,211,76373,5,8,3:2:0:0:
120,249,76455,1,8,3:2:0:0:
106,288,76537,1,0,3:0:0:0:
40,120,76702,5,8,3:2:0:0:
25,80,76785,1,8,3:2:0:0:
11,42,76867,1,0,3:0:0:0:
178,97,77032,5,8,3:2:0:0:
243,126,77114,1,8,3:2:0:0:
298,150,77197,1,10,3:2:0:0:
341,169,77279,1,8,3:2:0:0:
375,184,77362,1,8,3:2:0:0:
402,196,77444,1,8,3:2:0:0:
423,205,77526,1,6,3:2:0:0:
423,205,78021,5,10,3:2:0:0:
258,285,78186,1,10,3:2:0:0:
204,103,78351,1,10,3:2:0:0:
204,103,78680,5,10,3:2:0:0:
258,285,78845,1,10,3:2:0:0:
423,205,79010,1,10,3:2:0:0:
186,96,79175,1,10,3:2:0:0:
186,96,79504,5,2,3:2:0:0:
32,353,80164,6,0,L|150:332,1,119.999996337891,4|2,3:2|1:2,0:0:0:0:
238,261,80658,1,2,3:2:0:0:
238,261,80741,1,0,3:0:0:0:
238,261,80823,2,0,L|297:271,1,59.9999981689454,8|2,3:2|3:2,0:0:0:0:
26,256,81318,2,0,L|144:235,1,119.999996337891,6|2,3:2|3:2,0:0:0:0:
331,74,81977,5,0,3:0:0:0:
331,74,82059,1,0,3:0:0:0:
331,74,82142,2,0,B|295:277,2,200,10|10|0,3:2|3:2|3:0,0:0:0:0:
482,334,83296,5,2,3:2:0:0:
482,334,83378,1,0,3:0:0:0:
482,334,83460,2,0,L|422:323,2,59.9999981689454,10|2|2,3:2|3:2|1:2,0:0:0:0:
477,210,83955,2,0,L|417:199,1,59.9999981689454,14|0,3:2|0:0,0:0:0:0:
297,272,84285,5,10,3:2:0:0:
297,272,84367,1,0,3:0:0:0:
297,272,84449,2,0,B|332:68,2,200,10|10|2,3:2|3:2|3:2,0:0:0:0:
142,348,85438,6,0,L|163:230,1,119.999996337891,4|2,3:2|1:2,0:0:0:0:
89,128,85933,1,2,3:2:0:0:
89,128,86015,1,0,3:0:0:0:
89,128,86098,2,0,L|99:68,2,59.9999981689454,8|2|2,3:2|3:2|1:2,0:0:0:0:
200,37,86592,2,0,L|178:155,1,119.999996337891,4|2,3:2|3:2,0:0:0:0:
331,74,87252,5,0,3:0:0:0:
331,74,87334,1,0,3:0:0:0:
331,74,87417,2,0,B|295:277,2,200,10|10|2,3:2|3:2|1:2,0:0:0:0:
482,334,88570,5,0,3:0:0:0:
482,334,88653,1,0,3:0:0:0:
482,334,88735,2,0,L|422:323,1,59.9999981689454,8|0,3:2|3:0,0:0:0:0:
162,278,89230,2,0,L|102:267,1,59.9999981689454,0|8,3:0|3:2,0:0:0:0:
200,37,90054,5,4,3:2:0:0:
162,278,90429,1,4,3:2:0:0:
200,37,90804,5,6,3:2:0:0:
179,161,90991,1,0,0:0:0:0:
210,27,91179,2,0,L|339:49,1,129.999994049073,10|2,3:2|1:2,0:0:0:0:
421,124,91554,1,2,3:2:0:0:
424,132,91647,1,8,0:2:0:0:
427,140,91741,1,2,1:2:0:0:
265,124,91929,2,0,L|314:132,1,50,8|2,3:2|1:2,0:0:0:0:
363,228,92210,1,10,1:2:0:0:
360,237,92304,6,0,P|320:287|258:302,1,129.999994049073,2|2,3:2|1:2,0:0:0:0:
188,384,92679,2,0,P|130:359|98:304,1,129.999994049073,10|2,3:2|1:2,0:0:0:0:
31,226,93054,1,2,3:2:0:0:
199,246,93241,1,2,1:2:0:0:
202,240,93335,1,2,1:2:0:0:
206,232,93429,2,0,P|211:209|203:186,1,50,8|2,3:2|1:2,0:0:0:0:
144,131,93710,1,10,0:2:0:0:
150,118,93804,6,0,P|187:87|236:84,1,100,2|0,3:2|1:0,0:0:0:0:
390,34,94179,1,10,3:2:0:0:
395,156,94366,1,2,1:2:0:0:
386,154,94460,1,8,1:2:0:0:
376,153,94554,2,0,P|344:134|327:101,1,75,2|0,3:2|0:0,0:0:0:0:
390,34,94929,1,8,3:2:0:0:
237,84,95116,2,0,L|108:61,1,129.999994049073,2|0,1:2|3:0,0:0:0:0:
0,140,95491,5,0,1:0:0:0:
3,150,95585,1,0,1:0:0:0:
10,162,95679,2,0,P|32:191|67:204,1,75.0000028610231,10|0,3:2|0:0,0:0:0:0:
128,273,95866,1,2,1:2:0:0:
141,281,95960,2,0,P|177:275|206:254,1,75.0000028610231,2|0,1:2|3:0,0:0:0:0:
300,280,96147,1,8,0:2:0:0:
315,279,96241,2,0,P|337:250|341:213,1,75.0000028610231,2|0,1:2|0:0,0:0:0:0:
512,295,96429,6,0,P|454:210|332:219,1,225.000008583069,10|0,3:2|0:0,0:0:0:0:
283,116,96804,5,6,3:2:0:0:
350,5,96991,1,0,0:0:0:0:
276,127,97179,2,0,L|405:149,1,129.999994049073,10|2,3:2|1:2,0:0:0:0:
488,210,97554,1,2,3:2:0:0:
492,202,97647,1,8,0:2:0:0:
496,195,97741,1,0,1:2:0:0:
512,91,97929,2,0,L|462:83,1,50,8|2,3:2|1:2,0:0:0:0:
404,148,98210,1,10,1:2:0:0:
390,157,98304,6,0,P|354:209|366:271,1,129.999994049073,2|0,3:2|1:0,0:0:0:0:
293,383,98679,2,0,P|239:346|178:358,1,129.999994049073,10|2,3:2|1:2,0:0:0:0:
100,307,98960,1,8,1:2:0:0:
90,297,99054,2,0,P|65:270|63:232,1,75,2|0,3:2|0:0,0:0:0:0:
146,241,99429,2,0,P|202:212|225:153,1,129.999994049073,8|0,3:2|1:0,0:0:0:0:
270,76,99710,1,8,1:2:0:0:
275,69,99804,1,0,3:0:0:0:
51,61,99991,6,0,P|25:62|45:50,1,64.9999970245363,2|0,1:2|0:0,0:0:0:0:
106,0,100179,2,0,L|80:147,1,150.000005722046,10|0,3:2|1:0,0:0:0:0:
262,253,100554,6,0,P|277:233|253:240,1,64.9999970245363,2|0,3:2|0:0,0:0:0:0:
225,153,100741,2,0,L|198:301,1,150.000005722046,2|8,1:2|3:2,0:0:0:0:
46,360,101116,6,0,P|19:361|39:349,1,64.9999970245363,2|8,1:2|1:2,0:0:0:0:
139,366,101304,1,0,3:0:0:0:
139,366,101491,1,2,3:2:0:0:
26,221,101679,6,0,P|38:173|78:147,1,100,10|0,3:2|0:0,0:0:0:0:
177,29,101866,2,0,P|226:27|261:60,1,100,2|0,1:2|1:0,0:0:0:0:
422,151,102054,5,10,3:2:0:0:
435,204,102147,1,8,3:2:0:0:
406,254,102241,1,10,3:2:0:0:
350,262,102335,1,8,3:2:0:0:
316,215,102429,5,10,3:2:0:0:
326,171,102522,1,8,3:2:0:0:
334,127,102616,1,10,3:2:0:0:
342,83,102710,1,8,3:2:0:0:
350,39,102804,1,6,3:2:0:0:
209,148,102991,6,0,L|195:222,1,75.0000028610231,2|0,1:2|0:0,0:0:0:0:
215,384,103179,2,0,L|188:233,1,150.000005722046,10|0,3:2|1:0,0:0:0:0:
77,334,103554,6,0,L|63:260,1,75.0000028610231,2|8,3:2|0:2,0:0:0:0:
83,98,103741,2,0,L|56:249,1,150.000005722046,2|8,1:2|3:2,0:0:0:0:
240,304,104116,6,0,L|388:331,2,150.000005722046,2|0|2,1:2|3:0|1:2,0:0:0:0:
404,332,104679,2,0,P|430:261|405:193,1,150.000005722046,10|2,3:2|1:2,0:0:0:0:
422,114,104960,1,8,0:2:0:0:
403,111,105054,2,0,P|364:111|336:141,1,75.0000028610231,2|8,3:2|0:2,0:0:0:0:
511,93,105241,2,0,P|440:78|397:18,1,150.000005722046,2|8,1:2|3:2,0:0:0:0:
227,2,105616,6,0,P|154:9|105:64,2,150.000005722046,2|0|2,1:2|3:0|1:2,0:0:0:0:
398,19,106179,1,10,3:2:0:0:
338,134,106366,1,2,1:2:0:0:
319,129,106460,1,8,0:2:0:0:
301,124,106554,2,0,P|270:98|260:64,1,75.0000028610231,0|8,3:0|0:2,0:0:0:0:
105,64,106741,2,0,P|154:9|227:2,1,150.000005722046,2|8,1:2|3:2,0:0:0:0:
266,201,107116,6,0,L|293:349,2,150.000005722046,2|0|2,1:2|3:0|1:2,0:0:0:0:
374,320,107679,1,10,3:2:0:0:
239,289,107866,1,2,1:2:0:0:
230,282,107960,1,8,0:2:0:0:
221,275,108054,2,0,L|144:287,1,75.0000028610231,2|8,3:2|0:2,0:0:0:0:
266,201,108241,2,0,L|342:213,1,75.0000028610231,2|0,3:2|0:0,0:0:0:0:
457,320,108429,5,10,3:2:0:0:
512,206,108616,1,2,3:2:0:0:
286,95,108804,5,6,3:2:0:0:
402,36,108991,2,0,L|328:22,1,75.0000028610231,2|0,1:2|0:0,0:0:0:0:
511,133,109179,2,0,L|362:106,1,150.000005722046,10|0,3:2|1:0,0:0:0:0:
223,17,109554,6,0,L|149:31,1,75.0000028610231,2|8,3:2|0:2,0:0:0:0:
68,3,109741,2,0,P|39:24|25:59,1,75.0000028610231,2|0,1:2|0:0,0:0:0:0:
41,195,109929,1,8,3:2:0:0:
226,212,110116,6,0,P|299:212|352:262,2,150.000005722046,2|0|2,1:2|3:0|1:2,0:0:0:0:
167,360,110679,2,0,L|324:332,1,150.000005722046,10|2,3:2|1:2,0:0:0:0:
390,368,110960,1,8,0:2:0:0:
405,362,111054,2,0,P|434:326|428:291,1,75.0000028610231,2|8,3:2|0:2,0:0:0:0:
326,115,111241,2,0,L|354:271,1,150.000005722046,2|0,1:2|3:0,0:0:0:0:
161,285,111616,6,0,P|86:282|31:330,2,150.000005722046,2|0|2,1:2|3:0|1:2,0:0:0:0:
313,333,112179,1,10,3:2:0:0:
232,243,112366,1,2,1:2:0:0:
219,225,112460,1,8,0:2:0:0:
206,211,112554,2,0,P|170:192|135:198,1,75.0000028610231,2|8,3:2|0:2,0:0:0:0:
0,34,112741,2,0,P|17:105|77:146,1,150.000005722046,2|8,1:2|3:2,0:0:0:0:
277,113,113116,6,0,L|425:86,2,150.000005722046,2|0|2,1:2|3:0|1:2,0:0:0:0:
65,220,113679,1,14,3:2:0:0:
319,242,113866,1,2,1:2:0:0:
194,52,114054,6,0,L|371:19,1,179.999994506836,2|2,3:2|3:2,0:0:0:0:
425,87,114335,1,0,1:0:0:0:
430,102,114429,6,0,L|331:119,1,100,10|2,3:2|1:2,0:0:0:0:
170,176,114804,85,10,3:2:0:0:
183,220,114897,1,10,3:2:0:0:
235,277,114991,5,10,3:2:0:0:
229,299,115085,1,10,3:2:0:0:
223,321,115179,6,0,P|265:223|361:216,1,200,2|2,3:2|3:2,0:0:0:0:
444,384,115741,5,10,3:2:0:0:
426,334,115835,2,0,L|353:321,1,75.0000028610231,10|0,3:2|3:0,0:0:0:0:
165,270,116116,5,10,3:2:0:0:
183,220,116210,2,0,L|256:207,1,75.0000028610231,10|0,3:2|3:0,0:0:0:0:
378,206,116491,5,2,1:2:0:0:
213,133,116679,5,10,3:2:0:0:
190,92,116772,1,2,0:2:0:0:
203,48,116866,1,2,3:2:0:0:
242,27,116960,1,2,0:2:0:0:
321,4,117054,5,2,3:2:0:0:
325,25,117147,1,2,0:2:0:0:
321,47,117241,1,2,3:2:0:0:
313,68,117335,1,2,3:2:0:0:
242,27,117429,6,0,P|182:30|136:78,1,119.999996337891,14|2,3:2|1:2,0:0:0:0:
31,162,117804,85,10,3:2:0:0:
69,186,117897,1,10,3:2:0:0:
104,251,117991,5,10,3:2:0:0:
124,239,118085,1,10,3:2:0:0:
143,226,118179,6,0,P|55:259|46:358,1,200,2|2,3:2|3:2,0:0:0:0:
216,370,118741,5,10,3:2:0:0:
265,351,118835,2,0,L|278:278,1,75.0000028610231,10|0,3:2|3:0,0:0:0:0:
456,261,119116,5,10,3:2:0:0:
407,242,119210,2,0,L|394:169,1,75.0000028610231,10|0,3:2|3:0,0:0:0:0:
391,45,119491,5,2,1:2:0:0:
256,128,119679,1,10,3:2:0:0:
233,150,119772,1,8,3:2:0:0:
210,173,119866,1,10,3:2:0:0:
188,195,119960,1,8,3:2:0:0:
126,238,120054,2,0,P|94:256|57:257,1,75.0000028610231,2|0,3:2|0:0,0:0:0:0:
286,352,120429,6,0,P|393:319|504:304,1,225.000008583069,14|0,3:2|0:0,0:0:0:0:
371,274,120804,6,0,L|357:288,4,12.5,0|0|0|0|0,1:0|1:0|1:0|1:0|1:0,0:0:0:0:
286,352,121051,2,0,L|277:360,4,12.5,0|0|0|0|0,1:0|1:0|1:0|1:0|1:0,0:0:0:0:
149,357,121298,2,0,L|136:344,5,12.5,0|0|0|0|0|0,1:0|1:0|1:0|1:0|1:0|1:0,0:0:0:0:
216,291,121628,6,0,L|216:239,1,50,2|0,3:2|3:0,0:0:0:0:
213,106,121793,1,10,3:2:0:0:
50,243,122116,6,0,B|41:228|47:214|148:204|136:297|88:300,1,150,6|0,3:2|0:0,0:0:0:0:
8,339,122445,2,0,P|105:285|216:291,1,225.000008583069,2|0,3:2|1:0,0:0:0:0:
286,352,122775,1,2,3:2:0:0:
116,362,122940,6,0,P|91:334|94:298,1,75,10|0,3:2|0:0,0:0:0:0:
216,291,123269,6,0,P|224:216|211:143,1,150.000005722046,10|0,3:2|3:0,0:0:0:0:
68,51,123599,2,0,B|61:20|74:4|162:-10|151:98,2,150.000005722046,10|2|10,3:2|3:2|3:2,0:0:0:0:
68,184,124011,1,0,1:0:0:0:
79,193,124094,2,0,P|114:200|147:183,1,75.0000028610231,2|0,3:2|0:0,0:0:0:0:
281,173,124258,2,0,P|288:136|274:102,1,75.0000028610231,10|0,3:2|0:0,0:0:0:0:
369,16,124423,6,0,P|369:47|387:72,1,50,2|0,3:2|0:0,0:0:0:0:
483,10,124588,2,0,P|464:26|456:51,1,50,10|0,3:2|0:0,0:0:0:0:
434,131,124753,1,2,3:2:0:0:
434,131,124918,1,0,3:0:0:0:
236,17,125083,6,0,P|269:147|293:280,1,269.999991760254,14|0,3:2|0:0,0:0:0:0:
232,341,125412,1,2,3:2:0:0:
232,341,125577,1,2,3:2:0:0:
460,266,125742,6,0,B|404:213|353:220|278:229|266:356|354:346,1,269.999991760254,14|0,3:2|1:0,0:0:0:0:
487,343,126072,2,0,P|478:269|510:203,1,150.000005722046,0|10,3:0|3:2,0:0:0:0:
511,87,126401,1,2,3:2:0:0:
403,190,126566,5,10,3:2:0:0:
387,194,126648,1,0,1:0:0:0:
372,196,126731,2,0,L|295:183,1,75.0000028610231,0|0,3:0|0:0,0:0:0:0:
131,269,126896,5,8,3:2:0:0:
146,264,126978,1,8,1:2:0:0:
162,261,127061,2,0,L|246:275,1,75.0000028610231,0|0,3:0|1:0,0:0:0:0:
325,286,127225,1,10,3:2:0:0:
296,101,127390,5,2,3:2:0:0:
187,29,127555,2,0,P|134:30|90:117,1,150.000005722046,10|2,3:2|3:2,0:0:0:0:
4,241,127885,1,10,3:2:0:0:
13,252,127967,1,10,1:2:0:0:
24,261,128050,2,0,L|98:247,1,75.0000028610231,2|0,3:2|0:0,0:0:0:0:
231,318,128214,2,0,L|306:304,1,75.0000028610231,10|0,3:2|0:0,0:0:0:0:
474,357,128379,6,0,P|449:329|448:293,1,75.0000028610231,2|0,3:2|0:0,0:0:0:0:
419,179,128544,2,0,P|387:197|377:233,1,75.0000028610231,10|0,3:2|0:0,0:0:0:0:
512,151,128709,6,0,B|433:177|418:118|416:114|413:110|374:55|302:90,1,225.000008583069,2|0,3:2|0:0,0:0:0:0:
263,177,129039,1,2,3:2:0:0:
189,66,129203,5,10,3:2:0:0:
179,55,129286,1,8,1:2:0:0:
166,46,129368,2,0,P|130:35|92:43,1,75.0000028610231,0|0,3:0|0:0,0:0:0:0:
22,171,129533,6,0,L|37:255,1,75.0000028610231,10|0,3:2|0:0,0:0:0:0:
157,304,129698,2,0,L|241:290,1,75.0000028610231,2|0,3:2|0:0,0:0:0:0:
376,232,129863,2,0,L|303:219,1,75.0000028610231,10|0,3:2|0:0,0:0:0:0:
189,66,130028,6,0,B|210:124|164:137|161:138|158:140|115:170|143:225,1,179.999994506836,14|0,3:2|3:0,0:0:0:0:
82,354,130275,1,0,1:0:0:0:
74,339,130357,2,0,B|132:360|145:314|146:311|148:308|178:265|233:293,1,179.999994506836,14|0,3:2|3:0,0:0:0:0:
363,368,130605,1,0,1:0:0:0:
348,376,130687,2,0,B|369:318|323:305|320:304|317:302|274:272|302:217,1,179.999994506836,14|0,3:2|3:0,0:0:0:0:
419,80,131017,6,0,B|398:72|398:72|339:50|319:109|332:144|375:155|375:155|427:175|427:175|449:183|464:206|438:234,1,300,14|0,3:2|0:0,0:0:0:0:
361,293,131346,5,2,3:2:0:0:
233,177,131511,1,10,3:2:0:0:
218,216,131594,1,8,3:2:0:0:
204,254,131676,1,2,3:2:0:0:
368,209,131841,6,0,L|339:131,1,75.0000028610231,2|0,3:2|0:0,0:0:0:0:
305,36,132006,1,0,3:0:0:0:
139,127,132170,5,8,3:2:0:0:
192,139,132253,1,8,3:2:0:0:
233,177,132335,1,10,3:2:0:0:
285,190,132418,1,8,3:2:0:0:
326,227,132500,1,10,3:2:0:0:
379,242,132583,1,8,3:2:0:0:
430,253,132665,6,0,P|442:181|395:126,1,150.000005722046,6|10,3:2|3:2,0:0:0:0:
347,40,132995,1,2,3:2:0:0:
338,32,133077,1,0,3:0:0:0:
329,24,133159,2,0,L|255:37,1,75.0000028610231,10|0,3:2|0:0,0:0:0:0:
67,40,133324,6,0,B|93:11|164:13|213:81|125:111,2,150.000005722046,2|10|2,3:2|3:2|3:2,0:0:0:0:
14,237,133819,2,0,B|53:154|92:109,2,150.000005722046,10|0|8,3:2|3:0|3:2,0:0:0:0:
67,349,134313,1,2,3:2:0:0:
76,357,134396,1,0,3:0:0:0:
85,365,134478,2,0,L|174:356,1,75.0000028610231,10|0,3:2|1:0,0:0:0:0:
229,383,134643,2,0,B|256:307|297:249,1,150.000005722046,2|8,3:2|3:2,0:0:0:0:
394,216,134973,1,2,3:2:0:0:
339,57,135137,1,8,3:2:0:0:
187,92,135302,5,2,3:2:0:0:
166,140,135385,1,2,1:2:0:0:
177,190,135467,1,10,3:2:0:0:
219,220,135550,1,2,1:2:0:0:
271,223,135632,5,2,3:2:0:0:
307,234,135714,1,2,3:2:0:0:
331,263,135797,1,10,3:2:0:0:
345,296,135879,1,2,3:2:0:0:
335,332,135962,6,0,P|309:359|271:358,1,75.0000028610231,2|2,3:2|1:2,0:0:0:0:
190,384,136126,2,0,P|157:366|148:329,1,75.0000028610231,10|2,3:2|1:2,0:0:0:0:
43,245,136291,2,0,B|36:268|53:311|107:335|139:283|134:257|104:253,1,150.000005722046,2|10,3:2|3:2,0:0:0:0:
109,62,136621,2,0,P|155:120|190:186,2,150.000005722046,2|10|2,3:2|3:2|3:2,0:0:0:0:
42,26,137033,1,0,3:0:0:0:
29,17,137116,1,8,3:2:0:0:
195,105,137280,6,0,B|229:64|258:92|260:94|263:95|302:114|332:71,1,150.000005722046,2|10,3:2|3:2,0:0:0:0:
396,23,137528,1,8,1:2:0:0:
411,21,137610,2,0,P|424:98|422:176,1,150.000005722046,2|10,3:2|3:2,0:0:0:0:
476,259,137857,5,8,1:2:0:0:
469,273,137940,2,0,B|441:316|387:328|330:281|360:230|404:239,2,150.000005722046,6|8|2,3:2|3:2|3:2,0:0:0:0:
422,169,138352,1,2,3:2:0:0:
410,162,138434,2,0,L|329:176,1,75.0000028610231,10|0,3:2|0:0,0:0:0:0:
241,228,138599,1,2,3:2:0:0:
234,238,138681,1,2,1:2:0:0:
226,247,138764,2,0,P|186:310|158:380,2,150.000005722046,10|2|10,3:2|3:2|3:2,0:0:0:0:
336,174,139258,5,2,3:2:0:0:
343,164,139341,1,2,1:2:0:0:
350,154,139423,1,10,3:2:0:0:
357,144,139506,1,2,1:2:0:0:
363,134,139588,2,0,P|399:138|421:167,3,75.0000028610231,2|2|10|2,3:2|3:2|3:2|1:2,0:0:0:0:
486,233,139918,2,0,B|501:277|482:324|409:334|395:291|416:251,2,150.000005722046,2|8|0,3:2|3:2|3:0,0:0:0:0:
335,251,140412,2,0,P|298:249|266:269,1,75.0000028610231,8|0,3:2|0:0,0:0:0:0:
101,353,140577,5,10,3:2:0:0:
109,333,140659,1,2,3:2:0:0:
117,313,140742,1,2,3:2:0:0:
125,293,140824,1,2,3:2:0:0:
133,273,140907,2,0,L|59:259,1,75.0000028610231,10|2,3:2|3:2,0:0:0:0:
126,179,141072,2,0,L|52:165,1,75.0000028610231,2|2,3:2|3:2,0:0:0:0:
164,10,141236,5,10,3:2:0:0:
177,43,141319,1,2,1:2:0:0:
190,77,141401,1,2,3:2:0:0:
204,110,141484,1,2,1:2:0:0:
217,144,141566,2,0,L|290:130,1,75.0000028610231,10|0,3:2|0:0,0:0:0:0:
358,246,141731,2,0,L|431:232,1,75.0000028610231,0|0,3:0|0:0,0:0:0:0:
472,151,141896,5,6,3:2:0:0:
427,36,142061,1,8,3:2:0:0:
414,36,142143,1,8,3:2:0:0:
402,37,142225,2,0,P|364:65|358:98,1,75.0000028610231,0|0,3:0|0:0,0:0:0:0:
217,144,142390,5,10,3:2:0:0:
210,178,142473,1,8,3:2:0:0:
220,210,142555,2,0,P|256:238|289:236,1,75.0000028610231,6|0,3:2|0:0,0:0:0:0:
447,342,142720,5,8,3:2:0:0:
418,295,142802,1,8,3:2:0:0:
415,239,142885,1,8,3:2:0:0:
387,192,142967,1,8,3:2:0:0:
384,137,143050,1,8,3:2:0:0:
357,90,143132,1,8,3:2:0:0:
355,35,143214,1,4,3:2:0:0:
99,33,143709,5,2,3:2:0:0:
92,46,143791,1,0,3:0:0:0:
85,59,143874,1,10,3:2:0:0:
117,149,144039,2,0,B|90:146|62:129|62:129|25:120|29:166,2,100,2|0|2,3:2|1:0|3:2,0:0:0:0:
198,114,144533,1,2,1:2:0:0:
125,236,144698,5,2,3:2:0:0:
118,249,144780,1,0,3:0:0:0:
111,262,144863,1,2,3:2:0:0:
147,342,145028,1,2,3:2:0:0:
268,384,145192,2,0,P|289:339|277:291,1,100,10|0,3:2|3:0,0:0:0:0:
277,291,145522,1,2,3:2:0:0:
277,93,145852,5,0,3:0:0:0:
413,33,146181,5,0,1:0:0:0:
420,46,146264,1,0,1:0:0:0:
427,59,146346,1,2,3:2:0:0:
467,136,146511,2,0,P|419:150|375:130,2,100,8|2|2,3:2|3:2|1:2,0:0:0:0:
512,292,147006,2,0,P|478:321|442:363,1,100,14|0,3:2|0:0,0:0:0:0:
357,313,147335,5,0,3:0:0:0:
350,300,147418,1,0,3:0:0:0:
343,287,147500,1,10,3:2:0:0:
293,208,147665,1,2,3:2:0:0:
292,86,147830,2,0,P|244:71|198:87,1,100,10|0,3:2|3:0,0:0:0:0:
198,86,148159,1,2,3:2:0:0:
34,325,148489,21,4,3:2:0:0:
79,230,148654,2,0,L|91:165,1,64.9999970245363,2|0,1:2|0:0,0:0:0:0:
119,23,148819,2,0,L|95:150,1,129.999994049073,10|2,3:2|1:2,0:0:0:0:
179,280,149148,5,2,3:2:0:0:
186,270,149231,1,0,1:0:0:0:
193,260,149313,2,0,L|205:195,1,64.9999970245363,2|0,3:2|0:0,0:0:0:0:
216,119,149478,2,0,L|227:55,1,64.9999970245363,2|0,3:2|0:0,0:0:0:0:
299,6,149643,1,2,3:2:0:0:
299,6,149725,1,0,3:0:0:0:
299,6,149808,1,0,3:0:0:0:
410,305,150137,6,0,L|422:240,1,64.9999970245363,10|0,3:2|0:0,0:0:0:0:
397,74,150302,2,0,L|385:137,1,64.9999970245363,10|0,3:2|0:0,0:0:0:0:
436,247,150467,2,0,L|412:378,2,129.999994049073,2|8|2,3:2|3:2|3:2,0:0:0:0:
385,138,150962,1,8,3:2:0:0:
478,160,151126,1,0,3:0:0:0:
0,111,151456,6,0,L|127:134,1,129.999994049073,10|2,3:2|1:2,0:0:0:0:
296,106,151786,1,2,3:2:0:0:
286,113,151868,1,0,1:0:0:0:
276,120,151951,2,0,L|210:109,1,64.9999970245363,2|0,3:2|0:0,0:0:0:0:
190,193,152116,2,0,L|253:204,1,64.9999970245363,2|0,3:2|0:0,0:0:0:0:
214,293,152280,1,2,3:2:0:0:
214,293,152363,1,0,3:0:0:0:
214,293,152445,6,0,L|341:317,1,129.999994049073,6|0,3:2|0:0,0:0:0:0:
498,220,152775,2,0,L|425:233,1,75.0000028610231,10|0,3:2|0:0,0:0:0:0:
254,204,152940,2,0,L|328:217,1,75.0000028610231,10|0,3:2|0:0,0:0:0:0:
483,139,153105,5,2,3:2:0:0:
476,109,153187,1,0,1:0:0:0:
469,80,153269,1,0,1:0:0:0:
463,51,153352,1,0,1:0:0:0:
456,22,153434,6,0,L|382:9,1,75.0000028610231,2|0,3:2|0:0,0:0:0:0:
256,32,153599,2,0,L|182:45,1,75.0000028610231,8|0,3:2|0:0,0:0:0:0:
91,22,153764,1,2,3:2:0:0:
11,192,153929,5,8,3:2:0:0:
59,227,154011,1,8,3:2:0:0:
107,190,154094,1,8,3:2:0:0:
155,153,154176,1,8,3:2:0:0:
204,188,154258,1,8,3:2:0:0:
391,272,154423,5,8,3:2:0:0:
350,301,154506,1,8,3:2:0:0:
309,270,154588,1,8,3:2:0:0:
269,239,154670,1,8,3:2:0:0:
227,268,154753,1,8,3:2:0:0:
73,192,154918,5,8,3:2:0:0:
105,215,155000,1,8,3:2:0:0:
138,190,155083,1,8,3:2:0:0:
170,165,155165,1,8,3:2:0:0:
204,188,155247,1,8,3:2:0:0:
357,102,155412,5,8,3:2:0:0:
331,120,155495,1,8,3:2:0:0:
305,100,155577,1,8,3:2:0:0:
279,80,155659,1,8,3:2:0:0:
252,98,155742,1,8,3:2:0:0:
226,118,155824,1,8,3:2:0:0:
200,98,155907,5,8,3:2:0:0:
200,83,155989,1,8,3:2:0:0:
200,68,156072,1,8,3:2:0:0:
200,53,156154,1,8,3:2:0:0:
200,38,156236,1,8,3:2:0:0:
200,23,156319,1,8,3:2:0:0:
200,8,156401,1,0,1:0:0:0:
32,192,157720,5,6,3:2:0:0:
480,192,158379,1,6,3:2:0:0:
256,64,159039,1,6,3:2:0:0:
256,320,159698,1,2,1:2:0:0:
256,192,160357,5,10,3:2:0:0:
256,192,160440,1,0,1:0:0:0:
256,192,160522,1,0,3:0:0:0:
339,156,160687,1,2,3:2:0:0:
406,223,160852,1,0,3:0:0:0:
375,364,161017,1,10,3:2:0:0:
375,364,161099,1,8,3:2:0:0:
375,364,161181,1,2,3:2:0:0:
375,364,161511,6,0,P|400:273|488:192,1,200,6|2,3:2|3:2,0:0:0:0:
348,286,162006,6,0,L|274:299,1,75.0000028610231,10|0,0:2|0:0,0:0:0:0:
162,361,162170,2,0,L|88:347,1,75.0000028610231,10|0,3:2|0:0,0:0:0:0:
39,269,162335,1,0,3:0:0:0:
33,236,162418,1,8,1:2:0:0:
27,203,162500,1,0,3:0:0:0:
194,283,162665,6,0,L|180:209,1,75.0000028610231,8|0,3:2|0:0,0:0:0:0:
161,112,162830,1,8,3:2:0:0:
155,79,162912,1,8,3:2:0:0:
149,46,162995,5,2,3:2:0:0:
307,0,163159,2,0,P|357:15|377:110,1,150.000005722046,10|2,3:2|3:2,0:0:0:0:
487,183,163489,1,10,3:2:0:0:
481,195,163572,1,8,1:2:0:0:
472,207,163654,2,0,P|435:221|396:212,1,75.0000028610231,2|0,3:2|0:0,0:0:0:0:
249,151,163819,2,0,P|280:175|291:213,1,75.0000028610231,10|0,3:2|0:0,0:0:0:0:
352,329,163984,6,0,L|278:342,1,75.0000028610231,2|0,3:2|0:0,0:0:0:0:
200,258,164148,2,0,L|115:243,1,75.0000028610231,10|0,3:2|0:0,0:0:0:0:
10,371,164313,6,0,P|72:279|80:168,1,225.000008583069,2|0,3:2|0:0,0:0:0:0:
17,100,164643,1,2,3:2:0:0:
127,27,164808,1,10,3:2:0:0:
137,16,164890,1,8,1:2:0:0:
150,7,164973,2,0,P|186:-4|224:4,1,75.0000028610231,0|0,3:0|0:0,0:0:0:0:
379,47,165137,6,0,L|364:131,1,75.0000028610231,10|0,3:2|0:0,0:0:0:0:
246,126,165302,2,0,L|260:210,1,75.0000028610231,2|0,3:2|0:0,0:0:0:0:
416,219,165467,2,0,L|403:292,1,75.0000028610231,10|0,3:2|0:0,0:0:0:0:
208,365,165632,6,0,B|183:331|211:306|242:301|242:301|319:287,1,170.000003242493,14|0,3:2|3:0,0:0:0:0:
416,219,165879,1,0,1:0:0:0:
433,216,165962,2,0,B|415:253|379:242|360:217|360:217|309:156,1,170.000003242493,14|0,3:2|3:0,0:0:0:0:
217,70,166209,1,0,1:0:0:0:
205,56,166291,2,0,B|246:52|254:88|242:118|242:118|215:192,1,170.000003242493,14|0,3:2|3:0,0:0:0:0:
56,354,166621,6,0,B|51:334|59:320|60:262|133:278|135:282|140:285|183:338|219:231|224:201|147:150|103:182|92:221,1,300,14|0,3:2|0:0,0:0:0:0:
74,273,166951,1,2,3:2:0:0:
60,102,167116,5,10,3:2:0:0:
85,65,167198,1,8,3:2:0:0:
129,56,167280,1,0,3:0:0:0:
261,0,167445,5,8,3:2:0:0:
303,14,167528,1,8,3:2:0:0:
323,54,167610,1,0,3:0:0:0:
477,57,167775,5,10,3:2:0:0:
461,109,167857,1,8,3:2:0:0:
445,161,167940,1,10,3:2:0:0:
429,213,168022,1,8,3:2:0:0:
413,265,168105,1,10,3:2:0:0:
397,317,168187,1,8,3:2:0:0:
340,360,168269,6,0,P|288:351|302:256,1,150,6|0,3:2|0:0,0:0:0:0:
234,353,168599,2,0,B|194:288|143:281|68:271|24:390|111:403,1,225.000008583069,2|0,3:2|0:0,0:0:0:0:
0,284,168929,1,2,3:2:0:0:
165,215,169094,6,0,P|152:250|150:287,1,75,2|0,1:2|0:0,0:0:0:0:
257,208,169423,6,0,P|185:185|124:142,1,150.000005722046,2|0,1:2|3:0,0:0:0:0:
0,65,169753,2,0,B|6:20|47:13|47:13|90:24|94:59|86:86,2,150.000005722046,2|10|2,1:2|3:2|1:2,0:0:0:0:
4,186,170165,1,8,1:2:0:0:
13,197,170247,2,0,P|44:212|81:204,1,75.0000028610231,2|8,3:2|1:2,0:0:0:0:
207,152,170412,2,0,P|238:136|275:144,1,75.0000028610231,2|0,1:2|0:0,0:0:0:0:
475,121,170577,6,0,P|448:136|435:165,1,50,2|0,3:2|0:0,0:0:0:0:
365,73,170742,2,0,P|357:96|362:121,1,50,2|0,1:2|0:0,0:0:0:0:
359,221,170907,1,2,3:2:0:0:
359,221,171072,1,0,3:0:0:0:
499,363,171236,6,0,B|525:365|530:315|494:284|442:273|416:324|416:330|414:332|410:386|342:380|310:339,1,269.999991760254,14|0,3:2|0:0,0:0:0:0:
276,262,171566,1,2,3:2:0:0:
276,262,171731,1,2,3:2:0:0:
55,353,171896,2,0,B|92:269|131:253|189:229|249:314|187:358,1,269.999991760254,12|0,3:2|0:0,0:0:0:0:
92,248,172225,6,0,B|39:198|4:198|-6:218|-31:242|18:274,1,150.000005722046,0|2,3:0|1:2,0:0:0:0:
126,323,172555,1,10,3:2:0:0:
237,215,172720,1,2,1:2:0:0:
231,199,172802,1,0,1:0:0:0:
229,183,172885,2,0,P|207:154|171:144,1,75.0000028610231,0|0,3:0|0:0,0:0:0:0:
103,60,173050,2,0,P|68:74|49:105,1,75.0000028610231,2|0,1:2|0:0,0:0:0:0:
0,258,173214,6,0,L|8:208,1,50,10|0,3:2|0:0,0:0:0:0:
100,198,173379,2,0,L|92:248,1,50,2|0,1:2|0:0,0:0:0:0:
176,349,173544,6,0,B|229:375|259:333|261:330|262:327|274:282|333:303,1,179.999994506836,10|0,3:2|3:0,0:0:0:0:
472,371,173791,2,0,B|414:351|423:301|424:297|425:294|449:253|392:227,1,179.999994506836,10|0,3:2|3:0,0:0:0:0:
347,0,174039,6,0,B|378:21|393:47|396:81|355:108|350:112|345:115|301:197|341:287|460:273|494:163|448:119|373:123,1,400,14|2,3:2|3:2,0:0:0:0:
287,67,174451,1,0,3:0:0:0:
279,63,174533,1,8,3:2:0:0:
187,117,174698,1,2,3:2:0:0:
22,45,174863,6,0,B|53:12|109:-5|152:46|140:114|77:105|75:74,1,179.999994506836,10|0,3:2|3:0,0:0:0:0:
120,271,175110,2,0,B|76:259|31:220|56:157|120:133|144:192|118:209,1,179.999994506836,10|0,3:2|3:0,0:0:0:0:
20,333,175357,6,0,P|122:288|419:321,1,400,14|2,3:2|3:2,0:0:0:0:
427,246,175769,1,0,3:0:0:0:
433,239,175852,1,10,3:2:0:0:
512,176,176017,1,2,3:2:0:0:
407,29,176181,6,0,L|357:37,1,50,14|0,3:2|0:0,0:0:0:0:
279,53,176346,1,0,3:0:0:0:
241,58,176429,1,0,3:0:0:0:
205,65,176511,1,2,3:2:0:0:
122,200,176676,6,0,L|196:188,1,75.0000028610231,14|0,3:2|0:0,0:0:0:0:
297,167,176841,1,0,3:0:0:0:
341,157,176923,1,0,3:0:0:0:
387,149,177006,1,2,3:2:0:0:
500,275,177170,6,0,L|397:291,1,100,14|0,3:2|0:0,0:0:0:0:
280,314,177335,1,0,3:0:0:0:
222,324,177418,1,0,3:0:0:0:
162,332,177500,1,2,3:2:0:0:
51,164,177665,6,0,B|58:114|58:114|108:124,1,100,10|0,3:2|0:0,0:0:0:0:
179,74,177830,2,0,L|277:91,1,100,10|0,3:2|0:0,0:0:0:0:
386,121,177995,2,0,B|378:170|378:170|328:160,1,100,10|0,3:2|0:0,0:0:0:0:
258,211,178159,2,0,L|159:193,1,100,10|0,3:2|0:0,0:0:0:0:
179,74,178324,2,0,L|277:91,1,100,10|0,3:2|0:0,0:0:0:0:
400,203,178489,5,8,3:2:0:0:
436,248,178572,1,8,3:2:0:0:
448,306,178654,1,8,3:2:0:0:
414,355,178736,1,8,3:2:0:0:
359,382,178819,1,2,3:2:0:0:
308,373,178901,1,0,3:0:0:0:
282,344,178984,1,0,3:0:0:0:
276,314,179066,1,0,3:0:0:0:
279,297,179148,6,0,P|288:242|258:196,1,112.500004291535,6|0,3:2|0:0,0:0:0:0:
277,91,179478,6,0,P|208:120|135:138,1,150.000005722046,2|2,3:2|1:2,0:0:0:0:
48,106,179808,1,10,3:2:0:0:
0,290,179973,2,0,B|55:316|94:252|92:223|103:186,2,150.000005722046,2|0|2,1:2|3:0|1:2,0:0:0:0:
132,382,180467,1,10,3:2:0:0:
188,277,180632,5,2,1:2:0:0:
204,272,180714,1,8,1:2:0:0:
219,269,180797,2,0,P|255:277|285:297,1,75.0000028610231,2|8,3:2|1:2,0:0:0:0:
373,272,180962,2,0,P|392:303|399:340,1,75.0000028610231,2|0,1:2|0:0,0:0:0:0:
512,200,181126,6,0,P|512:175|504:151,1,50,10|0,3:2|0:0,0:0:0:0:
429,199,181291,2,0,P|429:174|421:150,1,50,2|0,1:2|0:0,0:0:0:0:
403,70,181456,1,2,3:2:0:0:
403,70,181621,1,0,3:0:0:0:
505,273,181786,6,0,B|479:207|405:157|336:203|295:290|387:323|408:302,1,269.999991760254,14|0,3:2|0:0,0:0:0:0:
463,357,182116,1,2,3:2:0:0:
463,357,182280,1,2,3:2:0:0:
504,151,182445,6,0,P|376:194|242:199,1,269.999991760254,14|8,3:2|1:2,0:0:0:0:
156,227,182775,2,0,B|126:200|94:198|94:198|133:193|169:160,1,150.000005722046,0|0,3:0|1:0,0:0:0:0:
242,33,183105,1,10,3:2:0:0:
105,72,183269,5,2,1:2:0:0:
96,86,183352,1,0,1:0:0:0:
91,100,183434,2,0,L|76:176,1,75.0000028610231,0|0,3:0|0:0,0:0:0:0:
1,256,183599,5,0,1:0:0:0:
10,270,183681,1,0,1:0:0:0:
19,283,183764,2,0,L|33:359,1,75.0000028610231,8|0,3:2|1:0,0:0:0:0:
120,384,183929,1,2,1:2:0:0:
165,163,184094,5,2,3:2:0:0:
257,283,184258,2,0,L|284:126,1,150.000005722046,0|10,1:2|3:2,0:0:0:0:
342,30,184588,1,2,1:2:0:0:
351,19,184670,1,2,1:2:0:0:
362,10,184753,2,0,L|436:24,1,75.0000028610231,2|8,3:2|1:2,0:0:0:0:
511,118,184918,2,0,L|497:193,1,75.0000028610231,2|0,1:2|0:0,0:0:0:0:
473,338,185083,6,0,P|438:327|419:296,1,75.0000028610231,10|0,3:2|0:0,0:0:0:0:
329,279,185247,2,0,P|320:244|338:211,1,75.0000028610231,2|0,1:2|0:0,0:0:0:0:
497,191,185412,2,0,P|458:136|376:122,1,150.000005722046,2|0,3:2|1:0,0:0:0:0:
242,11,185742,1,10,3:2:0:0:
169,123,185907,5,2,1:2:0:0:
163,136,185989,1,8,1:2:0:0:
159,151,186072,2,0,L|172:228,1,75.0000028610231,0|0,3:0|0:0,0:0:0:0:
235,331,186236,2,0,P|270:322|294:294,1,75.0000028610231,2|0,1:2|0:0,0:0:0:0:
434,199,186401,2,0,L|360:186,1,75.0000028610231,2|0,3:2|0:0,0:0:0:0:
465,301,186566,2,0,L|391:288,1,75.0000028610231,2|0,1:2|0:0,0:0:0:0:
223,344,186731,6,0,P|150:297|158:207,1,170.000003242493,14|0,3:2|3:0,0:0:0:0:
83,156,186978,1,0,1:0:0:0:
86,138,187061,2,0,P|149:85|227:110,1,170.000003242493,14|0,3:2|3:0,0:0:0:0:
308,163,187308,1,0,1:0:0:0:
323,156,187390,2,0,P|351:78|300:14,1,170.000003242493,14|0,3:2|3:0,0:0:0:0:
106,64,187720,6,0,B|33:122|26:173|16:249|138:290|149:219,1,300,14|8,3:2|1:2,0:0:0:0:
58,161,188050,1,2,3:2:0:0:
145,325,188214,5,10,3:2:0:0:
185,310,188297,1,8,3:2:0:0:
227,295,188379,1,2,3:2:0:0:
258,144,188544,5,10,3:2:0:0:
298,159,188626,1,8,3:2:0:0:
339,174,188709,1,0,3:0:0:0:
422,329,188874,5,10,3:2:0:0:
473,310,188956,1,8,3:2:0:0:
507,270,189039,1,10,3:2:0:0:
512,217,189121,1,8,3:2:0:0:
489,170,189203,1,10,3:2:0:0:
445,142,189286,1,8,3:2:0:0:
380,111,189368,6,0,P|322:74|298:-6,1,150,6|0,3:2|0:0,0:0:0:0:
304,125,189698,2,0,B|321:199|290:240|244:300|129:247|181:176,1,225.000008583069,10|0,3:2|0:0,0:0:0:0:
92,230,190028,1,2,3:2:0:0:
241,345,190192,6,0,P|243:308|255:273,1,75,2|0,1:2|0:0,0:0:0:0:
179,234,190522,6,0,P|254:230|324:204,1,150.000005722046,2|0,1:2|3:0,0:0:0:0:
493,155,190852,2,0,B|474:119|481:87|481:87|466:123|424:150,2,150.000005722046,2|10|2,1:2|3:2|1:2,0:0:0:0:
486,277,191264,1,8,1:2:0:0:
480,290,191346,2,0,P|453:313|416:315,1,75.0000028610231,2|8,3:2|1:2,0:0:0:0:
307,384,191511,2,0,P|282:355|277:319,1,75.0000028610231,2|0,1:2|0:0,0:0:0:0:
137,173,191676,6,0,P|162:172|185:183,1,50,10|0,3:2|0:0,0:0:0:0:
194,265,191841,2,0,P|171:274|155:292,1,50,2|0,1:2|0:0,0:0:0:0:
190,382,192006,1,2,3:2:0:0:
190,382,192170,1,0,3:0:0:0:
0,247,192335,6,0,B|-5:247|-6:209|40:159|81:209|84:212|87:215|134:271|203:195|185:135|124:122|88:129,1,269.999991760254,14|0,3:2|0:0,0:0:0:0:
98,240,192665,1,2,3:2:0:0:
98,240,192830,1,2,3:2:0:0:
27,29,192995,6,0,P|130:114|259:150,1,269.999991760254,14|8,3:2|1:2,0:0:0:0:
338,103,193324,2,0,B|400:100|439:146|424:214|333:165,1,150.000005722046,0|2,3:0|1:2,0:0:0:0:
274,258,193654,1,10,3:2:0:0:
382,368,193819,5,2,1:2:0:0:
387,352,193901,1,0,0:0:0:0:
389,337,193984,2,0,L|403:261,1,75.0000028610231,0|0,3:0|0:0,0:0:0:0:
503,187,194148,2,0,L|488:111,1,75.0000028610231,2|0,1:2|0:0,0:0:0:0:
350,23,194313,6,0,P|374:20|397:30,1,50,10|0,3:2|0:0,0:0:0:0:
338,103,194478,2,0,P|362:100|385:110,1,50,2|0,1:2|0:0,0:0:0:0:
503,187,194643,6,0,P|425:147|347:184,1,179.999994506836,10|0,3:2|3:0,0:0:0:0:
217,312,194890,2,0,P|256:234|219:156,1,179.999994506836,10|0,3:2|3:0,0:0:0:0:
11,67,195137,6,0,B|25:10|83:16|159:59|156:116|180:177|133:260|43:229|11:150|66:125,1,400,14|2,3:2|3:2,0:0:0:0:
161,50,195550,1,0,3:0:0:0:
167,43,195632,1,10,3:2:0:0:
262,104,195797,1,2,3:2:0:0:
399,17,195962,6,0,B|392:78|440:79|442:80|447:81|495:98|483:158,1,179.999994506836,10|0,3:2|3:0,0:0:0:0:
512,305,196209,2,0,B|461:268|437:309|435:311|432:314|392:347|347:307,1,179.999994506836,10|0,3:2|3:0,0:0:0:0:
192,206,196456,6,0,B|148:147|-7:210|55:380|195:386|265:340,1,400,14|2,3:2|3:2,0:0:0:0:
274,240,196868,1,0,3:0:0:0:
280,233,196951,1,10,3:2:0:0:
218,131,197116,1,2,3:2:0:0:
41,208,197280,6,0,L|16:60,2,150.000005722046,2|0|8,3:2|1:0|3:2,0:0:0:0:
62,325,197775,1,2,1:2:0:0:
144,145,197940,2,0,L|217:131,2,75.0000028610231,2|8|0,3:2|3:2|1:0,0:0:0:0:
41,208,198269,5,8,3:2:0:0:
62,325,198434,1,0,1:0:0:0:
219,216,198599,2,0,L|293:203,1,75.0000028610231,2|0,3:2|0:0,0:0:0:0:
390,152,198764,5,8,3:2:0:0:
428,166,198846,1,8,3:2:0:0:
467,181,198929,1,8,3:2:0:0:
393,43,199094,5,0,3:0:0:0:
355,56,199176,1,0,3:0:0:0:
315,71,199258,1,0,3:0:0:0:
413,257,199423,5,8,3:2:0:0:
348,228,199506,1,8,3:2:0:0:
293,204,199588,1,10,3:2:0:0:
250,185,199670,1,8,3:2:0:0:
216,170,199753,1,8,3:2:0:0:
189,158,199835,1,8,3:2:0:0:
168,149,199918,1,6,3:2:0:0:
168,149,200412,5,2,1:2:0:0:
167,249,200577,1,10,1:2:0:0:
97,201,200742,1,2,1:2:0:0:
97,201,200907,1,8,3:2:0:0:
166,349,201072,5,10,3:2:0:0:
167,249,201236,1,10,3:2:0:0:
168,149,201401,1,10,3:2:0:0:
250,198,201566,5,10,3:2:0:0:
350,199,201731,1,8,3:2:0:0:
462,289,201896,1,10,3:2:0:0:
462,289,202225,6,0,P|444:215|414:146,2,150.000005722046,2|0|6,3:2|3:0|3:2,0:0:0:0:
462,289,203050,5,10,3:2:0:0:
250,198,203214,1,10,3:2:0:0:
166,349,203379,1,10,3:2:0:0:
166,349,203709,5,10,3:2:0:0:
250,198,203874,1,10,3:2:0:0:
334,47,204039,1,10,3:2:0:0:
462,289,204203,1,10,3:2:0:0:
334,47,204533,6,0,L|334:37,1,10,14|0,3:2|0:0,0:0:0:0:
