osu file format v14

[General]
AudioFilename: audio.mp3
AudioLeadIn: 0
PreviewTime: 51915
Countdown: 1
SampleSet: Soft
StackLeniency: 0.2
Mode: 0
LetterboxInBreaks: 0
WidescreenStoryboard: 1

[Editor]
Bookmarks: 39210,135563
DistanceSpacing: 1.2
BeatDivisor: 4
GridSize: 4
TimelineZoom: 2

[Metadata]
Title:Yonjuugo-nen no Yukizakura
TitleUnicode:四十五年ノ雪桜
Artist:kozato
ArtistUnicode:kozato
Creator:Angelis
Version:EX
Source:BMS
Tags:kozato bms shijuugo nen no yukizakura
BeatmapID:2418694
BeatmapSetID:517813

[Difficulty]
HPDrainRate:6
CircleSize:5
OverallDifficulty:8
ApproachRate:9.3
SliderMultiplier:1.8
SliderTickRate:1

[Events]
//Background and Video events
0,0,"bgs.jpg",0,0
//Break Periods
//Storyboard Layer 0 (Background)
//Storyboard Layer 1 (Fail)
//Storyboard Layer 2 (Pass)
//Storyboard Layer 3 (Foreground)
//Storyboard Layer 4 (Overlay)
//Storyboard Sound Samples

[TimingPoints]
1092,352.941176470588,4,2,1,100,1,0
51916,-100,4,2,1,100,0,1
59328,-100,4,2,1,100,0,0
60387,-100,4,2,1,100,0,1
67798,-100,4,2,2,100,0,0
68150,-100,4,2,1,100,0,0
68150,-100,4,2,1,100,0,0
85798,-100,4,2,1,100,0,1
93210,-100,4,2,1,100,0,0
94269,-100,4,2,1,100,0,1
101681,-100,4,2,1,100,0,0
102739,-76.9230769230769,4,2,3,100,0,1
108209,-76.9230769230769,4,2,1,100,0,1
109091,-76.9230769230769,4,2,3,100,0,1
110151,-76.9230769230769,4,2,3,100,0,0
111210,-76.9230769230769,4,2,3,100,0,1
116680,-76.9230769230769,4,2,1,100,0,1
117562,-76.9230769230769,4,2,3,100,0,1
118621,-250,4,2,1,100,0,0

[Colours]
Combo1 : 255,159,207
Combo2 : 255,0,0
Combo3 : 255,255,255
Combo4 : 253,151,169

[HitObjects]
316,54,102739,6,0,B|446:85|446:85|486:66,2,175.499991966248,14|2|10,0:0|0:0|0:0,0:0:0:0:
13,48,103444,1,2,0:0:0:0:
260,109,103621,1,2,0:0:0:0:
260,109,103709,1,2,0:0:0:0:
202,53,103797,2,0,L|83:32,1,116.999994644165,10|2,0:0|0:0,0:0:0:0:
478,124,104150,2,0,L|359:145,1,116.999994644165,2|2,0:0|0:0,0:0:0:0:
128,186,104503,1,10,0:0:0:0:
281,369,104680,1,2,0:0:0:0:
281,369,104768,1,2,0:0:0:0:
232,305,104856,6,0,B|269:287|269:287|399:318,1,175.499991966248,10|2,0:0|0:0,0:0:0:0:
509,277,105209,2,0,B|485:225|485:225|429:205,1,116.999994644165,0|2,0:0|0:0,0:0:0:0:
64,250,105562,1,2,0:0:0:0:
156,360,105739,2,0,L|145:300,1,58.4999973220826,2|2,0:0|0:0,0:0:0:0:
102,74,105915,2,0,P|157:84|174:139,1,116.999994644165,8|2,0:0|0:0,0:0:0:0:
294,22,106268,2,0,L|467:52,1,175.499991966248,2|0,0:0|0:0,0:0:0:0:
390,140,106621,1,2,0:0:0:0:
35,29,106797,1,0,0:0:0:0:
102,74,106974,6,0,L|123:193,1,116.999994644165,10|2,0:0|0:0,0:0:0:0:
37,269,107239,2,0,L|94:282,1,58.4999973220826,2|2,0:0|0:0,0:0:0:0:
304,348,107503,1,2,0:0:0:0:
272,335,107591,1,0,0:0:0:0:
254,307,107680,1,2,0:0:0:0:
255,273,107767,1,2,0:0:0:0:
275,246,107855,1,2,0:0:0:0:
307,235,107944,1,0,0:0:0:0:
339,245,108033,1,10,0:0:0:0:
467,336,108209,2,0,L|407:325,1,58.4999973220826,10|0,0:0|0:0,0:0:0:0:
196,98,108386,2,0,P|206:153|261:170,1,116.999994644165,10|2,0:0|0:0,0:0:0:0:
462,22,108739,1,10,0:0:0:0:
488,272,108915,1,0,0:0:0:0:
429,110,109091,6,0,P|371:98|311:106,1,116.999994644165,10|0,0:0|0:0,0:0:0:0:
98,83,109444,1,2,0:0:0:0:
98,83,109797,2,0,P|117:139|154:187,1,116.999994644165,2|0,0:0|0:0,0:0:0:0:
302,285,110150,1,10,0:0:0:0:
302,285,110239,1,2,0:0:0:0:
245,342,110327,2,0,L|266:223,1,116.999994644165,2|2,0:0|0:0,0:0:0:0:
159,5,110680,1,2,0:0:0:0:
62,213,110856,1,10,0:0:0:0:
111,339,111033,1,10,0:0:0:0:
111,339,111121,1,2,0:0:0:0:
149,268,111209,6,0,B|178:213|145:149|145:149|151:91,2,175.499991966248,14|2|10,0:0|0:0|0:0,0:0:0:0:
461,231,111915,1,2,0:0:0:0:
293,330,112091,1,2,0:0:0:0:
293,330,112180,1,2,0:0:0:0:
247,264,112268,2,0,P|302:286|362:289,1,116.999994644165,10|2,0:0|0:0,0:0:0:0:
0,147,112621,2,0,P|55:125|115:122,1,116.999994644165,2|2,0:0|0:0,0:0:0:0:
360,172,112974,1,10,0:0:0:0:
150,57,113150,1,2,0:0:0:0:
150,57,113239,1,2,0:0:0:0:
227,32,113327,6,0,B|176:38|176:38|112:5|57:34,1,175.499991966248,10|2,0:0|0:0,0:0:0:0:
97,144,113680,2,0,P|109:200|94:256,1,116.999994644165,0|2,0:0|0:0,0:0:0:0:
461,114,114033,1,2,0:0:0:0:
303,61,114209,2,0,L|363:50,1,58.4999973220826,2|0,0:0|0:0,0:0:0:0:
425,309,114386,2,0,L|445:193,1,116.999994644165,10|2,0:0|0:0,0:0:0:0:
299,320,114739,2,0,B|213:321|213:321|125:289,1,175.499991966248,2|0,0:0|0:0,0:0:0:0:
56,201,115091,1,2,0:0:0:0:
388,206,115268,1,0,0:0:0:0:
467,191,115444,6,0,P|412:169|352:166,1,116.999994644165,10|2,0:0|0:0,0:0:0:0:
302,60,115709,2,0,P|275:70|261:95,1,58.4999973220826,2|2,0:0|0:0,0:0:0:0:
49,25,115974,2,0,L|62:82,1,58.4999973220826,2|0,0:0|0:0,0:0:0:0:
131,97,116150,2,0,L|123:155,1,58.4999973220826,2|2,0:0|0:0,0:0:0:0:
183,192,116327,2,0,L|156:244,1,58.4999973220826,2|0,0:0|0:0,0:0:0:0:
199,299,116503,1,10,0:0:0:0:
0,287,116680,2,0,P|9:314|34:328,1,58.4999973220826,10|0,0:0|0:0,0:0:0:0:
143,39,116856,2,0,L|123:155,1,116.999994644165,10|2,0:0|0:0,0:0:0:0:
400,57,117209,1,10,0:0:0:0:
278,25,117386,1,0,0:0:0:0:
377,295,117562,5,10,0:0:0:0:
407,84,117739,1,2,0:0:0:0:
258,237,117915,1,2,0:0:0:0:
468,200,118091,1,2,0:0:0:0:
276,106,118268,1,2,0:0:0:0:
384,322,118444,1,2,0:0:0:0:
160,266,118621,6,0,P|206:236|260:237,1,108,10|0,0:0|0:0,0:0:0:0:
325,360,119680,5,4,0:0:0:0:
