osu file format v14

[General]
AudioFilename: audio.mp3
AudioLeadIn: 0
PreviewTime: 51867
Countdown: 0
SampleSet: Soft
StackLeniency: 0.7
Mode: 0
LetterboxInBreaks: 1
WidescreenStoryboard: 1

[Editor]
DistanceSpacing: 1
BeatDivisor: 8
GridSize: 32
TimelineZoom: 5.699996

[Metadata]
Title:Shijuugo-nen no Yukizakura
TitleUnicode:四十五年ノ雪桜
Artist:kozato
ArtistUnicode:kozato
Creator:Muya
Version:Hyper
Source:BMS
Tags:こざと Dramatical
BeatmapID:1596848
BeatmapSetID:759281

[Difficulty]
HPDrainRate:7
CircleSize:4
OverallDifficulty:8
ApproachRate:9
SliderMultiplier:1.6
SliderTickRate:1

[Events]
//Background and Video events
0,0,"BG.jpg",0,0
//Break Periods
2,69051,76723
//Storyboard Layer 0 (Background)
//Storyboard Layer 1 (Fail)
//Storyboard Layer 2 (Pass)
//Storyboard Layer 3 (Foreground)
//Storyboard Sound Samples

[TimingPoints]
1088,352.941176470588,3,2,1,70,1,0
21249,-100,3,2,1,5,0,0
21382,-100,3,2,1,10,0,0
21426,-100,3,2,1,15,0,0
21470,-100,3,2,1,20,0,0
21514,-100,3,2,1,25,0,0
21558,-100,3,2,1,30,0,0
21602,-100,3,2,1,35,0,0
21646,-100,3,2,1,40,0,0
21690,-100,3,2,1,45,0,0
21735,-100,3,2,1,50,0,0
21779,-100,3,2,1,55,0,0
21823,-100,3,2,1,60,0,0
21911,-100,3,2,1,70,0,0
29720,-100,3,2,1,5,0,0
29852,-100,3,2,1,10,0,0
29896,-100,3,2,1,15,0,0
29940,-100,3,2,1,20,0,0
29985,-100,3,2,1,25,0,0
30029,-100,3,2,1,30,0,0
30073,-100,3,2,1,35,0,0
30117,-100,3,2,1,40,0,0
30161,-100,3,2,1,45,0,0
30205,-100,3,2,1,50,0,0
30249,-100,3,2,1,55,0,0
30293,-100,3,2,1,60,0,0
30382,-100,3,2,1,70,0,0
38190,-100,3,2,1,5,0,0
38323,-100,3,2,1,10,0,0
38367,-100,3,2,1,15,0,0
38411,-100,3,2,1,20,0,0
38455,-100,3,2,1,25,0,0
38499,-100,3,2,1,30,0,0
38543,-100,3,2,1,35,0,0
38587,-100,3,2,1,40,0,0
38632,-100,3,2,1,45,0,0
38676,-100,3,2,1,50,0,0
38720,-100,3,2,1,55,0,0
38764,-100,3,2,1,60,0,0
38852,-100,3,2,1,70,0,0
51911,-100,3,2,1,70,0,0
67793,-200,3,2,1,70,0,0
68499,-200,3,2,0,70,0,0
68852,-100,3,2,2,70,0,0
84735,-100,3,2,1,70,0,0
119146,-100,3,2,1,10,0,0
119190,-100,3,2,1,15,0,0
119235,-100,3,2,1,20,0,0
119279,-100,3,2,1,25,0,0
119323,-100,3,2,1,30,0,0
119367,-100,3,2,1,35,0,0
119411,-100,3,2,1,40,0,0
119455,-100,3,2,1,45,0,0
119499,-100,3,2,1,50,0,0
119543,-100,3,2,1,55,0,0
119587,-100,3,2,1,60,0,0
119676,-100,3,2,1,70,0,0
128235,-100,3,2,1,40,0,0
135514,-100,3,2,1,70,0,0
135911,-100,3,2,1,60,0,0
136264,-100,3,2,1,50,0,0
136617,-100,3,2,1,40,0,0
136970,-100,3,2,1,30,0,0
137323,-100,3,2,1,20,0,0
137676,-100,3,2,1,10,0,0
137940,-100,3,2,0,5,0,0

[Colours]
Combo1 : 191,128,255
Combo2 : 255,0,128
Combo3 : 255,0,255
Combo4 : 128,0,255
Combo5 : 255,128,191
Combo6 : 255,128,255

[HitObjects]
32,96,735,5,0,0:0:0:0:
68,24,911,1,0,0:0:0:0:
89,152,1088,5,2,0:0:0:0:
160,114,1263,1,0,0:0:0:0:
147,36,1440,1,0,0:0:0:0:
480,160,1793,1,0,0:0:0:0:
444,88,1969,1,0,0:0:0:0:
423,216,2146,5,0,0:0:0:0:
352,178,2499,1,0,0:0:0:0:
365,100,2852,1,0,0:0:0:0:
512,304,3205,5,0,0:0:0:0:
452,356,3381,1,0,0:0:0:0:
376,332,3558,1,0,0:0:0:0:
332,264,3735,1,0,0:0:0:0:
256,240,3912,1,0,0:0:0:0:
196,292,4088,1,0,0:0:0:0:
176,368,4264,5,0,0:0:0:0:
64,276,4440,1,0,0:0:0:0:
124,144,4617,1,0,0:0:0:0:
484,64,4970,1,0,0:0:0:0:
468,60,5058,1,0,0:0:0:0:
452,60,5146,1,0,0:0:0:0:
436,64,5235,1,0,0:0:0:0:
400,84,5323,5,0,0:0:0:0:
384,88,5411,1,0,0:0:0:0:
368,88,5499,1,0,0:0:0:0:
352,84,5587,1,0,0:0:0:0:
340,76,5675,1,0,0:0:0:0:
276,24,5852,1,0,0:0:0:0:
264,104,6028,1,0,0:0:0:0:
200,52,6205,1,0,0:0:0:0:
73,39,6382,5,0,0:0:0:0:
22,156,6558,1,0,0:0:0:0:
118,240,6735,1,0,0:0:0:0:
228,176,6911,1,0,0:0:0:0:
200,52,7087,1,0,0:0:0:0:
128,132,7264,1,0,0:0:0:0:
132,148,7352,1,0,0:0:0:0:
156,180,7440,5,0,0:0:0:0:
160,196,7529,1,0,0:0:0:0:
160,212,7617,1,0,0:0:0:0:
156,228,7705,1,0,0:0:0:0:
148,240,7793,1,0,0:0:0:0:
256,312,7970,1,0,0:0:0:0:
364,240,8146,1,0,0:0:0:0:
52,20,8499,5,0,0:0:0:0:
132,120,8676,1,0,0:0:0:0:
256,152,8852,1,0,0:0:0:0:
380,120,9029,1,0,0:0:0:0:
460,20,9206,1,0,0:0:0:0:
423,232,9558,5,2,0:0:0:0:
352,270,9735,1,0,0:0:0:0:
365,348,9910,1,0,0:0:0:0:
32,224,10263,1,0,0:0:0:0:
68,296,10439,1,0,0:0:0:0:
89,168,10616,5,0,0:0:0:0:
160,206,10969,1,0,0:0:0:0:
147,284,11322,1,0,0:0:0:0:
0,80,11675,5,0,0:0:0:0:
60,28,11851,1,0,0:0:0:0:
136,52,12028,1,0,0:0:0:0:
180,120,12205,1,0,0:0:0:0:
256,144,12382,1,0,0:0:0:0:
316,92,12558,1,0,0:0:0:0:
336,16,12734,5,0,0:0:0:0:
448,108,12910,1,0,0:0:0:0:
388,240,13087,1,0,0:0:0:0:
28,320,13440,1,0,0:0:0:0:
44,324,13528,1,0,0:0:0:0:
60,324,13616,1,0,0:0:0:0:
76,320,13705,1,0,0:0:0:0:
112,300,13793,5,0,0:0:0:0:
128,296,13881,1,0,0:0:0:0:
144,296,13969,1,0,0:0:0:0:
160,300,14057,1,0,0:0:0:0:
172,308,14145,1,0,0:0:0:0:
236,360,14322,1,0,0:0:0:0:
248,280,14498,1,0,0:0:0:0:
312,332,14675,1,0,0:0:0:0:
439,345,14852,5,0,0:0:0:0:
490,228,15028,1,0,0:0:0:0:
394,144,15205,1,0,0:0:0:0:
284,208,15381,1,0,0:0:0:0:
312,332,15557,1,0,0:0:0:0:
384,252,15734,1,0,0:0:0:0:
380,236,15822,1,0,0:0:0:0:
356,204,15910,5,0,0:0:0:0:
352,188,15999,1,0,0:0:0:0:
352,172,16087,1,0,0:0:0:0:
356,156,16175,1,0,0:0:0:0:
364,144,16263,1,0,0:0:0:0:
256,72,16440,1,0,0:0:0:0:
148,144,16616,1,0,0:0:0:0:
460,364,16969,5,0,0:0:0:0:
380,264,17146,1,0,0:0:0:0:
256,232,17322,1,0,0:0:0:0:
132,264,17499,1,0,0:0:0:0:
52,364,17676,1,0,0:0:0:0:
76,60,18029,5,2,0:0:0:0:
76,60,18205,1,0,0:0:0:0:
140,116,18382,1,8,0:0:0:0:
140,116,18558,1,0,0:0:0:0:
224,104,18735,1,8,0:0:0:0:
224,104,18911,1,0,0:0:0:0:
288,52,19087,5,8,0:0:0:0:
288,52,19263,1,0,0:0:0:0:
372,40,19440,1,8,0:0:0:0:
372,40,19616,1,0,0:0:0:0:
436,96,19793,1,8,0:0:0:0:
436,96,19969,1,0,0:0:0:0:
336,356,20146,5,8,0:0:0:0:
336,356,20323,1,0,0:0:0:0:
312,212,20499,1,8,0:0:0:0:
312,212,20676,1,0,0:0:0:0:
448,263,20852,1,8,0:0:0:0:
448,263,21029,1,0,0:0:0:0:
308,288,21205,6,0,L|273:295,14,20
324,284,21911,1,8,0:0:0:0:
444,259,22087,1,8,0:0:0:0:
360,36,22617,5,8,0:0:0:0:
360,36,22793,1,0,0:0:0:0:
304,96,22970,1,8,0:0:0:0:
304,96,23146,1,0,0:0:0:0:
343,167,23323,5,8,0:0:0:0:
343,167,23499,1,0,0:0:0:0:
423,151,23676,1,8,0:0:0:0:
423,151,23852,1,0,0:0:0:0:
433,71,24029,1,8,0:0:0:0:
433,71,24205,1,0,0:0:0:0:
360,36,24382,5,8,0:0:0:0:
343,167,24558,1,8,0:0:0:0:
433,71,24735,1,8,0:0:0:0:
304,96,24912,1,8,0:0:0:0:
423,151,25087,1,8,0:0:0:0:
407,281,25264,1,8,0:0:0:0:
278,305,25440,5,8,0:0:0:0:
215,189,25617,1,8,0:0:0:0:
228,196,25705,1,8,0:0:0:0:
242,201,25793,1,8,0:0:0:0:
257,205,25882,1,8,0:0:0:0:
272,206,25970,1,8,0:0:0:0:
287,206,26058,1,8,0:0:0:0:
302,204,26146,1,8,0:0:0:0:
380,188,26323,1,8,0:0:0:0:
436,60,26499,5,0,0:0:0:0:
436,60,26675,1,0,0:0:0:0:
372,116,26852,1,8,0:0:0:0:
372,116,27028,1,0,0:0:0:0:
288,104,27205,1,8,0:0:0:0:
288,104,27381,1,0,0:0:0:0:
224,52,27557,5,8,0:0:0:0:
224,52,27735,1,0,0:0:0:0:
140,40,27910,1,8,0:0:0:0:
140,40,28086,1,0,0:0:0:0:
76,96,28263,1,8,0:0:0:0:
76,96,28439,1,0,0:0:0:0:
176,356,28616,5,8,0:0:0:0:
176,356,28793,1,0,0:0:0:0:
200,212,28969,1,8,0:0:0:0:
200,212,29146,1,0,0:0:0:0:
64,263,29322,1,8,0:0:0:0:
64,263,29499,1,0,0:0:0:0:
204,288,29675,6,0,L|239:295,14,20
188,284,30381,1,8,0:0:0:0:
68,259,30557,1,8,0:0:0:0:
152,36,31087,5,8,0:0:0:0:
152,36,31263,1,0,0:0:0:0:
208,96,31440,1,8,0:0:0:0:
208,96,31616,1,0,0:0:0:0:
169,167,31793,5,8,0:0:0:0:
169,167,31969,1,0,0:0:0:0:
89,151,32146,1,8,0:0:0:0:
89,151,32322,1,0,0:0:0:0:
79,71,32499,1,8,0:0:0:0:
79,71,32675,1,0,0:0:0:0:
152,36,32852,5,8,0:0:0:0:
169,167,33028,1,8,0:0:0:0:
79,71,33205,1,8,0:0:0:0:
208,96,33382,1,8,0:0:0:0:
89,151,33557,1,8,0:0:0:0:
105,281,33735,1,8,0:0:0:0:
233,305,33911,5,8,0:0:0:0:
254,297,34000,1,0,0:0:0:0:
274,283,34088,1,0,0:0:0:0:
356,184,34265,1,8,0:0:0:0:
352,206,34352,1,0,0:0:0:0:
354,230,34440,1,0,0:0:0:0:
399,350,34617,1,8,0:0:0:0:
382,335,34705,1,0,0:0:0:0:
360,326,34793,1,0,0:0:0:0:
160,352,34970,5,10,0:0:0:0:
0,240,35323,1,8,0:0:0:0:
57,53,35676,1,8,0:0:0:0:
252,49,36029,5,8,0:0:0:0:
316,234,36735,1,8,0:0:0:0:
260,292,36911,1,8,0:0:0:0:
180,280,37087,5,8,0:0:0:0:
312,144,37440,1,8,0:0:0:0:
500,188,37793,1,8,0:0:0:0:
368,324,38146,6,0,L|336:320,14,20,8|0|0|0|0|0|0|0|0|0|0|0|0|0|0,0:0|0:0|0:0|0:0|0:0|0:0|0:0|0:0|0:0|0:0|0:0|0:0|0:0|0:0|0:0,0:0:0:0:
404,304,38852,1,0,0:0:0:0:
408,288,38940,1,0,0:0:0:0:
412,272,39028,1,0,0:0:0:0:
416,256,39116,1,0,0:0:0:0:
420,240,39205,5,8,0:0:0:0:
352,60,39558,1,8,0:0:0:0:
160,60,39911,1,8,0:0:0:0:
92,240,40264,5,8,0:0:0:0:
152,292,40440,1,8,0:0:0:0:
227,266,40617,1,8,0:0:0:0:
287,318,40793,1,8,0:0:0:0:
362,292,40970,1,8,0:0:0:0:
422,344,41146,1,8,0:0:0:0:
497,318,41323,5,8,0:0:0:0:
511,240,41499,1,8,0:0:0:0:
450,189,41676,1,8,0:0:0:0:
375,216,41852,1,8,0:0:0:0:
314,165,42029,1,8,0:0:0:0:
328,87,42205,1,8,0:0:0:0:
402,60,42382,5,8,0:0:0:0:
410,84,42470,1,8,0:0:0:0:
410,108,42559,1,8,0:0:0:0:
506,192,42735,1,8,0:0:0:0:
481,186,42823,1,8,0:0:0:0:
460,174,42911,1,8,0:0:0:0:
339,215,43087,1,8,0:0:0:0:
356,196,43175,1,8,0:0:0:0:
377,184,43264,1,8,0:0:0:0:
348,308,43440,6,8,P|296:300|268:280,1,80,10|8,0:0|0:0,0:0:0:0:
132,308,43793,2,8,P|171:311|206:330,1,80
388,276,44146,2,8,P|336:286|303:277,1,80
92,340,44499,6,8,P|143:329|176:338,1,80
312,384,44852,1,8,0:0:0:0:
312,384,45205,2,8,P|292:352|280:308,1,80
284,168,45558,6,8,P|324:164|364:180,1,80
228,236,45911,2,8,P|188:240|148:224,1,80
336,132,46264,2,8,P|372:148|399:182,1,80
176,272,46617,6,8,P|139:255|112:221,1,80
60,80,46970,1,8,0:0:0:0:
136,104,47146,1,8,0:0:0:0:
192,44,47323,1,8,0:0:0:0:
208,48,47411,1,0,0:0:0:0:
224,52,47499,1,8,0:0:0:0:
240,56,47587,1,0,0:0:0:0:
256,60,47676,6,8,P|296:72|336:68,1,80
404,28,48029,1,8,0:0:0:0:
472,72,48205,2,8,P|488:108|488:148,1,80
432,208,48558,1,8,0:0:0:0:
354,173,48735,6,8,P|350:221|363:258,1,80
502,242,49087,2,8,P|462:214|422:207,1,80
367,336,49440,2,8,P|403:320|431:292,1,80
360,252,49793,5,8,0:0:0:0:
296,300,49970,1,8,0:0:0:0:
260,228,50146,1,8,0:0:0:0:
196,276,50323,1,8,0:0:0:0:
160,204,50499,1,8,0:0:0:0:
96,252,50676,1,8,0:0:0:0:
60,180,50852,6,8,P|56:136|60:88,1,80
164,28,51205,1,8,0:0:0:0:
256,120,51382,2,8,L|252:152,8,20
320,72,51911,6,8,P|360:68|396:84,1,80,10|8,0:0|0:0,0:0:0:0:
456,216,52264,1,8,0:0:0:0:
404,276,52440,2,8,P|364:280|328:264,1,80
256,120,52793,1,8,0:0:0:0:
188,164,52970,6,8,P|180:200|184:256,1,80
372,276,53323,2,8,P|344:251|294:226,1,80
183,379,53676,2,8,P|218:367|264:336,1,80
181,242,54029,5,8,0:0:0:0:
151,116,54205,1,8,0:0:0:0:
249,200,54382,1,8,0:0:0:0:
121,190,54559,1,8,0:0:0:0:
230,122,54735,1,8,0:0:0:0:
328,204,54911,1,8,0:0:0:0:
280,322,55087,5,8,0:0:0:0:
152,312,55440,1,8,0:0:0:0:
121,190,55793,1,8,0:0:0:0:
444,44,56146,6,8,P|452:84|456:128,1,80
428,200,56499,1,8,0:0:0:0:
340,108,56676,1,8,0:0:0:0:
324,112,56764,1,0,0:0:0:0:
308,116,56852,1,8,0:0:0:0:
292,120,56940,1,0,0:0:0:0:
276,124,57029,1,8,0:0:0:0:
260,128,57117,1,0,0:0:0:0:
244,132,57205,5,8,0:0:0:0:
208,272,57382,1,8,0:0:0:0:
348,232,57558,1,8,0:0:0:0:
272,212,57735,1,8,0:0:0:0:
236,352,57912,1,8,0:0:0:0:
376,312,58088,1,8,0:0:0:0:
380,296,58176,1,0,0:0:0:0:
404,264,58264,5,8,0:0:0:0:
400,248,58352,1,0,0:0:0:0:
396,232,58440,1,0,0:0:0:0:
392,216,58529,1,0,0:0:0:0:
388,200,58617,1,8,0:0:0:0:
312,176,58793,1,0,0:0:0:0:
256,236,58970,1,8,0:0:0:0:
338,67,59323,5,8,0:0:0:0:
456,122,59499,1,8,0:0:0:0:
328,147,59676,1,8,0:0:0:0:
416,52,59852,1,8,0:0:0:0:
400,180,60029,1,8,0:0:0:0:
256,204,60205,1,8,0:0:0:0:
192,72,60382,6,8,P|152:68|116:84,1,80,10|8,0:0|0:0,0:0:0:0:
56,216,60735,1,8,0:0:0:0:
108,276,60911,2,8,P|148:280|184:264,1,80
256,120,61264,1,8,0:0:0:0:
324,164,61441,6,8,P|332:200|328:256,1,80
140,276,61794,2,8,P|168:251|218:226,1,80
329,379,62147,2,8,P|294:367|248:336,1,80
331,242,62500,5,8,0:0:0:0:
361,116,62676,1,8,0:0:0:0:
263,200,62853,1,8,0:0:0:0:
391,190,63030,1,8,0:0:0:0:
282,122,63206,1,8,0:0:0:0:
184,204,63382,1,8,0:0:0:0:
232,322,63558,5,8,0:0:0:0:
360,312,63911,1,8,0:0:0:0:
391,190,64264,1,8,0:0:0:0:
68,44,64617,6,8,P|60:84|56:128,1,80
84,200,64970,1,8,0:0:0:0:
172,108,65147,1,8,0:0:0:0:
188,112,65235,1,0,0:0:0:0:
204,116,65323,1,8,0:0:0:0:
220,120,65411,1,0,0:0:0:0:
236,124,65500,1,8,0:0:0:0:
252,128,65588,1,0,0:0:0:0:
268,132,65676,5,8,0:0:0:0:
304,272,65853,1,8,0:0:0:0:
164,232,66029,1,8,0:0:0:0:
240,212,66206,1,8,0:0:0:0:
276,352,66383,1,8,0:0:0:0:
136,312,66559,1,8,0:0:0:0:
132,296,66647,1,0,0:0:0:0:
108,264,66735,5,8,0:0:0:0:
112,248,66823,1,0,0:0:0:0:
116,232,66911,1,0,0:0:0:0:
120,216,67000,1,0,0:0:0:0:
124,200,67088,1,8,0:0:0:0:
204,80,67264,1,8,0:0:0:0:
342,119,67440,1,8,0:0:0:0:
347,263,67616,1,8,0:0:0:0:
213,312,67793,6,0,P|80:312|28:228,1,240,8|2,0:0|0:0,0:0:0:0:
80,368,77323,6,0,P|72:328|76:284,1,80,6|0,0:0|0:0,0:0:0:0:
220,276,77676,2,0,P|189:302|149:321,1,80,2|0,0:0|0:0,0:0:0:0:
71,201,78029,2,0,P|109:214|145:239,1,80,2|0,0:0|0:0,0:0:0:0:
288,336,78382,6,0,P|332:340|424:276,1,160,2|0,0:0|0:0,0:0:0:0:
423,277,79087,1,2,0:0:0:0:
348,32,79440,5,2,0:0:0:0:
304,100,79617,1,0,0:0:0:0:
355,162,79793,1,2,0:0:0:0:
430,132,79970,1,2,0:0:0:0:
425,52,80147,1,2,0:0:0:0:
196,96,80499,5,2,0:0:0:0:
148,160,80676,1,0,0:0:0:0:
200,220,80852,2,0,P|204:268|204:308,1,80,2|0,0:0|0:0,0:0:0:0:
164,368,81205,2,0,P|124:364|80:368,1,80,2|0,0:0|0:0,0:0:0:0:
12,336,81558,6,0,P|4:216|12:168,1,160,2|0,0:0|0:0,0:0:0:0:
56,112,82087,1,2,0:0:0:0:
128,144,82264,2,0,P|168:148|208:144,1,80,2|0,0:0|0:0,0:0:0:0:
280,112,82617,6,0,P|288:232|280:280,1,160,2|0,0:0|0:0,0:0:0:0:
332,336,83146,1,2,0:0:0:0:
404,300,83323,2,0,P|400:256|404:216,1,80,2|0,0:0|0:0,0:0:0:0:
456,104,83676,6,0,P|400:96|312:152,1,160,2|0,0:0|0:0,0:0:0:0:
288,224,84205,1,2,0:0:0:0:
212,248,84382,2,0,P|172:248|136:232,1,80,2|0,0:0|0:0,0:0:0:0:
32,156,84735,5,8,0:0:0:0:
112,156,84911,1,8,0:0:0:0:
180,116,85087,1,8,0:0:0:0:
208,40,85264,2,0,L|204:8,8,20,8|8|8|8|8|8|8|8|8,0:0|0:0|0:0|0:0|0:0|0:0|0:0|0:0|0:0,0:0:0:0:
256,104,85793,6,8,P|288:128|328:132,1,80,10|8,0:0|0:0,0:0:0:0:
404,160,86146,2,8,P|408:120|392:84,1,80
378,3,86499,2,8,P|341:18|318:50,1,80
256,192,86852,6,8,P|224:216|184:220,1,80
107,248,87205,2,8,P|102:208|118:172,1,80
134,91,87558,2,8,P|170:106|193:138,1,80
256,280,87911,6,8,P|288:304|328:308,1,80
405,336,88264,2,8,P|409:296|393:260,1,80
378,179,88617,2,8,P|341:194|318:226,1,80
256,368,88970,5,8,0:0:0:0:
256,192,89323,1,8,0:0:0:0:
256,16,89676,1,8,0:0:0:0:
0,128,90029,5,8,0:0:0:0:
76,100,90205,1,8,0:0:0:0:
126,163,90382,1,8,0:0:0:0:
81,230,90558,1,8,0:0:0:0:
77,246,90646,1,0,0:0:0:0:
77,262,90734,1,8,0:0:0:0:
81,278,90822,1,0,0:0:0:0:
89,294,90910,1,8,0:0:0:0:
97,306,90999,1,0,0:0:0:0:
109,314,91087,5,8,0:0:0:0:
234,281,91264,1,8,0:0:0:0:
152,381,91440,1,8,0:0:0:0:
160,252,91616,1,8,0:0:0:0:
229,361,91793,1,8,0:0:0:0:
353,329,91970,1,8,0:0:0:0:
360,201,92147,5,8,0:0:0:0:
240,154,92500,1,8,0:0:0:0:
159,253,92852,1,8,0:0:0:0:
372,164,93205,5,8,0:0:0:0:
500,143,93382,1,8,0:0:0:0:
384,84,93558,1,8,0:0:0:0:
443,199,93735,1,8,0:0:0:0:
463,71,93911,1,8,0:0:0:0:
348,12,94087,1,8,0:0:0:0:
256,104,94264,6,8,P|224:128|184:132,1,80,10|8,0:0|0:0,0:0:0:0:
108,160,94617,2,8,P|104:120|120:84,1,80
134,3,94970,2,8,P|171:18|194:50,1,80
256,192,95323,6,8,P|288:216|328:220,1,80
405,248,95676,2,8,P|410:208|394:172,1,80
378,91,96029,2,8,P|342:106|319:138,1,80
256,280,96382,6,8,P|224:304|184:308,1,80
107,336,96735,2,8,P|103:296|119:260,1,80
134,179,97088,2,8,P|171:194|194:226,1,80
256,368,97441,5,8,0:0:0:0:
256,192,97794,1,8,0:0:0:0:
256,16,98147,1,8,0:0:0:0:
512,128,98500,5,8,0:0:0:0:
436,100,98676,1,8,0:0:0:0:
386,163,98853,1,8,0:0:0:0:
431,230,99029,1,8,0:0:0:0:
435,246,99117,1,0,0:0:0:0:
435,262,99205,1,8,0:0:0:0:
431,278,99293,1,0,0:0:0:0:
423,294,99381,1,8,0:0:0:0:
415,306,99470,1,0,0:0:0:0:
403,314,99558,5,8,0:0:0:0:
278,281,99735,1,8,0:0:0:0:
360,381,99911,1,8,0:0:0:0:
352,252,100087,1,8,0:0:0:0:
283,361,100264,1,8,0:0:0:0:
159,329,100441,1,8,0:0:0:0:
152,201,100618,5,8,0:0:0:0:
271,154,100793,1,8,0:0:0:0:
202,261,100970,1,8,0:0:0:0:
194,133,101146,1,8,0:0:0:0:
274,231,101323,1,8,0:0:0:0:
205,337,101499,1,8,0:0:0:0:
82,304,101676,5,8,0:0:0:0:
75,176,102205,2,0,L|41:170,8,20,8|8|8|8|8|8|8|8|8,0:0|0:0|0:0|0:0|0:0|0:0|0:0|0:0|0:0,0:0:0:0:
152,204,102735,6,8,P|192:196|224:172,1,80,10|8,0:0|0:0,0:0:0:0:
276,56,103087,1,8,0:0:0:0:
356,64,103264,2,8,P|380:96|388:140,1,80
360,260,103617,1,8,0:0:0:0:
296,312,103793,6,8,P|260:320|204:316,1,80
184,128,104146,2,8,P|209:156|234:206,1,80
81,317,104499,2,8,P|93:282|124:236,1,80
217,318,104852,5,8,0:0:0:0:
345,303,105028,1,8,0:0:0:0:
233,239,105205,1,8,0:0:0:0:
286,356,105382,1,8,0:0:0:0:
313,230,105558,1,8,0:0:0:0:
201,165,105735,1,8,0:0:0:0:
105,251,105911,5,8,0:0:0:0:
157,369,106264,1,8,0:0:0:0:
286,356,106617,1,8,0:0:0:0:
492,152,106970,6,8,P|496:192|492:236,1,80
424,276,107323,1,8,0:0:0:0:
328,192,107499,1,8,0:0:0:0:
332,176,107587,1,8,0:0:0:0:
336,160,107676,1,8,0:0:0:0:
340,144,107764,1,8,0:0:0:0:
344,128,107852,1,8,0:0:0:0:
348,112,107940,1,8,0:0:0:0:
352,96,108029,5,8,0:0:0:0:
217,39,108205,1,8,0:0:0:0:
236,184,108382,1,8,0:0:0:0:
264,108,108558,1,8,0:0:0:0:
129,51,108734,1,8,0:0:0:0:
148,196,108911,1,8,0:0:0:0:
144,212,108999,1,8,0:0:0:0:
112,236,109087,5,8,0:0:0:0:
116,252,109176,1,0,0:0:0:0:
120,268,109264,1,8,0:0:0:0:
124,284,109352,1,0,0:0:0:0:
128,300,109440,1,8,0:0:0:0:
80,364,109617,1,0,0:0:0:0:
4,338,109793,1,8,0:0:0:0:
232,200,110146,5,8,0:0:0:0:
114,145,110322,1,8,0:0:0:0:
242,120,110499,1,8,0:0:0:0:
154,215,110675,1,8,0:0:0:0:
170,87,110852,1,8,0:0:0:0:
314,63,111028,1,8,0:0:0:0:
360,204,111205,6,8,P|320:196|288:172,1,80,10|8,0:0|0:0,0:0:0:0:
236,56,111557,1,8,0:0:0:0:
156,64,111734,2,8,P|132:96|124:140,1,80
152,260,112087,1,8,0:0:0:0:
216,312,112263,6,8,P|252:320|308:316,1,80
328,128,112616,2,8,P|303:156|278:206,1,80
431,317,112969,2,8,P|419:282|388:236,1,80
295,318,113322,5,8,0:0:0:0:
167,303,113498,1,8,0:0:0:0:
279,239,113675,1,8,0:0:0:0:
226,356,113852,1,8,0:0:0:0:
199,230,114028,1,8,0:0:0:0:
311,165,114205,1,8,0:0:0:0:
407,251,114381,5,8,0:0:0:0:
355,369,114734,1,8,0:0:0:0:
226,356,115087,1,8,0:0:0:0:
20,152,115440,6,8,P|16:192|20:236,1,80
88,276,115793,1,8,0:0:0:0:
184,192,115969,1,8,0:0:0:0:
180,176,116057,1,8,0:0:0:0:
176,160,116146,1,8,0:0:0:0:
172,144,116234,1,8,0:0:0:0:
168,128,116322,1,8,0:0:0:0:
164,112,116410,1,8,0:0:0:0:
160,96,116499,5,8,0:0:0:0:
295,39,116675,1,8,0:0:0:0:
276,184,116852,1,8,0:0:0:0:
248,108,117028,1,8,0:0:0:0:
383,51,117204,1,8,0:0:0:0:
364,196,117381,1,8,0:0:0:0:
368,212,117469,1,8,0:0:0:0:
400,236,117557,5,8,0:0:0:0:
396,252,117646,1,0,0:0:0:0:
392,268,117734,1,8,0:0:0:0:
388,284,117822,1,0,0:0:0:0:
384,300,117911,1,8,0:0:0:0:
432,364,118088,1,8,0:0:0:0:
508,338,118264,1,8,0:0:0:0:
506,258,118441,1,8,0:0:0:0:
430,234,118617,5,8,0:0:0:0:
68,340,119146,2,0,L|64:360,10,20
72,324,119676,5,2,0:0:0:0:
116,256,119852,1,0,0:0:0:0:
194,276,120028,1,0,0:0:0:0:
440,192,120382,1,0,0:0:0:0:
396,260,120558,1,0,0:0:0:0:
318,240,120735,5,0,0:0:0:0:
313,159,121087,1,0,0:0:0:0:
388,129,121440,1,0,0:0:0:0:
96,32,121793,5,0,0:0:0:0:
68,108,121970,1,0,0:0:0:0:
116,172,122146,1,0,0:0:0:0:
196,184,122323,1,0,0:0:0:0:
244,248,122499,1,0,0:0:0:0:
216,324,122676,1,0,0:0:0:0:
144,356,122852,5,0,0:0:0:0:
44,276,123029,1,0,0:0:0:0:
116,172,123205,1,0,0:0:0:0:
412,52,123558,1,0,0:0:0:0:
396,56,123646,1,0,0:0:0:0:
380,56,123735,1,0,0:0:0:0:
364,52,123823,1,0,0:0:0:0:
332,28,123911,5,0,0:0:0:0:
316,20,123999,1,0,0:0:0:0:
300,16,124087,1,0,0:0:0:0:
284,20,124176,1,0,0:0:0:0:
268,28,124264,1,0,0:0:0:0:
216,92,124440,1,0,0:0:0:0:
296,104,124617,1,0,0:0:0:0:
244,168,124793,1,0,0:0:0:0:
292,288,124970,5,0,0:0:0:0:
420,279,125146,1,0,0:0:0:0:
451,153,125323,1,0,0:0:0:0:
342,85,125499,1,0,0:0:0:0:
244,168,125676,1,0,0:0:0:0:
352,192,125852,1,0,0:0:0:0:
356,208,125940,1,0,0:0:0:0:
384,236,126029,5,0,0:0:0:0:
388,252,126117,1,0,0:0:0:0:
388,268,126205,1,0,0:0:0:0:
384,284,126293,1,0,0:0:0:0:
372,296,126382,1,0,0:0:0:0:
256,352,126558,1,0,0:0:0:0:
140,296,126735,1,0,0:0:0:0:
36,128,127087,5,0,0:0:0:0:
128,36,127264,1,0,0:0:0:0:
256,16,127440,1,0,0:0:0:0:
384,36,127617,1,0,0:0:0:0:
476,128,127794,1,0,0:0:0:0:
440,324,128146,5,2,0:0:0:0:
396,256,128322,1,0,0:0:0:0:
318,276,128498,1,0,0:0:0:0:
72,192,128852,1,0,0:0:0:0:
116,260,129028,1,0,0:0:0:0:
194,240,129205,5,0,0:0:0:0:
199,159,129557,1,0,0:0:0:0:
124,129,129910,1,0,0:0:0:0:
416,32,130263,5,0,0:0:0:0:
444,108,130440,1,0,0:0:0:0:
396,172,130616,1,0,0:0:0:0:
316,184,130793,1,0,0:0:0:0:
268,248,130969,1,0,0:0:0:0:
296,324,131146,1,0,0:0:0:0:
368,356,131322,5,0,0:0:0:0:
468,276,131499,1,0,0:0:0:0:
396,172,131675,1,0,0:0:0:0:
100,52,132028,1,0,0:0:0:0:
116,56,132116,1,0,0:0:0:0:
132,56,132205,1,0,0:0:0:0:
148,52,132293,1,0,0:0:0:0:
180,28,132381,5,0,0:0:0:0:
196,20,132469,1,0,0:0:0:0:
212,16,132557,1,0,0:0:0:0:
228,20,132646,1,0,0:0:0:0:
244,28,132734,1,0,0:0:0:0:
296,92,132910,1,0,0:0:0:0:
216,104,133087,1,0,0:0:0:0:
268,168,133263,1,0,0:0:0:0:
220,288,133440,5,0,0:0:0:0:
92,279,133616,1,0,0:0:0:0:
61,153,133793,1,0,0:0:0:0:
170,85,133969,1,0,0:0:0:0:
268,168,134146,1,0,0:0:0:0:
160,192,134322,1,0,0:0:0:0:
156,208,134410,1,0,0:0:0:0:
128,236,134499,5,0,0:0:0:0:
124,252,134587,1,0,0:0:0:0:
124,268,134675,1,0,0:0:0:0:
128,284,134763,1,0,0:0:0:0:
140,296,134852,1,0,0:0:0:0:
248,368,135029,1,0,0:0:0:0:
202,246,135205,1,0,0:0:0:0:
168,372,135381,1,0,0:0:0:0:
270,290,135558,5,2,0:0:0:0:
256,192,135646,12,0,137940,0:0:0:0:
