osu file format v14

[General]
AudioFilename: audio.mp3
AudioLeadIn: 0
PreviewTime: 85794
Countdown: 0
SampleSet: Normal
StackLeniency: 0.7
Mode: 1
LetterboxInBreaks: 0
WidescreenStoryboard: 0

[Editor]
DistanceSpacing: 1.5
BeatDivisor: 4
GridSize: 32
TimelineZoom: 1.4

[Metadata]
Title:Shijuugo-nen no Yukizakura
TitleUnicode:四十五年ノ雪桜
Artist:kozato
ArtistUnicode:kozato
Creator:Chromoxx
Version:Oni
Source:BMS
Tags:45nen yonjuugonen 雪月こざと Yuzuki 戦 [sen-goku] 國 ~夏の陣~ 戦國 Sengoku ~Natsu no Jin~ Dramatical
BeatmapID:963435
BeatmapSetID:448886

[Difficulty]
HPDrainRate:6
CircleSize:5
OverallDifficulty:5.5
ApproachRate:5
SliderMultiplier:1.4
SliderTickRate:1

[Events]
//Background and Video events
0,0,"BG.jpg",0,0
//Break Periods
//Storyboard Layer 0 (Background)
//Storyboard Layer 1 (Fail)
//Storyboard Layer 2 (Pass)
//Storyboard Layer 3 (Foreground)
//Storyboard Sound Samples

[TimingPoints]
30,352.941176470588,3,1,0,80,1,0
51912,-100,3,1,0,90,0,1
67794,-100,3,1,0,80,0,0
85794,-100,3,1,0,90,0,1
101677,-100,3,1,0,90,0,0
102735,-100,3,1,0,90,0,1
118618,-100,3,1,0,80,0,0

[HitObjects]
192,128,1088,5,8,0:0:0:0:
192,128,1441,1,8,0:0:0:0:
160,160,1794,1,0,0:0:0:0:
160,160,1971,1,0,0:0:0:0:
160,160,2147,1,8,0:0:0:0:
288,96,2500,1,8,0:0:0:0:
256,128,2853,1,0,0:0:0:0:
256,128,3029,1,0,0:0:0:0:
256,128,3206,1,8,0:0:0:0:
224,128,3559,1,8,0:0:0:0:
224,128,3735,1,8,0:0:0:0:
224,128,3912,1,0,0:0:0:0:
224,128,4088,1,0,0:0:0:0:
224,128,4265,1,8,0:0:0:0:
416,224,4618,1,8,0:0:0:0:
320,160,4971,1,0,0:0:0:0:
320,160,5147,1,0,0:0:0:0:
320,160,5235,1,0,0:0:0:0:
320,160,5324,1,8,0:0:0:0:
320,256,5500,1,8,0:0:0:0:
320,256,5588,1,8,0:0:0:0:
320,256,5677,1,0,0:0:0:0:
288,160,5853,1,0,0:0:0:0:
192,160,6029,1,8,0:0:0:0:
192,192,6206,1,0,0:0:0:0:
192,192,6382,1,8,0:0:0:0:
192,192,6559,1,0,0:0:0:0:
192,192,6647,1,0,0:0:0:0:
192,192,6735,1,0,0:0:0:0:
288,160,7088,1,0,0:0:0:0:
288,160,7265,1,0,0:0:0:0:
288,160,7441,1,8,0:0:0:0:
288,192,7618,1,8,0:0:0:0:
288,192,7706,1,8,0:0:0:0:
288,192,7794,1,0,0:0:0:0:
256,160,7971,1,0,0:0:0:0:
256,224,8147,1,8,0:0:0:0:
256,224,8324,1,0,0:0:0:0:
256,192,8500,1,8,0:0:0:0:
192,128,8677,1,8,0:0:0:0:
192,128,8853,1,0,0:0:0:0:
192,128,9029,1,0,0:0:0:0:
192,128,9206,1,8,0:0:0:0:
320,192,9559,1,8,0:0:0:0:
320,192,9912,1,8,0:0:0:0:
224,192,10265,1,8,0:0:0:0:
320,192,10441,1,8,0:0:0:0:
320,192,10618,1,8,0:0:0:0:
320,192,10971,1,8,0:0:0:0:
256,128,11324,1,0,0:0:0:0:
256,128,11677,1,8,0:0:0:0:
256,128,11853,1,8,0:0:0:0:
256,128,12029,1,8,0:0:0:0:
160,128,12206,1,8,0:0:0:0:
192,96,12559,1,8,0:0:0:0:
192,96,12735,1,8,0:0:0:0:
224,96,13088,1,8,0:0:0:0:
192,192,13441,1,0,0:0:0:0:
192,192,13618,1,0,0:0:0:0:
224,96,13706,1,0,0:0:0:0:
224,96,13794,1,8,0:0:0:0:
224,96,13971,1,8,0:0:0:0:
224,96,14059,1,8,0:0:0:0:
224,96,14147,1,0,0:0:0:0:
256,96,14324,1,0,0:0:0:0:
224,96,14500,1,8,0:0:0:0:
224,96,14677,1,0,0:0:0:0:
224,96,14853,1,8,0:0:0:0:
224,96,15029,1,0,0:0:0:0:
224,128,15118,1,0,0:0:0:0:
224,128,15206,1,0,0:0:0:0:
192,128,15559,1,0,0:0:0:0:
192,128,15735,1,0,0:0:0:0:
352,256,15912,1,8,0:0:0:0:
352,256,16088,1,8,0:0:0:0:
352,256,16177,1,8,0:0:0:0:
352,256,16265,1,0,0:0:0:0:
256,96,16441,1,0,0:0:0:0:
384,224,16618,1,8,0:0:0:0:
384,224,16794,1,0,0:0:0:0:
384,224,16971,1,8,0:0:0:0:
384,224,17147,1,8,0:0:0:0:
384,224,17324,1,0,0:0:0:0:
384,224,17500,1,0,0:0:0:0:
64,192,17677,1,8,0:0:0:0:
320,160,18029,1,8,0:0:0:0:
224,96,18206,1,0,0:0:0:0:
192,96,18294,1,0,0:0:0:0:
320,160,18382,1,8,0:0:0:0:
320,160,18559,1,0,0:0:0:0:
320,160,18735,1,8,0:0:0:0:
320,160,18912,1,0,0:0:0:0:
320,160,19088,1,8,0:0:0:0:
256,128,19441,1,0,0:0:0:0:
256,128,19618,1,0,0:0:0:0:
224,96,19706,1,0,0:0:0:0:
256,128,19794,1,8,0:0:0:0:
256,128,19971,1,0,0:0:0:0:
256,128,20147,1,8,0:0:0:0:
256,128,20324,1,8,0:0:0:0:
256,128,20500,1,0,0:0:0:0:
256,128,20677,1,0,0:0:0:0:
256,128,20853,1,8,0:0:0:0:
256,128,21029,1,0,0:0:0:0:
256,128,21206,1,8,0:0:0:0:
352,192,21559,1,0,0:0:0:0:
352,192,21735,1,0,0:0:0:0:
352,192,21824,1,0,0:0:0:0:
352,192,21912,1,0,0:0:0:0:
352,192,22088,1,8,0:0:0:0:
288,160,22265,1,0,0:0:0:0:
256,128,22618,1,8,0:0:0:0:
256,128,22794,1,0,0:0:0:0:
224,96,22882,1,0,0:0:0:0:
256,128,22971,1,8,0:0:0:0:
256,128,23147,1,0,0:0:0:0:
224,192,23324,1,8,0:0:0:0:
224,192,23500,1,8,0:0:0:0:
224,192,23677,1,0,0:0:0:0:
224,192,23853,1,0,0:0:0:0:
224,192,24029,1,8,0:0:0:0:
288,192,24382,1,8,0:0:0:0:
288,192,24559,1,8,0:0:0:0:
192,128,24735,1,0,0:0:0:0:
192,128,24912,1,0,0:0:0:0:
192,128,25088,1,0,0:0:0:0:
192,128,25265,1,8,0:0:0:0:
192,128,25441,1,8,0:0:0:0:
256,160,25618,1,8,0:0:0:0:
256,160,25706,1,8,0:0:0:0:
256,160,25794,1,8,0:0:0:0:
256,160,25971,1,8,0:0:0:0:
256,160,26059,1,8,0:0:0:0:
256,160,26147,1,0,0:0:0:0:
256,192,26500,1,8,0:0:0:0:
256,192,26677,1,0,0:0:0:0:
192,96,26765,1,0,0:0:0:0:
256,192,26853,1,8,0:0:0:0:
256,192,27029,1,0,0:0:0:0:
256,192,27206,1,8,0:0:0:0:
256,192,27382,1,0,0:0:0:0:
256,192,27559,1,8,0:0:0:0:
192,96,27912,1,0,0:0:0:0:
192,96,28088,1,0,0:0:0:0:
192,128,28177,1,0,0:0:0:0:
192,96,28265,1,8,0:0:0:0:
192,128,28441,1,0,0:0:0:0:
224,128,28618,1,8,0:0:0:0:
224,128,28794,1,8,0:0:0:0:
192,96,28971,1,0,0:0:0:0:
192,96,29147,1,0,0:0:0:0:
192,96,29324,1,8,0:0:0:0:
192,64,29500,1,0,0:0:0:0:
192,64,29677,1,8,0:0:0:0:
256,96,30029,1,0,0:0:0:0:
256,96,30206,1,0,0:0:0:0:
192,128,30294,1,0,0:0:0:0:
192,128,30382,1,0,0:0:0:0:
192,128,30559,1,8,0:0:0:0:
192,128,30735,1,0,0:0:0:0:
288,192,31088,1,8,0:0:0:0:
288,160,31265,1,0,0:0:0:0:
192,128,31353,1,0,0:0:0:0:
288,160,31441,1,8,0:0:0:0:
288,160,31618,1,0,0:0:0:0:
288,160,31794,1,8,0:0:0:0:
288,160,31971,1,8,0:0:0:0:
288,160,32147,1,0,0:0:0:0:
288,160,32324,1,0,0:0:0:0:
288,160,32500,1,8,0:0:0:0:
224,128,32853,1,8,0:0:0:0:
224,128,33029,1,8,0:0:0:0:
224,128,33206,1,0,0:0:0:0:
224,128,33382,1,0,0:0:0:0:
224,128,33559,1,0,0:0:0:0:
224,128,33735,1,8,0:0:0:0:
384,256,33912,1,8,0:0:0:0:
384,256,34000,1,8,0:0:0:0:
384,256,34088,1,8,0:0:0:0:
384,256,34265,1,8,0:0:0:0:
352,256,34353,1,8,0:0:0:0:
352,256,34441,1,8,0:0:0:0:
352,256,34618,1,0,0:0:0:0:
352,256,34706,1,0,0:0:0:0:
352,256,34794,1,0,0:0:0:0:
288,160,34971,1,8,0:0:0:0:
224,128,35324,1,0,0:0:0:0:
224,128,35500,1,0,0:0:0:0:
224,96,35677,1,8,0:0:0:0:
224,96,35853,1,0,0:0:0:0:
224,96,36029,1,8,0:0:0:0:
192,128,36382,1,0,0:0:0:0:
192,64,36735,1,0,0:0:0:0:
192,64,36912,1,0,0:0:0:0:
192,64,37088,1,8,0:0:0:0:
256,160,37441,1,0,0:0:0:0:
288,160,37618,1,0,0:0:0:0:
288,160,37794,1,8,0:0:0:0:
288,160,37971,1,8,0:0:0:0:
288,160,38147,1,0,0:0:0:0:
192,128,38500,1,0,0:0:0:0:
192,128,38677,1,0,0:0:0:0:
192,128,38765,1,0,0:0:0:0:
224,96,38853,1,0,0:0:0:0:
320,256,39029,1,0,0:0:0:0:
224,96,39206,1,8,0:0:0:0:
224,192,39559,1,0,0:0:0:0:
224,192,39735,1,0,0:0:0:0:
224,192,39912,1,8,0:0:0:0:
320,160,40265,1,8,0:0:0:0:
320,160,40441,1,8,0:0:0:0:
320,160,40618,1,0,0:0:0:0:
320,160,40794,1,0,0:0:0:0:
320,160,40971,1,0,0:0:0:0:
256,128,41147,1,8,0:0:0:0:
256,128,41324,1,8,0:0:0:0:
256,128,41500,1,8,0:0:0:0:
256,160,41677,1,0,0:0:0:0:
256,160,42029,1,8,0:0:0:0:
256,160,42206,1,0,0:0:0:0:
160,32,42382,1,8,0:0:0:0:
160,32,42471,1,8,0:0:0:0:
160,32,42559,1,8,0:0:0:0:
160,32,42735,1,0,0:0:0:0:
160,32,42824,1,0,0:0:0:0:
160,32,42912,1,0,0:0:0:0:
160,32,43088,1,8,0:0:0:0:
160,32,43177,1,8,0:0:0:0:
160,32,43265,1,8,0:0:0:0:
288,160,43441,1,8,0:0:0:0:
288,160,43618,1,0,0:0:0:0:
192,160,43794,1,8,0:0:0:0:
288,160,43971,1,8,0:0:0:0:
160,192,44147,1,8,0:0:0:0:
288,160,44324,1,8,0:0:0:0:
160,192,44500,1,0,0:0:0:0:
160,192,44677,1,0,0:0:0:0:
160,192,44853,1,8,0:0:0:0:
288,160,45206,1,0,0:0:0:0:
256,128,45382,1,8,0:0:0:0:
320,128,45559,1,8,0:0:0:0:
256,128,45735,1,0,0:0:0:0:
288,128,45912,1,8,0:0:0:0:
288,128,46088,1,8,0:0:0:0:
288,128,46265,1,8,0:0:0:0:
288,128,46441,1,0,0:0:0:0:
288,128,46618,1,8,0:0:0:0:
288,128,46794,1,8,0:0:0:0:
288,128,46971,1,0,0:0:0:0:
288,128,47147,1,0,0:0:0:0:
288,128,47324,1,8,0:0:0:0:
288,160,47500,1,8,0:0:0:0:
256,128,47677,1,0,0:0:0:0:
224,96,48029,1,0,0:0:0:0:
224,96,48206,1,8,0:0:0:0:
224,96,48382,1,8,0:0:0:0:
224,96,48559,1,0,0:0:0:0:
288,160,48735,1,8,0:0:0:0:
192,128,49088,1,8,0:0:0:0:
192,128,49265,1,8,0:0:0:0:
192,128,49441,1,8,0:0:0:0:
192,128,49618,1,0,0:0:0:0:
192,128,49794,1,8,0:0:0:0:
288,160,50147,1,8,0:0:0:0:
288,160,50324,1,0,0:0:0:0:
288,160,50500,1,8,0:0:0:0:
256,160,50677,1,8,0:0:0:0:
256,160,50853,1,8,0:0:0:0:
224,128,51029,1,0,0:0:0:0:
192,64,51206,1,8,0:0:0:0:
160,192,51382,2,0,L|224:192,4,35
256,192,51912,1,0,0:0:0:0:
256,192,52088,1,8,0:0:0:0:
256,192,52265,1,0,0:0:0:0:
256,192,52441,1,8,0:0:0:0:
256,192,52618,1,8,0:0:0:0:
256,192,52794,1,0,0:0:0:0:
256,192,52971,1,8,0:0:0:0:
256,192,53147,1,8,0:0:0:0:
256,256,53324,1,0,0:0:0:0:
256,256,53500,1,8,0:0:0:0:
256,256,53677,1,0,0:0:0:0:
256,256,53853,1,0,0:0:0:0:
256,256,54029,1,0,0:0:0:0:
320,224,54206,1,8,0:0:0:0:
320,224,54382,1,0,0:0:0:0:
320,224,54559,1,0,0:0:0:0:
320,224,54735,1,8,0:0:0:0:
320,224,54912,1,0,0:0:0:0:
320,224,55088,1,0,0:0:0:0:
288,224,55441,1,8,0:0:0:0:
288,224,55794,1,8,0:0:0:0:
288,192,56147,1,0,0:0:0:0:
224,96,56324,1,0,0:0:0:0:
224,128,56500,1,8,0:0:0:0:
416,288,56677,1,0,0:0:0:0:
224,96,56765,1,0,0:0:0:0:
416,288,56853,1,8,0:0:0:0:
416,288,57029,1,8,0:0:0:0:
416,288,57118,1,8,0:0:0:0:
416,288,57206,1,8,0:0:0:0:
256,256,57382,1,0,0:0:0:0:
256,160,57559,1,8,0:0:0:0:
224,128,57735,1,8,0:0:0:0:
224,128,57912,1,8,0:0:0:0:
224,128,58088,1,0,0:0:0:0:
224,128,58265,1,0,0:0:0:0:
288,160,58618,1,8,0:0:0:0:
288,160,58971,1,8,0:0:0:0:
224,192,59324,1,0,0:0:0:0:
224,192,59500,1,0,0:0:0:0:
224,192,59677,1,8,0:0:0:0:
224,192,59853,1,0,0:0:0:0:
224,192,60029,1,8,0:0:0:0:
320,224,60382,1,0,0:0:0:0:
320,224,60559,1,8,0:0:0:0:
320,224,60735,1,0,0:0:0:0:
320,224,60912,1,0,0:0:0:0:
320,224,61088,1,8,0:0:0:0:
320,224,61265,1,0,0:0:0:0:
320,224,61441,1,8,0:0:0:0:
320,224,61618,1,8,0:0:0:0:
288,224,61794,1,0,0:0:0:0:
288,224,61971,1,8,0:0:0:0:
224,96,62147,1,8,0:0:0:0:
256,128,62324,1,8,0:0:0:0:
288,224,62500,1,0,0:0:0:0:
224,128,62677,1,8,0:0:0:0:
224,128,62853,1,0,0:0:0:0:
224,128,63029,1,0,0:0:0:0:
224,128,63206,1,8,0:0:0:0:
224,128,63382,1,0,0:0:0:0:
224,128,63559,1,0,0:0:0:0:
256,96,63912,1,8,0:0:0:0:
256,96,64265,1,8,0:0:0:0:
256,192,64618,1,0,0:0:0:0:
256,192,64794,1,0,0:0:0:0:
256,192,64971,1,8,0:0:0:0:
256,192,65147,1,0,0:0:0:0:
256,192,65235,1,0,0:0:0:0:
256,192,65324,1,8,0:0:0:0:
256,192,65500,1,8,0:0:0:0:
256,192,65588,1,8,0:0:0:0:
256,192,65677,1,8,0:0:0:0:
288,256,65853,1,0,0:0:0:0:
256,224,66029,1,8,0:0:0:0:
256,224,66206,1,8,0:0:0:0:
256,224,66382,1,8,0:0:0:0:
256,224,66559,1,0,0:0:0:0:
256,224,66735,1,8,0:0:0:0:
256,224,67088,1,0,0:0:0:0:
256,224,67265,1,0,0:0:0:0:
256,224,67441,1,0,0:0:0:0:
256,224,67618,1,8,0:0:0:0:
256,224,67794,1,8,0:0:0:0:
352,256,68500,1,0,0:0:0:0:
352,256,68677,1,0,0:0:0:0:
352,256,68765,1,0,0:0:0:0:
352,256,68853,1,8,0:0:0:0:
224,192,69029,1,0,0:0:0:0:
288,224,69206,1,8,0:0:0:0:
288,224,69382,1,0,0:0:0:0:
288,224,69471,1,0,0:0:0:0:
288,224,69559,1,8,0:0:0:0:
288,224,69735,1,8,0:0:0:0:
288,224,69824,1,0,0:0:0:0:
288,224,69912,1,8,0:0:0:0:
256,224,70265,1,8,0:0:0:0:
256,224,70441,1,8,0:0:0:0:
256,224,70529,1,8,0:0:0:0:
256,224,70618,1,0,0:0:0:0:
256,192,70794,1,0,0:0:0:0:
256,192,70971,1,8,0:0:0:0:
256,192,71059,1,0,0:0:0:0:
256,192,71147,1,8,0:0:0:0:
256,192,71235,1,8,0:0:0:0:
256,192,71324,1,0,0:0:0:0:
288,224,71500,1,0,0:0:0:0:
288,224,71677,1,8,0:0:0:0:
288,224,71765,1,8,0:0:0:0:
288,224,71853,1,0,0:0:0:0:
288,224,71941,1,0,0:0:0:0:
288,224,72029,1,8,0:0:0:0:
320,224,72382,1,0,0:0:0:0:
320,224,72559,1,0,0:0:0:0:
320,224,72647,1,0,0:0:0:0:
320,224,72735,1,8,0:0:0:0:
384,288,72912,1,8,0:0:0:0:
384,288,73000,1,0,0:0:0:0:
384,288,73088,1,8,0:0:0:0:
256,128,73265,1,0,0:0:0:0:
224,160,73441,1,8,0:0:0:0:
224,160,73618,1,0,0:0:0:0:
224,160,73706,1,0,0:0:0:0:
224,160,73794,1,8,0:0:0:0:
224,160,73971,1,0,0:0:0:0:
224,160,74059,1,0,0:0:0:0:
224,160,74147,1,0,0:0:0:0:
288,256,74324,1,0,0:0:0:0:
288,256,74500,1,8,0:0:0:0:
288,256,74588,1,8,0:0:0:0:
288,256,74677,1,0,0:0:0:0:
288,256,74765,1,0,0:0:0:0:
288,256,74853,1,8,0:0:0:0:
288,256,75029,1,0,0:0:0:0:
288,256,75118,1,0,0:0:0:0:
288,256,75206,1,8,0:0:0:0:
288,256,75559,1,0,0:0:0:0:
288,256,75735,1,0,0:0:0:0:
288,256,75824,1,0,0:0:0:0:
288,256,75912,1,8,0:0:0:0:
288,256,76000,1,8,0:0:0:0:
288,256,76088,1,0,0:0:0:0:
224,192,76265,1,8,0:0:0:0:
288,224,76441,1,0,0:0:0:0:
288,224,76529,1,8,0:0:0:0:
288,224,76618,1,0,0:0:0:0:
288,224,76794,1,0,0:0:0:0:
256,128,76882,1,0,0:0:0:0:
256,128,76971,1,0,0:0:0:0:
224,160,77147,1,0,0:0:0:0:
224,128,77324,1,8,0:0:0:0:
224,128,77677,1,8,0:0:0:0:
224,128,78206,1,8,0:0:0:0:
224,128,78382,1,8,0:0:0:0:
224,128,78735,1,8,0:0:0:0:
224,128,79441,1,8,0:0:0:0:
224,128,79794,1,8,0:0:0:0:
224,128,79971,1,8,0:0:0:0:
128,192,80324,1,8,0:0:0:0:
128,192,80500,1,8,0:0:0:0:
352,192,80853,1,8,0:0:0:0:
288,160,81206,1,0,0:0:0:0:
320,192,81559,1,8,0:0:0:0:
224,160,81735,1,0,0:0:0:0:
224,160,81824,1,0,0:0:0:0:
224,160,81912,1,0,0:0:0:0:
224,160,82265,1,8,0:0:0:0:
224,160,82441,1,0,0:0:0:0:
224,160,82618,1,8,0:0:0:0:
224,160,82794,1,8,0:0:0:0:
224,160,82882,1,8,0:0:0:0:
224,160,82971,1,0,0:0:0:0:
320,256,83324,1,8,0:0:0:0:
320,256,83500,1,0,0:0:0:0:
320,256,83677,1,8,0:0:0:0:
320,256,83853,1,0,0:0:0:0:
320,256,83941,1,0,0:0:0:0:
320,256,84029,1,8,0:0:0:0:
288,256,84206,1,0,0:0:0:0:
288,256,84382,1,8,0:0:0:0:
288,256,84559,1,8,0:0:0:0:
288,256,84735,1,8,0:0:0:0:
288,256,84912,1,0,0:0:0:0:
256,128,85088,1,8,0:0:0:0:
32,192,85265,2,0,L|96:192,4,35
256,192,85794,1,0,0:0:0:0:
256,192,85970,1,8,0:0:0:0:
256,128,86059,1,8,0:0:0:0:
256,192,86147,1,0,0:0:0:0:
288,160,86324,1,8,0:0:0:0:
256,192,86500,1,8,0:0:0:0:
256,192,86676,1,0,0:0:0:0:
256,192,86853,1,8,0:0:0:0:
256,160,87029,1,8,0:0:0:0:
256,160,87118,1,0,0:0:0:0:
256,160,87206,1,0,0:0:0:0:
256,256,87382,1,8,0:0:0:0:
256,256,87559,1,0,0:0:0:0:
256,256,87735,1,0,0:0:0:0:
256,256,87911,1,0,0:0:0:0:
320,224,88088,1,8,0:0:0:0:
288,192,88177,1,8,0:0:0:0:
320,224,88264,1,0,0:0:0:0:
320,224,88441,1,0,0:0:0:0:
320,224,88617,1,8,0:0:0:0:
320,224,88794,1,0,0:0:0:0:
320,224,88970,1,0,0:0:0:0:
288,224,89323,1,8,0:0:0:0:
288,224,89676,1,8,0:0:0:0:
288,192,90029,1,0,0:0:0:0:
224,96,90206,1,0,0:0:0:0:
224,128,90382,1,8,0:0:0:0:
416,288,90559,1,0,0:0:0:0:
224,96,90647,1,0,0:0:0:0:
416,288,90735,1,8,0:0:0:0:
416,288,90911,1,8,0:0:0:0:
416,288,91000,1,8,0:0:0:0:
416,288,91088,1,8,0:0:0:0:
256,288,91265,1,0,0:0:0:0:
256,160,91441,1,8,0:0:0:0:
224,128,91617,1,8,0:0:0:0:
224,128,91794,1,8,0:0:0:0:
224,128,91970,1,0,0:0:0:0:
224,128,92147,1,0,0:0:0:0:
288,160,92500,1,8,0:0:0:0:
288,160,92853,1,8,0:0:0:0:
224,192,93206,1,0,0:0:0:0:
224,192,93382,1,0,0:0:0:0:
224,192,93559,1,8,0:0:0:0:
224,192,93735,1,0,0:0:0:0:
224,192,93911,1,8,0:0:0:0:
320,224,94264,1,0,0:0:0:0:
320,224,94441,1,8,0:0:0:0:
160,192,94529,1,0,0:0:0:0:
320,224,94617,1,0,0:0:0:0:
320,224,94794,1,0,0:0:0:0:
320,224,94970,1,8,0:0:0:0:
320,224,95147,1,0,0:0:0:0:
320,224,95323,1,8,0:0:0:0:
320,224,95500,1,8,0:0:0:0:
192,192,95588,1,8,0:0:0:0:
288,224,95676,1,0,0:0:0:0:
288,224,95853,1,8,0:0:0:0:
224,96,96029,1,8,0:0:0:0:
256,128,96206,1,8,0:0:0:0:
288,224,96382,1,0,0:0:0:0:
224,128,96559,1,8,0:0:0:0:
192,192,96647,1,0,0:0:0:0:
192,192,96735,1,0,0:0:0:0:
224,128,96911,1,0,0:0:0:0:
224,128,97088,1,8,0:0:0:0:
224,128,97264,1,0,0:0:0:0:
224,128,97441,1,0,0:0:0:0:
256,96,97794,1,8,0:0:0:0:
256,96,98147,1,8,0:0:0:0:
256,192,98500,1,0,0:0:0:0:
256,192,98676,1,0,0:0:0:0:
256,192,98853,1,8,0:0:0:0:
256,192,99029,1,0,0:0:0:0:
256,192,99117,1,0,0:0:0:0:
256,192,99206,1,8,0:0:0:0:
256,192,99382,1,8,0:0:0:0:
256,192,99470,1,8,0:0:0:0:
256,192,99559,1,8,0:0:0:0:
320,224,99735,1,0,0:0:0:0:
256,224,99911,1,8,0:0:0:0:
256,224,100088,1,8,0:0:0:0:
256,224,100264,1,8,0:0:0:0:
256,224,100441,1,0,0:0:0:0:
256,224,100617,1,8,0:0:0:0:
256,224,100970,1,0,0:0:0:0:
256,224,101147,1,0,0:0:0:0:
256,224,101323,1,0,0:0:0:0:
256,224,101500,1,8,0:0:0:0:
256,224,101676,1,8,0:0:0:0:
128,160,102206,2,0,L|192:160,4,35
256,192,102735,1,0,0:0:0:0:
256,192,102911,1,8,0:0:0:0:
256,128,103000,1,8,0:0:0:0:
256,192,103088,1,0,0:0:0:0:
288,160,103265,1,8,0:0:0:0:
256,192,103441,1,8,0:0:0:0:
256,192,103617,1,0,0:0:0:0:
288,160,103706,1,0,0:0:0:0:
256,192,103794,1,8,0:0:0:0:
256,160,103970,1,8,0:0:0:0:
256,160,104059,1,0,0:0:0:0:
256,160,104147,1,0,0:0:0:0:
256,256,104323,1,8,0:0:0:0:
256,256,104500,1,0,0:0:0:0:
256,256,104676,1,0,0:0:0:0:
256,256,104852,1,0,0:0:0:0:
320,224,105029,1,8,0:0:0:0:
288,192,105118,1,8,0:0:0:0:
320,224,105205,1,0,0:0:0:0:
320,224,105382,1,0,0:0:0:0:
288,160,105471,1,0,0:0:0:0:
320,224,105558,1,8,0:0:0:0:
320,224,105735,1,0,0:0:0:0:
320,224,105911,1,0,0:0:0:0:
288,224,106264,1,8,0:0:0:0:
288,224,106617,1,8,0:0:0:0:
288,192,106970,1,0,0:0:0:0:
224,96,107147,1,0,0:0:0:0:
224,128,107323,1,8,0:0:0:0:
416,288,107500,1,0,0:0:0:0:
224,96,107588,1,0,0:0:0:0:
416,288,107676,1,8,0:0:0:0:
416,288,107852,1,8,0:0:0:0:
416,288,107941,1,8,0:0:0:0:
416,288,108029,1,8,0:0:0:0:
288,256,108206,1,0,0:0:0:0:
256,160,108382,1,8,0:0:0:0:
224,128,108558,1,8,0:0:0:0:
224,128,108735,1,8,0:0:0:0:
224,128,108911,1,0,0:0:0:0:
224,128,109088,1,0,0:0:0:0:
288,160,109441,1,8,0:0:0:0:
288,160,109794,1,8,0:0:0:0:
224,192,110147,1,0,0:0:0:0:
224,192,110323,1,0,0:0:0:0:
224,192,110500,1,8,0:0:0:0:
224,192,110676,1,0,0:0:0:0:
224,192,110852,1,8,0:0:0:0:
320,224,111205,1,0,0:0:0:0:
320,224,111382,1,8,0:0:0:0:
160,192,111470,1,0,0:0:0:0:
320,224,111558,1,0,0:0:0:0:
320,224,111735,1,0,0:0:0:0:
320,224,111911,1,8,0:0:0:0:
320,224,112088,1,0,0:0:0:0:
192,160,112177,1,0,0:0:0:0:
320,224,112264,1,8,0:0:0:0:
320,224,112441,1,8,0:0:0:0:
192,192,112529,1,8,0:0:0:0:
288,224,112617,1,0,0:0:0:0:
288,224,112794,1,8,0:0:0:0:
224,96,112970,1,8,0:0:0:0:
256,128,113147,1,8,0:0:0:0:
288,224,113323,1,0,0:0:0:0:
224,128,113500,1,8,0:0:0:0:
192,192,113588,1,0,0:0:0:0:
192,192,113676,1,0,0:0:0:0:
224,128,113852,1,0,0:0:0:0:
128,160,113941,1,0,0:0:0:0:
224,128,114029,1,8,0:0:0:0:
224,128,114205,1,0,0:0:0:0:
224,128,114382,1,0,0:0:0:0:
256,96,114735,1,8,0:0:0:0:
256,96,115088,1,8,0:0:0:0:
256,192,115441,1,0,0:0:0:0:
256,192,115617,1,0,0:0:0:0:
256,192,115794,1,8,0:0:0:0:
256,192,115970,1,0,0:0:0:0:
256,192,116058,1,0,0:0:0:0:
256,192,116147,1,8,0:0:0:0:
256,192,116323,1,8,0:0:0:0:
256,192,116411,1,8,0:0:0:0:
256,192,116500,1,8,0:0:0:0:
320,192,116677,1,0,0:0:0:0:
256,224,116852,1,8,0:0:0:0:
256,224,117029,1,8,0:0:0:0:
256,224,117205,1,8,0:0:0:0:
256,224,117382,1,0,0:0:0:0:
256,224,117558,1,8,0:0:0:0:
256,224,117911,1,0,0:0:0:0:
256,224,118088,1,0,0:0:0:0:
256,224,118264,1,0,0:0:0:0:
256,224,118441,1,8,0:0:0:0:
256,224,118617,1,8,0:0:0:0:
160,192,119147,2,0,L|224:192,4,35
192,128,119677,5,8,0:0:0:0:
192,128,120030,1,8,0:0:0:0:
160,160,120383,1,0,0:0:0:0:
160,160,120560,1,0,0:0:0:0:
160,160,120736,1,8,0:0:0:0:
288,96,121089,1,8,0:0:0:0:
256,128,121442,1,0,0:0:0:0:
256,128,121618,1,0,0:0:0:0:
256,128,121795,1,8,0:0:0:0:
224,128,122148,1,8,0:0:0:0:
224,128,122324,1,8,0:0:0:0:
224,128,122501,1,0,0:0:0:0:
224,128,122677,1,0,0:0:0:0:
224,128,122854,1,8,0:0:0:0:
416,224,123207,1,8,0:0:0:0:
320,160,123560,1,0,0:0:0:0:
320,160,123736,1,0,0:0:0:0:
320,160,123824,1,0,0:0:0:0:
320,160,123913,1,8,0:0:0:0:
320,256,124089,1,8,0:0:0:0:
320,256,124177,1,8,0:0:0:0:
320,256,124266,1,0,0:0:0:0:
288,160,124442,1,0,0:0:0:0:
192,160,124618,1,8,0:0:0:0:
192,192,124795,1,0,0:0:0:0:
192,192,124971,1,8,0:0:0:0:
192,192,125148,1,0,0:0:0:0:
192,192,125236,1,0,0:0:0:0:
192,192,125324,1,0,0:0:0:0:
288,160,125677,1,0,0:0:0:0:
288,160,125854,1,0,0:0:0:0:
288,160,126030,1,8,0:0:0:0:
288,192,126207,1,8,0:0:0:0:
288,192,126295,1,8,0:0:0:0:
288,192,126383,1,0,0:0:0:0:
256,160,126560,1,0,0:0:0:0:
256,224,126736,1,8,0:0:0:0:
256,224,126913,1,0,0:0:0:0:
256,192,127089,1,8,0:0:0:0:
192,128,127266,1,8,0:0:0:0:
192,128,127442,1,0,0:0:0:0:
192,128,127618,1,0,0:0:0:0:
192,128,127795,1,8,0:0:0:0:
320,192,128148,1,8,0:0:0:0:
320,192,128501,1,8,0:0:0:0:
320,192,129030,1,8,0:0:0:0:
320,192,129207,1,8,0:0:0:0:
320,192,129560,1,8,0:0:0:0:
256,128,129913,1,0,0:0:0:0:
256,128,130266,1,8,0:0:0:0:
256,128,130442,1,8,0:0:0:0:
256,128,130618,1,8,0:0:0:0:
160,128,130795,1,8,0:0:0:0:
288,128,131147,1,8,0:0:0:0:
288,128,131324,1,8,0:0:0:0:
288,128,131677,1,8,0:0:0:0:
288,128,132029,1,0,0:0:0:0:
224,128,132206,1,0,0:0:0:0:
224,128,132294,1,0,0:0:0:0:
224,128,132382,1,8,0:0:0:0:
224,128,132559,1,8,0:0:0:0:
224,128,132647,1,8,0:0:0:0:
224,128,132735,1,0,0:0:0:0:
224,128,132912,1,0,0:0:0:0:
224,128,133088,1,8,0:0:0:0:
224,128,133265,1,0,0:0:0:0:
288,96,133441,1,8,0:0:0:0:
288,96,133618,1,0,0:0:0:0:
288,96,133706,1,0,0:0:0:0:
288,96,133794,1,0,0:0:0:0:
256,160,134147,1,0,0:0:0:0:
256,160,134324,1,0,0:0:0:0:
256,160,134500,1,8,0:0:0:0:
256,160,134677,1,0,0:0:0:0:
256,160,134765,1,0,0:0:0:0:
256,160,134853,1,0,0:0:0:0:
256,160,135029,1,0,0:0:0:0:
256,160,135206,1,0,0:0:0:0:
256,160,135382,1,8,0:0:0:0:
256,160,135559,1,8,0:0:0:0:
