osu file format v14

[General]
AudioFilename: audio.mp3
AudioLeadIn: 0
PreviewTime: 85794
Countdown: 0
SampleSet: Normal
StackLeniency: 0.7
Mode: 1
LetterboxInBreaks: 0
WidescreenStoryboard: 0

[Editor]
DistanceSpacing: 1.5
BeatDivisor: 4
GridSize: 32
TimelineZoom: 2.1

[Metadata]
Title:Shijuugo-nen no Yukizakura
TitleUnicode:四十五年ノ雪桜
Artist:kozato
ArtistUnicode:kozato
Creator:Chromoxx
Version:Inner Oni
Source:BMS
Tags:45nen yonjuugonen 雪月こざと Yuzuki 戦 [sen-goku] 國 ~夏の陣~ 戦國 Sengoku ~Natsu no Jin~ Dramatical
BeatmapID:963335
BeatmapSetID:448886

[Difficulty]
HPDrainRate:6
CircleSize:5
OverallDifficulty:6
ApproachRate:5
SliderMultiplier:1.4
SliderTickRate:1

[Events]
//Background and Video events
0,0,"BG.jpg",0,0
//Break Periods
//Storyboard Layer 0 (Background)
//Storyboard Layer 1 (Fail)
//Storyboard Layer 2 (Pass)
//Storyboard Layer 3 (Foreground)
//Storyboard Sound Samples

[TimingPoints]
30,352.941176470588,3,1,0,80,1,0
51912,-100,3,1,0,90,0,1
67794,-100,3,1,0,80,0,0
85794,-100,3,1,0,90,0,1
101677,-100,3,1,0,90,0,0
102735,-100,3,1,0,90,0,1
118618,-100,3,1,0,80,0,0

[HitObjects]
128,128,1088,5,8,0:0:0:0:
192,96,1441,1,8,0:0:0:0:
256,160,1618,1,8,0:0:0:0:
256,160,1794,1,0,0:0:0:0:
192,128,1971,1,0,0:0:0:0:
192,128,2147,1,8,0:0:0:0:
224,128,2500,1,8,0:0:0:0:
288,96,2853,1,0,0:0:0:0:
288,96,3029,1,0,0:0:0:0:
288,96,3206,1,8,0:0:0:0:
288,96,3382,1,8,0:0:0:0:
288,96,3559,1,8,0:0:0:0:
288,96,3735,1,0,0:0:0:0:
288,96,3912,1,8,0:0:0:0:
288,96,4088,1,8,0:0:0:0:
288,96,4265,1,8,0:0:0:0:
256,96,4618,1,8,0:0:0:0:
192,128,4971,1,0,0:0:0:0:
192,128,5059,1,0,0:0:0:0:
192,128,5147,1,0,0:0:0:0:
192,128,5235,1,0,0:0:0:0:
192,128,5324,1,8,0:0:0:0:
256,160,5500,1,8,0:0:0:0:
256,160,5588,1,8,0:0:0:0:
256,160,5677,1,0,0:0:0:0:
256,160,5853,1,0,0:0:0:0:
256,160,6029,1,8,0:0:0:0:
224,192,6206,1,0,0:0:0:0:
224,192,6382,1,8,0:0:0:0:
192,128,6559,1,0,0:0:0:0:
192,128,6647,1,0,0:0:0:0:
192,128,6735,1,0,0:0:0:0:
192,192,6912,1,0,0:0:0:0:
192,192,7088,1,8,0:0:0:0:
192,192,7265,1,8,0:0:0:0:
192,96,7441,1,8,0:0:0:0:
192,96,7529,1,8,0:0:0:0:
192,96,7618,1,0,0:0:0:0:
192,96,7706,1,0,0:0:0:0:
192,96,7794,1,8,0:0:0:0:
256,192,7971,1,0,0:0:0:0:
384,256,8147,1,8,0:0:0:0:
256,192,8324,1,8,0:0:0:0:
192,192,8500,1,8,0:0:0:0:
192,192,8677,1,8,0:0:0:0:
192,192,8853,1,0,0:0:0:0:
192,192,9029,1,0,0:0:0:0:
192,192,9206,1,8,0:0:0:0:
192,128,9559,1,8,0:0:0:0:
288,256,9824,1,0,0:0:0:0:
224,160,9912,1,0,0:0:0:0:
288,192,10088,1,0,0:0:0:0:
192,128,10265,1,8,0:0:0:0:
288,192,10441,1,8,0:0:0:0:
288,192,10618,1,8,0:0:0:0:
256,160,10971,1,8,0:0:0:0:
256,192,11324,1,0,0:0:0:0:
256,192,11500,1,0,0:0:0:0:
256,192,11677,1,8,0:0:0:0:
256,192,11853,1,0,0:0:0:0:
256,192,11941,1,0,0:0:0:0:
256,192,12029,1,0,0:0:0:0:
288,256,12206,1,0,0:0:0:0:
288,256,12382,1,0,0:0:0:0:
288,256,12559,1,8,0:0:0:0:
288,256,12735,1,8,0:0:0:0:
192,128,13088,1,8,0:0:0:0:
320,96,13441,1,0,0:0:0:0:
320,224,13529,1,0,0:0:0:0:
320,96,13618,1,0,0:0:0:0:
160,160,13706,1,0,0:0:0:0:
320,224,13794,1,8,0:0:0:0:
352,288,13971,1,8,0:0:0:0:
288,224,14059,1,8,0:0:0:0:
288,224,14147,1,0,0:0:0:0:
256,224,14324,1,0,0:0:0:0:
256,224,14500,1,8,0:0:0:0:
320,256,14677,1,8,0:0:0:0:
320,256,14853,1,8,0:0:0:0:
320,192,15029,1,0,0:0:0:0:
320,192,15118,1,0,0:0:0:0:
320,192,15206,1,0,0:0:0:0:
320,224,15382,1,0,0:0:0:0:
256,192,15559,1,0,0:0:0:0:
256,192,15735,1,8,0:0:0:0:
256,192,15912,1,8,0:0:0:0:
256,192,16000,1,8,0:0:0:0:
256,192,16088,1,0,0:0:0:0:
256,192,16177,1,0,0:0:0:0:
256,192,16265,1,0,0:0:0:0:
320,192,16441,1,0,0:0:0:0:
320,192,16618,1,8,0:0:0:0:
256,192,16794,1,0,0:0:0:0:
256,192,16971,1,8,0:0:0:0:
256,192,17147,1,8,0:0:0:0:
256,192,17324,1,0,0:0:0:0:
256,192,17500,1,0,0:0:0:0:
256,192,17677,1,8,0:0:0:0:
160,160,18029,1,8,0:0:0:0:
160,160,18206,1,0,0:0:0:0:
256,128,18294,1,0,0:0:0:0:
160,160,18382,1,8,0:0:0:0:
160,160,18559,1,0,0:0:0:0:
288,160,18735,1,8,0:0:0:0:
288,160,18912,1,0,0:0:0:0:
288,160,19088,1,8,0:0:0:0:
288,160,19265,1,8,0:0:0:0:
256,160,19353,1,8,0:0:0:0:
256,160,19441,1,0,0:0:0:0:
288,160,19618,1,0,0:0:0:0:
320,192,19794,1,8,0:0:0:0:
320,192,19971,1,0,0:0:0:0:
320,192,20147,1,8,0:0:0:0:
256,128,20324,1,0,0:0:0:0:
224,64,20412,1,0,0:0:0:0:
320,192,20500,1,0,0:0:0:0:
320,192,20677,1,0,0:0:0:0:
320,192,20853,1,8,0:0:0:0:
160,192,21029,1,0,0:0:0:0:
160,192,21206,1,8,0:0:0:0:
288,160,21559,1,8,0:0:0:0:
288,160,21618,1,8,0:0:0:0:
288,32,21677,1,8,0:0:0:0:
64,128,21735,1,0,0:0:0:0:
160,128,21824,1,8,0:0:0:0:
160,128,21912,1,0,0:0:0:0:
192,160,22088,1,8,0:0:0:0:
384,256,22265,1,0,0:0:0:0:
160,64,22618,1,8,0:0:0:0:
160,64,22794,1,0,0:0:0:0:
160,64,22882,1,0,0:0:0:0:
160,64,22971,1,8,0:0:0:0:
160,64,23147,1,0,0:0:0:0:
256,160,23324,1,8,0:0:0:0:
192,128,23500,1,0,0:0:0:0:
192,128,23588,1,0,0:0:0:0:
192,128,23677,1,0,0:0:0:0:
256,160,23853,1,0,0:0:0:0:
256,160,24029,1,8,0:0:0:0:
256,160,24206,1,0,0:0:0:0:
256,160,24382,1,8,0:0:0:0:
320,192,24559,1,8,0:0:0:0:
320,224,24647,1,8,0:0:0:0:
320,224,24735,1,0,0:0:0:0:
192,96,24912,1,0,0:0:0:0:
192,96,25088,1,0,0:0:0:0:
192,96,25265,1,8,0:0:0:0:
192,96,25441,1,8,0:0:0:0:
320,224,25618,1,8,0:0:0:0:
288,192,25706,1,0,0:0:0:0:
288,224,25794,1,8,0:0:0:0:
288,192,25882,1,8,0:0:0:0:
160,96,25971,1,8,0:0:0:0:
288,192,26059,1,0,0:0:0:0:
320,224,26147,1,0,0:0:0:0:
352,160,26324,1,0,0:0:0:0:
320,128,26500,1,8,0:0:0:0:
320,128,26677,1,0,0:0:0:0:
320,128,26765,1,0,0:0:0:0:
320,128,26853,1,8,0:0:0:0:
320,128,27029,1,0,0:0:0:0:
320,128,27206,1,8,0:0:0:0:
352,192,27382,1,0,0:0:0:0:
352,192,27559,1,8,0:0:0:0:
224,96,27735,1,8,0:0:0:0:
224,96,27824,1,8,0:0:0:0:
352,192,27912,1,0,0:0:0:0:
288,160,28088,1,0,0:0:0:0:
288,160,28265,1,8,0:0:0:0:
288,160,28441,1,0,0:0:0:0:
288,160,28618,1,8,0:0:0:0:
224,128,28794,1,0,0:0:0:0:
224,128,28882,1,0,0:0:0:0:
224,128,28971,1,0,0:0:0:0:
224,128,29147,1,0,0:0:0:0:
224,128,29324,1,8,0:0:0:0:
224,128,29500,1,0,0:0:0:0:
224,128,29677,1,8,0:0:0:0:
320,64,30029,1,8,0:0:0:0:
320,64,30088,1,8,0:0:0:0:
320,64,30147,1,8,0:0:0:0:
320,64,30206,1,0,0:0:0:0:
192,160,30294,1,8,0:0:0:0:
32,160,30382,1,0,0:0:0:0:
192,128,30559,1,8,0:0:0:0:
192,128,30735,1,0,0:0:0:0:
256,160,31088,1,8,0:0:0:0:
256,160,31265,1,0,0:0:0:0:
256,160,31353,1,0,0:0:0:0:
256,160,31441,1,8,0:0:0:0:
256,160,31618,1,0,0:0:0:0:
256,160,31794,1,8,0:0:0:0:
256,160,31971,1,0,0:0:0:0:
256,160,32059,1,0,0:0:0:0:
256,160,32147,1,0,0:0:0:0:
256,160,32324,1,0,0:0:0:0:
256,160,32500,1,8,0:0:0:0:
288,192,32677,1,0,0:0:0:0:
288,192,32853,1,8,0:0:0:0:
224,128,33029,1,8,0:0:0:0:
224,128,33118,1,8,0:0:0:0:
224,128,33206,1,0,0:0:0:0:
224,128,33382,1,0,0:0:0:0:
224,128,33559,1,8,0:0:0:0:
224,128,33735,1,8,0:0:0:0:
352,0,33912,1,8,0:0:0:0:
320,64,34000,1,8,0:0:0:0:
320,64,34088,1,8,0:0:0:0:
320,160,34265,1,0,0:0:0:0:
320,160,34353,1,8,0:0:0:0:
320,160,34441,1,8,0:0:0:0:
320,64,34618,1,0,0:0:0:0:
320,64,34706,1,0,0:0:0:0:
320,64,34794,1,0,0:0:0:0:
96,96,34971,1,8,0:0:0:0:
128,96,35147,1,0,0:0:0:0:
128,96,35235,1,0,0:0:0:0:
256,160,35324,1,0,0:0:0:0:
224,192,35500,1,0,0:0:0:0:
224,192,35677,1,8,0:0:0:0:
224,192,35853,1,0,0:0:0:0:
224,192,36029,1,8,0:0:0:0:
224,192,36382,1,0,0:0:0:0:
288,224,36735,1,0,0:0:0:0:
288,224,36912,1,0,0:0:0:0:
288,224,37088,1,8,0:0:0:0:
288,224,37265,1,0,0:0:0:0:
288,224,37353,1,0,0:0:0:0:
288,224,37441,1,0,0:0:0:0:
288,224,37618,1,0,0:0:0:0:
288,224,37794,1,8,0:0:0:0:
288,224,37971,1,8,0:0:0:0:
96,160,38147,1,0,0:0:0:0:
192,128,38500,1,0,0:0:0:0:
192,128,38559,1,0,0:0:0:0:
192,128,38618,1,0,0:0:0:0:
192,128,38677,1,8,0:0:0:0:
192,224,38765,1,8,0:0:0:0:
256,128,38853,1,0,0:0:0:0:
192,160,39206,1,8,0:0:0:0:
192,160,39382,1,0,0:0:0:0:
192,160,39471,1,0,0:0:0:0:
192,160,39559,1,0,0:0:0:0:
192,160,39735,1,0,0:0:0:0:
192,160,39912,1,8,0:0:0:0:
192,160,40088,1,0,0:0:0:0:
160,160,40265,1,8,0:0:0:0:
256,224,40441,1,8,0:0:0:0:
256,224,40618,1,0,0:0:0:0:
256,224,40794,1,0,0:0:0:0:
256,224,40971,1,0,0:0:0:0:
256,224,41147,1,8,0:0:0:0:
256,224,41324,1,8,0:0:0:0:
256,224,41500,1,8,0:0:0:0:
320,224,41677,1,0,0:0:0:0:
256,224,41853,1,0,0:0:0:0:
256,128,42029,1,8,0:0:0:0:
160,96,42206,1,0,0:0:0:0:
256,192,42382,1,8,0:0:0:0:
256,192,42471,1,8,0:0:0:0:
256,192,42559,1,8,0:0:0:0:
256,192,42735,1,0,0:0:0:0:
256,192,42824,1,0,0:0:0:0:
256,192,42912,1,0,0:0:0:0:
256,192,43088,1,8,0:0:0:0:
256,192,43177,1,8,0:0:0:0:
256,192,43265,1,8,0:0:0:0:
320,224,43441,1,8,0:0:0:0:
320,224,43618,1,0,0:0:0:0:
320,224,43794,1,8,0:0:0:0:
320,224,43971,1,8,0:0:0:0:
320,224,44147,1,0,0:0:0:0:
224,128,44324,1,8,0:0:0:0:
224,128,44500,1,0,0:0:0:0:
224,128,44677,1,0,0:0:0:0:
224,128,44853,1,8,0:0:0:0:
288,192,45206,1,0,0:0:0:0:
288,192,45382,1,8,0:0:0:0:
256,192,45559,1,8,0:0:0:0:
160,128,45735,1,0,0:0:0:0:
320,224,45912,1,8,0:0:0:0:
320,224,46088,1,8,0:0:0:0:
256,192,46265,1,8,0:0:0:0:
320,224,46441,1,0,0:0:0:0:
256,192,46618,1,8,0:0:0:0:
256,192,46794,1,8,0:0:0:0:
256,192,46971,1,0,0:0:0:0:
288,160,47147,1,0,0:0:0:0:
288,160,47324,1,8,0:0:0:0:
320,128,47500,1,0,0:0:0:0:
160,160,47677,1,8,0:0:0:0:
192,192,48029,1,8,0:0:0:0:
192,192,48206,1,8,0:0:0:0:
192,192,48382,1,0,0:0:0:0:
256,224,48559,1,0,0:0:0:0:
256,224,48735,1,8,0:0:0:0:
256,224,48912,1,0,0:0:0:0:
288,224,49088,1,8,0:0:0:0:
288,224,49265,1,8,0:0:0:0:
320,224,49441,1,8,0:0:0:0:
320,224,49618,1,0,0:0:0:0:
320,224,49794,1,8,0:0:0:0:
320,256,49971,1,0,0:0:0:0:
320,256,50147,1,8,0:0:0:0:
320,256,50324,1,0,0:0:0:0:
320,256,50500,1,8,0:0:0:0:
320,256,50677,1,8,0:0:0:0:
352,192,50853,1,8,0:0:0:0:
288,192,51029,1,0,0:0:0:0:
288,192,51206,1,8,0:0:0:0:
320,64,51382,1,8,0:0:0:0:
320,64,51441,1,8,0:0:0:0:
320,64,51500,1,8,0:0:0:0:
320,64,51559,1,0,0:0:0:0:
288,64,51647,1,0,0:0:0:0:
288,64,51735,1,8,0:0:0:0:
96,128,51912,1,0,0:0:0:0:
96,128,52000,1,0,0:0:0:0:
96,128,52088,1,8,0:0:0:0:
96,128,52177,1,8,0:0:0:0:
96,128,52265,1,0,0:0:0:0:
320,224,52441,1,8,0:0:0:0:
320,224,52529,1,0,0:0:0:0:
320,224,52618,1,8,0:0:0:0:
320,224,52706,1,8,0:0:0:0:
320,224,52794,1,0,0:0:0:0:
320,224,52971,1,8,0:0:0:0:
288,224,53147,1,0,0:0:0:0:
288,224,53235,1,0,0:0:0:0:
288,224,53324,1,8,0:0:0:0:
288,224,53412,1,0,0:0:0:0:
288,224,53500,1,8,0:0:0:0:
288,224,53588,1,8,0:0:0:0:
288,224,53677,1,0,0:0:0:0:
256,224,53853,1,8,0:0:0:0:
320,256,54029,1,0,0:0:0:0:
256,256,54118,1,0,0:0:0:0:
320,256,54206,1,8,0:0:0:0:
224,128,54294,1,8,0:0:0:0:
224,128,54382,1,0,0:0:0:0:
320,256,54559,1,8,0:0:0:0:
320,256,54647,1,0,0:0:0:0:
320,256,54736,1,8,0:0:0:0:
320,256,54824,1,8,0:0:0:0:
320,256,54912,1,0,0:0:0:0:
320,256,55088,1,0,0:0:0:0:
256,96,55442,1,8,0:0:0:0:
256,96,55795,1,8,0:0:0:0:
256,96,56147,1,0,0:0:0:0:
256,96,56324,1,8,0:0:0:0:
288,224,56500,1,8,0:0:0:0:
288,224,56677,1,0,0:0:0:0:
288,224,56765,1,8,0:0:0:0:
288,224,56853,1,8,0:0:0:0:
288,224,56942,1,8,0:0:0:0:
288,224,57030,1,8,0:0:0:0:
288,224,57118,1,0,0:0:0:0:
288,224,57206,1,8,0:0:0:0:
256,128,57383,1,8,0:0:0:0:
256,128,57559,1,8,0:0:0:0:
192,96,57736,1,0,0:0:0:0:
96,96,57912,1,8,0:0:0:0:
192,64,58089,1,8,0:0:0:0:
96,96,58265,1,0,0:0:0:0:
224,128,58618,1,8,0:0:0:0:
192,160,58971,1,8,0:0:0:0:
224,128,59324,1,0,0:0:0:0:
224,128,59500,1,8,0:0:0:0:
224,128,59677,1,8,0:0:0:0:
224,96,59853,1,0,0:0:0:0:
96,128,60030,1,8,0:0:0:0:
96,128,60206,1,0,0:0:0:0:
192,192,60383,1,0,0:0:0:0:
192,192,60471,1,0,0:0:0:0:
192,192,60560,1,8,0:0:0:0:
192,192,60648,1,0,0:0:0:0:
192,192,60736,1,0,0:0:0:0:
192,192,60913,1,8,0:0:0:0:
288,256,61001,1,0,0:0:0:0:
288,256,61089,1,8,0:0:0:0:
288,256,61178,1,8,0:0:0:0:
288,256,61266,1,0,0:0:0:0:
288,256,61442,1,8,0:0:0:0:
128,192,61619,1,8,0:0:0:0:
128,192,61707,1,0,0:0:0:0:
128,192,61795,1,8,0:0:0:0:
128,192,61883,1,8,0:0:0:0:
128,192,61972,1,0,0:0:0:0:
128,192,62060,1,8,0:0:0:0:
128,192,62148,1,0,0:0:0:0:
256,192,62325,1,8,0:0:0:0:
256,192,62501,1,0,0:0:0:0:
192,224,62589,1,0,0:0:0:0:
224,192,62678,1,8,0:0:0:0:
224,192,62766,1,8,0:0:0:0:
256,192,62854,1,0,0:0:0:0:
256,192,63030,1,8,0:0:0:0:
288,192,63118,1,0,0:0:0:0:
288,192,63206,1,8,0:0:0:0:
288,192,63295,1,0,0:0:0:0:
288,192,63383,1,0,0:0:0:0:
288,192,63560,1,0,0:0:0:0:
256,128,63912,1,8,0:0:0:0:
256,128,64265,1,8,0:0:0:0:
256,128,64618,1,0,0:0:0:0:
224,96,64795,1,8,0:0:0:0:
224,96,64971,1,8,0:0:0:0:
288,256,65147,1,0,0:0:0:0:
288,256,65236,1,8,0:0:0:0:
288,256,65324,1,8,0:0:0:0:
288,256,65412,1,8,0:0:0:0:
288,256,65500,1,8,0:0:0:0:
288,256,65589,1,0,0:0:0:0:
288,256,65677,1,8,0:0:0:0:
224,160,65853,1,8,0:0:0:0:
224,160,66030,1,8,0:0:0:0:
160,128,66206,1,0,0:0:0:0:
192,96,66383,1,8,0:0:0:0:
192,128,66559,1,0,0:0:0:0:
192,128,66736,1,8,0:0:0:0:
192,128,66912,1,8,0:0:0:0:
192,128,67089,1,0,0:0:0:0:
192,128,67265,1,0,0:0:0:0:
64,128,67442,5,0,0:0:0:0:
64,128,67618,1,8,0:0:0:0:
64,128,67795,1,8,0:0:0:0:
160,128,68500,1,0,0:0:0:0:
160,128,68588,1,0,0:0:0:0:
160,128,68677,1,0,0:0:0:0:
160,128,68765,1,0,0:0:0:0:
160,128,68853,1,8,0:0:0:0:
288,192,69029,1,8,0:0:0:0:
352,256,69118,1,0,0:0:0:0:
352,256,69206,1,8,0:0:0:0:
352,256,69382,1,0,0:0:0:0:
352,256,69471,1,0,0:0:0:0:
352,256,69559,1,8,0:0:0:0:
352,256,69647,1,0,0:0:0:0:
352,256,69735,1,8,0:0:0:0:
352,256,69824,1,8,0:0:0:0:
352,256,69912,1,0,0:0:0:0:
288,224,70088,1,8,0:0:0:0:
288,224,70177,1,0,0:0:0:0:
288,224,70265,1,8,0:0:0:0:
320,224,70441,1,0,0:0:0:0:
320,224,70529,1,0,0:0:0:0:
320,224,70618,1,8,0:0:0:0:
320,192,70794,1,0,0:0:0:0:
320,192,70882,1,8,0:0:0:0:
320,192,70971,1,0,0:0:0:0:
320,192,71059,1,0,0:0:0:0:
320,224,71147,1,8,0:0:0:0:
320,224,71235,1,8,0:0:0:0:
320,224,71324,1,0,0:0:0:0:
288,192,71412,1,8,0:0:0:0:
288,192,71500,1,0,0:0:0:0:
288,192,71588,1,0,0:0:0:0:
288,192,71677,1,8,0:0:0:0:
288,192,71765,1,8,0:0:0:0:
288,192,71853,1,0,0:0:0:0:
288,192,71941,1,0,0:0:0:0:
288,192,72029,1,8,0:0:0:0:
288,192,72118,1,0,0:0:0:0:
288,192,72206,1,8,0:0:0:0:
288,192,72294,1,8,0:0:0:0:
288,192,72382,1,0,0:0:0:0:
288,128,72559,1,0,0:0:0:0:
288,128,72647,1,0,0:0:0:0:
288,128,72735,1,8,0:0:0:0:
288,128,72824,1,8,0:0:0:0:
288,128,72912,1,0,0:0:0:0:
256,128,73000,1,0,0:0:0:0:
320,224,73088,1,8,0:0:0:0:
320,224,73177,1,0,0:0:0:0:
320,224,73265,1,8,0:0:0:0:
320,224,73353,1,8,0:0:0:0:
256,128,73441,1,0,0:0:0:0:
288,192,73529,1,8,0:0:0:0:
288,192,73618,1,0,0:0:0:0:
288,192,73706,1,0,0:0:0:0:
288,192,73794,1,8,0:0:0:0:
288,192,73882,1,8,0:0:0:0:
288,192,73971,1,0,0:0:0:0:
288,192,74059,1,0,0:0:0:0:
288,192,74147,1,8,0:0:0:0:
288,192,74235,1,0,0:0:0:0:
160,192,74324,1,8,0:0:0:0:
160,192,74412,1,8,0:0:0:0:
256,224,74500,1,0,0:0:0:0:
256,224,74588,1,0,0:0:0:0:
256,224,74677,1,8,0:0:0:0:
256,224,74765,1,0,0:0:0:0:
256,224,74853,1,8,0:0:0:0:
288,160,74941,1,8,0:0:0:0:
288,160,75029,1,0,0:0:0:0:
288,160,75118,1,0,0:0:0:0:
288,160,75206,1,8,0:0:0:0:
224,128,75382,1,8,0:0:0:0:
224,128,75471,1,0,0:0:0:0:
224,128,75559,1,8,0:0:0:0:
224,128,75647,1,8,0:0:0:0:
224,128,75735,1,0,0:0:0:0:
320,192,75824,1,8,0:0:0:0:
320,192,75912,1,0,0:0:0:0:
320,192,76000,1,0,0:0:0:0:
320,192,76088,1,8,0:0:0:0:
320,192,76177,1,0,0:0:0:0:
320,192,76265,1,8,0:0:0:0:
320,192,76353,1,8,0:0:0:0:
320,192,76441,1,0,0:0:0:0:
320,192,76529,1,8,0:0:0:0:
320,192,76618,1,0,0:0:0:0:
320,192,76706,1,0,0:0:0:0:
352,224,76794,1,8,0:0:0:0:
320,224,76882,1,8,0:0:0:0:
320,224,76971,1,0,0:0:0:0:
320,224,77059,1,8,0:0:0:0:
320,224,77147,1,0,0:0:0:0:
320,224,77235,1,0,0:0:0:0:
352,224,77324,1,8,0:0:0:0:
256,160,77677,1,8,0:0:0:0:
256,160,78206,1,8,0:0:0:0:
256,160,78382,1,8,0:0:0:0:
256,160,78735,1,8,0:0:0:0:
256,256,79088,1,0,0:0:0:0:
192,128,79441,1,8,0:0:0:0:
192,128,79618,1,8,0:0:0:0:
192,128,79794,1,8,0:0:0:0:
192,128,79971,1,8,0:0:0:0:
192,128,80324,1,8,0:0:0:0:
32,128,80500,1,8,0:0:0:0:
192,96,80853,1,8,0:0:0:0:
224,128,81206,1,0,0:0:0:0:
224,128,81382,1,0,0:0:0:0:
256,64,81559,1,8,0:0:0:0:
320,224,81735,1,0,0:0:0:0:
320,224,81824,1,0,0:0:0:0:
320,224,81912,1,8,0:0:0:0:
320,224,82088,1,0,0:0:0:0:
320,224,82265,1,8,0:0:0:0:
352,224,82441,1,8,0:0:0:0:
352,224,82618,1,8,0:0:0:0:
352,224,82706,1,8,0:0:0:0:
352,224,82794,1,0,0:0:0:0:
352,224,82882,1,0,0:0:0:0:
352,224,82971,1,8,0:0:0:0:
320,192,83147,1,0,0:0:0:0:
320,192,83324,1,8,0:0:0:0:
320,192,83412,1,8,0:0:0:0:
320,192,83500,1,8,0:0:0:0:
320,192,83588,1,0,0:0:0:0:
320,192,83677,1,8,0:0:0:0:
256,96,83853,1,0,0:0:0:0:
192,96,83941,1,8,0:0:0:0:
256,96,84029,1,0,0:0:0:0:
192,128,84206,1,0,0:0:0:0:
192,128,84382,1,8,0:0:0:0:
192,128,84559,1,8,0:0:0:0:
192,128,84735,1,8,0:0:0:0:
192,128,84824,1,8,0:0:0:0:
192,128,84912,1,0,0:0:0:0:
192,128,85000,1,0,0:0:0:0:
192,128,85088,1,8,0:0:0:0:
288,32,85265,1,8,0:0:0:0:
288,32,85324,1,8,0:0:0:0:
288,32,85382,1,8,0:0:0:0:
288,32,85441,1,0,0:0:0:0:
320,32,85529,1,0,0:0:0:0:
320,32,85618,1,8,0:0:0:0:
96,128,85794,1,0,0:0:0:0:
96,128,85970,1,8,0:0:0:0:
96,128,86059,1,8,0:0:0:0:
96,128,86147,1,0,0:0:0:0:
320,224,86323,1,8,0:0:0:0:
320,224,86411,1,0,0:0:0:0:
320,224,86500,1,8,0:0:0:0:
320,224,86588,1,8,0:0:0:0:
320,224,86676,1,0,0:0:0:0:
320,224,86853,1,8,0:0:0:0:
288,224,87029,1,0,0:0:0:0:
288,224,87117,1,0,0:0:0:0:
288,224,87206,1,8,0:0:0:0:
288,224,87382,1,8,0:0:0:0:
288,224,87470,1,8,0:0:0:0:
288,224,87559,1,0,0:0:0:0:
256,224,87735,1,8,0:0:0:0:
320,256,87911,1,0,0:0:0:0:
320,256,88088,1,8,0:0:0:0:
224,128,88176,1,8,0:0:0:0:
224,128,88264,1,0,0:0:0:0:
320,256,88441,1,8,0:0:0:0:
320,256,88529,1,0,0:0:0:0:
320,256,88618,1,8,0:0:0:0:
320,256,88706,1,8,0:0:0:0:
320,256,88794,1,0,0:0:0:0:
320,256,88970,1,0,0:0:0:0:
256,96,89324,1,8,0:0:0:0:
256,96,89677,1,8,0:0:0:0:
256,96,90029,1,0,0:0:0:0:
256,96,90206,1,8,0:0:0:0:
288,224,90382,1,8,0:0:0:0:
288,224,90559,1,0,0:0:0:0:
288,224,90647,1,8,0:0:0:0:
288,224,90735,1,8,0:0:0:0:
288,224,90824,1,8,0:0:0:0:
288,224,90912,1,8,0:0:0:0:
288,224,91000,1,0,0:0:0:0:
288,224,91088,1,8,0:0:0:0:
256,128,91265,1,8,0:0:0:0:
256,128,91441,1,8,0:0:0:0:
192,96,91618,1,0,0:0:0:0:
96,96,91794,1,8,0:0:0:0:
192,64,91971,1,8,0:0:0:0:
96,96,92147,1,0,0:0:0:0:
224,128,92500,1,8,0:0:0:0:
192,160,92853,1,8,0:0:0:0:
224,128,93206,1,0,0:0:0:0:
224,128,93382,1,8,0:0:0:0:
224,128,93559,1,8,0:0:0:0:
224,96,93735,1,0,0:0:0:0:
96,128,93912,1,8,0:0:0:0:
96,128,94088,1,0,0:0:0:0:
192,192,94265,1,0,0:0:0:0:
192,192,94442,1,8,0:0:0:0:
192,192,94530,1,0,0:0:0:0:
192,192,94618,1,0,0:0:0:0:
192,192,94795,1,8,0:0:0:0:
288,256,94883,1,0,0:0:0:0:
288,256,94971,1,8,0:0:0:0:
288,256,95060,1,8,0:0:0:0:
288,256,95148,1,0,0:0:0:0:
288,256,95324,1,8,0:0:0:0:
128,192,95501,1,8,0:0:0:0:
128,192,95589,1,0,0:0:0:0:
128,192,95677,1,8,0:0:0:0:
128,192,95854,1,0,0:0:0:0:
128,192,95942,1,8,0:0:0:0:
128,192,96030,1,0,0:0:0:0:
256,192,96207,1,8,0:0:0:0:
256,192,96383,1,0,0:0:0:0:
224,192,96560,1,8,0:0:0:0:
224,192,96648,1,8,0:0:0:0:
256,192,96736,1,0,0:0:0:0:
256,192,96912,1,8,0:0:0:0:
288,192,97000,1,0,0:0:0:0:
288,192,97088,1,8,0:0:0:0:
288,192,97177,1,0,0:0:0:0:
288,192,97265,1,0,0:0:0:0:
288,192,97442,1,0,0:0:0:0:
256,128,97794,1,8,0:0:0:0:
256,128,98147,1,8,0:0:0:0:
256,128,98500,1,0,0:0:0:0:
224,96,98677,1,8,0:0:0:0:
224,96,98853,1,8,0:0:0:0:
288,256,99029,1,0,0:0:0:0:
288,256,99118,1,8,0:0:0:0:
288,256,99206,1,8,0:0:0:0:
288,256,99294,1,8,0:0:0:0:
288,256,99382,1,8,0:0:0:0:
288,256,99471,1,0,0:0:0:0:
288,256,99559,1,8,0:0:0:0:
224,160,99735,1,8,0:0:0:0:
224,160,99912,1,8,0:0:0:0:
160,128,100088,1,0,0:0:0:0:
192,96,100265,1,8,0:0:0:0:
192,128,100441,1,0,0:0:0:0:
192,128,100618,1,8,0:0:0:0:
192,128,100794,1,8,0:0:0:0:
192,128,100971,1,0,0:0:0:0:
192,128,101147,1,0,0:0:0:0:
64,128,101324,1,0,0:0:0:0:
64,128,101500,1,8,0:0:0:0:
64,128,101677,1,8,0:0:0:0:
320,32,102206,1,8,0:0:0:0:
320,32,102265,1,8,0:0:0:0:
320,32,102324,1,8,0:0:0:0:
320,32,102382,1,0,0:0:0:0:
224,64,102471,1,0,0:0:0:0:
224,64,102559,1,8,0:0:0:0:
96,128,102735,1,0,0:0:0:0:
96,128,102823,1,0,0:0:0:0:
96,128,102911,1,8,0:0:0:0:
96,128,103000,1,8,0:0:0:0:
96,128,103088,1,0,0:0:0:0:
320,224,103264,1,8,0:0:0:0:
320,224,103352,1,0,0:0:0:0:
320,224,103441,1,8,0:0:0:0:
320,224,103529,1,8,0:0:0:0:
320,224,103617,1,0,0:0:0:0:
192,160,103706,1,0,0:0:0:0:
320,224,103794,1,8,0:0:0:0:
288,224,103970,1,0,0:0:0:0:
288,224,104058,1,0,0:0:0:0:
288,224,104147,1,8,0:0:0:0:
288,224,104235,1,0,0:0:0:0:
288,224,104323,1,8,0:0:0:0:
288,224,104411,1,8,0:0:0:0:
288,224,104500,1,0,0:0:0:0:
224,192,104588,1,0,0:0:0:0:
256,224,104677,1,8,0:0:0:0:
320,256,104852,1,0,0:0:0:0:
224,128,104941,1,0,0:0:0:0:
320,256,105029,1,8,0:0:0:0:
224,128,105117,1,8,0:0:0:0:
224,128,105205,1,0,0:0:0:0:
192,160,105382,1,8,0:0:0:0:
320,256,105470,1,0,0:0:0:0:
320,256,105559,1,8,0:0:0:0:
192,160,105647,1,8,0:0:0:0:
192,288,105735,1,0,0:0:0:0:
160,256,105824,1,8,0:0:0:0:
320,256,105911,1,0,0:0:0:0:
224,160,106265,1,8,0:0:0:0:
224,160,106618,1,8,0:0:0:0:
224,160,106971,1,0,0:0:0:0:
224,160,107147,1,8,0:0:0:0:
160,96,107324,1,8,0:0:0:0:
160,96,107500,1,0,0:0:0:0:
160,96,107588,1,8,0:0:0:0:
160,96,107677,1,8,0:0:0:0:
160,96,107765,1,8,0:0:0:0:
160,96,107853,1,8,0:0:0:0:
160,96,107941,1,0,0:0:0:0:
160,96,108029,1,8,0:0:0:0:
352,224,108206,1,8,0:0:0:0:
352,224,108382,1,8,0:0:0:0:
352,224,108559,1,0,0:0:0:0:
352,224,108735,1,8,0:0:0:0:
288,192,108912,1,8,0:0:0:0:
96,128,109088,1,0,0:0:0:0:
352,224,109441,1,8,0:0:0:0:
96,160,109794,1,8,0:0:0:0:
352,256,110147,1,0,0:0:0:0:
224,96,110324,1,8,0:0:0:0:
288,192,110500,1,8,0:0:0:0:
288,160,110677,1,0,0:0:0:0:
288,160,110853,1,8,0:0:0:0:
288,160,111029,1,0,0:0:0:0:
192,192,111206,1,0,0:0:0:0:
96,160,111294,1,0,0:0:0:0:
192,192,111383,1,8,0:0:0:0:
128,192,111471,1,0,0:0:0:0:
192,192,111559,1,0,0:0:0:0:
192,192,111736,1,0,0:0:0:0:
288,256,111824,1,0,0:0:0:0:
288,256,111912,1,8,0:0:0:0:
288,256,112001,1,8,0:0:0:0:
288,256,112089,1,0,0:0:0:0:
96,160,112177,1,0,0:0:0:0:
288,256,112265,1,8,0:0:0:0:
128,192,112442,1,8,0:0:0:0:
128,192,112530,1,0,0:0:0:0:
128,192,112618,1,8,0:0:0:0:
128,192,112706,1,8,0:0:0:0:
128,192,112795,1,0,0:0:0:0:
128,192,112883,1,8,0:0:0:0:
128,192,112971,1,0,0:0:0:0:
320,256,113059,1,0,0:0:0:0:
256,192,113148,1,8,0:0:0:0:
256,192,113324,1,0,0:0:0:0:
224,192,113412,1,0,0:0:0:0:
224,192,113501,1,8,0:0:0:0:
224,192,113589,1,8,0:0:0:0:
256,192,113677,1,0,0:0:0:0:
256,192,113853,1,8,0:0:0:0:
256,192,113941,1,0,0:0:0:0:
288,192,114029,1,8,0:0:0:0:
256,192,114118,1,8,0:0:0:0:
288,192,114206,1,0,0:0:0:0:
288,192,114294,1,0,0:0:0:0:
288,192,114383,1,0,0:0:0:0:
224,160,114735,1,8,0:0:0:0:
224,160,115088,1,8,0:0:0:0:
224,160,115441,1,0,0:0:0:0:
224,160,115618,1,8,0:0:0:0:
160,96,115794,1,8,0:0:0:0:
160,160,115971,1,0,0:0:0:0:
160,160,116059,1,8,0:0:0:0:
160,160,116147,1,8,0:0:0:0:
160,160,116235,1,8,0:0:0:0:
160,160,116324,1,8,0:0:0:0:
160,160,116412,1,0,0:0:0:0:
160,160,116500,1,8,0:0:0:0:
288,224,116677,1,8,0:0:0:0:
288,224,116853,1,8,0:0:0:0:
320,256,117029,1,0,0:0:0:0:
320,256,117206,1,8,0:0:0:0:
320,256,117382,1,0,0:0:0:0:
320,256,117559,1,8,0:0:0:0:
320,256,117735,1,8,0:0:0:0:
320,256,117912,1,0,0:0:0:0:
320,256,118088,1,0,0:0:0:0:
320,256,118265,1,0,0:0:0:0:
224,192,118441,1,8,0:0:0:0:
224,192,118618,1,8,0:0:0:0:
320,64,119147,1,8,0:0:0:0:
320,64,119206,1,8,0:0:0:0:
320,64,119265,1,8,0:0:0:0:
320,64,119324,1,0,0:0:0:0:
384,32,119412,1,0,0:0:0:0:
384,32,119500,1,8,0:0:0:0:
384,32,119588,1,8,0:0:0:0:
384,32,119677,1,0,0:0:0:0:
256,160,119853,1,0,0:0:0:0:
192,160,120029,1,8,0:0:0:0:
224,160,120206,1,0,0:0:0:0:
224,160,120295,1,0,0:0:0:0:
224,128,120382,1,8,0:0:0:0:
224,160,120559,1,0,0:0:0:0:
224,160,120736,1,8,0:0:0:0:
256,160,121088,1,8,0:0:0:0:
256,160,121441,1,0,0:0:0:0:
256,160,121618,1,0,0:0:0:0:
224,128,121794,1,8,0:0:0:0:
224,160,121971,1,0,0:0:0:0:
224,160,122059,1,0,0:0:0:0:
224,160,122147,1,0,0:0:0:0:
192,160,122324,1,0,0:0:0:0:
192,160,122500,1,0,0:0:0:0:
192,160,122677,1,8,0:0:0:0:
192,160,122853,1,8,0:0:0:0:
192,160,123206,1,8,0:0:0:0:
320,224,123559,1,0,0:0:0:0:
320,224,123647,1,0,0:0:0:0:
320,224,123735,1,0,0:0:0:0:
320,224,123824,1,0,0:0:0:0:
320,224,123912,1,8,0:0:0:0:
352,224,124088,1,8,0:0:0:0:
352,224,124177,1,8,0:0:0:0:
352,224,124265,1,0,0:0:0:0:
288,256,124441,1,0,0:0:0:0:
288,256,124618,1,8,0:0:0:0:
288,256,124794,1,0,0:0:0:0:
96,128,124971,1,8,0:0:0:0:
288,192,125147,1,0,0:0:0:0:
288,192,125235,1,0,0:0:0:0:
288,192,125324,1,0,0:0:0:0:
352,224,125500,1,0,0:0:0:0:
352,224,125677,1,0,0:0:0:0:
352,224,125853,1,8,0:0:0:0:
352,224,126029,1,8,0:0:0:0:
352,224,126118,1,8,0:0:0:0:
352,224,126206,1,0,0:0:0:0:
352,224,126294,1,0,0:0:0:0:
352,224,126382,1,8,0:0:0:0:
224,192,126559,1,0,0:0:0:0:
224,192,126735,1,8,0:0:0:0:
192,160,126912,1,8,0:0:0:0:
192,160,127088,1,0,0:0:0:0:
192,160,127265,1,8,0:0:0:0:
192,160,127441,1,0,0:0:0:0:
192,160,127618,1,0,0:0:0:0:
192,160,127794,1,8,0:0:0:0:
256,192,128147,1,8,0:0:0:0:
256,192,128500,1,8,0:0:0:0:
256,128,129029,1,8,0:0:0:0:
256,128,129206,1,8,0:0:0:0:
256,128,129559,1,8,0:0:0:0:
160,192,129912,1,0,0:0:0:0:
256,128,130265,1,8,0:0:0:0:
256,128,130441,1,8,0:0:0:0:
256,128,130618,1,8,0:0:0:0:
256,128,130794,1,8,0:0:0:0:
256,128,131147,1,8,0:0:0:0:
256,128,131324,1,8,0:0:0:0:
288,128,131677,1,8,0:0:0:0:
384,224,132029,1,0,0:0:0:0:
384,224,132118,1,0,0:0:0:0:
384,224,132206,1,0,0:0:0:0:
384,224,132294,1,0,0:0:0:0:
384,224,132382,1,8,0:0:0:0:
416,224,132559,1,8,0:0:0:0:
384,224,132647,1,0,0:0:0:0:
384,224,132735,1,8,0:0:0:0:
320,224,132912,1,0,0:0:0:0:
320,224,133088,1,0,0:0:0:0:
288,224,133265,1,8,0:0:0:0:
288,224,133441,1,8,0:0:0:0:
288,224,133529,1,8,0:0:0:0:
288,224,133618,1,0,0:0:0:0:
288,224,133706,1,0,0:0:0:0:
288,224,133794,1,8,0:0:0:0:
352,224,133971,1,0,0:0:0:0:
160,128,134147,1,8,0:0:0:0:
160,128,134324,1,0,0:0:0:0:
160,128,134500,1,8,0:0:0:0:
160,128,134588,1,8,0:0:0:0:
160,128,134677,1,0,0:0:0:0:
160,128,134765,1,0,0:0:0:0:
160,128,134853,1,0,0:0:0:0:
384,256,135029,1,0,0:0:0:0:
384,256,135206,1,0,0:0:0:0:
288,192,135382,1,8,0:0:0:0:
288,192,135559,1,8,0:0:0:0:
