osu file format v14

[General]
AudioFilename: audio.mp3
AudioLeadIn: 0
PreviewTime: 85794
Countdown: 0
SampleSet: Normal
StackLeniency: 0.7
Mode: 1
LetterboxInBreaks: 0
WidescreenStoryboard: 0

[Editor]
DistanceSpacing: 1.5
BeatDivisor: 2
GridSize: 32
TimelineZoom: 1.4

[Metadata]
Title:Shijuugo-nen no Yukizakura
TitleUnicode:四十五年ノ雪桜
Artist:kozato
ArtistUnicode:kozato
Creator:Chromoxx
Version:Futsuu
Source:BMS
Tags:45nen yonjuugonen 雪月こざと Yuzuki 戦 [sen-goku] 國 ~夏の陣~ 戦國 Sengoku ~Natsu no Jin~ Dramatical
BeatmapID:967794
BeatmapSetID:448886

[Difficulty]
HPDrainRate:7
CircleSize:5
OverallDifficulty:4
ApproachRate:5
SliderMultiplier:1.4
SliderTickRate:1

[Events]
//Background and Video events
0,0,"BG.jpg",0,0
//Break Periods
//Storyboard Layer 0 (Background)
//Storyboard Layer 1 (Fail)
//Storyboard Layer 2 (Pass)
//Storyboard Layer 3 (Foreground)
//Storyboard Sound Samples

[TimingPoints]
30,352.941176470588,3,1,0,80,1,0
51912,-100,3,1,0,90,0,1
67794,-100,3,1,0,80,0,0
85794,-100,3,1,0,90,0,1
101677,-100,3,1,0,90,0,0
102735,-100,3,1,0,90,0,1
118618,-100,3,1,0,80,0,0

[HitObjects]
89,139,1088,5,8,0:0:0:0:
187,144,1794,1,0,0:0:0:0:
187,144,2147,1,8,0:0:0:0:
299,216,3206,1,8,0:0:0:0:
299,216,3912,1,8,0:0:0:0:
299,216,4265,1,8,0:0:0:0:
299,216,5324,1,8,0:0:0:0:
299,216,5677,1,0,0:0:0:0:
299,216,6029,1,0,0:0:0:0:
299,216,6382,1,8,0:0:0:0:
288,128,6735,1,0,0:0:0:0:
253,181,7441,1,8,0:0:0:0:
253,181,7794,1,8,0:0:0:0:
128,131,8147,1,0,0:0:0:0:
128,131,8500,1,8,0:0:0:0:
288,96,8853,1,8,0:0:0:0:
259,245,9559,1,8,0:0:0:0:
259,245,10265,1,8,0:0:0:0:
259,245,10618,1,8,0:0:0:0:
218,227,11677,1,8,0:0:0:0:
218,227,12382,1,0,0:0:0:0:
218,227,12735,1,8,0:0:0:0:
218,227,13794,1,8,0:0:0:0:
230,200,14147,1,8,0:0:0:0:
230,200,14500,1,0,0:0:0:0:
230,200,14853,1,8,0:0:0:0:
219,148,15206,1,0,0:0:0:0:
219,148,15912,1,8,0:0:0:0:
219,148,16265,1,0,0:0:0:0:
219,148,16618,1,0,0:0:0:0:
219,148,16971,1,8,0:0:0:0:
219,148,17324,1,0,0:0:0:0:
184,158,18029,1,8,0:0:0:0:
216,191,18382,1,0,0:0:0:0:
184,158,18735,1,8,0:0:0:0:
184,158,19088,1,8,0:0:0:0:
216,191,20147,1,8,0:0:0:0:
216,191,20500,1,0,0:0:0:0:
216,191,20853,1,8,0:0:0:0:
216,191,21206,1,0,0:0:0:0:
259,189,21912,1,0,0:0:0:0:
218,168,22088,1,8,0:0:0:0:
212,204,22618,1,8,0:0:0:0:
212,204,22971,1,8,0:0:0:0:
219,173,23324,1,0,0:0:0:0:
219,173,24029,1,0,0:0:0:0:
219,173,24382,1,8,0:0:0:0:
219,173,24735,1,8,0:0:0:0:
219,173,25088,1,0,0:0:0:0:
219,173,25441,1,8,0:0:0:0:
183,254,25794,1,0,0:0:0:0:
348,250,26500,1,8,0:0:0:0:
257,187,26853,1,0,0:0:0:0:
257,187,27206,1,8,0:0:0:0:
117,158,27559,1,8,0:0:0:0:
117,158,27912,1,0,0:0:0:0:
257,187,28618,1,8,0:0:0:0:
257,187,28971,1,0,0:0:0:0:
257,187,29324,1,8,0:0:0:0:
257,187,29677,1,8,0:0:0:0:
204,192,30382,1,0,0:0:0:0:
234,170,30559,1,8,0:0:0:0:
241,165,31088,1,8,0:0:0:0:
241,165,31441,1,8,0:0:0:0:
241,165,31794,1,0,0:0:0:0:
241,165,32500,1,0,0:0:0:0:
241,165,32853,1,8,0:0:0:0:
241,165,33206,1,8,0:0:0:0:
241,165,33559,1,0,0:0:0:0:
241,165,33912,1,8,0:0:0:0:
241,165,34265,1,8,0:0:0:0:
216,144,34971,1,8,0:0:0:0:
211,130,35324,1,0,0:0:0:0:
212,134,35677,1,8,0:0:0:0:
212,134,36029,1,8,0:0:0:0:
215,133,37088,1,8,0:0:0:0:
208,123,37441,1,0,0:0:0:0:
213,109,37794,1,8,0:0:0:0:
213,109,38147,1,0,0:0:0:0:
149,165,39206,1,8,0:0:0:0:
149,165,39559,1,0,0:0:0:0:
149,165,39912,1,8,0:0:0:0:
149,165,40265,1,8,0:0:0:0:
149,165,40618,1,8,0:0:0:0:
309,161,41324,1,8,0:0:0:0:
309,161,41677,1,8,0:0:0:0:
309,161,42029,1,0,0:0:0:0:
213,96,42382,1,8,0:0:0:0:
220,130,42735,1,0,0:0:0:0:
215,131,43441,1,8,0:0:0:0:
215,131,43794,1,8,0:0:0:0:
209,114,44147,1,8,0:0:0:0:
203,111,44500,1,0,0:0:0:0:
203,111,44853,1,8,0:0:0:0:
203,111,45559,1,8,0:0:0:0:
203,111,45912,1,8,0:0:0:0:
203,111,46265,1,8,0:0:0:0:
203,111,46618,1,8,0:0:0:0:
203,111,46971,1,0,0:0:0:0:
203,111,47677,1,8,0:0:0:0:
267,154,48029,1,0,0:0:0:0:
267,154,48382,1,0,0:0:0:0:
267,154,48735,1,8,0:0:0:0:
239,149,49441,1,0,0:0:0:0:
222,138,49794,1,8,0:0:0:0:
222,138,50147,1,0,0:0:0:0:
222,138,50500,1,0,0:0:0:0:
222,138,50853,1,8,0:0:0:0:
222,138,51206,1,8,0:0:0:0:
96,160,51912,1,0,0:0:0:0:
160,160,52265,1,0,0:0:0:0:
288,192,52441,1,8,0:0:0:0:
288,160,52618,1,0,0:0:0:0:
256,160,52971,1,8,0:0:0:0:
256,160,53324,1,0,0:0:0:0:
256,64,54029,1,0,0:0:0:0:
256,160,54382,1,0,0:0:0:0:
320,192,54559,1,0,0:0:0:0:
256,96,54735,1,8,0:0:0:0:
256,96,55088,1,0,0:0:0:0:
256,96,55441,1,8,0:0:0:0:
256,160,56147,1,0,0:0:0:0:
256,160,56500,1,0,0:0:0:0:
256,160,56853,1,8,0:0:0:0:
256,160,57206,1,8,0:0:0:0:
288,192,57559,1,0,0:0:0:0:
256,128,57912,1,8,0:0:0:0:
256,128,58265,1,0,0:0:0:0:
256,128,58618,1,8,0:0:0:0:
256,128,59324,1,0,0:0:0:0:
256,128,59677,1,8,0:0:0:0:
224,128,60382,1,0,0:0:0:0:
224,128,60735,1,0,0:0:0:0:
320,224,60912,1,0,0:0:0:0:
224,128,61088,1,8,0:0:0:0:
224,128,61441,1,0,0:0:0:0:
224,128,61794,1,8,0:0:0:0:
256,256,62500,1,0,0:0:0:0:
288,160,62853,1,8,0:0:0:0:
288,160,63029,1,8,0:0:0:0:
288,160,63206,1,0,0:0:0:0:
288,160,63559,1,0,0:0:0:0:
288,160,63912,1,8,0:0:0:0:
256,160,64618,1,0,0:0:0:0:
256,160,64971,1,0,0:0:0:0:
224,160,65324,1,8,0:0:0:0:
224,128,65677,1,8,0:0:0:0:
288,128,66382,1,8,0:0:0:0:
288,128,66735,1,0,0:0:0:0:
288,128,67088,1,8,0:0:0:0:
288,128,67441,1,8,0:0:0:0:
288,128,67794,1,0,0:0:0:0:
320,128,68853,1,0,0:0:0:0:
320,128,69206,1,0,0:0:0:0:
320,128,69382,1,0,0:0:0:0:
192,160,69559,1,0,0:0:0:0:
192,160,69912,1,8,0:0:0:0:
288,224,70265,1,8,0:0:0:0:
288,224,70441,1,0,0:0:0:0:
288,224,70618,1,8,0:0:0:0:
256,192,70971,1,0,0:0:0:0:
256,224,71677,1,0,0:0:0:0:
256,224,72029,1,8,0:0:0:0:
256,160,72382,1,0,0:0:0:0:
256,160,72559,1,0,0:0:0:0:
256,160,72735,1,0,0:0:0:0:
288,96,73088,1,8,0:0:0:0:
256,224,73794,1,8,0:0:0:0:
256,224,74147,1,0,0:0:0:0:
256,224,74500,1,0,0:0:0:0:
256,224,74677,1,0,0:0:0:0:
256,192,74853,1,8,0:0:0:0:
256,192,75206,1,0,0:0:0:0:
192,192,75912,1,8,0:0:0:0:
192,192,76265,1,0,0:0:0:0:
192,192,76618,1,0,0:0:0:0:
224,192,76794,1,8,0:0:0:0:
224,192,76971,1,0,0:0:0:0:
224,192,77324,1,8,0:0:0:0:
192,128,78029,1,8,0:0:0:0:
192,128,78382,1,8,0:0:0:0:
192,128,79441,1,8,0:0:0:0:
192,128,80147,1,0,0:0:0:0:
192,128,80500,1,8,0:0:0:0:
192,128,81559,1,8,0:0:0:0:
224,160,81912,1,0,0:0:0:0:
224,160,82265,1,0,0:0:0:0:
224,160,82618,1,8,0:0:0:0:
224,160,83324,1,0,0:0:0:0:
224,160,83677,1,8,0:0:0:0:
224,160,84029,1,8,0:0:0:0:
224,160,84382,1,0,0:0:0:0:
224,160,84735,1,8,0:0:0:0:
224,160,85088,1,8,0:0:0:0:
96,160,85794,1,0,0:0:0:0:
160,160,86147,1,0,0:0:0:0:
256,128,86324,1,8,0:0:0:0:
256,128,86500,1,0,0:0:0:0:
256,160,86853,1,8,0:0:0:0:
256,160,87206,1,0,0:0:0:0:
256,64,87911,1,0,0:0:0:0:
256,160,88264,1,0,0:0:0:0:
320,224,88441,1,0,0:0:0:0:
256,96,88617,1,8,0:0:0:0:
256,96,88970,1,0,0:0:0:0:
256,96,89323,1,8,0:0:0:0:
256,160,90029,1,0,0:0:0:0:
256,160,90382,1,0,0:0:0:0:
256,160,90735,1,8,0:0:0:0:
256,160,91088,1,8,0:0:0:0:
288,224,91441,1,0,0:0:0:0:
256,128,91794,1,8,0:0:0:0:
256,128,92147,1,0,0:0:0:0:
256,128,92500,1,8,0:0:0:0:
256,128,93206,1,0,0:0:0:0:
256,128,93559,1,8,0:0:0:0:
224,128,94264,1,0,0:0:0:0:
224,128,94617,1,0,0:0:0:0:
288,160,94794,1,0,0:0:0:0:
224,128,94970,1,8,0:0:0:0:
224,128,95323,1,0,0:0:0:0:
224,128,95676,1,8,0:0:0:0:
288,160,96382,1,8,0:0:0:0:
288,160,96735,1,8,0:0:0:0:
256,96,96912,1,8,0:0:0:0:
288,160,97088,1,0,0:0:0:0:
288,160,97441,1,0,0:0:0:0:
288,160,97794,1,8,0:0:0:0:
256,160,98500,1,0,0:0:0:0:
256,160,98853,1,0,0:0:0:0:
224,160,99206,1,8,0:0:0:0:
224,128,99559,1,8,0:0:0:0:
288,128,100264,1,8,0:0:0:0:
288,128,100617,1,0,0:0:0:0:
288,128,100970,1,8,0:0:0:0:
288,128,101323,1,8,0:0:0:0:
288,128,101676,1,0,0:0:0:0:
96,160,102735,1,0,0:0:0:0:
160,160,103088,1,0,0:0:0:0:
288,160,103265,1,8,0:0:0:0:
288,160,103441,1,0,0:0:0:0:
256,160,103794,1,8,0:0:0:0:
288,224,103971,1,8,0:0:0:0:
256,160,104147,1,0,0:0:0:0:
256,64,104852,1,0,0:0:0:0:
256,160,105205,1,0,0:0:0:0:
288,160,105382,1,0,0:0:0:0:
256,96,105558,1,8,0:0:0:0:
256,96,105911,1,0,0:0:0:0:
256,96,106264,1,8,0:0:0:0:
256,160,106970,1,0,0:0:0:0:
256,160,107323,1,0,0:0:0:0:
256,160,107676,1,8,0:0:0:0:
256,160,108029,1,8,0:0:0:0:
288,224,108382,1,0,0:0:0:0:
256,128,108735,1,8,0:0:0:0:
256,128,109088,1,0,0:0:0:0:
256,128,109441,1,8,0:0:0:0:
256,128,110147,1,0,0:0:0:0:
256,128,110500,1,8,0:0:0:0:
224,128,111205,1,0,0:0:0:0:
224,128,111558,1,0,0:0:0:0:
288,160,111735,1,0,0:0:0:0:
224,128,111911,1,8,0:0:0:0:
224,128,112264,1,0,0:0:0:0:
288,224,112441,1,8,0:0:0:0:
224,128,112617,1,0,0:0:0:0:
288,160,113324,1,0,0:0:0:0:
288,160,113676,1,8,0:0:0:0:
128,192,113853,1,8,0:0:0:0:
288,160,114029,1,0,0:0:0:0:
288,160,114382,1,0,0:0:0:0:
288,160,114735,1,8,0:0:0:0:
256,160,115441,1,0,0:0:0:0:
256,160,115794,1,0,0:0:0:0:
224,160,116147,1,8,0:0:0:0:
224,128,116500,1,8,0:0:0:0:
288,128,117205,1,8,0:0:0:0:
288,128,117558,1,0,0:0:0:0:
288,128,117911,1,8,0:0:0:0:
288,128,118264,1,8,0:0:0:0:
288,128,118617,1,0,0:0:0:0:
224,160,119677,1,8,0:0:0:0:
224,160,120029,1,8,0:0:0:0:
224,160,120382,1,0,0:0:0:0:
224,160,120735,1,8,0:0:0:0:
192,192,121794,1,0,0:0:0:0:
192,192,122147,1,8,0:0:0:0:
192,192,122500,1,8,0:0:0:0:
192,192,122853,1,0,0:0:0:0:
192,192,123912,1,8,0:0:0:0:
192,192,124265,1,0,0:0:0:0:
192,192,124618,1,0,0:0:0:0:
192,192,124971,1,8,0:0:0:0:
224,160,125324,1,0,0:0:0:0:
224,160,126029,1,8,0:0:0:0:
224,160,126382,1,8,0:0:0:0:
224,160,126735,1,0,0:0:0:0:
224,160,127088,1,8,0:0:0:0:
224,160,127441,1,0,0:0:0:0:
224,192,128147,1,8,0:0:0:0:
224,192,128853,1,8,0:0:0:0:
224,192,129206,1,8,0:0:0:0:
128,160,130265,1,8,0:0:0:0:
160,160,130971,1,0,0:0:0:0:
160,160,131324,1,8,0:0:0:0:
160,160,132382,1,8,0:0:0:0:
160,160,132735,1,0,0:0:0:0:
160,160,133088,1,0,0:0:0:0:
160,160,133441,1,8,0:0:0:0:
288,128,133794,1,0,0:0:0:0:
160,160,134500,1,0,0:0:0:0:
160,160,134853,1,8,0:0:0:0:
160,160,135206,1,8,0:0:0:0:
160,160,135559,1,0,0:0:0:0:
