osu file format v14

[General]
AudioFilename: audio.mp3
AudioLeadIn: 0
PreviewTime: 26170
Countdown: 0
SampleSet: None
StackLeniency: 0.7
Mode: 1
LetterboxInBreaks: 0
WidescreenStoryboard: 1

[Editor]
Bookmarks: 326,13567,26808,53291,66532,79774,93015,99618,106239,109549,119498,124463
DistanceSpacing: 0.8
BeatDivisor: 2
GridSize: 32
TimelineZoom: 1.4

[Metadata]
Title:Spectrum
TitleUnicode:Spectrum
Artist:kou
ArtistUnicode:kou
Creator:Yujki
Version:Dusk's Kantan
Source:cavoe's osu! event Global Taiko Showdown
Tags:Dusk- custom song coegts2023 coegts 2023 main mappool hidden 1 hd1 electronic instrumental color colour bass
BeatmapID:4445158
BeatmapSetID:2036533

[Difficulty]
HPDrainRate:8
CircleSize:5
OverallDifficulty:3
ApproachRate:9
SliderMultiplier:1.4
SliderTickRate:1

[Events]
//Background and Video events
0,0,"Background.jpg",0,0
//Break Periods
//Storyboard Layer 0 (Background)
//Storyboard Layer 1 (Fail)
//Storyboard Layer 2 (Pass)
//Storyboard Layer 3 (Foreground)
//Storyboard Layer 4 (Overlay)
//Storyboard Sound Samples

[TimingPoints]
308,413.793103448276,4,1,0,70,1,0
308,-100,4,1,0,70,0,0
13135,-100,4,1,0,90,0,0
26787,-100,4,1,0,100,0,0
26790,-100,4,1,0,100,0,1
40032,-100,4,1,0,100,0,0
43342,-100,4,1,0,100,0,1
53270,-100,4,1,0,70,0,1
53273,-100,4,1,0,70,0,0
65167,-100,4,1,0,60,0,0
66411,-100,4,1,0,80,0,0
79730,-100,4,1,0,90,0,0
92971,-100,4,1,0,100,0,0
92997,-100,4,1,0,100,0,1
119411,-100,4,1,0,30,0,1
119480,-100,4,1,0,30,0,0
121239,-100,4,1,0,10,0,0
122739,-100,4,1,0,10,0,0

[HitObjects]
256,192,308,5,0,0:0:0:0:
256,192,1963,1,0,0:0:0:0:
256,192,3618,1,8,0:0:0:0:
256,192,5273,1,8,0:0:0:0:
256,192,6928,1,0,0:0:0:0:
256,192,8583,1,8,0:0:0:0:
256,192,10239,1,8,0:0:0:0:
256,192,11894,1,0,0:0:0:0:
256,192,13549,1,0,0:0:0:0:
256,192,14376,1,8,0:0:0:0:
256,192,15204,1,0,0:0:0:0:
256,192,16859,1,8,0:0:0:0:
256,192,17687,1,0,0:0:0:0:
256,192,18514,1,8,0:0:0:0:
256,192,20170,1,0,0:0:0:0:
256,192,20997,1,0,0:0:0:0:
256,192,21825,1,8,0:0:0:0:
256,192,22652,1,8,0:0:0:0:
256,192,23480,1,0,0:0:0:0:
256,192,23894,1,0,0:0:0:0:
256,192,24308,1,8,0:0:0:0:
256,192,24721,1,8,0:0:0:0:
256,192,25135,1,0,0:0:0:0:
256,192,26790,1,0,0:0:0:0:
256,192,27204,1,8,0:0:0:0:
256,192,27618,1,8,0:0:0:0:
256,192,28445,1,0,0:0:0:0:
256,192,28859,1,8,0:0:0:0:
256,192,30101,1,0,0:0:0:0:
256,192,30514,1,8,0:0:0:0:
256,192,30928,1,0,0:0:0:0:
256,192,31342,1,0,0:0:0:0:
256,192,31756,1,8,0:0:0:0:
256,192,32170,1,8,0:0:0:0:
256,192,33411,1,8,0:0:0:0:
256,192,33825,1,0,0:0:0:0:
256,192,34239,1,8,0:0:0:0:
256,192,35066,1,8,0:0:0:0:
256,192,35480,1,0,0:0:0:0:
256,192,36721,1,0,0:0:0:0:
256,192,37135,1,8,0:0:0:0:
256,192,37549,1,8,0:0:0:0:
256,192,38376,1,0,0:0:0:0:
256,192,38790,1,8,0:0:0:0:
256,192,39204,1,0,0:0:0:0:
256,192,39618,1,8,0:0:0:0:
256,192,40032,1,4,0:0:0:0:
256,192,41687,1,4,0:0:0:0:
256,192,43342,1,0,0:0:0:0:
256,192,43756,1,8,0:0:0:0:
256,192,44170,1,0,0:0:0:0:
256,192,44997,1,0,0:0:0:0:
256,192,45411,1,8,0:0:0:0:
256,192,46652,1,8,0:0:0:0:
256,192,47066,1,8,0:0:0:0:
256,192,47480,1,0,0:0:0:0:
256,192,48308,1,8,0:0:0:0:
256,192,48721,1,8,0:0:0:0:
256,192,49963,1,0,0:0:0:0:
256,192,50376,1,8,0:0:0:0:
256,192,50790,1,0,0:0:0:0:
256,192,51618,1,0,0:0:0:0:
256,192,52032,1,8,0:0:0:0:
256,192,52445,1,8,0:0:0:0:
256,192,52859,1,8,0:0:0:0:
256,192,53273,1,0,0:0:0:0:
256,192,54928,1,8,0:0:0:0:
256,192,55756,1,8,0:0:0:0:
256,192,56583,1,0,0:0:0:0:
256,192,58239,1,8,0:0:0:0:
256,192,59066,1,0,0:0:0:0:
256,192,59894,1,8,0:0:0:0:
256,192,61549,1,0,0:0:0:0:
256,192,62376,1,8,0:0:0:0:
256,192,63204,1,0,0:0:0:0:
256,192,64859,1,0,0:0:0:0:
256,192,66514,1,8,0:0:0:0:
256,192,67135,1,8,0:0:0:0:
256,192,68170,1,0,0:0:0:0:
256,192,68790,1,8,0:0:0:0:
256,192,69825,1,8,0:0:0:0:
256,192,70445,1,0,0:0:0:0:
256,192,71480,1,0,0:0:0:0:
256,192,72101,1,0,0:0:0:0:
256,192,73135,1,8,0:0:0:0:
256,192,73756,1,0,0:0:0:0:
256,192,74790,1,0,0:0:0:0:
256,192,75411,1,8,0:0:0:0:
256,192,76445,1,8,0:0:0:0:
256,192,77066,1,8,0:0:0:0:
256,192,78101,1,0,0:0:0:0:
256,192,78721,1,8,0:0:0:0:
256,192,79756,1,0,0:0:0:0:
256,192,80583,1,8,0:0:0:0:
256,192,81411,1,0,0:0:0:0:
256,192,83066,1,8,0:0:0:0:
256,192,83894,1,0,0:0:0:0:
256,192,84721,1,8,0:0:0:0:
256,192,86376,1,8,0:0:0:0:
256,192,87204,1,8,0:0:0:0:
256,192,88032,1,0,0:0:0:0:
256,192,88859,1,0,0:0:0:0:
256,192,89687,1,8,0:0:0:0:
256,192,90101,1,8,0:0:0:0:
256,192,90514,1,0,0:0:0:0:
256,192,90928,1,0,0:0:0:0:
256,192,91342,1,8,0:0:0:0:
256,192,92997,1,0,0:0:0:0:
256,192,93825,1,8,0:0:0:0:
256,192,94652,1,0,0:0:0:0:
256,192,95066,1,0,0:0:0:0:
256,192,95480,1,8,0:0:0:0:
256,192,96308,1,0,0:0:0:0:
256,192,97135,1,8,0:0:0:0:
256,192,97549,1,8,0:0:0:0:
256,192,97963,1,0,0:0:0:0:
256,192,98376,1,0,0:0:0:0:
256,192,98790,1,8,0:0:0:0:
256,192,99618,1,0,0:0:0:0:
256,192,100445,1,8,0:0:0:0:
256,192,101273,1,0,0:0:0:0:
256,192,101687,1,0,0:0:0:0:
256,192,102101,1,8,0:0:0:0:
256,192,102928,1,8,0:0:0:0:
256,192,103342,1,0,0:0:0:0:
256,192,103756,1,8,0:0:0:0:
256,192,104170,1,8,0:0:0:0:
256,192,104583,1,0,0:0:0:0:
256,192,106239,1,8,0:0:0:0:
256,192,106652,1,8,0:0:0:0:
256,192,107066,1,0,0:0:0:0:
256,192,107894,1,0,0:0:0:0:
256,192,108308,1,0,0:0:0:0:
256,192,108721,1,8,0:0:0:0:
256,192,109549,1,0,0:0:0:0:
256,192,109963,1,8,0:0:0:0:
256,192,110376,1,0,0:0:0:0:
256,192,111204,1,0,0:0:0:0:
256,192,111618,1,8,0:0:0:0:
256,192,112032,1,0,0:0:0:0:
256,192,112445,1,0,0:0:0:0:
256,192,112859,1,8,0:0:0:0:
256,192,114514,1,0,0:0:0:0:
256,192,114928,1,8,0:0:0:0:
256,192,115342,1,8,0:0:0:0:
256,192,116170,1,0,0:0:0:0:
256,192,116583,1,0,0:0:0:0:
256,192,116997,1,8,0:0:0:0:
256,192,117411,1,8,0:0:0:0:
256,192,117825,1,0,0:0:0:0:
256,192,118239,1,8,0:0:0:0:
256,192,118652,1,0,0:0:0:0:
256,192,119480,12,0,124445,0:0:0:0:
