osu file format v14

[General]
AudioFilename: audio.mp3
AudioLeadIn: 0
PreviewTime: 26170
Countdown: 0
SampleSet: Normal
StackLeniency: 0.7
Mode: 1
LetterboxInBreaks: 0
WidescreenStoryboard: 1

[Editor]
Bookmarks: 326,13567,26808,53291,66532,79774,93015,99618,106239,109549,119498,124463
DistanceSpacing: 0.8
BeatDivisor: 4
GridSize: 32
TimelineZoom: 2.899999

[Metadata]
Title:Spectrum
TitleUnicode:Spectrum
Artist:kou
ArtistUnicode:kou
Creator:Yujki
Version:Dusk's Inner Oni
Source:cavoe's osu! event Global Taiko Showdown
Tags:Dusk- custom song coegts2023 coegts 2023 main mappool hidden 1 hd1 electronic instrumental color colour bass
BeatmapID:4277665
BeatmapSetID:2036533

[Difficulty]
HPDrainRate:7
CircleSize:5
OverallDifficulty:7
ApproachRate:9
SliderMultiplier:1.4
SliderTickRate:1

[Events]
//Background and Video events
0,0,"Background.jpg",0,0
//Break Periods
//Storyboard Layer 0 (Background)
//Storyboard Layer 1 (Fail)
//Storyboard Layer 2 (Pass)
//Storyboard Layer 3 (Foreground)
//Storyboard Layer 4 (Overlay)
//Storyboard Sound Samples

[TimingPoints]
308,413.793103448276,4,1,0,70,1,0
308,-125,4,1,0,70,0,0
1032,-40,4,1,0,70,0,0
1239,-125,4,1,0,70,0,0
2687,-40,4,1,0,70,0,0
2894,-125,4,1,0,70,0,0
4342,-40,4,1,0,70,0,0
4549,-125,4,1,0,70,0,0
5997,-40,4,1,0,70,0,0
6204,-125,4,1,0,70,0,0
7652,-40,4,1,0,70,0,0
7859,-125,4,1,0,70,0,0
9308,-40,4,1,0,70,0,0
9515,-125,4,1,0,70,0,0
10963,-40,4,1,0,70,0,0
11170,-125,4,1,0,70,0,0
12618,-38.4615384615385,4,1,0,70,0,0
12825,-125,4,1,0,70,0,0
13135,-125,4,1,0,90,0,0
13856,-124.224472641396,4,1,0,90,0,0
13960,-123.966446974236,4,1,0,90,0,0
14167,-123.45605346381,4,1,0,90,0,0
14373,-122.95228096587,4,1,0,90,0,0
14787,-121.952177927972,4,1,0,90,0,0
15201,-120.968213443511,4,1,0,90,0,0
15408,-120.482161574595,4,1,0,90,0,0
15511,-120.241762073575,4,1,0,90,0,0
15615,-120,4,1,0,90,0,0
15822,-119.5216821998,4,1,0,90,0,0
16029,-119.047162392835,4,1,0,90,0,0
16442,-118.111584716091,4,1,0,90,0,0
16649,-117.6481737713,4,1,0,90,0,0
16701,-117.53233227926,4,1,0,90,0,0
16753,-117.416718687929,4,1,0,90,0,0
16805,-117.301332325428,4,1,0,90,0,0
16856,-117.188385001699,4,1,0,90,0,0
17167,-116.504307674982,4,1,0,90,0,0
17270,-116.279505432746,4,1,0,90,0,0
17477,-115.830331983503,4,1,0,90,0,0
17684,-115.384615384615,4,1,0,90,0,0
18098,-114.50339433294,4,1,0,90,0,0
18511,-113.637611907508,4,1,0,90,0,0
18718,-113.20857955789,4,1,0,90,0,0
18822,-112.99424743319,4,1,0,90,0,0
18925,-112.782774597983,4,1,0,90,0,0
19132,-112.360160747258,4,1,0,90,0,0
19339,-111.940702266948,4,1,0,90,0,0
19753,-111.111111111111,4,1,0,90,0,0
20011,-110.26543012472,4,1,0,90,0,0
20063,-109.416319363642,4,1,0,90,0,0
20115,-108.5801860055,4,1,0,90,0,0
20167,-107.756734795925,4,1,0,90,0,0
20373,-104.613766459678,4,1,0,90,0,0
20477,-103.09566049395,4,1,0,90,0,0
20580,-101.634963056123,4,1,0,90,0,0
20787,-98.8211017062499,4,1,0,90,0,0
20994,-96.1588517458075,4,1,0,90,0,0
21201,-93.6362813433511,4,1,0,90,0,0
21408,-91.2426787100416,4,1,0,90,0,0
21615,-88.9684000481654,4,1,0,90,0,0
21822,-86.8047396864825,4,1,0,90,0,0
22029,-84.7438187150792,4,1,0,90,0,0
22132,-83.7543723280218,4,1,0,90,0,0
22236,-82.7784891165173,4,1,0,90,0,0
22442,-80.9111104158193,4,1,0,90,0,0
22649,-79.1176515580303,4,1,0,90,0,0
22753,-78.2462669631916,4,1,0,90,0,0
22856,-77.4019754564502,4,1,0,90,0,0
22960,-76.5677740273583,4,1,0,90,0,0
23063,-75.7591293266343,4,1,0,90,0,0
23270,-74.1845721334519,4,1,0,90,0,0
23477,-72.6741326738516,4,1,0,90,0,0
23580,-71.9452481638104,4,1,0,90,0,0
23684,-71.2239726781976,4,1,0,90,0,0
23787,-70.5237465399457,4,1,0,90,0,0
23891,-69.8305542428947,4,1,0,90,0,0
23994,-69.1573289118284,4,1,0,90,0,0
24098,-68.4906110125275,4,1,0,90,0,0
24201,-67.8428543319997,4,1,0,90,0,0
24305,-67.2011226173616,4,1,0,90,0,0
24408,-66.5774161989599,4,1,0,90,0,0
24511,-65.9651807920413,4,1,0,90,0,0
24615,-65.3583208016883,4,1,0,90,0,0
24718,-64.7682019685927,4,1,0,90,0,0
24822,-64.1830681789978,4,1,0,90,0,0
24925,-63.6138887863916,4,1,0,90,0,0
25029,-63.0493350074972,4,1,0,90,0,0
25132,-62.5,4,1,0,90,0,0
25187,-100,4,1,0,90,0,0
26236,-89.9854862119013,4,1,0,90,0,0
26305,-81.7941952506596,4,1,0,90,0,0
26373,-75.0605326876513,4,1,0,90,0,0
26477,-66.6666666666667,4,1,0,90,0,0
26580,-60.0193610842207,4,1,0,90,0,0
26684,-54.5294635004398,4,1,0,90,0,0
26787,-50,4,1,0,100,0,0
26790,-50,4,1,0,100,0,1
27098,-45.4545454545455,4,1,0,100,0,1
27149,-46.3197969543147,4,1,0,100,0,1
27201,-47.2366017052375,4,1,0,100,0,1
27305,-49.1835764109068,4,1,0,100,0,1
27408,-51.2767539872738,4,1,0,100,0,1
27511,-53.556015881236,4,1,0,100,0,1
27615,-56.0726549792156,4,1,0,100,0,1
27718,-58.8095915079139,4,1,0,100,0,1
27822,-61.8582394576812,4,1,0,100,0,1
27891,-64.0615321081974,4,1,0,100,0,1
27960,-66.4275773471791,4,1,0,100,0,1
28029,-68.9751000444642,4,1,0,100,0,1
28132,-73.1635420351374,4,1,0,100,0,1
28236,-77.9424695390026,4,1,0,100,0,1
28339,-83.3333333333333,4,1,0,100,0,1
28445,-50,4,1,0,100,0,1
28649,-45.4545454545455,4,1,0,100,0,1
28701,-46.2676298589611,4,1,0,100,0,1
28753,-47.1103327495622,4,1,0,100,0,1
28805,-47.9843025330003,4,1,0,100,0,1
28856,-48.8735465116279,4,1,0,100,0,1
29063,-52.8487229862475,4,1,0,100,0,1
29167,-55.1003687013519,4,1,0,100,0,1
29270,-57.5278015397776,4,1,0,100,0,1
29477,-63.1159080244017,4,1,0,100,0,1
29546,-65.2279340446169,4,1,0,100,0,1
29615,-67.4862017059709,4,1,0,100,0,1
29684,-69.9064449064449,4,1,0,100,0,1
29787,-73.8605161998902,4,1,0,100,0,1
29891,-78.3343040186372,4,1,0,100,0,1
29942,-80.7322929171669,4,1,0,100,0,1
29994,-83.3333333333333,4,1,0,100,0,1
30101,-50,4,1,0,100,0,1
30408,-45.4545454545455,4,1,0,100,0,1
30460,-46.337092076768,4,1,0,100,0,1
30511,-47.2366017052375,4,1,0,100,0,1
30615,-49.1835764109068,4,1,0,100,0,1
30718,-51.2767539872738,4,1,0,100,0,1
30822,-53.579138243675,4,1,0,100,0,1
30925,-56.0726549792156,4,1,0,100,0,1
31029,-58.8374739237626,4,1,0,100,0,1
31132,-61.8582394576812,4,1,0,100,0,1
31236,-65.2402481337399,4,1,0,100,0,1
31442,-73.1635420351374,4,1,0,100,0,1
31546,-77.9424695390026,4,1,0,100,0,1
31649,-83.3333333333333,4,1,0,100,0,1
31756,-50,4,1,0,100,0,1
32063,-45.4545454545455,4,1,0,100,0,1
32115,-46.4186653613966,4,1,0,100,0,1
32167,-47.4245707617936,4,1,0,100,0,1
32270,-49.5515109291997,4,1,0,100,0,1
32373,-51.8781911013859,4,1,0,100,0,1
32477,-54.4601837672282,4,1,0,100,0,1
32580,-57.283801469848,4,1,0,100,0,1
32649,-59.3450146015853,4,1,0,100,0,1
32718,-61.5600995347831,4,1,0,100,0,1
32787,-63.9469543717689,4,1,0,100,0,1
32856,-66.5263650181223,4,1,0,100,0,1
32925,-69.32261208577,4,1,0,100,0,1
32994,-72.3642375683581,4,1,0,100,0,1
33201,-83.3333333333333,4,1,0,100,0,1
33408,-50,4,1,0,100,0,1
33511,-50.6725871751339,4,1,0,100,0,1
33615,-51.3703164305574,4,1,0,100,0,1
33718,-52.0805369127517,4,1,0,100,0,1
33770,-52.4466071911327,4,1,0,100,0,1
33822,-52.8178600598965,4,1,0,100,0,1
33873,-53.1871144619602,4,1,0,100,0,1
33925,-53.5689631368218,4,1,0,100,0,1
33977,-53.9563343067724,4,1,0,100,0,1
34029,-54.3493486482701,4,1,0,100,0,1
34132,-55.1449687322342,4,1,0,100,0,1
34236,-55.9723023658396,4,1,0,100,0,1
34339,-56.8165177917704,4,1,0,100,0,1
34391,-57.2524715951011,4,1,0,100,0,1
34442,-57.6865893547428,4,1,0,100,0,1
34494,-58.1360503446209,4,1,0,100,0,1
34546,-58.5925702204772,4,1,0,100,0,1
34649,-59.5183310323669,4,1,0,100,0,1
34718,-60.1550387596899,4,1,0,100,0,1
34787,-60.8055163767435,4,1,0,100,0,1
34856,-61.4702154626109,4,1,0,100,0,1
34960,-62.5,4,1,0,100,0,1
35063,-50,4,1,0,100,0,1
35270,-51.2828458106098,4,1,0,100,0,1
35373,-51.9460138104206,4,1,0,100,0,1
35425,-52.2873752053583,4,1,0,100,0,1
35477,-52.6332527668236,4,1,0,100,0,1
35529,-52.9837367140479,4,1,0,100,0,1
35580,-53.3320443413251,4,1,0,100,0,1
35632,-53.6919283675058,4,1,0,100,0,1
35684,-54.0567023778416,4,1,0,100,0,1
35787,-54.7940670109919,4,1,0,100,0,1
35891,-55.5592856183698,4,1,0,100,0,1
35994,-56.3385076252723,4,1,0,100,0,1
36046,-56.740263302249,4,1,0,100,0,1
36098,-57.1477900552486,4,1,0,100,0,1
36149,-57.5532062873835,4,1,0,100,0,1
36201,-57.9725374807342,4,1,0,100,0,1
36305,-58.8298023603014,4,1,0,100,0,1
36373,-59.4041636755205,4,1,0,100,0,1
36442,-59.9985498839907,4,1,0,100,0,1
36511,-60.6049509301304,4,1,0,100,0,1
36615,-61.5424661609401,4,1,0,100,0,1
36718,-50,4,1,0,100,0,1
37029,-45.4545454545455,4,1,0,100,0,1
37080,-46.2956244104201,4,1,0,100,0,1
37132,-47.1858590340951,4,1,0,100,0,1
37339,-51.0972288963639,4,1,0,100,0,1
37442,-53.295464038092,4,1,0,100,0,1
37546,-55.7156580211335,4,1,0,100,0,1
37598,-57.0100973996962,4,1,0,100,0,1
37649,-58.3394294074616,4,1,0,100,0,1
37753,-61.2519201228879,4,1,0,100,0,1
37856,-64.4379355620644,4,1,0,100,0,1
37908,-66.1757079141168,4,1,0,100,0,1
37960,-68.009807056817,4,1,0,100,0,1
38063,-71.9602977667494,4,1,0,100,0,1
38167,-76.443805415768,4,1,0,100,0,1
38236,-79.740032495938,4,1,0,100,0,1
38305,-83.3333333333333,4,1,0,100,0,1
38376,-50,4,1,0,100,0,1
38684,-45.4545454545455,4,1,0,100,0,1
38736,-46.337092076768,4,1,0,100,0,1
38787,-47.2366017052375,4,1,0,100,0,1
38891,-49.1835764109068,4,1,0,100,0,1
38994,-51.2767539872738,4,1,0,100,0,1
39201,-56.0726549792156,4,1,0,100,0,1
39305,-58.8374739237626,4,1,0,100,0,1
39408,-61.8582394576812,4,1,0,100,0,1
39511,-65.2059688944935,4,1,0,100,0,1
39615,-68.9751000444642,4,1,0,100,0,1
39718,-73.1635420351374,4,1,0,100,0,1
39822,-77.9424695390026,4,1,0,100,0,1
39925,-83.3333333333333,4,1,0,100,0,1
40032,-50,4,1,0,100,0,0
40960,-51.8624641833811,4,1,0,100,0,0
41063,-53.8490145035329,4,1,0,100,0,0
41167,-56.0154738878143,4,1,0,100,0,0
41270,-58.3400483481064,4,1,0,100,0,0
41373,-60.8659100462379,4,1,0,100,0,0
41477,-63.6483516483517,4,1,0,100,0,0
41580,-66.6666666666667,4,1,0,100,0,0
41687,-50,4,1,0,100,0,0
42305,-50,4,1,0,100,0,0
42356,-50.694255377076,4,1,0,100,0,0
42408,-51.4222590444629,4,1,0,100,0,0
42460,-52.1714766040908,4,1,0,100,0,0
42511,-52.927799886299,4,1,0,100,0,0
42718,-56.2367864693446,4,1,0,100,0,0
42925,-59.9871134020619,4,1,0,100,0,0
43132,-64.27338626165,4,1,0,100,0,0
43236,-66.6666666666667,4,1,0,100,0,0
43342,-50,4,1,0,100,0,1
43649,-45.4545454545455,4,1,0,100,0,1
43701,-46.3363677063125,4,1,0,100,0,1
43753,-47.253081722721,4,1,0,100,0,1
43856,-49.1803278688525,4,1,0,100,0,1
43960,-51.2926406211283,4,1,0,100,0,1
44167,-56.0874277456647,4,1,0,100,0,1
44270,-58.8235294117647,4,1,0,100,0,1
44373,-61.840270862378,4,1,0,100,0,1
44477,-65.2173913043478,4,1,0,100,0,1
44580,-68.9463750416343,4,1,0,100,0,1
44684,-73.1707317073171,4,1,0,100,0,1
44787,-77.8976417461114,4,1,0,100,0,1
44891,-83.3333333333333,4,1,0,100,0,1
44997,-50,4,1,0,100,0,1
45305,-45.4545454545455,4,1,0,100,0,1
45356,-46.3197969543147,4,1,0,100,0,1
45408,-47.2366017052375,4,1,0,100,0,1
45511,-49.1640915933761,4,1,0,100,0,1
45615,-51.2767539872738,4,1,0,100,0,1
45718,-53.556015881236,4,1,0,100,0,1
45822,-56.0726549792156,4,1,0,100,0,1
46029,-61.8582394576812,4,1,0,100,0,1
46132,-65.2059688944935,4,1,0,100,0,1
46236,-68.9751000444642,4,1,0,100,0,1
46339,-73.1635420351374,4,1,0,100,0,1
46442,-77.8935475772031,4,1,0,100,0,1
46546,-83.3333333333333,4,1,0,100,0,1
46652,-50,4,1,0,100,0,1
47011,-50.414364640884,4,1,0,100,0,1
47063,-50.8439855784989,4,1,0,100,0,1
47115,-51.2809917355372,4,1,0,100,0,1
47167,-51.7255751917306,4,1,0,100,0,1
47218,-52.169160921473,4,1,0,100,0,1
47270,-52.6293469041561,4,1,0,100,0,1
47373,-53.5652624309392,4,1,0,100,0,1
47477,-54.5446554149086,4,1,0,100,0,1
47580,-55.550581915846,4,1,0,100,0,1
47684,-56.6046341908411,4,1,0,100,0,1
47736,-57.1468041996684,4,1,0,100,0,1
47787,-57.6887318705839,4,1,0,100,0,1
47891,-58.8263177853622,4,1,0,100,0,1
47960,-59.6061479346782,4,1,0,100,0,1
48029,-60.4069314641745,4,1,0,100,0,1
48098,-61.2295243733965,4,1,0,100,0,1
48201,-62.5,4,1,0,100,0,1
48305,-50,4,1,0,100,0,1
48511,-51.2764902714091,4,1,0,100,0,1
48615,-51.9460138104206,4,1,0,100,0,1
48667,-52.2873752053583,4,1,0,100,0,1
48718,-52.6265581277029,4,1,0,100,0,1
48770,-52.9769526248399,4,1,0,100,0,1
48822,-53.3320443413251,4,1,0,100,0,1
48873,-53.6849617231089,4,1,0,100,0,1
48925,-54.0496407576747,4,1,0,100,0,1
49029,-54.7940670109919,4,1,0,100,0,1
49132,-55.5518259935553,4,1,0,100,0,1
49236,-56.3385076252723,4,1,0,100,0,1
49287,-56.7324832030714,4,1,0,100,0,1
49339,-57.1398978041707,4,1,0,100,0,1
49391,-57.5532062873835,4,1,0,100,0,1
49442,-57.9644158027459,4,1,0,100,0,1
49546,-58.8214387261871,4,1,0,100,0,1
49649,-59.6955706247295,4,1,0,100,0,1
49753,-60.6049509301304,4,1,0,100,0,1
49805,-61.070110701107,4,1,0,100,0,1
49856,-61.5333135038667,4,1,0,100,0,1
49908,-62.0128896882494,4,1,0,100,0,1
49960,-50,4,1,0,100,0,1
50270,-45.4545454545455,4,1,0,100,0,1
50322,-46.337092076768,4,1,0,100,0,1
50373,-47.2366017052375,4,1,0,100,0,1
50477,-49.1835764109068,4,1,0,100,0,1
50580,-51.2767539872738,4,1,0,100,0,1
50787,-56.0726549792156,4,1,0,100,0,1
50839,-57.4218027022025,4,1,0,100,0,1
50891,-58.8374739237626,4,1,0,100,0,1
50994,-61.8582394576812,4,1,0,100,0,1
51098,-65.2402481337399,4,1,0,100,0,1
51149,-67.0375972342265,4,1,0,100,0,1
51201,-68.9751000444642,4,1,0,100,0,1
51305,-73.2067012741859,4,1,0,100,0,1
51408,-77.9424695390026,4,1,0,100,0,1
51460,-80.5739514348786,4,1,0,100,0,1
51511,-83.3333333333333,4,1,0,100,0,1
51618,-50,4,1,0,100,0,1
51925,-45.4545454545455,4,1,0,100,0,1
51977,-46.0206665298022,4,1,0,100,0,1
52029,-46.6010671471138,4,1,0,100,0,1
52132,-47.7950321594826,4,1,0,100,0,1
52236,-49.0643125524386,4,1,0,100,0,1
52339,-50.3896298516409,4,1,0,100,0,1
52442,-51.7885333641369,4,1,0,100,0,1
52649,-54.8487072832558,4,1,0,100,0,1
52753,-56.5268555097924,4,1,0,100,0,1
52856,-58.2932431846747,4,1,0,100,0,1
52960,-60.1924367867532,4,1,0,100,0,1
53063,-62.1994080651128,4,1,0,100,0,1
53115,-63.2643461900282,4,1,0,100,0,1
53167,-64.3663859111792,4,1,0,100,0,1
53270,-66.6666666666667,4,1,0,70,0,1
53273,-66.6666666666667,4,1,0,70,0,0
53373,-66.9444009080292,4,1,0,70,0,0
53477,-67.2271894150559,4,1,0,70,0,0
53580,-67.5096234736279,4,1,0,70,0,0
53684,-67.7972176566668,4,1,0,70,0,0
53787,-68.0844718452892,4,1,0,70,0,0
53891,-68.3769952542513,4,1,0,70,0,0
53994,-68.6691940276834,4,1,0,70,0,0
54098,-68.9667744842206,4,1,0,70,0,0
54201,-69.2640466189248,4,1,0,70,0,0
54305,-69.5668164026585,4,1,0,70,0,0
54408,-69.8692951860314,4,1,0,70,0,0
54511,-70.1744158315093,4,1,0,70,0,0
54615,-70.4852146602433,4,1,0,70,0,0
54718,-70.7957504370933,4,1,0,70,0,0
54822,-71.1120897534358,4,1,0,70,0,0
54925,-71.428186109238,4,1,0,70,0,0
55029,-71.7502153969536,4,1,0,70,0,0
55132,-72.0720230351787,4,1,0,70,0,0
55236,-72.3998972042846,4,1,0,70,0,0
55339,-72.7275723238659,4,1,0,70,0,0
55442,-73.0582269820513,4,1,0,70,0,0
55546,-73.3951565072309,4,1,0,70,0,0
55649,-73.7319234003219,4,1,0,70,0,0
55753,-74.0751100693143,4,1,0,70,0,0
55856,-74.4181602567345,4,1,0,70,0,0
55960,-74.767780005082,4,1,0,70,0,0
56063,-75.1172909894424,4,1,0,70,0,0
56167,-75.4735264108893,4,1,0,70,0,0
56270,-75.8296824442345,4,1,0,70,0,0
56373,-76.1892157821751,4,1,0,70,0,0
56477,-76.5557155163941,4,1,0,70,0,0
56580,-76.9221831701862,4,1,0,70,0,0
56684,-77.295785829787,4,1,0,70,0,0
56787,-77.6693903647957,4,1,0,70,0,0
56891,-78.0503044557228,4,1,0,70,0,0
56994,-78.4312564046368,4,1,0,70,0,0
57098,-78.8196986743338,4,1,0,70,0,0
57201,-79.2082169327678,4,1,0,70,0,0
57305,-79.6044127814351,4,1,0,70,0,0
57408,-80.0007250273396,4,1,0,70,0,0
57511,-80.401003115,4,1,0,70,0,0
57615,-80.809252082634,4,1,0,70,0,0
57718,-81.217682526636,4,1,0,70,0,0
57822,-81.6342887440736,4,1,0,70,0,0
57925,-82.0511231603408,4,1,0,70,0,0
58029,-82.4763459010981,4,1,0,70,0,0
58132,-82.9018463676832,4,1,0,70,0,0
58236,-83.3359557421312,4,1,0,70,0,0
58339,-83.7703953486901,4,1,0,70,0,0
58442,-84.2093882560942,4,1,0,70,0,0
58546,-84.6573363084772,4,1,0,70,0,0
58649,-85.1056992087825,4,1,0,70,0,0
58753,-85.5632596881442,4,1,0,70,0,0
58856,-86.0212958090523,4,1,0,70,0,0
58960,-86.4887814755544,4,1,0,70,0,0
59063,-86.9568072712467,4,1,0,70,0,0
59167,-87.434544602117,4,1,0,70,0,0
59270,-87.9128904823557,4,1,0,70,0,0
59373,-88.3964991221101,4,1,0,70,0,0
59477,-88.8902315402225,4,1,0,70,0,0
59580,-89.3846828906065,4,1,0,70,0,0
59684,-89.8895473955045,4,1,0,70,0,0
59787,-90.3952102349142,4,1,0,70,0,0
59891,-90.9115876056493,4,1,0,70,0,0
59994,-91.4288476277939,4,1,0,70,0,0
60098,-91.957136209902,4,1,0,70,0,0
60201,-92.4863970048964,4,1,0,70,0,0
60305,-93.0270137352022,4,1,0,70,0,0
60408,-93.5686978397439,4,1,0,70,0,0
60511,-94.1167272029399,4,1,0,70,0,0
60615,-94.6766293661292,4,1,0,70,0,0
60718,-95.2377527314052,4,1,0,70,0,0
60822,-95.8111129602964,4,1,0,70,0,0
60925,-96.385805277525,4,1,0,70,0,0
61029,-96.9731146964693,4,1,0,70,0,0
61132,-97.5618741664763,4,1,0,70,0,0
61236,-98.163648090624,4,1,0,70,0,0
61339,-98.7669976056033,4,1,0,70,0,0
61442,-99.3778098004338,4,1,0,70,0,0
61546,-100.002265741237,4,1,0,70,0,0
61649,-100.62850064218,4,1,0,70,0,0
61753,-101.268823947809,4,1,0,70,0,0
61856,-101.911073141072,4,1,0,70,0,0
61960,-102.567876370115,4,1,0,70,0,0
62063,-103.226762089638,4,1,0,70,0,0
62167,-103.900689741759,4,1,0,70,0,0
62270,-104.576866879912,4,1,0,70,0,0
62373,-105.261902679842,4,1,0,70,0,0
62477,-105.962755783897,4,1,0,70,0,0
62580,-106.666129616949,4,1,0,70,0,0
62684,-107.38587057898,4,1,0,70,0,0
62787,-108.108328774729,4,1,0,70,0,0
62891,-108.847731551127,4,1,0,70,0,0
62994,-109.590061494914,4,1,0,70,0,0
63098,-110.349942912385,4,1,0,70,0,0
63201,-111.11297590776,4,1,0,70,0,0
63305,-111.894198673258,4,1,0,70,0,0
63408,-112.678813047289,4,1,0,70,0,0
63511,-113.474508728479,4,1,0,70,0,0
63615,-114.289413491002,4,1,0,70,0,0
63718,-115.108101294434,4,1,0,70,0,0
63822,-115.946724577273,4,1,0,70,0,0
63925,-116.789415656009,4,1,0,70,0,0
64029,-117.652808259954,4,1,0,70,0,0
64132,-118.520573939974,4,1,0,70,0,0
64236,-119.409849666778,4,1,0,70,0,0
64339,-120.303825990569,4,1,0,70,0,0
64442,-121.211289008504,4,1,0,70,0,0
64546,-122.141559124411,4,1,0,70,0,0
64649,-123.077066079213,4,1,0,70,0,0
64753,-124.03630879336,4,1,0,70,0,0
64856,-125.001180057964,4,1,0,70,0,0
64928,-126.582278481013,4,1,0,70,0,0
65167,-128.007811367086,4,1,0,60,0,0
65477,-131.152249923236,4,1,0,60,0,0
66411,-131.152249923236,4,1,0,80,0,0
66511,-142.857142857143,4,1,0,80,0,0
73236,-142.537297367118,4,1,0,80,0,0
73442,-141.907966650235,4,1,0,80,0,0
73546,-141.592352601527,4,1,0,80,0,0
73753,-140.968318855391,4,1,0,80,0,0
73960,-140.349761526232,4,1,0,80,0,0
74373,-139.131713877448,4,1,0,80,0,0
74787,-137.931752843632,4,1,0,80,0,0
74891,-137.633559223382,4,1,0,80,0,0
75098,-137.043859830687,4,1,0,80,0,0
75201,-136.752313284864,4,1,0,80,0,0
75408,-136.170125249368,4,1,0,80,0,0
75615,-135.592873233668,4,1,0,80,0,0
75822,-135.02049472847,4,1,0,80,0,0
76442,-133.334675876513,4,1,0,80,0,0
76546,-133.056007716887,4,1,0,80,0,0
76753,-132.504803073967,4,1,0,80,0,0
76856,-132.232230233069,4,1,0,80,0,0
77063,-131.687815744461,4,1,0,80,0,0
77270,-131.147865702684,4,1,0,80,0,0
77684,-130.081141083322,4,1,0,80,0,0
78098,-129.03162941165,4,1,0,80,0,0
78201,-128.773144546445,4,1,0,80,0,0
78408,-128.25678476648,4,1,0,80,0,0
78511,-128.00139194989,4,1,0,80,0,0
78718,-127.491190572468,4,1,0,80,0,0
79132,-126.482893002464,4,1,0,80,0,0
79546,-125.490419059533,4,1,0,80,0,0
79730,-125.490419059533,4,1,0,90,0,0
79753,-125,4,1,0,90,0,0
80063,-124.224472641396,4,1,0,90,0,0
80167,-123.966446974236,4,1,0,90,0,0
80373,-123.458509030154,4,1,0,90,0,0
80580,-122.95228096587,4,1,0,90,0,0
80994,-121.952177927972,4,1,0,90,0,0
81408,-120.968213443511,4,1,0,90,0,0
81615,-120.482161574595,4,1,0,90,0,0
81718,-120.241762073575,4,1,0,90,0,0
81822,-120,4,1,0,90,0,0
82029,-119.5216821998,4,1,0,90,0,0
82236,-119.047162392835,4,1,0,90,0,0
82442,-118.5786608081,4,1,0,90,0,0
82649,-118.111584716091,4,1,0,90,0,0
82856,-117.6481737713,4,1,0,90,0,0
82908,-117.53233227926,4,1,0,90,0,0
82960,-117.416718687929,4,1,0,90,0,0
83011,-117.303549155233,4,1,0,90,0,0
83063,-117.188385001699,4,1,0,90,0,0
83373,-116.506494481568,4,1,0,90,0,0
83477,-116.279505432746,4,1,0,90,0,0
83684,-115.830331983503,4,1,0,90,0,0
83891,-115.384615384615,4,1,0,90,0,0
84305,-114.50339433294,4,1,0,90,0,0
84718,-113.637611907508,4,1,0,90,0,0
84925,-113.20857955789,4,1,0,90,0,0
85029,-112.99424743319,4,1,0,90,0,0
85132,-112.782774597983,4,1,0,90,0,0
85339,-112.360160747258,4,1,0,90,0,0
85546,-111.940702266948,4,1,0,90,0,0
85753,-111.524363949978,4,1,0,90,0,0
85960,-111.111111111111,4,1,0,90,0,0
86218,-110.26543012472,4,1,0,90,0,0
86270,-109.416319363642,4,1,0,90,0,0
86322,-108.5801860055,4,1,0,90,0,0
86373,-107.77245259429,4,1,0,90,0,0
86580,-104.613766459678,4,1,0,90,0,0
86684,-103.09566049395,4,1,0,90,0,0
86787,-101.634963056123,4,1,0,90,0,0
86994,-98.8211017062499,4,1,0,90,0,0
87201,-96.1588517458075,4,1,0,90,0,0
87408,-93.6362813433511,4,1,0,90,0,0
87615,-91.2426787100416,4,1,0,90,0,0
87822,-88.9684000481654,4,1,0,90,0,0
88029,-86.8047396864825,4,1,0,90,0,0
88236,-84.7438187150792,4,1,0,90,0,0
88339,-83.7543723280218,4,1,0,90,0,0
88442,-82.7877643141837,4,1,0,90,0,0
88649,-80.9111104158193,4,1,0,90,0,0
88856,-79.1176515580303,4,1,0,90,0,0
88960,-78.2462669631916,4,1,0,90,0,0
89063,-77.4019754564502,4,1,0,90,0,0
89167,-76.5677740273583,4,1,0,90,0,0
89270,-75.7591293266343,4,1,0,90,0,0
89477,-74.1845721334519,4,1,0,90,0,0
89684,-72.6741326738516,4,1,0,90,0,0
89787,-71.9452481638104,4,1,0,90,0,0
89891,-71.2239726781976,4,1,0,90,0,0
89994,-70.5237465399457,4,1,0,90,0,0
90098,-69.8305542428947,4,1,0,90,0,0
90201,-69.1573289118284,4,1,0,90,0,0
90305,-68.4906110125275,4,1,0,90,0,0
90408,-67.8428543319997,4,1,0,90,0,0
90511,-67.2072353032902,4,1,0,90,0,0
90615,-66.5774161989599,4,1,0,90,0,0
90718,-65.9651807920413,4,1,0,90,0,0
90822,-65.3583208016883,4,1,0,90,0,0
90925,-64.7682019685927,4,1,0,90,0,0
91029,-64.1830681789978,4,1,0,90,0,0
91132,-63.6138887863916,4,1,0,90,0,0
91236,-63.0493350074972,4,1,0,90,0,0
91339,-62.5,4,1,0,90,0,0
91397,-100,4,1,0,90,0,0
92445,-89.9854862119013,4,1,0,90,0,0
92514,-81.7941952506596,4,1,0,90,0,0
92582,-75.0605326876513,4,1,0,90,0,0
92686,-66.6666666666667,4,1,0,90,0,0
92789,-60.0193610842207,4,1,0,90,0,0
92893,-54.5294635004398,4,1,0,90,0,0
92971,-54.5294635004398,4,1,0,100,0,0
92994,-50,4,1,0,100,0,0
92996,-50,4,1,0,100,0,0
92997,-50,4,1,0,100,0,1
93098,-50.1609110038371,4,1,0,100,0,1
93149,-50.2401983573532,4,1,0,100,0,1
93201,-50.3212988544997,4,1,0,100,0,1
93305,-50.4842878943598,4,1,0,100,0,1
93408,-50.6467537336749,4,1,0,100,0,1
93460,-50.7291731864555,4,1,0,100,0,1
93511,-50.8102686267749,4,1,0,100,0,1
93615,-50.9764458001824,4,1,0,100,0,1
93684,-51.0872990860384,4,1,0,100,0,1
93753,-51.1986355453081,4,1,0,100,0,1
93822,-51.3104583438845,4,1,0,100,0,1
93925,-51.4782940074312,4,1,0,100,0,1
94029,-51.6488768519994,4,1,0,100,0,1
94080,-51.732941852301,4,1,0,100,0,1
94132,-51.8189374080941,4,1,0,100,0,1
94236,-51.991789082045,4,1,0,100,0,1
94339,-52.1641190667739,4,1,0,100,0,1
94442,-52.3375952473202,4,1,0,100,0,1
94511,-52.4544542601042,4,1,0,100,0,1
94580,-52.5718362846209,4,1,0,100,0,1
94649,-52.6897448399155,4,1,0,100,0,1
94753,-52.868464825022,4,1,0,100,0,1
94805,-52.9582802443726,4,1,0,100,0,1
94856,-53.0466653576805,4,1,0,100,0,1
94960,-53.2278190057135,4,1,0,100,0,1
95063,-53.4084544166584,4,1,0,100,0,1
95115,-53.5001155153635,4,1,0,100,0,1
95167,-53.592091777697,4,1,0,100,0,1
95270,-53.7752123142251,4,1,0,100,0,1
95339,-53.8985868661679,4,1,0,100,0,1
95408,-54.0225288275678,4,1,0,100,0,1
95477,-54.1470421217891,4,1,0,100,0,1
95580,-54.3339813635449,4,1,0,100,0,1
95684,-54.5240497813656,4,1,0,100,0,1
95787,-54.7136058325176,4,1,0,100,0,1
95891,-54.9450549450549,4,1,0,100,0,1
95942,-54.2836912910078,4,1,0,100,0,1
95994,-53.625553742131,4,1,0,100,0,1
96098,-52.3560209424084,4,1,0,100,0,1
96167,-51.5463917525773,4,1,0,100,0,1
96236,-50.761421319797,4,1,0,100,0,1
96305,-50,4,1,0,100,0,1
96408,-50.1594081777943,4,1,0,100,0,1
96460,-50.2402728259185,4,1,0,100,0,1
96511,-50.3198360452118,4,1,0,100,0,1
96615,-50.4828660436137,4,1,0,100,0,1
96718,-50.6453730037191,4,1,0,100,0,1
96770,-50.7278134293317,4,1,0,100,0,1
96822,-50.8105226852287,4,1,0,100,0,1
96925,-50.975149418056,4,1,0,100,0,1
96994,-51.0860313357082,4,1,0,100,0,1
97063,-51.1973966889928,4,1,0,100,0,1
97132,-51.3092486464237,4,1,0,100,0,1
97236,-51.4787636201912,4,1,0,100,0,1
97287,-51.5623011327479,4,1,0,100,0,1
97339,-51.6477562468129,4,1,0,100,0,1
97442,-51.8178620535286,4,1,0,100,0,1
97546,-51.9907600500497,4,1,0,100,0,1
97598,-52.0776424462512,4,1,0,100,0,1
97649,-52.1631365479946,4,1,0,100,0,1
97753,-52.3383502357729,4,1,0,100,0,1
97822,-52.4552487618554,4,1,0,100,0,1
97891,-52.5726706462497,4,1,0,100,0,1
97960,-52.6906194114778,4,1,0,100,0,1
98063,-52.8676758449693,4,1,0,100,0,1
98115,-52.9575163398693,4,1,0,100,0,1
98167,-53.0476626947754,4,1,0,100,0,1
98270,-53.227130891772,4,1,0,100,0,1
98373,-53.407817546635,4,1,0,100,0,1
98425,-53.4995047870584,4,1,0,100,0,1
98477,-53.5915073748264,4,1,0,100,0,1
98580,-53.7746806039489,4,1,0,100,0,1
98649,-53.8980908667598,4,1,0,100,0,1
98718,-54.022068873554,4,1,0,100,0,1
98787,-54.1466185511895,4,1,0,100,0,1
98891,-54.3354345493562,4,1,0,100,0,1
98942,-54.4285090518255,4,1,0,100,0,1
98994,-54.5237374247165,4,1,0,100,0,1
99098,-54.7151973528717,4,1,0,100,0,1
99201,-54.9450549450549,4,1,0,100,0,1
99270,-54.054054054054,4,1,0,100,0,1
99339,-53.1914893617021,4,1,0,100,0,1
99408,-52.3560209424084,4,1,0,100,0,1
99477,-51.5463917525773,4,1,0,100,0,1
99546,-50.761421319797,4,1,0,100,0,1
99615,-50,4,1,0,100,0,1
99718,-50.1279916494768,4,1,0,100,0,1
99822,-50.2578925074128,4,1,0,100,0,1
99873,-50.3218402275336,4,1,0,100,0,1
99924,-50.3859508880618,4,1,0,100,0,1
99976,-50.4514870306911,4,1,0,100,0,1
100029,-50.5184591494264,4,1,0,100,0,1
100132,-50.6491223664716,4,1,0,100,0,1
100236,-50.7817417356932,4,1,0,100,0,1
100305,-50.8701134930643,4,1,0,100,0,1
100373,-50.9575059370421,4,1,0,100,0,1
100442,-51.0464910282692,4,1,0,100,0,1
100546,-51.1812022634424,4,1,0,100,0,1
100649,-51.3153208161604,4,1,0,100,0,1
100753,-51.4514565583389,4,1,0,100,0,1
100856,-51.5869971099005,4,1,0,100,0,1
100908,-51.6556969805619,4,1,0,100,0,1
100960,-51.7245800743685,4,1,0,100,0,1
101063,-51.8615653604854,4,1,0,100,0,1
101132,-51.9537387631043,4,1,0,100,0,1
101201,-52.046240388089,4,1,0,100,0,1
101270,-52.1390719917281,4,1,0,100,0,1
101373,-52.2782644756622,4,1,0,100,0,1
101425,-52.3488191019984,4,1,0,100,0,1
101477,-52.4195644264255,4,1,0,100,0,1
101580,-52.5602605863192,4,1,0,100,0,1
101684,-52.7030911133757,4,1,0,100,0,1
101787,-52.8453154474953,4,1,0,100,0,1
101891,-52.9897015552753,4,1,0,100,0,1
101960,-53.085932359521,4,1,0,100,0,1
102029,-53.1825133154037,4,1,0,100,0,1
102098,-53.2794463375334,4,1,0,100,0,1
102201,-53.4248026699158,4,1,0,100,0,1
102305,-53.5723771580345,4,1,0,100,0,1
102408,-53.7193384291688,4,1,0,100,0,1
102511,-53.763440860215,4,1,0,100,0,1
102563,-53.2599186950033,4,1,0,100,0,1
102615,-52.7657405047158,4,1,0,100,0,1
102718,-51.8134715025907,4,1,0,100,0,1
102787,-51.1945392491468,4,1,0,100,0,1
102856,-50.5902192242833,4,1,0,100,0,1
102925,-50,4,1,0,100,0,1
103029,-50.7286995515695,4,1,0,100,0,1
103080,-51.0938602681722,4,1,0,100,0,1
103132,-51.4716337267169,4,1,0,100,0,1
103236,-52.2441910809641,4,1,0,100,0,1
103339,-53.0325227072956,4,1,0,100,0,1
103391,-53.4396220844405,4,1,0,100,0,1
103442,-53.8450096683028,4,1,0,100,0,1
103546,-54.6910409427406,4,1,0,100,0,1
103598,-55.1241053753617,4,1,0,100,0,1
103649,-55.5555555555556,4,1,0,100,0,1
103753,-50,4,1,0,100,0,1
103822,-50.481104448473,4,1,0,100,0,1
103891,-50.9715573078006,4,1,0,100,0,1
103960,-51.4716337267169,4,1,0,100,0,1
104029,-51.9816197587593,4,1,0,100,0,1
104098,-52.5018129079043,4,1,0,100,0,1
104167,-53.0325227072956,4,1,0,100,0,1
104270,-53.8450096683028,4,1,0,100,0,1
104373,-54.6827794561934,4,1,0,100,0,1
104477,-55.5555555555556,4,1,0,100,0,1
104580,-50,4,1,0,100,0,1
104632,-50.4215304798962,4,1,0,100,0,1
104684,-50.8502289077829,4,1,0,100,0,1
104736,-51.2862796833773,4,1,0,100,0,1
104787,-51.7212705804091,4,1,0,100,0,1
104891,-52.6315789473684,4,1,0,100,0,1
104994,-50,4,1,0,100,0,1
105063,-50.2793296089385,4,1,0,100,0,1
105132,-50.561797752809,4,1,0,100,0,1
105201,-50.8474576271186,4,1,0,100,0,1
105270,-51.1363636363636,4,1,0,100,0,1
105339,-51.4285714285714,4,1,0,100,0,1
105408,-51.7241379310345,4,1,0,100,0,1
105511,-52.1717214147694,4,1,0,100,0,1
105615,-52.6315789473684,4,1,0,100,0,1
105667,-52.8645611645526,4,1,0,100,0,1
105718,-53.0950752393981,4,1,0,100,0,1
105822,-53.5714285714286,4,1,0,100,0,1
105925,-54.0517016276438,4,1,0,100,0,1
106029,-54.5454545454545,4,1,0,100,0,1
106132,-55.0434320156001,4,1,0,100,0,1
106236,-50,4,1,0,100,0,1
106339,-50.4048423866048,4,1,0,100,0,1
106442,-50.8162941829133,4,1,0,100,0,1
106546,-51.2386127537158,4,1,0,100,0,1
106649,-51.6638465877045,4,1,0,100,0,1
106701,-51.8812201634436,4,1,0,100,0,1
106753,-52.100430649224,4,1,0,100,0,1
106856,-52.5401507702393,4,1,0,100,0,1
106925,-52.8388957560775,4,1,0,100,0,1
106994,-53.1410575169899,4,1,0,100,0,1
107063,-53.4466950070851,4,1,0,100,0,1
107167,-53.9140670982931,4,1,0,100,0,1
107270,-54.3850720949958,4,1,0,100,0,1
107373,-54.8643792247797,4,1,0,100,0,1
107477,-55.356988690322,4,1,0,100,0,1
107529,-55.6066256178996,4,1,0,100,0,1
107580,-55.8536585365854,4,1,0,100,0,1
107684,-56.3642756680731,4,1,0,100,0,1
107753,-56.7082338374458,4,1,0,100,0,1
107822,-57.0564157323367,4,1,0,100,0,1
107891,-57.4088996329125,4,1,0,100,0,1
107994,-57.943249593349,4,1,0,100,0,1
108098,-58.492975734355,4,1,0,100,0,1
108201,-59.0477944562114,4,1,0,100,0,1
108305,-59.6187819618782,4,1,0,100,0,1
108356,-59.9028400597907,4,1,0,100,0,1
108408,-60.1952684941795,4,1,0,100,0,1
108511,-60.7830126078301,4,1,0,100,0,1
108580,-61.1832061068702,4,1,0,100,0,1
108649,-61.5887042551148,4,1,0,100,0,1
108718,-61.9996132276155,4,1,0,100,0,1
108822,-62.6294198085564,4,1,0,100,0,1
108873,-62.9429665259645,4,1,0,100,0,1
108925,-63.2659102121362,4,1,0,100,0,1
109029,-63.9218422889044,4,1,0,100,0,1
109132,-64.5850120870266,4,1,0,100,0,1
109236,-65.2687296416938,4,1,0,100,0,1
109339,-65.9602921510133,4,1,0,100,0,1
109442,-66.6666666666667,4,1,0,100,0,1
109546,-50,4,1,0,100,0,1
109649,-50.1594081777943,4,1,0,100,0,1
109753,-50.3213986274571,4,1,0,100,0,1
109856,-50.4828660436137,4,1,0,100,0,1
109908,-50.5647778332501,4,1,0,100,0,1
109960,-50.6469558694837,4,1,0,100,0,1
110063,-50.8105226852287,4,1,0,100,0,1
110167,-50.9767529648621,4,1,0,100,0,1
110236,-51.0876418663304,4,1,0,100,0,1
110305,-51.1990142491548,4,1,0,100,0,1
110373,-51.3092486464237,4,1,0,100,0,1
110477,-51.4787636201912,4,1,0,100,0,1
110580,-51.6477562468129,4,1,0,100,0,1
110684,-51.8195190585828,4,1,0,100,0,1
110787,-51.9907600500497,4,1,0,100,0,1
110891,-52.1648157089973,4,1,0,100,0,1
110994,-52.3383502357729,4,1,0,100,0,1
111063,-52.4552487618554,4,1,0,100,0,1
111132,-52.5726706462497,4,1,0,100,0,1
111201,-52.6906194114778,4,1,0,100,0,1
111305,-52.8694006720825,4,1,0,100,0,1
111356,-52.9575163398693,4,1,0,100,0,1
111408,-53.0476626947754,4,1,0,100,0,1
111511,-53.227130891772,4,1,0,100,0,1
111615,-53.4095777990178,4,1,0,100,0,1
111718,-53.5915073748264,4,1,0,100,0,1
111822,-53.776465122453,4,1,0,100,0,1
111891,-53.8998835855646,4,1,0,100,0,1
111960,-54.0238698493132,4,1,0,100,0,1
112029,-54.14842784108,4,1,0,100,0,1
112132,-54.3354345493562,4,1,0,100,0,1
112236,-54.5255720053836,4,1,0,100,0,1
112339,-54.7151973528717,4,1,0,100,0,1
112442,-54.9450549450549,4,1,0,100,0,1
112546,-53.6130536130536,4,1,0,100,0,1
112649,-52.3560209424084,4,1,0,100,0,1
112718,-51.5463917525773,4,1,0,100,0,1
112787,-50.761421319797,4,1,0,100,0,1
112856,-50,4,1,0,100,0,1
112960,-50.1626728398924,4,1,0,100,0,1
113063,-50.3248281706054,4,1,0,100,0,1
113118,-50.4340441592753,4,1,0,100,0,1
113170,-50.5437352245863,4,1,0,100,0,1
113270,-50.6539044730857,4,1,0,100,0,1
113322,-50.7372484495633,4,1,0,100,0,1
113373,-50.8192564890819,4,1,0,100,0,1
113425,-50.9031459318752,4,1,0,100,0,1
113477,-50.9873127921397,4,1,0,100,0,1
113580,-51.1548522937536,4,1,0,100,0,1
113684,-51.3251392356443,4,1,0,100,0,1
113787,-51.494909920036,4,1,0,100,0,1
113839,-51.5810467397948,4,1,0,100,0,1
113891,-51.6674722087965,4,1,0,100,0,1
113994,-51.8395189447821,4,1,0,100,0,1
114098,-52.0144024912417,4,1,0,100,0,1
114201,-52.1887713588283,4,1,0,100,0,1
114305,-52.3660233173312,4,1,0,100,0,1
114356,-52.4533856722277,4,1,0,100,0,1
114408,-52.542761648863,4,1,0,100,0,1
114460,-52.6324427230355,4,1,0,100,0,1
114511,-52.7206970244945,4,1,0,100,0,1
114615,-52.9015868826499,4,1,0,100,0,1
114718,-53.0819650423729,4,1,0,100,0,1
114822,-53.2653467977677,4,1,0,100,0,1
114925,-53.4482183927202,4,1,0,100,0,1
115029,-53.6341438940362,4,1,0,100,0,1
115132,-53.8195609854333,4,1,0,100,0,1
115196,-54.008083529808,4,1,0,100,0,1
115247,-54.1010155538311,4,1,0,100,0,1
115339,-54.1960996383547,4,1,0,100,0,1
115442,-54.3854293854294,4,1,0,100,0,1
115546,-54.5779441797141,4,1,0,100,0,1
115649,-54.6448087431694,4,1,0,100,0,1
115701,-54.1399276740735,4,1,0,100,0,1
115753,-53.6442907147739,4,1,0,100,0,1
115856,-52.6888610865298,4,1,0,100,0,1
115920,-51.7580759584736,4,1,0,100,0,1
115971,-51.3135475690455,4,1,0,100,0,1
116063,-50.8680964726216,4,1,0,100,0,1
116167,-50,4,1,0,100,0,1
116270,-50.7215917051983,4,1,0,100,0,1
116373,-51.4643161785613,4,1,0,100,0,1
116425,-51.8476081352048,4,1,0,100,0,1
116477,-52.2366522366522,4,1,0,100,0,1
116580,-53.0247546506518,4,1,0,100,0,1
116684,-53.8450096683028,4,1,0,100,0,1
116787,-54.6827794561934,4,1,0,100,0,1
116891,-55.5555555555556,4,1,0,100,0,1
116994,-50,4,1,0,100,0,1
117063,-50.481104448473,4,1,0,100,0,1
117132,-50.9715573078006,4,1,0,100,0,1
117201,-51.4716337267169,4,1,0,100,0,1
117270,-51.9816197587593,4,1,0,100,0,1
117339,-52.5018129079043,4,1,0,100,0,1
117408,-53.0325227072956,4,1,0,100,0,1
117511,-53.8450096683028,4,1,0,100,0,1
117615,-54.6910409427406,4,1,0,100,0,1
117718,-55.5555555555556,4,1,0,100,0,1
117822,-50,4,1,0,100,0,1
117873,-50.4147015774923,4,1,0,100,0,1
117925,-50.8446777103494,4,1,0,100,0,1
117977,-51.2820512820513,4,1,0,100,0,1
118029,-51.7270148506591,4,1,0,100,0,1
118132,-52.6315789473684,4,1,0,100,0,1
118236,-50,4,1,0,100,0,1
118305,-50.3358971862526,4,1,0,100,0,1
118373,-50.6713711653435,4,1,0,100,0,1
118442,-51.0163805012828,4,1,0,100,0,1
118511,-51.3661202185792,4,1,0,100,0,1
118580,-51.7206882753101,4,1,0,100,0,1
118649,-52.0801853530775,4,1,0,100,0,1
118753,-52.6315789473684,4,1,0,100,0,1
118856,-53.1893004115226,4,1,0,100,0,1
118908,-53.4753827058337,4,1,0,100,0,1
118960,-53.7645590682196,4,1,0,100,0,1
119063,-54.3478260869565,4,1,0,100,0,1
119167,-55.0729418664321,4,1,0,100,0,1
119270,-55.8104117526884,4,1,0,100,0,1
119373,-56.5679003049584,4,1,0,100,0,1
119411,-56.5679003049584,4,1,0,30,0,1
119477,-57.3538954842157,4,1,0,30,0,1
119480,-57.3538954842157,4,1,0,30,0,0
119580,-58.1541617479148,4,1,0,30,0,0
119632,-58.5667231869652,4,1,0,30,0,0
119684,-58.9851800961822,4,1,0,30,0,0
119787,-59.8319528512265,4,1,0,30,0,0
119891,-60.7119767253919,4,1,0,30,0,0
119994,-61.6094310609944,4,1,0,30,0,0
120098,-62.542926717589,4,1,0,30,0,0
120201,-63.4957528631196,4,1,0,30,0,0
120408,-65.5012315539377,4,1,0,30,0,0
120511,-66.5470812295155,4,1,0,30,0,0
120615,-67.6375258845773,4,1,0,30,0,0
120718,-68.7532889468506,4,1,0,30,0,0
120822,-69.9178668652132,4,1,0,30,0,0
120925,-71.1107955890009,4,1,0,30,0,0
121029,-72.3573320491211,4,1,0,30,0,0
121132,-73.6357176113112,4,1,0,30,0,0
121236,-74.9731793118934,4,1,0,30,0,0
121339,-76.3465447154472,4,1,0,30,0,0
121442,-77.7711638499961,4,1,0,30,0,0
121546,-79.2645933897813,4,1,0,30,0,0
121649,-80.8012906695348,4,1,0,30,0,0
121753,-82.4145685919588,4,1,0,30,0,0
121856,-84.0771103214795,4,1,0,30,0,0
122063,-87.6297678758894,4,1,0,30,0,0
122167,-89.5304492909069,4,1,0,30,0,0
122296,-92.0057561005481,4,1,0,30,0,0
122477,-95.7189271835383,4,1,0,30,0,0
122669,-100,4,1,0,30,0,0
122731,-100,4,1,0,10,0,0
123145,-100,4,1,0,12,0,0
123559,-100,4,1,0,14,0,0
123973,-100,4,1,0,18,0,0
124386,-100,4,1,0,22,0,0
124445,-50,4,1,0,22,0,0

[HitObjects]
256,192,308,5,0,0:0:0:0:
256,192,411,1,8,0:0:0:0:
256,192,618,1,8,0:0:0:0:
256,192,928,1,0,0:0:0:0:
256,192,1135,1,8,0:0:0:0:
256,192,1963,1,8,0:0:0:0:
256,192,2066,1,0,0:0:0:0:
256,192,2273,1,0,0:0:0:0:
256,192,2583,1,0,0:0:0:0:
256,192,2790,1,8,0:0:0:0:
256,192,3618,1,8,0:0:0:0:
256,192,3721,1,0,0:0:0:0:
256,192,3928,1,8,0:0:0:0:
256,192,4239,1,0,0:0:0:0:
256,192,4445,1,8,0:0:0:0:
256,192,5273,1,0,0:0:0:0:
256,192,5376,1,8,0:0:0:0:
256,192,5583,1,0,0:0:0:0:
256,192,5894,1,0,0:0:0:0:
256,192,6101,1,8,0:0:0:0:
256,192,6928,1,8,0:0:0:0:
256,192,7032,1,8,0:0:0:0:
256,192,7239,1,8,0:0:0:0:
256,192,7549,1,0,0:0:0:0:
256,192,7756,1,8,0:0:0:0:
256,192,8583,1,0,0:0:0:0:
256,192,8687,1,8,0:0:0:0:
256,192,8894,1,8,0:0:0:0:
256,192,9204,1,0,0:0:0:0:
256,192,9411,1,8,0:0:0:0:
256,192,10239,1,8,0:0:0:0:
256,192,10342,1,0,0:0:0:0:
256,192,10549,1,8,0:0:0:0:
256,192,10859,1,0,0:0:0:0:
256,192,11066,1,8,0:0:0:0:
256,192,11894,1,0,0:0:0:0:
256,192,11997,1,0,0:0:0:0:
256,192,12204,1,8,0:0:0:0:
256,192,12514,1,0,0:0:0:0:
256,192,12721,1,8,0:0:0:0:
256,192,13549,1,8,0:0:0:0:
256,192,13859,1,0,0:0:0:0:
256,192,13963,1,8,0:0:0:0:
256,192,14170,1,0,0:0:0:0:
256,192,14376,1,8,0:0:0:0:
256,192,14790,1,8,0:0:0:0:
256,192,15204,1,8,0:0:0:0:
256,192,15411,1,0,0:0:0:0:
256,192,15514,1,8,0:0:0:0:
256,192,15618,1,0,0:0:0:0:
256,192,15825,1,8,0:0:0:0:
256,192,16032,1,0,0:0:0:0:
256,192,16445,1,8,0:0:0:0:
256,192,16652,1,0,0:0:0:0:
256,192,16704,1,0,0:0:0:0:
256,192,16756,1,0,0:0:0:0:
256,192,16808,1,0,0:0:0:0:
256,192,16859,1,8,0:0:0:0:
256,192,17170,1,0,0:0:0:0:
256,192,17273,1,8,0:0:0:0:
256,192,17480,1,0,0:0:0:0:
256,192,17687,1,8,0:0:0:0:
256,192,18101,1,8,0:0:0:0:
256,192,18514,1,8,0:0:0:0:
256,192,18721,1,0,0:0:0:0:
256,192,18825,1,8,0:0:0:0:
256,192,18928,1,0,0:0:0:0:
256,192,19135,1,8,0:0:0:0:
256,192,19342,1,0,0:0:0:0:
256,192,19756,1,8,0:0:0:0:
256,192,19963,1,0,0:0:0:0:
256,192,20014,1,0,0:0:0:0:
256,192,20066,1,0,0:0:0:0:
256,192,20118,1,0,0:0:0:0:
256,192,20170,1,8,0:0:0:0:
256,192,20376,1,0,0:0:0:0:
256,192,20480,1,8,0:0:0:0:
256,192,20583,1,0,0:0:0:0:
256,192,20790,1,8,0:0:0:0:
256,192,20997,1,0,0:0:0:0:
256,192,21204,1,0,0:0:0:0:
256,192,21411,1,8,0:0:0:0:
256,192,21618,1,0,0:0:0:0:
256,192,21825,1,8,0:0:0:0:
256,192,22032,1,0,0:0:0:0:
256,192,22135,1,8,0:0:0:0:
256,192,22239,1,0,0:0:0:0:
256,192,22445,1,8,0:0:0:0:
256,192,22652,1,8,0:0:0:0:
256,192,22756,1,0,0:0:0:0:
256,192,22859,1,8,0:0:0:0:
256,192,22963,1,0,0:0:0:0:
256,192,23066,1,8,0:0:0:0:
256,192,23273,1,8,0:0:0:0:
256,192,23480,1,8,0:0:0:0:
256,192,23583,1,0,0:0:0:0:
256,192,23687,1,0,0:0:0:0:
256,192,23790,1,8,0:0:0:0:
256,192,23894,1,0,0:0:0:0:
256,192,23997,1,0,0:0:0:0:
256,192,24101,1,8,0:0:0:0:
256,192,24204,1,8,0:0:0:0:
256,192,24308,1,0,0:0:0:0:
256,192,24411,1,8,0:0:0:0:
256,192,24514,1,0,0:0:0:0:
256,192,24618,1,0,0:0:0:0:
256,192,24721,1,8,0:0:0:0:
256,192,24825,1,8,0:0:0:0:
256,192,24928,1,0,0:0:0:0:
256,192,25032,1,0,0:0:0:0:
256,192,25135,1,8,0:0:0:0:
256,192,25445,1,8,0:0:0:0:
256,192,25756,1,0,0:0:0:0:
256,192,26170,1,0,0:0:0:0:
256,192,26239,1,0,0:0:0:0:
256,192,26308,1,0,0:0:0:0:
256,192,26376,1,8,0:0:0:0:
256,192,26480,1,0,0:0:0:0:
256,192,26583,1,8,0:0:0:0:
256,192,26687,1,8,0:0:0:0:
256,192,26790,1,4,0:0:0:0:
256,192,27101,1,0,0:0:0:0:
256,192,27152,1,0,0:0:0:0:
256,192,27204,1,8,0:0:0:0:
256,192,27308,1,8,0:0:0:0:
256,192,27411,1,0,0:0:0:0:
256,192,27514,1,8,0:0:0:0:
256,192,27618,1,0,0:0:0:0:
256,192,27721,1,0,0:0:0:0:
256,192,27825,1,8,0:0:0:0:
256,192,27894,1,0,0:0:0:0:
256,192,27963,1,0,0:0:0:0:
256,192,28032,1,8,0:0:0:0:
256,192,28135,1,0,0:0:0:0:
256,192,28239,1,8,0:0:0:0:
256,192,28342,1,8,0:0:0:0:
256,192,28445,1,4,0:0:0:0:
256,192,28652,1,8,0:0:0:0:
256,192,28704,1,8,0:0:0:0:
256,192,28756,1,0,0:0:0:0:
256,192,28808,1,0,0:0:0:0:
256,192,28859,1,8,0:0:0:0:
256,192,29066,1,0,0:0:0:0:
256,192,29170,1,0,0:0:0:0:
256,192,29273,1,8,0:0:0:0:
256,192,29480,1,8,0:0:0:0:
256,192,29549,1,8,0:0:0:0:
256,192,29618,1,8,0:0:0:0:
256,192,29687,1,0,0:0:0:0:
256,192,29790,1,0,0:0:0:0:
256,192,29894,1,8,0:0:0:0:
256,192,29945,1,8,0:0:0:0:
256,192,29997,1,8,0:0:0:0:
256,192,30101,1,4,0:0:0:0:
256,192,30411,1,0,0:0:0:0:
256,192,30463,1,0,0:0:0:0:
256,192,30514,1,8,0:0:0:0:
256,192,30618,1,8,0:0:0:0:
256,192,30721,1,0,0:0:0:0:
256,192,30825,1,0,0:0:0:0:
256,192,30928,1,8,0:0:0:0:
256,192,31032,1,8,0:0:0:0:
256,192,31135,1,8,0:0:0:0:
256,192,31239,1,8,0:0:0:0:
256,192,31445,1,8,0:0:0:0:
256,192,31549,1,8,0:0:0:0:
256,192,31652,1,8,0:0:0:0:
256,192,31756,1,4,0:0:0:0:
256,192,32066,1,0,0:0:0:0:
256,192,32118,1,0,0:0:0:0:
256,192,32170,1,8,0:0:0:0:
256,192,32273,1,8,0:0:0:0:
256,192,32376,1,0,0:0:0:0:
256,192,32480,1,0,0:0:0:0:
256,192,32583,1,8,0:0:0:0:
256,192,32652,1,0,0:0:0:0:
256,192,32721,1,0,0:0:0:0:
256,192,32790,1,0,0:0:0:0:
256,192,32859,1,8,0:0:0:0:
256,192,32928,1,8,0:0:0:0:
256,192,32997,1,0,0:0:0:0:
256,192,33204,1,8,0:0:0:0:
256,192,33411,1,0,0:0:0:0:
256,192,33514,1,8,0:0:0:0:
256,192,33618,1,8,0:0:0:0:
256,192,33721,1,0,0:0:0:0:
256,192,33773,1,0,0:0:0:0:
256,192,33825,1,8,0:0:0:0:
256,192,33876,1,0,0:0:0:0:
256,192,33928,1,8,0:0:0:0:
256,192,33980,1,8,0:0:0:0:
256,192,34032,1,0,0:0:0:0:
256,192,34135,1,0,0:0:0:0:
256,192,34239,1,8,0:0:0:0:
256,192,34342,1,0,0:0:0:0:
256,192,34394,1,0,0:0:0:0:
256,192,34445,1,8,0:0:0:0:
256,192,34497,1,8,0:0:0:0:
256,192,34549,1,0,0:0:0:0:
256,192,34652,1,8,0:0:0:0:
256,192,34721,1,8,0:0:0:0:
256,192,34790,1,0,0:0:0:0:
256,192,34859,1,0,0:0:0:0:
256,192,34963,1,8,0:0:0:0:
256,192,35066,1,4,0:0:0:0:
256,192,35273,1,0,0:0:0:0:
256,192,35376,1,8,0:0:0:0:
256,192,35428,1,8,0:0:0:0:
256,192,35480,1,0,0:0:0:0:
256,192,35532,1,8,0:0:0:0:
256,192,35583,1,0,0:0:0:0:
256,192,35635,1,0,0:0:0:0:
256,192,35687,1,8,0:0:0:0:
256,192,35790,1,8,0:0:0:0:
256,192,35894,1,0,0:0:0:0:
256,192,35997,1,8,0:0:0:0:
256,192,36048,1,8,0:0:0:0:
256,192,36100,1,0,0:0:0:0:
256,192,36152,1,0,0:0:0:0:
256,192,36204,1,8,0:0:0:0:
256,192,36308,1,0,0:0:0:0:
256,192,36376,1,8,0:0:0:0:
256,192,36445,1,8,0:0:0:0:
256,192,36514,1,0,0:0:0:0:
256,192,36618,1,8,0:0:0:0:
256,192,36721,1,4,0:0:0:0:
256,192,37032,1,0,0:0:0:0:
256,192,37083,1,0,0:0:0:0:
256,192,37135,1,8,0:0:0:0:
256,192,37342,1,8,0:0:0:0:
256,192,37445,1,8,0:0:0:0:
256,192,37549,1,0,0:0:0:0:
256,192,37601,1,0,0:0:0:0:
256,192,37652,1,8,0:0:0:0:
256,192,37756,1,0,0:0:0:0:
256,192,37859,1,8,0:0:0:0:
256,192,37911,1,8,0:0:0:0:
256,192,37963,1,0,0:0:0:0:
256,192,38066,1,0,0:0:0:0:
256,192,38170,1,8,0:0:0:0:
256,192,38239,1,8,0:0:0:0:
256,192,38308,1,8,0:0:0:0:
256,192,38376,1,4,0:0:0:0:
256,192,38687,1,0,0:0:0:0:
256,192,38739,1,0,0:0:0:0:
256,192,38790,1,8,0:0:0:0:
256,192,38894,1,8,0:0:0:0:
256,192,38997,1,0,0:0:0:0:
256,192,39204,1,8,0:0:0:0:
256,192,39308,1,8,0:0:0:0:
256,192,39411,1,0,0:0:0:0:
256,192,39514,1,0,0:0:0:0:
256,192,39618,1,8,0:0:0:0:
256,192,39721,1,8,0:0:0:0:
256,192,39825,1,8,0:0:0:0:
256,192,39928,1,8,0:0:0:0:
256,192,40032,1,4,0:0:0:0:
256,192,40342,1,4,0:0:0:0:
256,192,40445,1,8,0:0:0:0:
256,192,40549,1,8,0:0:0:0:
256,192,40652,1,8,0:0:0:0:
256,192,40704,1,8,0:0:0:0:
256,192,40756,1,8,0:0:0:0:
256,192,40859,1,0,0:0:0:0:
256,192,40963,1,0,0:0:0:0:
256,192,41066,1,0,0:0:0:0:
256,192,41170,1,0,0:0:0:0:
256,192,41273,1,8,0:0:0:0:
256,192,41376,1,0,0:0:0:0:
256,192,41480,1,8,0:0:0:0:
256,192,41583,1,8,0:0:0:0:
256,192,41687,1,4,0:0:0:0:
256,192,41997,1,4,0:0:0:0:
256,192,42101,1,8,0:0:0:0:
256,192,42204,1,8,0:0:0:0:
256,192,42308,1,0,0:0:0:0:
256,192,42359,1,0,0:0:0:0:
256,192,42411,1,0,0:0:0:0:
256,192,42463,1,0,0:0:0:0:
256,192,42514,1,8,0:0:0:0:
256,192,42721,1,0,0:0:0:0:
256,192,42928,1,8,0:0:0:0:
256,192,43135,1,8,0:0:0:0:
256,192,43239,1,8,0:0:0:0:
256,192,43342,1,4,0:0:0:0:
256,192,43652,1,0,0:0:0:0:
256,192,43704,1,0,0:0:0:0:
256,192,43756,1,8,0:0:0:0:
256,192,43859,1,8,0:0:0:0:
256,192,43963,1,0,0:0:0:0:
256,192,44170,1,0,0:0:0:0:
256,192,44273,1,8,0:0:0:0:
256,192,44376,1,8,0:0:0:0:
256,192,44480,1,8,0:0:0:0:
256,192,44583,1,0,0:0:0:0:
256,192,44687,1,8,0:0:0:0:
256,192,44790,1,8,0:0:0:0:
256,192,44894,1,8,0:0:0:0:
256,192,44997,1,4,0:0:0:0:
256,192,45308,1,0,0:0:0:0:
256,192,45359,1,0,0:0:0:0:
256,192,45411,1,8,0:0:0:0:
256,192,45514,1,8,0:0:0:0:
256,192,45618,1,0,0:0:0:0:
256,192,45721,1,0,0:0:0:0:
256,192,45825,1,8,0:0:0:0:
256,192,46032,1,0,0:0:0:0:
256,192,46135,1,0,0:0:0:0:
256,192,46239,1,8,0:0:0:0:
256,192,46342,1,0,0:0:0:0:
256,192,46445,1,8,0:0:0:0:
256,192,46549,1,8,0:0:0:0:
256,192,46652,1,4,0:0:0:0:
256,192,46963,1,8,0:0:0:0:
256,192,47014,1,8,0:0:0:0:
256,192,47066,1,0,0:0:0:0:
256,192,47118,1,8,0:0:0:0:
256,192,47170,1,0,0:0:0:0:
256,192,47221,1,0,0:0:0:0:
256,192,47273,1,8,0:0:0:0:
256,192,47376,1,0,0:0:0:0:
256,192,47480,1,8,0:0:0:0:
256,192,47583,1,8,0:0:0:0:
256,192,47687,1,0,0:0:0:0:
256,192,47739,1,0,0:0:0:0:
256,192,47790,1,0,0:0:0:0:
256,192,47894,1,8,0:0:0:0:
256,192,47963,1,0,0:0:0:0:
256,192,48032,1,0,0:0:0:0:
256,192,48101,1,8,0:0:0:0:
256,192,48204,1,8,0:0:0:0:
256,192,48308,1,4,0:0:0:0:
256,192,48514,1,8,0:0:0:0:
256,192,48618,1,0,0:0:0:0:
256,192,48670,1,0,0:0:0:0:
256,192,48721,1,8,0:0:0:0:
256,192,48773,1,0,0:0:0:0:
256,192,48825,1,8,0:0:0:0:
256,192,48876,1,8,0:0:0:0:
256,192,48928,1,0,0:0:0:0:
256,192,49032,1,0,0:0:0:0:
256,192,49135,1,8,0:0:0:0:
256,192,49239,1,8,0:0:0:0:
256,192,49290,1,8,0:0:0:0:
256,192,49342,1,0,0:0:0:0:
256,192,49394,1,0,0:0:0:0:
256,192,49445,1,8,0:0:0:0:
256,192,49549,1,0,0:0:0:0:
256,192,49652,1,0,0:0:0:0:
256,192,49756,1,8,0:0:0:0:
256,192,49808,1,8,0:0:0:0:
256,192,49859,1,8,0:0:0:0:
256,192,49911,1,8,0:0:0:0:
256,192,49963,1,4,0:0:0:0:
256,192,50273,1,0,0:0:0:0:
256,192,50325,1,0,0:0:0:0:
256,192,50376,1,8,0:0:0:0:
256,192,50480,1,8,0:0:0:0:
256,192,50583,1,0,0:0:0:0:
256,192,50790,1,8,0:0:0:0:
256,192,50842,1,8,0:0:0:0:
256,192,50894,1,8,0:0:0:0:
256,192,50997,1,0,0:0:0:0:
256,192,51101,1,8,0:0:0:0:
256,192,51152,1,8,0:0:0:0:
256,192,51204,1,0,0:0:0:0:
256,192,51308,1,8,0:0:0:0:
256,192,51411,1,0,0:0:0:0:
256,192,51463,1,0,0:0:0:0:
256,192,51514,1,8,0:0:0:0:
256,192,51618,1,4,0:0:0:0:
256,192,51928,1,0,0:0:0:0:
256,192,51980,1,0,0:0:0:0:
256,192,52032,1,8,0:0:0:0:
256,192,52135,1,0,0:0:0:0:
256,192,52239,1,8,0:0:0:0:
256,192,52342,1,8,0:0:0:0:
256,192,52445,1,0,0:0:0:0:
256,192,52652,1,8,0:0:0:0:
256,192,52756,1,8,0:0:0:0:
256,192,52859,1,0,0:0:0:0:
256,192,52963,1,0,0:0:0:0:
256,192,53066,1,8,0:0:0:0:
256,192,53118,1,8,0:0:0:0:
256,192,53170,1,8,0:0:0:0:
256,192,53273,1,0,0:0:0:0:
256,192,53376,1,8,0:0:0:0:
256,192,53480,1,8,0:0:0:0:
256,192,53583,1,0,0:0:0:0:
256,192,53687,1,8,0:0:0:0:
256,192,53790,1,8,0:0:0:0:
256,192,53894,1,0,0:0:0:0:
256,192,53997,1,0,0:0:0:0:
256,192,54101,1,8,0:0:0:0:
256,192,54204,1,0,0:0:0:0:
256,192,54308,1,0,0:0:0:0:
256,192,54411,1,0,0:0:0:0:
256,192,54514,1,8,0:0:0:0:
256,192,54618,1,0,0:0:0:0:
256,192,54721,1,0,0:0:0:0:
256,192,54825,1,0,0:0:0:0:
256,192,54928,1,8,0:0:0:0:
256,192,55032,1,0,0:0:0:0:
256,192,55135,1,0,0:0:0:0:
256,192,55239,1,8,0:0:0:0:
256,192,55342,1,0,0:0:0:0:
256,192,55445,1,0,0:0:0:0:
256,192,55549,1,8,0:0:0:0:
256,192,55652,1,8,0:0:0:0:
256,192,55756,1,0,0:0:0:0:
256,192,55859,1,8,0:0:0:0:
256,192,55963,1,8,0:0:0:0:
256,192,56066,1,8,0:0:0:0:
256,192,56170,1,0,0:0:0:0:
256,192,56273,1,0,0:0:0:0:
256,192,56376,1,8,0:0:0:0:
256,192,56480,1,8,0:0:0:0:
256,192,56583,1,0,0:0:0:0:
256,192,56687,1,0,0:0:0:0:
256,192,56790,1,0,0:0:0:0:
256,192,56894,1,8,0:0:0:0:
256,192,56997,1,8,0:0:0:0:
256,192,57101,1,8,0:0:0:0:
256,192,57204,1,0,0:0:0:0:
256,192,57308,1,0,0:0:0:0:
256,192,57411,1,8,0:0:0:0:
256,192,57514,1,0,0:0:0:0:
256,192,57618,1,0,0:0:0:0:
256,192,57721,1,0,0:0:0:0:
256,192,57825,1,8,0:0:0:0:
256,192,57928,1,8,0:0:0:0:
256,192,58032,1,0,0:0:0:0:
256,192,58135,1,0,0:0:0:0:
256,192,58239,1,8,0:0:0:0:
256,192,58342,1,0,0:0:0:0:
256,192,58445,1,0,0:0:0:0:
256,192,58549,1,8,0:0:0:0:
256,192,58652,1,0,0:0:0:0:
256,192,58756,1,0,0:0:0:0:
256,192,58859,1,8,0:0:0:0:
256,192,58963,1,8,0:0:0:0:
256,192,59066,1,0,0:0:0:0:
256,192,59170,1,8,0:0:0:0:
256,192,59273,1,8,0:0:0:0:
256,192,59376,1,8,0:0:0:0:
256,192,59480,1,0,0:0:0:0:
256,192,59583,1,0,0:0:0:0:
256,192,59687,1,8,0:0:0:0:
256,192,59790,1,8,0:0:0:0:
256,192,59894,1,0,0:0:0:0:
256,192,59997,1,0,0:0:0:0:
256,192,60101,1,0,0:0:0:0:
256,192,60204,1,8,0:0:0:0:
256,192,60308,1,0,0:0:0:0:
256,192,60411,1,0,0:0:0:0:
256,192,60514,1,8,0:0:0:0:
256,192,60618,1,8,0:0:0:0:
256,192,60721,1,0,0:0:0:0:
256,192,60825,1,0,0:0:0:0:
256,192,60928,1,0,0:0:0:0:
256,192,61032,1,0,0:0:0:0:
256,192,61135,1,8,0:0:0:0:
256,192,61239,1,8,0:0:0:0:
256,192,61342,1,0,0:0:0:0:
256,192,61445,1,0,0:0:0:0:
256,192,61549,1,8,0:0:0:0:
256,192,61652,1,8,0:0:0:0:
256,192,61756,1,0,0:0:0:0:
256,192,61859,1,8,0:0:0:0:
256,192,61963,1,0,0:0:0:0:
256,192,62066,1,0,0:0:0:0:
256,192,62170,1,8,0:0:0:0:
256,192,62273,1,0,0:0:0:0:
256,192,62376,1,8,0:0:0:0:
256,192,62480,1,8,0:0:0:0:
256,192,62583,1,8,0:0:0:0:
256,192,62687,1,8,0:0:0:0:
256,192,62790,1,0,0:0:0:0:
256,192,62894,1,0,0:0:0:0:
256,192,62997,1,8,0:0:0:0:
256,192,63101,1,8,0:0:0:0:
256,192,63204,1,0,0:0:0:0:
256,192,63308,1,0,0:0:0:0:
256,192,63411,1,0,0:0:0:0:
256,192,63514,1,8,0:0:0:0:
256,192,63618,1,0,0:0:0:0:
256,192,63721,1,0,0:0:0:0:
256,192,63825,1,8,0:0:0:0:
256,192,63928,1,0,0:0:0:0:
256,192,64032,1,8,0:0:0:0:
256,192,64135,1,0,0:0:0:0:
256,192,64239,1,0,0:0:0:0:
256,192,64342,1,0,0:0:0:0:
256,192,64445,1,8,0:0:0:0:
256,192,64549,1,8,0:0:0:0:
256,192,64652,1,0,0:0:0:0:
256,192,64756,1,0,0:0:0:0:
256,192,64859,1,8,0:0:0:0:
256,192,64963,1,0,0:0:0:0:
256,192,65170,1,0,0:0:0:0:
256,192,65480,1,8,0:0:0:0:
256,192,66514,5,0,0:0:0:0:
256,192,66618,1,8,0:0:0:0:
256,192,66825,1,8,0:0:0:0:
256,192,67135,1,0,0:0:0:0:
256,192,68170,1,8,0:0:0:0:
256,192,68273,1,0,0:0:0:0:
256,192,68480,1,0,0:0:0:0:
256,192,68790,1,8,0:0:0:0:
256,192,69204,1,0,0:0:0:0:
256,192,69825,1,0,0:0:0:0:
256,192,69928,1,8,0:0:0:0:
256,192,70135,1,0,0:0:0:0:
256,192,70445,1,8,0:0:0:0:
256,192,71480,1,8,0:0:0:0:
256,192,71583,1,0,0:0:0:0:
256,192,71790,1,0,0:0:0:0:
256,192,72101,1,8,0:0:0:0:
256,192,72514,1,8,0:0:0:0:
256,192,72928,1,8,0:0:0:0:
256,192,73135,1,0,0:0:0:0:
256,192,73239,1,8,0:0:0:0:
256,192,73445,1,8,0:0:0:0:
256,192,73549,1,0,0:0:0:0:
256,192,73756,1,0,0:0:0:0:
256,192,74790,1,8,0:0:0:0:
256,192,74894,1,0,0:0:0:0:
256,192,75101,1,0,0:0:0:0:
256,192,75204,1,0,0:0:0:0:
256,192,75411,1,8,0:0:0:0:
256,192,75825,1,8,0:0:0:0:
256,192,76445,1,0,0:0:0:0:
256,192,76549,1,8,0:0:0:0:
256,192,76756,1,8,0:0:0:0:
256,192,76859,1,8,0:0:0:0:
256,192,77066,1,0,0:0:0:0:
256,192,78101,1,8,0:0:0:0:
256,192,78204,1,0,0:0:0:0:
256,192,78411,1,0,0:0:0:0:
256,192,78514,1,0,0:0:0:0:
256,192,78721,1,8,0:0:0:0:
256,192,79135,1,8,0:0:0:0:
256,192,79549,1,8,0:0:0:0:
256,192,79756,1,0,0:0:0:0:
256,192,80066,1,0,0:0:0:0:
256,192,80170,1,8,0:0:0:0:
256,192,80376,1,0,0:0:0:0:
256,192,80583,1,8,0:0:0:0:
256,192,80997,1,8,0:0:0:0:
256,192,81411,1,8,0:0:0:0:
256,192,81618,1,0,0:0:0:0:
256,192,81721,1,8,0:0:0:0:
256,192,81825,1,0,0:0:0:0:
256,192,82032,1,0,0:0:0:0:
256,192,82239,1,8,0:0:0:0:
256,192,82445,1,0,0:0:0:0:
256,192,82652,1,8,0:0:0:0:
256,192,82859,1,0,0:0:0:0:
256,192,82911,1,0,0:0:0:0:
256,192,82963,1,0,0:0:0:0:
256,192,83014,1,0,0:0:0:0:
256,192,83066,1,8,0:0:0:0:
256,192,83376,1,0,0:0:0:0:
256,192,83480,1,8,0:0:0:0:
256,192,83687,1,0,0:0:0:0:
256,192,83894,1,8,0:0:0:0:
256,192,84308,1,8,0:0:0:0:
256,192,84721,1,8,0:0:0:0:
256,192,84928,1,0,0:0:0:0:
256,192,85032,1,8,0:0:0:0:
256,192,85135,1,0,0:0:0:0:
256,192,85342,1,0,0:0:0:0:
256,192,85549,1,8,0:0:0:0:
256,192,85756,1,0,0:0:0:0:
256,192,85963,1,8,0:0:0:0:
256,192,86170,1,0,0:0:0:0:
256,192,86221,1,0,0:0:0:0:
256,192,86273,1,0,0:0:0:0:
256,192,86325,1,0,0:0:0:0:
256,192,86376,1,8,0:0:0:0:
256,192,86583,1,0,0:0:0:0:
256,192,86687,1,8,0:0:0:0:
256,192,86790,1,0,0:0:0:0:
256,192,86997,1,8,0:0:0:0:
256,192,87204,1,0,0:0:0:0:
256,192,87411,1,0,0:0:0:0:
256,192,87618,1,8,0:0:0:0:
256,192,87825,1,0,0:0:0:0:
256,192,88032,1,8,0:0:0:0:
256,192,88239,1,0,0:0:0:0:
256,192,88342,1,8,0:0:0:0:
256,192,88445,1,0,0:0:0:0:
256,192,88652,1,8,0:0:0:0:
256,192,88859,1,8,0:0:0:0:
256,192,88963,1,0,0:0:0:0:
256,192,89066,1,8,0:0:0:0:
256,192,89170,1,0,0:0:0:0:
256,192,89273,1,8,0:0:0:0:
256,192,89480,1,8,0:0:0:0:
256,192,89687,1,8,0:0:0:0:
256,192,89790,1,0,0:0:0:0:
256,192,89894,1,0,0:0:0:0:
256,192,89997,1,8,0:0:0:0:
256,192,90101,1,0,0:0:0:0:
256,192,90204,1,0,0:0:0:0:
256,192,90308,1,8,0:0:0:0:
256,192,90411,1,8,0:0:0:0:
256,192,90514,1,0,0:0:0:0:
256,192,90618,1,8,0:0:0:0:
256,192,90721,1,0,0:0:0:0:
256,192,90825,1,0,0:0:0:0:
256,192,90928,1,8,0:0:0:0:
256,192,91032,1,8,0:0:0:0:
256,192,91135,1,0,0:0:0:0:
256,192,91239,1,0,0:0:0:0:
256,192,91342,1,8,0:0:0:0:
256,192,91652,1,0,0:0:0:0:
256,192,91963,1,8,0:0:0:0:
256,192,92376,1,8,0:0:0:0:
256,192,92445,1,0,0:0:0:0:
256,192,92514,1,0,0:0:0:0:
256,192,92583,1,8,0:0:0:0:
256,192,92687,1,0,0:0:0:0:
256,192,92790,1,8,0:0:0:0:
256,192,92894,1,8,0:0:0:0:
256,192,92997,1,4,0:0:0:0:
256,192,93101,1,8,0:0:0:0:
256,192,93152,1,8,0:0:0:0:
256,192,93204,1,0,0:0:0:0:
256,192,93308,1,8,0:0:0:0:
256,192,93411,1,0,0:0:0:0:
256,192,93463,1,0,0:0:0:0:
256,192,93514,1,8,0:0:0:0:
256,192,93618,1,0,0:0:0:0:
256,192,93687,1,0,0:0:0:0:
256,192,93756,1,0,0:0:0:0:
256,192,93825,1,8,0:0:0:0:
256,192,93928,1,8,0:0:0:0:
256,192,94032,1,0,0:0:0:0:
256,192,94083,1,0,0:0:0:0:
256,192,94135,1,0,0:0:0:0:
256,192,94239,1,8,0:0:0:0:
256,192,94342,1,0,0:0:0:0:
256,192,94445,1,8,0:0:0:0:
256,192,94514,1,8,0:0:0:0:
256,192,94583,1,8,0:0:0:0:
256,192,94652,1,0,0:0:0:0:
256,192,94756,1,8,0:0:0:0:
256,192,94808,1,8,0:0:0:0:
256,192,94859,1,0,0:0:0:0:
256,192,94963,1,0,0:0:0:0:
256,192,95066,1,8,0:0:0:0:
256,192,95118,1,0,0:0:0:0:
256,192,95170,1,0,0:0:0:0:
256,192,95273,1,8,0:0:0:0:
256,192,95342,1,0,0:0:0:0:
256,192,95411,1,0,0:0:0:0:
256,192,95480,1,8,0:0:0:0:
256,192,95583,1,8,0:0:0:0:
256,192,95687,1,0,0:0:0:0:
256,192,95790,1,8,0:0:0:0:
256,192,95894,1,0,0:0:0:0:
256,192,95945,1,0,0:0:0:0:
256,192,95997,1,0,0:0:0:0:
256,192,96101,1,8,0:0:0:0:
256,192,96170,1,8,0:0:0:0:
256,192,96239,1,8,0:0:0:0:
256,192,96308,1,0,0:0:0:0:
256,192,96411,1,8,0:0:0:0:
256,192,96463,1,8,0:0:0:0:
256,192,96514,1,0,0:0:0:0:
256,192,96618,1,0,0:0:0:0:
256,192,96721,1,8,0:0:0:0:
256,192,96773,1,0,0:0:0:0:
256,192,96825,1,0,0:0:0:0:
256,192,96928,1,8,0:0:0:0:
256,192,96997,1,8,0:0:0:0:
256,192,97066,1,0,0:0:0:0:
256,192,97135,1,8,0:0:0:0:
256,192,97239,1,0,0:0:0:0:
256,192,97290,1,0,0:0:0:0:
256,192,97342,1,0,0:0:0:0:
256,192,97445,1,8,0:0:0:0:
256,192,97549,1,0,0:0:0:0:
256,192,97601,1,0,0:0:0:0:
256,192,97652,1,8,0:0:0:0:
256,192,97756,1,0,0:0:0:0:
256,192,97825,1,8,0:0:0:0:
256,192,97894,1,8,0:0:0:0:
256,192,97963,1,0,0:0:0:0:
256,192,98066,1,8,0:0:0:0:
256,192,98118,1,8,0:0:0:0:
256,192,98170,1,8,0:0:0:0:
256,192,98273,1,0,0:0:0:0:
256,192,98376,1,8,0:0:0:0:
256,192,98428,1,8,0:0:0:0:
256,192,98480,1,0,0:0:0:0:
256,192,98583,1,0,0:0:0:0:
256,192,98652,1,0,0:0:0:0:
256,192,98721,1,0,0:0:0:0:
256,192,98790,1,8,0:0:0:0:
256,192,98894,1,0,0:0:0:0:
256,192,98945,1,0,0:0:0:0:
256,192,98997,1,8,0:0:0:0:
256,192,99101,1,0,0:0:0:0:
256,192,99204,1,8,0:0:0:0:
256,192,99273,1,0,0:0:0:0:
256,192,99342,1,0,0:0:0:0:
256,192,99411,1,0,0:0:0:0:
256,192,99480,1,8,0:0:0:0:
256,192,99549,1,8,0:0:0:0:
256,192,99618,1,0,0:0:0:0:
256,192,99721,1,8,0:0:0:0:
256,192,99825,1,0,0:0:0:0:
256,192,99876,1,0,0:0:0:0:
256,192,99927,1,0,0:0:0:0:
256,192,99979,1,0,0:0:0:0:
256,192,100032,1,8,0:0:0:0:
256,192,100135,1,0,0:0:0:0:
256,192,100239,1,8,0:0:0:0:
256,192,100308,1,0,0:0:0:0:
256,192,100376,1,0,0:0:0:0:
256,192,100445,1,8,0:0:0:0:
256,192,100549,1,8,0:0:0:0:
256,192,100652,1,0,0:0:0:0:
256,192,100756,1,0,0:0:0:0:
256,192,100859,1,8,0:0:0:0:
256,192,100911,1,0,0:0:0:0:
256,192,100963,1,0,0:0:0:0:
256,192,101066,1,8,0:0:0:0:
256,192,101135,1,8,0:0:0:0:
256,192,101204,1,0,0:0:0:0:
256,192,101273,1,0,0:0:0:0:
256,192,101376,1,8,0:0:0:0:
256,192,101428,1,8,0:0:0:0:
256,192,101480,1,8,0:0:0:0:
256,192,101583,1,8,0:0:0:0:
256,192,101687,1,8,0:0:0:0:
256,192,101790,1,0,0:0:0:0:
256,192,101894,1,8,0:0:0:0:
256,192,101963,1,8,0:0:0:0:
256,192,102032,1,8,0:0:0:0:
256,192,102101,1,0,0:0:0:0:
256,192,102204,1,0,0:0:0:0:
256,192,102308,1,8,0:0:0:0:
256,192,102411,1,8,0:0:0:0:
256,192,102514,1,0,0:0:0:0:
256,192,102566,1,0,0:0:0:0:
256,192,102618,1,0,0:0:0:0:
256,192,102721,1,8,0:0:0:0:
256,192,102790,1,0,0:0:0:0:
256,192,102859,1,0,0:0:0:0:
256,192,102928,1,0,0:0:0:0:
256,192,103032,1,8,0:0:0:0:
256,192,103083,1,0,0:0:0:0:
256,192,103135,1,8,0:0:0:0:
256,192,103239,1,0,0:0:0:0:
256,192,103342,1,8,0:0:0:0:
256,192,103394,1,0,0:0:0:0:
256,192,103445,1,0,0:0:0:0:
256,192,103549,1,8,0:0:0:0:
256,192,103601,1,8,0:0:0:0:
256,192,103652,1,0,0:0:0:0:
256,192,103756,1,8,0:0:0:0:
256,192,103825,1,0,0:0:0:0:
256,192,103894,1,0,0:0:0:0:
256,192,103963,1,0,0:0:0:0:
256,192,104032,1,0,0:0:0:0:
256,192,104101,1,0,0:0:0:0:
256,192,104170,1,8,0:0:0:0:
256,192,104273,1,0,0:0:0:0:
256,192,104376,1,8,0:0:0:0:
256,192,104480,1,8,0:0:0:0:
256,192,104583,1,0,0:0:0:0:
256,192,104635,1,0,0:0:0:0:
256,192,104687,1,0,0:0:0:0:
256,192,104739,1,0,0:0:0:0:
256,192,104790,1,8,0:0:0:0:
256,192,104894,1,8,0:0:0:0:
256,192,104997,1,0,0:0:0:0:
256,192,105066,1,8,0:0:0:0:
256,192,105135,1,8,0:0:0:0:
256,192,105204,1,8,0:0:0:0:
256,192,105273,1,8,0:0:0:0:
256,192,105342,1,8,0:0:0:0:
256,192,105411,1,0,0:0:0:0:
256,192,105514,1,0,0:0:0:0:
256,192,105618,1,8,0:0:0:0:
256,192,105670,1,8,0:0:0:0:
256,192,105721,1,0,0:0:0:0:
256,192,105825,1,8,0:0:0:0:
256,192,105928,1,0,0:0:0:0:
256,192,106032,1,8,0:0:0:0:
256,192,106135,1,8,0:0:0:0:
256,192,106239,5,0,0:0:0:0:
256,192,106342,1,0,0:0:0:0:
256,192,106445,1,0,0:0:0:0:
256,192,106549,1,0,0:0:0:0:
256,192,106652,1,8,0:0:0:0:
256,192,106704,1,8,0:0:0:0:
256,192,106756,1,8,0:0:0:0:
256,192,106859,1,0,0:0:0:0:
256,192,106928,1,0,0:0:0:0:
256,192,106997,1,0,0:0:0:0:
256,192,107066,1,8,0:0:0:0:
256,192,107170,1,8,0:0:0:0:
256,192,107273,1,8,0:0:0:0:
256,192,107376,1,8,0:0:0:0:
256,192,107480,1,0,0:0:0:0:
256,192,107532,1,0,0:0:0:0:
256,192,107583,1,0,0:0:0:0:
256,192,107687,1,8,0:0:0:0:
256,192,107756,1,8,0:0:0:0:
256,192,107825,1,8,0:0:0:0:
256,192,107894,1,0,0:0:0:0:
256,192,107997,1,0,0:0:0:0:
256,192,108101,1,8,0:0:0:0:
256,192,108204,1,8,0:0:0:0:
256,192,108308,1,0,0:0:0:0:
256,192,108359,1,0,0:0:0:0:
256,192,108411,1,0,0:0:0:0:
256,192,108514,1,8,0:0:0:0:
256,192,108583,1,0,0:0:0:0:
256,192,108652,1,0,0:0:0:0:
256,192,108721,1,8,0:0:0:0:
256,192,108825,1,0,0:0:0:0:
256,192,108876,1,0,0:0:0:0:
256,192,108928,1,8,0:0:0:0:
256,192,109032,1,0,0:0:0:0:
256,192,109135,1,8,0:0:0:0:
256,192,109239,1,8,0:0:0:0:
256,192,109342,1,8,0:0:0:0:
256,192,109445,1,8,0:0:0:0:
256,192,109549,1,0,0:0:0:0:
256,192,109652,1,0,0:0:0:0:
256,192,109756,1,0,0:0:0:0:
256,192,109859,1,8,0:0:0:0:
256,192,109911,1,8,0:0:0:0:
256,192,109963,1,8,0:0:0:0:
256,192,110066,1,0,0:0:0:0:
256,192,110170,1,8,0:0:0:0:
256,192,110239,1,8,0:0:0:0:
256,192,110308,1,8,0:0:0:0:
256,192,110376,1,0,0:0:0:0:
256,192,110480,1,8,0:0:0:0:
256,192,110583,1,0,0:0:0:0:
256,192,110687,1,0,0:0:0:0:
256,192,110739,1,0,0:0:0:0:
256,192,110790,1,8,0:0:0:0:
256,192,110894,1,8,0:0:0:0:
256,192,110997,1,0,0:0:0:0:
256,192,111066,1,0,0:0:0:0:
256,192,111135,1,0,0:0:0:0:
256,192,111204,1,8,0:0:0:0:
256,192,111308,1,0,0:0:0:0:
256,192,111359,1,0,0:0:0:0:
256,192,111411,1,8,0:0:0:0:
256,192,111514,1,8,0:0:0:0:
256,192,111618,1,0,0:0:0:0:
256,192,111670,1,8,0:0:0:0:
256,192,111721,1,0,0:0:0:0:
256,192,111825,1,8,0:0:0:0:
256,192,111894,1,0,0:0:0:0:
256,192,111963,1,0,0:0:0:0:
256,192,112032,1,8,0:0:0:0:
256,192,112135,1,8,0:0:0:0:
256,192,112239,1,0,0:0:0:0:
256,192,112290,1,0,0:0:0:0:
256,192,112342,1,0,0:0:0:0:
256,192,112445,1,8,0:0:0:0:
256,192,112549,1,8,0:0:0:0:
256,192,112652,1,0,0:0:0:0:
256,192,112721,1,8,0:0:0:0:
256,192,112790,1,8,0:0:0:0:
256,192,112859,1,0,0:0:0:0:
256,192,112963,1,8,0:0:0:0:
256,192,113066,1,0,0:0:0:0:
256,192,113118,1,0,0:0:0:0:
256,192,113170,1,0,0:0:0:0:
256,192,113273,1,8,0:0:0:0:
256,192,113325,1,8,0:0:0:0:
256,192,113376,1,8,0:0:0:0:
256,192,113428,1,8,0:0:0:0:
256,192,113480,1,0,0:0:0:0:
256,192,113583,1,0,0:0:0:0:
256,192,113687,1,8,0:0:0:0:
256,192,113790,1,8,0:0:0:0:
256,192,113842,1,8,0:0:0:0:
256,192,113894,1,0,0:0:0:0:
256,192,113997,1,8,0:0:0:0:
256,192,114101,1,0,0:0:0:0:
256,192,114204,1,0,0:0:0:0:
256,192,114308,1,8,0:0:0:0:
256,192,114359,1,0,0:0:0:0:
256,192,114411,1,8,0:0:0:0:
256,192,114463,1,8,0:0:0:0:
256,192,114514,1,0,0:0:0:0:
256,192,114618,1,8,0:0:0:0:
256,192,114721,1,8,0:0:0:0:
256,192,114825,1,8,0:0:0:0:
256,192,114928,1,0,0:0:0:0:
256,192,115032,1,0,0:0:0:0:
256,192,115135,1,8,0:0:0:0:
256,192,115204,1,0,0:0:0:0:
256,192,115273,1,0,0:0:0:0:
256,192,115342,1,8,0:0:0:0:
256,192,115445,1,0,0:0:0:0:
256,192,115549,1,8,0:0:0:0:
256,192,115652,1,0,0:0:0:0:
256,192,115704,1,0,0:0:0:0:
256,192,115756,1,8,0:0:0:0:
256,192,115859,1,0,0:0:0:0:
256,192,115928,1,8,0:0:0:0:
256,192,115997,1,8,0:0:0:0:
256,192,116066,1,0,0:0:0:0:
256,192,116170,1,0,0:0:0:0:
256,192,116273,1,8,0:0:0:0:
256,192,116376,1,8,0:0:0:0:
256,192,116428,1,8,0:0:0:0:
256,192,116480,1,0,0:0:0:0:
256,192,116583,1,0,0:0:0:0:
256,192,116687,1,8,0:0:0:0:
256,192,116790,1,0,0:0:0:0:
256,192,116894,1,0,0:0:0:0:
256,192,116997,1,8,0:0:0:0:
256,192,117066,1,8,0:0:0:0:
256,192,117135,1,8,0:0:0:0:
256,192,117204,1,8,0:0:0:0:
256,192,117273,1,8,0:0:0:0:
256,192,117342,1,8,0:0:0:0:
256,192,117411,1,0,0:0:0:0:
256,192,117514,1,0,0:0:0:0:
256,192,117618,1,8,0:0:0:0:
256,192,117721,1,0,0:0:0:0:
256,192,117825,1,8,0:0:0:0:
256,192,117876,1,8,0:0:0:0:
256,192,117928,1,8,0:0:0:0:
256,192,117980,1,8,0:0:0:0:
256,192,118032,1,0,0:0:0:0:
256,192,118135,1,0,0:0:0:0:
256,192,118239,1,8,0:0:0:0:
256,192,118308,1,0,0:0:0:0:
256,192,118376,1,0,0:0:0:0:
256,192,118445,1,0,0:0:0:0:
256,192,118514,1,0,0:0:0:0:
256,192,118583,1,0,0:0:0:0:
256,192,118652,1,8,0:0:0:0:
256,192,118756,1,0,0:0:0:0:
256,192,118859,1,8,0:0:0:0:
256,192,118911,1,8,0:0:0:0:
256,192,118963,1,0,0:0:0:0:
256,192,119066,1,0,0:0:0:0:
256,192,119170,1,8,0:0:0:0:
256,192,119273,1,0,0:0:0:0:
256,192,119376,1,0,0:0:0:0:
256,192,119480,5,8,0:0:0:0:
256,192,119583,1,0,0:0:0:0:
256,192,119635,1,0,0:0:0:0:
256,192,119687,1,8,0:0:0:0:
256,192,119790,1,0,0:0:0:0:
256,192,119894,1,8,0:0:0:0:
256,192,119997,1,8,0:0:0:0:
256,192,120101,1,0,0:0:0:0:
256,192,120204,1,0,0:0:0:0:
256,192,120411,1,8,0:0:0:0:
256,192,120514,1,0,0:0:0:0:
256,192,120618,1,0,0:0:0:0:
256,192,120721,1,8,0:0:0:0:
256,192,120825,1,8,0:0:0:0:
256,192,120928,1,8,0:0:0:0:
256,192,121032,1,0,0:0:0:0:
256,192,121135,1,8,0:0:0:0:
256,192,121239,1,0,0:0:0:0:
256,192,121342,1,0,0:0:0:0:
256,192,121445,1,8,0:0:0:0:
256,192,121549,1,8,0:0:0:0:
256,192,121652,1,0,0:0:0:0:
256,192,121756,1,0,0:0:0:0:
256,192,121859,1,8,0:0:0:0:
256,192,122066,1,0,0:0:0:0:
256,192,122170,1,0,0:0:0:0:
256,192,122299,1,8,0:0:0:0:
256,192,122480,1,8,0:0:0:0:
256,192,122672,1,8,0:0:0:0:
256,192,122790,12,0,124445,0:0:0:0:
