osu file format v14

[General]
AudioFilename: audio.mp3
AudioLeadIn: 0
PreviewTime: -1
Countdown: 0
SampleSet: Normal
StackLeniency: 0.7
Mode: 0
LetterboxInBreaks: 0
WidescreenStoryboard: 0

[Editor]
DistanceSpacing: 0.8
BeatDivisor: 4
GridSize: 16
TimelineZoom: 2.3

[Metadata]
Title:The Rolling
TitleUnicode:The Rolling
Artist:kors k+Camellia
ArtistUnicode:kors k+Camellia
Creator:kirbob
Version:TAG2
Source:
Tags:
BeatmapID:1498865
BeatmapSetID:709002

[Difficulty]
HPDrainRate:3
CircleSize:4.5
OverallDifficulty:7
ApproachRate:9.5
SliderMultiplier:2
SliderTickRate:1

[Events]
//Background and Video events
0,0,"backdrop1.jpg",0,0
//Break Periods
2,23230,32388
//Storyboard Layer 0 (Background)
//Storyboard Layer 1 (Fail)
//Storyboard Layer 2 (Pass)
//Storyboard Layer 3 (Foreground)
//Storyboard Sound Samples

[TimingPoints]
443,352.941176470588,4,1,0,90,1,0
443,-200,4,1,0,90,0,0
2560,-50,4,1,0,90,0,0
2737,-100,4,1,0,90,0,0
3266,-200,4,1,0,90,0,0
5384,-50,4,1,0,90,0,0
5560,-100,4,1,0,90,0,0
6090,-200,4,1,0,90,0,0
8207,-50,4,1,0,90,0,0
8384,-100,4,1,0,90,0,0
8913,-200,4,1,0,90,0,0
11207,-100,4,1,0,90,0,0
11737,-133.333333333333,4,1,0,90,0,0
17384,-100,4,1,0,90,0,0
17737,-50,4,1,0,90,0,0
18090,-100,4,1,0,90,0,0
18442,-50,4,1,0,90,0,0
18795,-100,4,1,0,90,0,0
19148,-50,4,1,0,90,0,0
19501,-100,4,1,0,90,0,0
19854,-50,4,1,0,90,0,0
20207,-111.111111111111,4,1,0,90,0,0
21619,-50,4,1,0,90,0,0
23031,-400,4,1,0,90,0,0
34325,-76.9230769230769,4,1,0,90,0,0

[Colours]
Combo1 : 255,255,255
Combo2 : 90,100,200

[HitObjects]
192,80,443,6,0,P|166:133|179:179,1,100
263,345,1148,2,0,P|289:292|276:246,1,100
352,175,1854,2,0,P|299:149|253:162,1,100
87,246,2559,2,0,P|140:272|186:259,1,100
273,85,2737,6,0,L|271:135,1,50
317,280,2913,1,0,0:0:0:0:
169,169,3090,1,0,0:0:0:0:
372,87,3266,6,0,L|383:190,1,100
328,328,3972,2,0,L|317:225,1,100
234,99,4678,2,0,L|245:202,1,100
190,340,5383,2,0,L|179:237,1,100
73,118,5560,6,0,P|98:100|130:95,2,50
86,282,5913,2,0,L|108:337,1,50
221,62,6090,6,0,L|226:168,1,100
305,349,6795,2,0,L|300:243,1,100
122,78,7501,2,0,L|127:184,1,100
206,365,8206,2,0,L|201:259,1,100
397,322,8384,6,0,L|366:265,1,50
249,186,8560,1,0,0:0:0:0:
441,174,8737,1,0,0:0:0:0:
131,53,8913,6,0,P|154:101|139:156,1,100
264,305,9619,2,0,P|241:257|256:202,1,100
239,53,10325,2,0,P|262:101|247:156,1,100
371,304,11031,2,0,P|348:256|452:260,1,200
186,251,11207,6,0,L|184:315,2,50
112,108,11560,2,0,L|161:86,1,50
251,85,11737,2,0,B|265:110|265:110|248:180,1,75.0000028610231
339,146,12090,2,0,B|325:171|325:171|342:241,1,75.0000028610231
173,175,12442,2,0,B|187:200|187:200|170:270,1,75.0000028610231
261,236,12795,2,0,B|247:261|247:261|264:331,1,75.0000028610231
325,354,13148,2,0,B|339:329|339:329|322:259,1,75.0000028610231
413,293,13501,2,0,B|399:268|399:268|416:198,1,75.0000028610231
247,264,13853,2,0,B|261:239|261:239|244:169,1,75.0000028610231
81,147,14031,6,0,P|88:210|111:231,2,75.0000028610231
335,203,14206,6,0,B|321:178|321:178|338:108,1,75.0000028610231
256,33,14560,2,0,B|195:58|195:58|194:102,1,75.0000028610231
314,170,14913,2,0,B|289:109|289:109|245:108,1,75.0000028610231
171,212,15266,2,0,B|232:187|232:187|233:143,1,75.0000028610231
113,75,15619,2,0,B|138:136|138:136|182:137,1,75.0000028610231
332,139,15972,2,0,B|271:164|271:164|270:208,1,75.0000028610231
390,276,16325,2,0,B|365:215|365:215|321:214,1,75.0000028610231
247,318,16678,2,0,B|308:293|308:293|309:249,1,75.0000028610231
331,49,16854,6,0,L|326:146,2,75.0000028610231
189,181,17031,6,0,B|214:242|214:242|258:243,1,75.0000028610231
373,109,17384,6,0,L|346:224,1,100
431,326,17737,2,0,P|330:253|359:197,1,200
187,91,18090,2,0,L|298:77,1,100
279,272,18442,2,0,B|319:181|232:167|295:62,1,200
443,177,18795,6,0,P|386:222|328:223,1,100
215,128,19148,2,0,B|272:168|325:151|325:151|340:214|413:287,1,200
192,337,19501,2,0,P|226:283|275:264,1,100
255,85,19854,2,0,P|290:195|241:281,1,200
388,112,20207,6,0,P|377:173|345:204,1,100
55,43,20207,5,0,0:0:0:0:
53,102,20295,1,0,0:0:0:0:
68,160,20384,1,0,0:0:0:0:
104,207,20472,1,0,0:0:0:0:
165,307,20560,6,0,P|176:246|208:215,1,100
151,243,20560,5,0,0:0:0:0:
210,246,20648,1,0,0:0:0:0:
268,230,20737,1,0,0:0:0:0:
315,193,20825,1,0,0:0:0:0:
405,228,20913,6,0,P|354:264|310:263,1,100
340,138,20913,5,0,0:0:0:0:
330,78,21001,1,0,0:0:0:0:
279,45,21090,1,0,0:0:0:0:
219,40,21178,1,0,0:0:0:0:
110,208,21266,6,0,P|161:173|205:174,1,100
164,65,21266,5,0,0:0:0:0:
140,120,21354,1,0,0:0:0:0:
144,179,21442,1,0,0:0:0:0:
170,233,21531,1,0,0:0:0:0:
410,330,21619,6,0,B|377:215|368:88|368:88|395:188|284:190,1,400
217,259,21619,5,0,0:0:0:0:
113,252,21972,6,0,P|205:321|154:153,1,400
92,53,22148,6,0,L|113:259,2,200
48,301,22678,2,0,B|163:253|297:295|297:295|393:264|385:167,1,400
244,282,22854,6,0,B|297:295|297:295|393:264|385:167,1,200
256,192,32913,12,0,34324,0:0:0:0:
115,69,34325,6,0,P|129:142|108:209,1,129.999994049073
288,332,34325,6,0,P|269:254|426:226,1,259.999988098145
50,315,34678,5,0,0:0:0:0:
357,136,34854,6,0,L|344:281,1,129.999994049073
73,151,34854,6,0,P|173:131|248:157,1,129.999994049073
199,312,35207,6,0,L|199:228,1,64.9999970245363
342,95,35207,6,0,L|342:179,1,64.9999970245363
97,198,35384,6,0,L|172:157,1,64.9999970245363
444,209,35384,6,0,L|369:250,1,64.9999970245363
149,65,35560,6,0,L|232:94,1,64.9999970245363
391,341,35560,6,0,L|308:312,1,64.9999970245363
351,247,35737,6,0,P|288:301|221:178,1,259.999988098145
251,167,35737,6,0,P|275:88|357:44,1,129.999994049073
390,251,36090,1,0,0:0:0:0:
350,107,36266,6,0,L|264:245,1,129.999994049073
176,246,36266,6,0,P|148:167|172:117,1,129.999994049073
233,344,36619,6,0,L|236:263,1,64.9999970245363
279,40,36619,6,0,L|276:121,1,64.9999970245363
88,254,36795,6,0,L|148:219,1,64.9999970245363
424,130,36795,6,0,L|364:165,1,64.9999970245363
119,82,36972,6,0,L|189:107,1,64.9999970245363
393,302,36972,6,0,L|323:277,1,64.9999970245363
394,180,37148,6,0,P|352:237|323:106,1,259.999988098145
174,88,37148,6,0,P|195:169|166:223,1,129.999994049073
72,77,37501,1,0,0:0:0:0:
315,302,37678,6,0,L|326:151,1,129.999994049073
305,91,37678,6,0,P|330:176|325:229,1,129.999994049073
331,54,38031,6,0,L|335:134,1,64.9999970245363
154,320,38031,6,0,L|150:240,1,64.9999970245363
314,333,38207,6,0,L|328:261,1,64.9999970245363
171,41,38207,6,0,L|157:113,1,64.9999970245363
250,122,38384,6,0,L|241:199,1,64.9999970245363
235,252,38384,6,0,L|244:175,1,64.9999970245363
233,343,38560,6,0,P|293:289|169:189,1,259.999988098145
364,55,38560,6,0,P|378:133|315:175,1,129.999994049073
142,102,38913,1,0,0:0:0:0:
86,305,39090,6,0,L|229:258,1,129.999994049073
418,169,39090,6,0,P|401:256|337:266,1,129.999994049073
406,176,39442,6,0,L|326:168,1,64.9999970245363
106,208,39442,6,0,L|186:216,1,64.9999970245363
373,262,39619,6,0,L|293:265,1,64.9999970245363
139,122,39619,6,0,L|219:119,1,64.9999970245363
480,286,39795,6,0,L|412:326,1,64.9999970245363
32,98,39795,6,0,L|100:58,1,64.9999970245363
290,335,39972,6,0,B|271:254|271:254|294:189|280:117,1,194.999991073609
283,143,40237,6,0,P|191:158|188:266,1,194.999991073609
134,193,40501,6,0,L|196:273,1,64.9999970245363
363,342,40678,6,0,P|331:220|287:166,1,194.999991073609
288,167,40942,6,0,B|253:88|253:88|156:135|161:49,1,194.999991073609
100,94,41207,6,0,L|183:70,1,64.9999970245363
405,105,41384,6,0,P|396:188|257:235,1,194.999991073609
307,243,41648,6,0,B|326:160|274:99|305:42,1,194.999991073609
239,66,41913,6,0,P|304:48|319:31,1,64.9999970245363
85,164,42090,6,0,P|145:211|223:139,1,194.999991073609
222,144,42354,6,0,B|246:223|246:223|215:269|215:269|249:323,1,194.999991073609
308,300,42619,6,0,L|239:319,1,64.9999970245363
468,273,42795,6,0,L|386:241,1,64.9999970245363
44,111,42795,6,0,L|126:143,1,64.9999970245363
346,38,42972,6,0,L|314:120,1,64.9999970245363
166,346,42972,6,0,L|198:264,1,64.9999970245363
472,250,43148,6,0,L|384:247,1,64.9999970245363
40,134,43148,6,0,L|127:136,1,64.9999970245363
276,70,43325,6,0,L|273:157,1,64.9999970245363
236,314,43325,6,0,L|238:226,1,64.9999970245363
468,227,43501,6,0,L|384:255,1,64.9999970245363
44,157,43501,6,0,L|127:128,1,64.9999970245363
222,124,43678,6,0,L|250:207,1,64.9999970245363
290,260,43678,6,0,L|261:176,1,64.9999970245363
457,207,43854,6,0,L|388:262,1,64.9999970245363
55,177,43854,6,0,L|123:121,1,64.9999970245363
191,194,44031,6,0,L|246:262,1,64.9999970245363
321,190,44031,6,0,L|265:121,1,64.9999970245363
256,192,44207,12,0,45619,0:0:0:0:
