osu file format v14

[General]
AudioFilename: audio.mp3
AudioLeadIn: 0
PreviewTime: 213441
Countdown: 0
SampleSet: Normal
StackLeniency: 0.7
Mode: 3
LetterboxInBreaks: 0
EpilepsyWarning: 1
SpecialStyle: 0
WidescreenStoryboard: 1

[Editor]
Bookmarks: 25206,62853,124029,149127,163245,188343,200892,218147,243637,268343,293441,318539,343637,356186,368735
DistanceSpacing: 0.8
BeatDivisor: 4
GridSize: 32
TimelineZoom: 2.199999

[Metadata]
Title:Chain of Pain
TitleUnicode:Chain of Pain
Artist:kors k vs. Nekomata Master+
ArtistUnicode:kors k vs. 猫叉Master+
Creator:shizehao
Version:AlptRiceSZH's Persistent Pain
Source:beatmania IIDX 14 GOLD CS
Tags:video game instrumental EDM electronic dance music bm2dx KONAMI BEMANI Backdrops LC-1790 佐藤直之 Naoyuki Sato 斉藤広祐 korsk Kosuke Saito FULL ON psychedelic trance psytrance RiceSS Alptraum Ricca beatmania IIDX 22 PENDUAL EGMAForever
BeatmapID:3908694
BeatmapSetID:1896592

[Difficulty]
HPDrainRate:8.5
CircleSize:4
OverallDifficulty:7.5
ApproachRate:5
SliderMultiplier:1.4
SliderTickRate:1

[Events]
//Background and Video events
0,0,"bg.jpg",0,0
//Break Periods
//Storyboard Layer 0 (Background)
//Storyboard Layer 1 (Fail)
//Storyboard Layer 2 (Pass)
//Storyboard Layer 3 (Foreground)
//Storyboard Layer 4 (Overlay)
//Storyboard Sound Samples
Sample,80107,0,"fx-yellow.wav",60
Sample,86382,0,"fx-yellow.wav",60
Sample,88735,0,"clap_impact.wav",40
Sample,91872,0,"clap_impact.wav",40
Sample,92656,0,"fx-yellow.wav",60
Sample,95009,0,"clap_impact.wav",40
Sample,98147,0,"clap_impact.wav",40
Sample,98931,0,"fx-yellow.wav",60
Sample,104421,0,"clap_impact.wav",40
Sample,105206,0,"fx-yellow.wav",60
Sample,107558,0,"clap_impact.wav",40
Sample,110696,0,"clap_impact.wav",40
Sample,130304,0,"fx-yellow.wav",60
Sample,136382,0,"fx-yellow.wav",60
Sample,139519,0,"fx-lower_yellow.wav",40
Sample,142656,0,"fx-yellow.wav",60
Sample,294813,0,"fx-lower_yellow.wav",40
Sample,297951,0,"fx-yellow.wav",60
Sample,301088,0,"fx-lower_yellow.wav",40
Sample,304225,0,"fx-yellow.wav",60
Sample,307362,0,"fx-lower_yellow.wav",40
Sample,310500,0,"fx-yellow.wav",60
Sample,310696,0,"fx-yellow.wav",60
Sample,313637,0,"fx-lower_yellow.wav",40
Sample,316774,0,"fx-yellow.wav",60
Sample,325598,0,"clap_impact.wav",40
Sample,329323,0,"fx-yellow.wav",60
Sample,330892,0,"fx-lower_yellow.wav",60
Sample,331872,0,"clap_impact.wav",40
Sample,338147,0,"clap_impact.wav",40
Sample,341872,0,"fx-yellow.wav",60
Sample,343441,0,"fx-lower_yellow.wav",60
Sample,348343,0,"fx-yellow.wav",60
Sample,354617,0,"fx-yellow.wav",60

[TimingPoints]
25206,392.156862745098,4,1,1,40,1,0
218147,-100,4,1,1,40,0,1
293441,-100,4,1,1,40,0,0

[HitObjects]
320,192,25206,128,0,26578:0:0:0:0:
192,192,26578,128,0,27951:0:0:0:0:
64,192,27951,128,0,28147:0:0:0:0:
448,192,28147,128,0,29519:0:0:0:0:
192,192,29519,128,0,29715:0:0:0:0:
320,192,29715,128,0,30107:0:0:0:0:
448,192,30107,128,0,30304:0:0:0:0:
192,192,30304,128,0,30500:0:0:0:0:
64,192,30500,128,0,30892:0:0:0:0:
448,192,30892,128,0,30990:0:0:0:0:
320,192,30990,128,0,31088:0:0:0:0:
192,192,31088,128,0,31480:0:0:0:0:
448,192,31480,128,0,32853:0:0:0:0:
320,192,32853,128,0,34225:0:0:0:0:
448,192,34225,128,0,34421:0:0:0:0:
192,192,34421,128,0,35794:0:0:0:0:
64,192,35794,128,0,35990:0:0:0:0:
192,192,35990,128,0,36382:0:0:0:0:
448,192,36382,128,0,36578:0:0:0:0:
320,192,36578,128,0,36774:0:0:0:0:
64,192,36774,128,0,37166:0:0:0:0:
448,192,37166,128,0,37264:0:0:0:0:
320,192,37264,128,0,37362:0:0:0:0:
192,192,37362,128,0,37460:0:0:0:0:
64,192,37755,128,0,37820:0:0:0:0:
320,192,37951,128,0,38016:0:0:0:0:
448,192,38147,128,0,38212:0:0:0:0:
64,192,38147,128,0,38245:0:0:0:0:
320,192,38343,128,0,38408:0:0:0:0:
192,192,38539,128,0,38604:0:0:0:0:
64,192,38735,128,0,38800:0:0:0:0:
320,192,38866,128,0,38931:0:0:0:0:
448,192,38931,128,0,39062:0:0:0:0:
320,192,38996,128,0,39192:0:0:0:0:
192,192,39062,128,0,39323:0:0:0:0:
64,192,39127,128,0,39192:0:0:0:0:
448,192,39323,128,0,39389:0:0:0:0:
192,192,39519,128,0,39585:0:0:0:0:
320,192,39715,128,0,39781:0:0:0:0:
448,192,39911,128,0,39977:0:0:0:0:
192,192,40451,128,0,40549:0:0:0:0:
320,192,40500,128,0,40647:0:0:0:0:
448,192,40549,128,0,40745:0:0:0:0:
64,192,40696,128,0,40794:0:0:0:0:
192,192,40745,128,0,40892:0:0:0:0:
320,192,40794,128,0,40990:0:0:0:0:
448,192,41088,128,0,41153:0:0:0:0:
192,192,41284,128,0,41349:0:0:0:0:
320,192,41480,128,0,41545:0:0:0:0:
448,192,41872,128,0,41938:0:0:0:0:
192,192,42068,128,0,42134:0:0:0:0:
320,192,42264,128,0,42330:0:0:0:0:
64,192,42656,128,0,42722:0:0:0:0:
320,192,42853,128,0,42918:0:0:0:0:
192,192,43049,128,0,43114:0:0:0:0:
64,192,43441,128,0,43506:0:0:0:0:
320,192,43637,128,0,43702:0:0:0:0:
192,192,43833,128,0,43898:0:0:0:0:
448,192,44421,128,0,44487:0:0:0:0:
192,192,44617,128,0,44683:0:0:0:0:
320,192,44911,128,0,45009:0:0:0:0:
192,192,44960,128,0,45107:0:0:0:0:
64,192,45009,128,0,45206:0:0:0:0:
448,192,45075,1,0,0:0:0:0:
320,192,45140,1,0,0:0:0:0:
192,192,45206,1,0,0:0:0:0:
320,192,45271,1,0,0:0:0:0:
64,192,45336,1,0,0:0:0:0:
448,192,45402,128,0,45467:0:0:0:0:
192,192,45467,1,0,0:0:0:0:
448,192,45532,1,0,0:0:0:0:
64,192,45598,128,0,45663:0:0:0:0:
320,192,45663,1,0,0:0:0:0:
64,192,45728,1,0,0:0:0:0:
320,192,45794,128,0,45859:0:0:0:0:
192,192,45859,1,0,0:0:0:0:
320,192,45924,1,0,0:0:0:0:
64,192,45990,128,0,46055:0:0:0:0:
448,192,46055,1,0,0:0:0:0:
64,192,46121,1,0,0:0:0:0:
448,192,46186,1,0,0:0:0:0:
192,192,46251,1,0,0:0:0:0:
448,192,46317,1,0,0:0:0:0:
64,192,46382,1,0,0:0:0:0:
320,192,46447,1,0,0:0:0:0:
64,192,46513,1,0,0:0:0:0:
320,192,46578,1,0,0:0:0:0:
192,192,46643,1,0,0:0:0:0:
320,192,46709,1,0,0:0:0:0:
64,192,46774,1,0,0:0:0:0:
448,192,46839,1,0,0:0:0:0:
64,192,46905,1,0,0:0:0:0:
320,192,46970,1,0,0:0:0:0:
192,192,47036,1,0,0:0:0:0:
448,192,47101,1,0,0:0:0:0:
64,192,47166,1,0,0:0:0:0:
320,192,47232,1,0,0:0:0:0:
192,192,47297,1,0,0:0:0:0:
448,192,47362,128,0,47428:0:0:0:0:
64,192,47428,1,0,0:0:0:0:
448,192,47493,1,0,0:0:0:0:
192,192,47558,128,0,47624:0:0:0:0:
320,192,47624,1,0,0:0:0:0:
192,192,47689,1,0,0:0:0:0:
320,192,47755,128,0,47820:0:0:0:0:
64,192,47820,1,0,0:0:0:0:
320,192,47885,1,0,0:0:0:0:
192,192,47951,1,0,0:0:0:0:
448,192,48016,1,0,0:0:0:0:
192,192,48081,1,0,0:0:0:0:
448,192,48147,128,0,48212:0:0:0:0:
64,192,48212,1,0,0:0:0:0:
448,192,48277,1,0,0:0:0:0:
192,192,48343,128,0,48408:0:0:0:0:
320,192,48408,1,0,0:0:0:0:
192,192,48473,1,0,0:0:0:0:
320,192,48539,128,0,48604:0:0:0:0:
64,192,48604,1,0,0:0:0:0:
320,192,48670,1,0,0:0:0:0:
192,192,48735,1,0,0:0:0:0:
448,192,48800,1,0,0:0:0:0:
64,192,48866,1,0,0:0:0:0:
320,192,48931,128,0,48996:0:0:0:0:
192,192,48996,1,0,0:0:0:0:
320,192,49062,1,0,0:0:0:0:
64,192,49127,128,0,49192:0:0:0:0:
448,192,49192,1,0,0:0:0:0:
64,192,49258,1,0,0:0:0:0:
320,192,49323,128,0,49389:0:0:0:0:
192,192,49389,1,0,0:0:0:0:
320,192,49454,1,0,0:0:0:0:
64,192,49519,1,0,0:0:0:0:
448,192,49585,1,0,0:0:0:0:
192,192,49650,1,0,0:0:0:0:
320,192,49715,128,0,49781:0:0:0:0:
192,192,49781,1,0,0:0:0:0:
320,192,49846,1,0,0:0:0:0:
64,192,49911,128,0,49977:0:0:0:0:
448,192,49977,1,0,0:0:0:0:
64,192,50042,1,0,0:0:0:0:
320,192,50107,128,0,50173:0:0:0:0:
192,192,50173,1,0,0:0:0:0:
320,192,50238,1,0,0:0:0:0:
64,192,50304,1,0,0:0:0:0:
448,192,50369,1,0,0:0:0:0:
192,192,50434,1,0,0:0:0:0:
320,192,50500,1,0,0:0:0:0:
64,192,50565,1,0,0:0:0:0:
448,192,50630,1,0,0:0:0:0:
64,192,50696,128,0,50761:0:0:0:0:
320,192,50761,1,0,0:0:0:0:
64,192,50826,1,0,0:0:0:0:
448,192,50892,128,0,50957:0:0:0:0:
192,192,50957,1,0,0:0:0:0:
448,192,51022,1,0,0:0:0:0:
64,192,51088,128,0,51153:0:0:0:0:
320,192,51153,1,0,0:0:0:0:
64,192,51219,1,0,0:0:0:0:
448,192,51284,128,0,51349:0:0:0:0:
192,192,51349,1,0,0:0:0:0:
448,192,51415,1,0,0:0:0:0:
64,192,51480,1,0,0:0:0:0:
448,192,51545,1,0,0:0:0:0:
192,192,51611,1,0,0:0:0:0:
320,192,51676,128,0,51741:0:0:0:0:
64,192,51741,1,0,0:0:0:0:
320,192,51807,1,0,0:0:0:0:
192,192,51872,128,0,51938:0:0:0:0:
448,192,51938,1,0,0:0:0:0:
192,192,52003,1,0,0:0:0:0:
320,192,52068,128,0,52134:0:0:0:0:
64,192,52134,1,0,0:0:0:0:
320,192,52199,1,0,0:0:0:0:
192,192,52264,128,0,52330:0:0:0:0:
448,192,52330,1,0,0:0:0:0:
192,192,52395,1,0,0:0:0:0:
320,192,52460,128,0,52526:0:0:0:0:
64,192,52526,1,0,0:0:0:0:
320,192,52591,1,0,0:0:0:0:
192,192,52656,1,0,0:0:0:0:
448,192,52722,1,0,0:0:0:0:
64,192,52787,1,0,0:0:0:0:
320,192,52853,1,0,0:0:0:0:
192,192,52918,1,0,0:0:0:0:
448,192,52983,1,0,0:0:0:0:
64,192,53049,1,0,0:0:0:0:
320,192,53114,1,0,0:0:0:0:
192,192,53179,1,0,0:0:0:0:
320,192,53245,1,0,0:0:0:0:
64,192,53310,1,0,0:0:0:0:
448,192,53375,1,0,0:0:0:0:
192,192,53441,1,0,0:0:0:0:
320,192,53506,1,0,0:0:0:0:
64,192,53572,1,0,0:0:0:0:
448,192,53637,128,0,53702:0:0:0:0:
64,192,53702,1,0,0:0:0:0:
448,192,53768,1,0,0:0:0:0:
192,192,53833,128,0,53898:0:0:0:0:
320,192,53898,1,0,0:0:0:0:
192,192,53964,1,0,0:0:0:0:
320,192,54029,128,0,54094:0:0:0:0:
64,192,54094,1,0,0:0:0:0:
320,192,54160,1,0,0:0:0:0:
192,192,54225,1,0,0:0:0:0:
448,192,54290,1,0,0:0:0:0:
192,192,54356,1,0,0:0:0:0:
448,192,54421,128,0,54487:0:0:0:0:
64,192,54487,1,0,0:0:0:0:
448,192,54552,1,0,0:0:0:0:
192,192,54617,128,0,54683:0:0:0:0:
320,192,54683,1,0,0:0:0:0:
192,192,54748,1,0,0:0:0:0:
320,192,54813,128,0,54879:0:0:0:0:
64,192,54879,1,0,0:0:0:0:
320,192,54944,1,0,0:0:0:0:
192,192,55009,1,0,0:0:0:0:
448,192,55075,1,0,0:0:0:0:
64,192,55140,1,0,0:0:0:0:
320,192,55206,128,0,55271:0:0:0:0:
192,192,55271,1,0,0:0:0:0:
320,192,55336,1,0,0:0:0:0:
64,192,55402,128,0,55467:0:0:0:0:
448,192,55467,1,0,0:0:0:0:
64,192,55532,1,0,0:0:0:0:
320,192,55598,128,0,55663:0:0:0:0:
192,192,55663,1,0,0:0:0:0:
320,192,55728,1,0,0:0:0:0:
64,192,55794,1,0,0:0:0:0:
448,192,55859,1,0,0:0:0:0:
192,192,55924,1,0,0:0:0:0:
320,192,55990,128,0,56055:0:0:0:0:
192,192,56055,1,0,0:0:0:0:
320,192,56121,1,0,0:0:0:0:
64,192,56186,128,0,56251:0:0:0:0:
448,192,56251,1,0,0:0:0:0:
64,192,56317,1,0,0:0:0:0:
320,192,56382,128,0,56447:0:0:0:0:
192,192,56447,1,0,0:0:0:0:
320,192,56513,1,0,0:0:0:0:
64,192,56578,1,0,0:0:0:0:
448,192,56643,1,0,0:0:0:0:
192,192,56709,1,0,0:0:0:0:
320,192,56774,1,0,0:0:0:0:
64,192,56839,1,0,0:0:0:0:
448,192,56905,1,0,0:0:0:0:
64,192,56970,128,0,57036:0:0:0:0:
320,192,57036,1,0,0:0:0:0:
64,192,57101,1,0,0:0:0:0:
448,192,57166,128,0,57232:0:0:0:0:
192,192,57232,1,0,0:0:0:0:
448,192,57297,1,0,0:0:0:0:
192,192,57362,1,0,0:0:0:0:
448,192,57428,1,0,0:0:0:0:
192,192,57493,1,0,0:0:0:0:
320,192,57558,128,0,57624:0:0:0:0:
64,192,57624,1,0,0:0:0:0:
320,192,57689,1,0,0:0:0:0:
64,192,57755,1,0,0:0:0:0:
320,192,57820,1,0,0:0:0:0:
64,192,57885,1,0,0:0:0:0:
448,192,57951,128,0,58016:0:0:0:0:
192,192,58016,1,0,0:0:0:0:
448,192,58081,1,0,0:0:0:0:
64,192,58147,128,0,58212:0:0:0:0:
320,192,58212,1,0,0:0:0:0:
192,192,58277,1,0,0:0:0:0:
64,192,58343,1,0,0:0:0:0:
320,192,58408,1,0,0:0:0:0:
192,192,58473,1,0,0:0:0:0:
64,192,58539,1,0,0:0:0:0:
320,192,58604,1,0,0:0:0:0:
192,192,58670,1,0,0:0:0:0:
64,192,58735,1,0,0:0:0:0:
320,192,58800,1,0,0:0:0:0:
192,192,58866,1,0,0:0:0:0:
64,192,58931,1,0,0:0:0:0:
320,192,58996,1,0,0:0:0:0:
192,192,59062,1,0,0:0:0:0:
64,192,59127,1,0,0:0:0:0:
320,192,59192,1,0,0:0:0:0:
192,192,59258,1,0,0:0:0:0:
64,192,59323,1,0,0:0:0:0:
320,192,59389,1,0,0:0:0:0:
192,192,59454,1,0,0:0:0:0:
64,192,59519,1,0,0:0:0:0:
320,192,59585,1,0,0:0:0:0:
192,192,59650,1,0,0:0:0:0:
64,192,59715,1,0,0:0:0:0:
320,192,59781,1,0,0:0:0:0:
64,192,59846,1,0,0:0:0:0:
448,192,59911,128,0,59977:0:0:0:0:
192,192,59977,1,0,0:0:0:0:
448,192,60042,1,0,0:0:0:0:
64,192,60107,128,0,60173:0:0:0:0:
320,192,60173,1,0,0:0:0:0:
64,192,60238,1,0,0:0:0:0:
448,192,60304,128,0,60369:0:0:0:0:
192,192,60369,1,0,0:0:0:0:
320,192,60434,1,0,0:0:0:0:
448,192,60500,1,0,0:0:0:0:
192,192,60565,1,0,0:0:0:0:
320,192,60630,1,0,0:0:0:0:
448,192,60696,1,0,0:0:0:0:
192,192,60761,1,0,0:0:0:0:
320,192,60826,1,0,0:0:0:0:
448,192,60892,1,0,0:0:0:0:
192,192,60957,1,0,0:0:0:0:
320,192,61022,1,0,0:0:0:0:
448,192,61088,1,0,0:0:0:0:
192,192,61153,1,0,0:0:0:0:
320,192,61219,1,0,0:0:0:0:
448,192,61284,1,0,0:0:0:0:
192,192,61284,1,0,0:0:0:0:
64,192,61284,1,2,0:0:0:0:
448,192,61480,1,0,0:0:0:0:
320,192,61480,1,0,0:0:0:0:
64,192,61480,1,0,0:0:0:0:
64,192,61676,1,0,0:0:0:0:
192,192,61725,1,0,0:0:0:0:
448,192,61774,1,0,0:0:0:0:
320,192,61774,1,0,0:0:0:0:
192,192,61872,1,0,0:0:0:0:
64,192,61872,1,0,0:0:0:0:
448,192,61970,1,0,0:0:0:0:
192,192,61970,1,0,0:0:0:0:
64,192,61970,1,0,0:0:0:0:
320,192,62068,1,0,0:0:0:0:
448,192,62068,1,0,0:0:0:0:
192,192,62166,1,0,0:0:0:0:
64,192,62166,1,0,0:0:0:0:
320,192,62264,1,0,0:0:0:0:
192,192,62313,1,0,0:0:0:0:
64,192,62362,1,0,0:0:0:0:
448,192,62411,1,0,0:0:0:0:
320,192,62460,1,0,0:0:0:0:
64,192,62558,1,0,0:0:0:0:
192,192,62607,1,0,0:0:0:0:
448,192,62656,1,0,0:0:0:0:
320,192,62706,1,0,0:0:0:0:
192,192,62755,1,0,0:0:0:0:
64,192,62804,1,0,0:0:0:0:
448,192,62853,1,0,0:0:0:0:
320,192,62853,1,4,0:0:0:0:
192,192,62853,1,2,0:0:0:0:
448,192,62951,1,0,0:0:0:0:
192,192,63049,128,0,63245:0:0:0:0:
320,192,63147,1,0,0:0:0:0:
448,192,63245,1,8,0:0:0:0:
64,192,63245,1,2,0:0:0:0:
448,192,63343,1,0,0:0:0:0:
320,192,63441,1,0,0:0:0:0:
192,192,63539,1,0,0:0:0:0:
320,192,63637,1,0,0:0:0:0:
64,192,63637,1,2,0:0:0:0:
64,192,63735,1,0,0:0:0:0:
448,192,63833,1,0,0:0:0:0:
320,192,63931,1,0,0:0:0:0:
448,192,64029,1,0,0:0:0:0:
192,192,64029,1,2,0:0:0:0:
64,192,64029,1,8,0:0:0:0:
192,192,64127,1,0,0:0:0:0:
320,192,64225,1,0,0:0:0:0:
448,192,64323,1,0,0:0:0:0:
320,192,64421,1,0,0:0:0:0:
64,192,64421,1,2,0:0:0:0:
320,192,64519,1,0,0:0:0:0:
64,192,64617,128,0,64813:0:0:0:0:
192,192,64715,1,0,0:0:0:0:
448,192,64813,1,0,0:0:0:0:
320,192,64813,1,2,0:0:0:0:
192,192,64813,1,8,0:0:0:0:
448,192,64911,1,0,0:0:0:0:
320,192,65009,1,0,0:0:0:0:
192,192,65107,1,0,0:0:0:0:
320,192,65206,1,0,0:0:0:0:
64,192,65206,1,2,0:0:0:0:
64,192,65304,1,0,0:0:0:0:
192,192,65402,1,0,0:0:0:0:
448,192,65500,1,0,0:0:0:0:
320,192,65598,1,0,0:0:0:0:
192,192,65598,1,2,0:0:0:0:
64,192,65598,1,8,0:0:0:0:
192,192,65696,1,0,0:0:0:0:
320,192,65794,1,0,0:0:0:0:
448,192,65892,1,0,0:0:0:0:
320,192,65990,1,0,0:0:0:0:
64,192,65990,1,2,0:0:0:0:
320,192,66088,1,0,0:0:0:0:
448,192,66186,128,0,66382:0:0:0:0:
192,192,66284,1,0,0:0:0:0:
320,192,66382,1,0,0:0:0:0:
192,192,66382,1,2,0:0:0:0:
64,192,66382,1,8,0:0:0:0:
64,192,66480,1,0,0:0:0:0:
320,192,66578,1,0,0:0:0:0:
192,192,66676,1,0,0:0:0:0:
448,192,66774,1,0,0:0:0:0:
320,192,66774,1,2,0:0:0:0:
320,192,66872,1,0,0:0:0:0:
192,192,66970,1,0,0:0:0:0:
64,192,67068,1,0,0:0:0:0:
448,192,67166,1,0,0:0:0:0:
320,192,67166,1,2,0:0:0:0:
192,192,67166,1,8,0:0:0:0:
192,192,67264,1,0,0:0:0:0:
320,192,67362,1,0,0:0:0:0:
448,192,67460,1,0,0:0:0:0:
320,192,67558,1,0,0:0:0:0:
64,192,67558,1,2,0:0:0:0:
64,192,67656,1,0,0:0:0:0:
320,192,67755,128,0,67951:0:0:0:0:
192,192,67853,1,0,0:0:0:0:
448,192,67951,1,0,0:0:0:0:
192,192,67951,1,2,0:0:0:0:
64,192,67951,1,8,0:0:0:0:
448,192,68049,1,0,0:0:0:0:
192,192,68147,1,0,0:0:0:0:
64,192,68245,1,0,0:0:0:0:
448,192,68343,1,0,0:0:0:0:
192,192,68343,1,2,0:0:0:0:
192,192,68441,1,0,0:0:0:0:
448,192,68539,1,0,0:0:0:0:
192,192,68637,1,0,0:0:0:0:
448,192,68735,1,0,0:0:0:0:
320,192,68735,1,2,0:0:0:0:
64,192,68735,128,8,69127:0:0:0:0:
320,192,68833,1,0,0:0:0:0:
192,192,68931,1,0,0:0:0:0:
448,192,69029,1,0,0:0:0:0:
320,192,69127,1,2,0:0:0:0:
320,192,69225,1,0,0:0:0:0:
192,192,69323,128,0,69519:0:0:0:0:
448,192,69421,1,0,0:0:0:0:
448,192,69519,1,0,0:0:0:0:
320,192,69519,1,2,0:0:0:0:
64,192,69519,1,8,0:0:0:0:
64,192,69617,1,0,0:0:0:0:
320,192,69715,1,0,0:0:0:0:
192,192,69813,1,0,0:0:0:0:
320,192,69911,1,0,0:0:0:0:
64,192,69911,1,2,0:0:0:0:
64,192,70009,1,0,0:0:0:0:
448,192,70107,1,0,0:0:0:0:
192,192,70206,1,0,0:0:0:0:
448,192,70304,1,0,0:0:0:0:
320,192,70304,1,2,0:0:0:0:
64,192,70304,1,8,0:0:0:0:
448,192,70402,1,0,0:0:0:0:
192,192,70500,1,0,0:0:0:0:
448,192,70598,1,0,0:0:0:0:
320,192,70696,1,0,0:0:0:0:
64,192,70696,1,2,0:0:0:0:
320,192,70794,1,0,0:0:0:0:
64,192,70892,128,0,71088:0:0:0:0:
192,192,70990,1,0,0:0:0:0:
448,192,71088,1,0,0:0:0:0:
320,192,71088,1,2,0:0:0:0:
192,192,71088,1,8,0:0:0:0:
448,192,71186,1,0,0:0:0:0:
320,192,71284,1,0,0:0:0:0:
192,192,71382,1,0,0:0:0:0:
320,192,71480,1,0,0:0:0:0:
64,192,71480,1,2,0:0:0:0:
64,192,71578,1,0,0:0:0:0:
192,192,71676,1,0,0:0:0:0:
448,192,71774,1,0,0:0:0:0:
320,192,71872,1,0,0:0:0:0:
192,192,71872,1,2,0:0:0:0:
64,192,71872,1,8,0:0:0:0:
192,192,71970,1,0,0:0:0:0:
320,192,72068,1,0,0:0:0:0:
448,192,72166,1,0,0:0:0:0:
320,192,72264,1,0,0:0:0:0:
64,192,72264,1,2,0:0:0:0:
320,192,72362,1,0,0:0:0:0:
448,192,72460,128,0,72656:0:0:0:0:
192,192,72558,1,0,0:0:0:0:
320,192,72656,1,0,0:0:0:0:
192,192,72656,1,2,0:0:0:0:
64,192,72656,1,8,0:0:0:0:
64,192,72755,1,0,0:0:0:0:
320,192,72853,1,0,0:0:0:0:
192,192,72951,1,0,0:0:0:0:
448,192,73049,1,0,0:0:0:0:
320,192,73049,1,2,0:0:0:0:
320,192,73147,1,0,0:0:0:0:
192,192,73245,1,0,0:0:0:0:
64,192,73343,1,0,0:0:0:0:
448,192,73441,1,0,0:0:0:0:
320,192,73441,1,2,0:0:0:0:
192,192,73441,1,8,0:0:0:0:
192,192,73539,1,0,0:0:0:0:
320,192,73637,1,0,0:0:0:0:
448,192,73735,1,0,0:0:0:0:
320,192,73833,1,0,0:0:0:0:
64,192,73833,1,2,0:0:0:0:
64,192,73931,1,0,0:0:0:0:
448,192,74029,128,0,74225:0:0:0:0:
192,192,74127,1,0,0:0:0:0:
320,192,74225,1,0,0:0:0:0:
192,192,74225,1,2,0:0:0:0:
64,192,74225,1,8,0:0:0:0:
64,192,74323,1,0,0:0:0:0:
320,192,74421,1,0,0:0:0:0:
192,192,74519,1,0,0:0:0:0:
448,192,74617,1,0,0:0:0:0:
320,192,74617,1,2,0:0:0:0:
448,192,75009,1,0,0:0:0:0:
192,192,75009,1,2,0:0:0:0:
64,192,75009,128,8,75402:0:0:0:0:
320,192,75206,1,0,0:0:0:0:
192,192,75304,1,0,0:0:0:0:
448,192,75402,1,0,0:0:0:0:
320,192,75402,1,4,0:0:0:0:
192,192,75402,1,2,0:0:0:0:
448,192,75500,1,0,0:0:0:0:
192,192,75598,128,0,75794:0:0:0:0:
64,192,75598,1,0,0:0:0:40:hithat.wav
320,192,75696,1,0,0:0:0:0:
448,192,75794,1,0,0:0:0:0:
320,192,75794,1,8,0:0:0:0:
64,192,75794,1,2,0:0:0:0:
448,192,75892,1,0,0:0:0:0:
320,192,75990,1,0,0:0:0:0:
64,192,75990,1,0,0:0:0:40:hithat.wav
192,192,76088,1,0,0:0:0:0:
320,192,76186,1,0,0:0:0:0:
64,192,76186,1,2,0:0:0:0:
64,192,76284,1,0,0:0:0:0:
448,192,76382,1,0,0:0:0:0:
192,192,76382,1,0,0:0:0:40:hithat.wav
320,192,76480,1,0,0:0:0:0:
448,192,76578,1,0,0:0:0:40:fx-lower_yellow.wav
192,192,76578,1,2,0:0:0:0:
64,192,76578,1,8,0:0:0:0:
192,192,76676,1,0,0:0:0:0:
320,192,76774,1,0,0:0:0:40:fx-lower_yellow.wav
64,192,76774,1,0,0:0:0:40:hithat.wav
448,192,76872,1,0,0:0:0:0:
320,192,76970,1,0,0:0:0:0:
64,192,76970,1,2,0:0:0:0:
320,192,77068,1,0,0:0:0:0:
448,192,77166,1,0,0:0:0:0:
192,192,77166,128,0,77362:0:0:0:40:hithat.wav
64,192,77264,1,0,0:0:0:0:
448,192,77362,1,0,0:0:0:0:
320,192,77362,1,2,0:0:0:0:
64,192,77362,1,8,0:0:0:0:
448,192,77460,1,0,0:0:0:0:
320,192,77558,1,0,0:0:0:0:
64,192,77558,1,0,0:0:0:40:hithat.wav
192,192,77656,1,0,0:0:0:0:
320,192,77755,1,0,0:0:0:0:
64,192,77755,1,2,0:0:0:0:
64,192,77853,1,0,0:0:0:0:
320,192,77951,1,0,0:0:0:0:
192,192,77951,1,0,0:0:0:40:hithat.wav
448,192,78049,1,0,0:0:0:0:
320,192,78147,1,0,0:0:0:0:
192,192,78147,1,2,0:0:0:0:
64,192,78147,1,8,0:0:0:0:
192,192,78245,1,0,0:0:0:0:
448,192,78343,1,0,0:0:0:0:
64,192,78343,1,0,0:0:0:40:hithat.wav
192,192,78441,1,0,0:0:0:0:
320,192,78539,1,0,0:0:0:0:
64,192,78539,1,2,0:0:0:0:
320,192,78637,1,0,0:0:0:0:
448,192,78735,128,0,78931:0:0:0:0:
64,192,78735,1,0,0:0:0:40:hithat.wav
192,192,78833,1,0,0:0:0:0:
320,192,78931,1,0,0:0:0:0:
192,192,78931,1,2,0:0:0:0:
64,192,78931,1,8,0:0:0:0:
64,192,79029,1,0,0:0:0:0:
448,192,79127,1,0,0:0:0:0:
192,192,79127,1,0,0:0:0:40:hithat.wav
320,192,79225,1,0,0:0:0:0:
448,192,79323,1,0,0:0:0:60:fx-lower_yellow.wav
64,192,79323,1,2,0:0:0:0:
448,192,79421,1,0,0:0:0:0:
320,192,79519,1,0,0:0:0:0:
192,192,79519,1,0,0:0:0:40:hithat.wav
64,192,79617,1,0,0:0:0:0:
448,192,79715,1,0,0:0:0:60:fx-lower_yellow.wav
320,192,79715,1,8,0:0:0:0:
192,192,79715,1,2,0:0:0:0:
192,192,79813,1,0,0:0:0:0:
320,192,79911,1,0,0:0:0:60:fx-yellow.wav
64,192,79911,1,0,0:0:0:40:hithat.wav
448,192,80009,1,0,0:0:0:0:
192,192,80009,1,0,0:0:0:60:fx-yellow.wav
320,192,80107,1,2,0:0:0:0:
448,192,80132,1,0,0:0:0:0:
64,192,80206,1,0,0:0:0:60:fx-yellow.wav
192,192,80230,1,0,0:0:0:0:
448,192,80304,1,0,0:0:0:0:
64,192,80304,128,0,80500:0:0:0:40:hithat.wav
192,192,80402,1,0,0:0:0:0:
448,192,80500,1,0,0:0:0:0:
320,192,80500,1,2,0:0:0:0:
192,192,80500,1,8,0:0:0:0:
448,192,80598,1,0,0:0:0:0:
320,192,80696,1,0,0:0:0:0:
192,192,80696,1,0,0:0:0:40:hithat.wav
64,192,80794,1,0,0:0:0:0:
448,192,80892,1,0,0:0:0:0:
192,192,80892,1,2,0:0:0:0:
192,192,80990,1,0,0:0:0:0:
448,192,81088,1,0,0:0:0:0:
320,192,81088,1,0,0:0:0:40:hithat.wav
192,192,81186,1,0,0:0:0:0:
448,192,81284,1,0,0:0:0:0:
320,192,81284,1,2,0:0:0:0:
64,192,81284,128,8,81676:0:0:0:0:
320,192,81382,1,0,0:0:0:0:
448,192,81480,1,0,0:0:0:0:
192,192,81480,1,0,0:0:0:40:hithat.wav
320,192,81578,1,0,0:0:0:0:
448,192,81676,1,0,0:0:0:0:
192,192,81676,1,2,0:0:0:0:
448,192,81774,1,0,0:0:0:0:
192,192,81872,128,0,82068:0:0:0:0:
64,192,81872,1,0,0:0:0:40:hithat.wav
320,192,81970,1,0,0:0:0:0:
448,192,82068,1,0,0:0:0:0:
320,192,82068,1,8,0:0:0:0:
64,192,82068,1,2,0:0:0:0:
448,192,82166,1,0,0:0:0:0:
320,192,82264,1,0,0:0:0:0:
64,192,82264,1,0,0:0:0:40:hithat.wav
192,192,82362,1,0,0:0:0:0:
320,192,82460,1,0,0:0:0:0:
64,192,82460,1,2,0:0:0:0:
64,192,82558,1,0,0:0:0:0:
448,192,82656,1,0,0:0:0:0:
320,192,82656,1,0,0:0:0:40:hithat.wav
192,192,82755,1,0,0:0:0:0:
448,192,82853,1,0,0:0:0:40:fx-lower_yellow.wav
320,192,82853,1,2,0:0:0:0:
64,192,82853,1,8,0:0:0:0:
64,192,82951,1,0,0:0:0:0:
320,192,83049,1,0,0:0:0:40:fx-lower_yellow.wav
192,192,83049,1,0,0:0:0:40:hithat.wav
448,192,83147,1,0,0:0:0:0:
320,192,83245,1,0,0:0:0:0:
64,192,83245,1,2,0:0:0:0:
320,192,83343,1,0,0:0:0:0:
448,192,83441,1,0,0:0:0:0:
64,192,83441,128,0,83637:0:0:0:40:hithat.wav
192,192,83539,1,0,0:0:0:0:
448,192,83637,1,0,0:0:0:0:
320,192,83637,1,2,0:0:0:0:
192,192,83637,1,8,0:0:0:0:
448,192,83735,1,0,0:0:0:0:
320,192,83833,1,0,0:0:0:0:
64,192,83833,1,0,0:0:0:40:hithat.wav
192,192,83931,1,0,0:0:0:0:
320,192,84029,1,0,0:0:0:0:
64,192,84029,1,2,0:0:0:0:
64,192,84127,1,0,0:0:0:0:
320,192,84225,1,0,0:0:0:0:
192,192,84225,1,0,0:0:0:40:hithat.wav
448,192,84323,1,0,0:0:0:0:
320,192,84421,1,0,0:0:0:0:
192,192,84421,1,2,0:0:0:0:
64,192,84421,1,8,0:0:0:0:
192,192,84519,1,0,0:0:0:0:
320,192,84617,1,0,0:0:0:0:
64,192,84617,1,0,0:0:0:40:hithat.wav
448,192,84715,1,0,0:0:0:0:
320,192,84813,1,0,0:0:0:0:
192,192,84813,1,2,0:0:0:0:
320,192,84911,1,0,0:0:0:0:
448,192,85009,128,0,85206:0:0:0:0:
64,192,85009,1,0,0:0:0:40:hithat.wav
192,192,85107,1,0,0:0:0:0:
320,192,85206,1,0,0:0:0:0:
192,192,85206,1,2,0:0:0:0:
64,192,85206,1,8,0:0:0:0:
64,192,85304,1,0,0:0:0:0:
448,192,85402,1,0,0:0:0:0:
320,192,85402,1,0,0:0:0:40:hithat.wav
192,192,85500,1,0,0:0:0:0:
320,192,85598,1,0,0:0:0:60:fx-lower_yellow.wav
64,192,85598,1,2,0:0:0:0:
320,192,85696,1,0,0:0:0:0:
448,192,85794,1,0,0:0:0:0:
192,192,85794,1,0,0:0:0:40:hithat.wav
64,192,85892,1,0,0:0:0:0:
448,192,85990,1,0,0:0:0:60:fx-lower_yellow.wav
320,192,85990,1,8,0:0:0:0:
192,192,85990,1,2,0:0:0:0:
448,192,86088,1,0,0:0:0:0:
320,192,86186,1,0,0:0:0:60:fx-yellow.wav
64,192,86186,1,0,0:0:0:40:hithat.wav
448,192,86284,1,0,0:0:0:0:
192,192,86284,1,0,0:0:0:60:fx-yellow.wav
448,192,86382,1,2,0:0:0:0:
320,192,86406,1,0,0:0:0:0:
64,192,86480,1,0,0:0:0:60:fx-yellow.wav
192,192,86505,1,0,0:0:0:0:
448,192,86578,128,0,86774:0:0:0:0:
320,192,86578,1,0,0:0:0:40:hithat.wav
192,192,86676,1,0,0:0:0:0:
320,192,86774,1,0,0:0:0:0:
192,192,86774,1,2,0:0:0:0:
64,192,86774,1,8,0:0:0:0:
64,192,86872,1,0,0:0:0:0:
320,192,86970,1,0,0:0:0:0:
192,192,86970,1,0,0:0:0:40:hithat.wav
64,192,87068,1,0,0:0:0:0:
448,192,87166,1,0,0:0:0:0:
192,192,87166,1,2,0:0:0:0:
448,192,87264,1,0,0:0:0:0:
192,192,87362,1,0,0:0:0:0:
64,192,87362,1,0,0:0:0:40:hithat.wav
320,192,87460,1,0,0:0:0:0:
448,192,87558,128,2,87951:0:0:0:0:
192,192,87558,1,8,0:0:0:0:
192,192,87656,1,0,0:0:0:0:
320,192,87755,1,0,0:0:0:0:
64,192,87755,1,0,0:0:0:40:hithat.wav
192,192,87853,1,0,0:0:0:0:
320,192,87951,1,0,0:0:0:0:
192,192,87951,1,4,0:0:0:0:
64,192,87951,1,2,0:0:0:0:
448,192,88049,1,0,0:0:0:0:
192,192,88147,128,0,88343:0:0:0:0:
64,192,88147,1,0,0:0:0:40:hithat.wav
320,192,88245,1,0,0:0:0:0:
448,192,88343,1,0,0:0:0:0:
320,192,88343,1,2,0:0:0:0:
64,192,88343,1,8,0:0:0:0:
448,192,88441,1,0,0:0:0:0:
320,192,88539,1,0,0:0:0:0:
64,192,88539,1,0,0:0:0:40:hithat.wav
192,192,88637,1,0,0:0:0:40:hithat.wav
448,192,88735,1,0,0:0:0:60:fx-lower_yellow.wav
320,192,88735,1,2,0:0:0:0:
192,192,88800,1,0,0:0:0:0:
64,192,88866,1,0,0:0:0:0:
448,192,88931,1,0,0:0:0:0:
192,192,88931,1,0,0:0:0:40:hithat.wav
320,192,88996,1,0,0:0:0:0:
64,192,89062,1,0,0:0:0:0:
448,192,89127,1,0,0:0:0:60:fx-lower_yellow.wav
192,192,89127,1,10,0:0:0:0:
320,192,89192,1,0,0:0:0:0:
64,192,89258,1,0,0:0:0:0:
320,192,89323,1,0,0:0:0:40:fx-lower_yellow.wav
192,192,89323,1,0,0:0:0:40:hithat.wav
448,192,89421,1,0,0:0:0:0:
320,192,89519,1,0,0:0:0:0:
64,192,89519,1,2,0:0:0:0:
320,192,89617,1,0,0:0:0:0:
448,192,89715,1,0,0:0:0:0:
64,192,89715,128,0,89911:0:0:0:40:hithat.wav
192,192,89813,1,0,0:0:0:0:
448,192,89911,1,0,0:0:0:0:
320,192,89911,1,2,0:0:0:0:
192,192,89911,1,8,0:0:0:0:
448,192,90009,1,0,0:0:0:0:
320,192,90107,1,0,0:0:0:0:
64,192,90107,1,0,0:0:0:40:hithat.wav
192,192,90206,1,0,0:0:0:40:hithat.wav
448,192,90304,128,0,90696:0:0:0:0:
64,192,90304,1,2,0:0:0:0:
64,192,90402,1,0,0:0:0:0:
320,192,90500,1,0,0:0:0:0:
192,192,90500,1,0,0:0:0:40:hithat.wav
64,192,90598,1,0,0:0:0:0:
320,192,90696,1,0,0:0:0:0:
192,192,90696,1,2,0:0:0:0:
64,192,90696,1,8,0:0:0:0:
192,192,90794,1,0,0:0:0:0:
448,192,90892,128,0,90941:0:0:0:0:
64,192,90892,1,0,0:0:0:40:hithat.wav
448,192,90990,128,0,91039:0:0:0:0:
192,192,90990,1,0,0:0:0:0:
320,192,91088,1,0,0:0:0:0:
64,192,91088,1,2,0:0:0:0:
320,192,91186,1,0,0:0:0:0:
448,192,91284,128,0,91480:0:0:0:0:
64,192,91284,1,0,0:0:0:40:hithat.wav
192,192,91382,1,0,0:0:0:0:
320,192,91480,1,0,0:0:0:0:
192,192,91480,1,2,0:0:0:0:
64,192,91480,1,8,0:0:0:0:
320,192,91578,1,0,0:0:0:0:
448,192,91676,1,0,0:0:0:0:
192,192,91676,1,0,0:0:0:40:hithat.wav
64,192,91774,1,0,0:0:0:40:hithat.wav
448,192,91872,1,0,0:0:0:60:fx-lower_yellow.wav
192,192,91872,1,2,0:0:0:0:
320,192,91938,1,0,0:0:0:0:
192,192,92003,1,0,0:0:0:0:
320,192,92068,1,0,0:0:0:0:
64,192,92068,1,0,0:0:0:40:hithat.wav
448,192,92134,1,0,0:0:0:0:
192,192,92199,1,0,0:0:0:0:
320,192,92264,1,0,0:0:0:60:fx-lower_yellow.wav
64,192,92264,1,10,0:0:0:0:
448,192,92330,1,0,0:0:0:0:
192,192,92395,1,0,0:0:0:0:
320,192,92460,1,0,0:0:0:60:fx-yellow.wav
64,192,92460,1,0,0:0:0:40:hithat.wav
448,192,92558,1,0,0:0:0:0:
192,192,92558,1,0,0:0:0:60:fx-yellow.wav
64,192,92656,1,2,0:0:0:0:
320,192,92681,1,0,0:0:0:0:
64,192,92755,1,0,0:0:0:60:fx-yellow.wav
192,192,92779,1,0,0:0:0:0:
448,192,92853,1,0,0:0:0:0:
320,192,92853,128,0,93049:0:0:0:40:hithat.wav
192,192,92951,1,0,0:0:0:0:
448,192,93049,1,0,0:0:0:0:
192,192,93049,1,2,0:0:0:0:
64,192,93049,1,8,0:0:0:0:
448,192,93147,1,0,0:0:0:0:
320,192,93245,1,0,0:0:0:0:
192,192,93245,1,0,0:0:0:40:hithat.wav
64,192,93343,1,0,0:0:0:40:hithat.wav
448,192,93441,1,0,0:0:0:0:
192,192,93441,1,2,0:0:0:0:
192,192,93539,1,0,0:0:0:0:
448,192,93637,1,0,0:0:0:0:
320,192,93637,1,0,0:0:0:40:hithat.wav
192,192,93735,1,0,0:0:0:0:
448,192,93833,1,0,0:0:0:0:
320,192,93833,1,2,0:0:0:0:
64,192,93833,128,8,94225:0:0:0:0:
320,192,93931,1,0,0:0:0:0:
448,192,94029,1,0,0:0:0:0:
192,192,94029,1,0,0:0:0:40:hithat.wav
320,192,94127,1,0,0:0:0:0:
448,192,94225,1,0,0:0:0:0:
192,192,94225,1,2,0:0:0:0:
448,192,94323,1,0,0:0:0:0:
192,192,94421,128,0,94617:0:0:0:0:
64,192,94421,1,0,0:0:0:40:hithat.wav
320,192,94519,1,0,0:0:0:0:
448,192,94617,1,0,0:0:0:0:
320,192,94617,1,2,0:0:0:0:
64,192,94617,1,8,0:0:0:0:
448,192,94715,1,0,0:0:0:0:
320,192,94813,1,0,0:0:0:0:
64,192,94813,1,0,0:0:0:40:hithat.wav
192,192,94911,1,0,0:0:0:40:hithat.wav
320,192,95009,1,0,0:0:0:60:fx-lower_yellow.wav
64,192,95009,1,2,0:0:0:0:
192,192,95075,1,0,0:0:0:0:
448,192,95140,1,0,0:0:0:0:
320,192,95206,1,0,0:0:0:0:
64,192,95206,1,0,0:0:0:40:hithat.wav
192,192,95271,1,0,0:0:0:0:
448,192,95336,1,0,0:0:0:0:
320,192,95402,1,0,0:0:0:60:fx-lower_yellow.wav
64,192,95402,1,10,0:0:0:0:
192,192,95467,1,0,0:0:0:0:
448,192,95532,1,0,0:0:0:0:
320,192,95598,1,0,0:0:0:40:fx-lower_yellow.wav
64,192,95598,1,0,0:0:0:40:hithat.wav
192,192,95663,1,0,0:0:0:0:
448,192,95728,1,0,0:0:0:0:
320,192,95794,1,0,0:0:0:0:
64,192,95794,1,2,0:0:0:0:
320,192,95892,1,0,0:0:0:0:
448,192,95990,1,0,0:0:0:0:
192,192,95990,128,0,96186:0:0:0:40:hithat.wav
64,192,96088,1,0,0:0:0:0:
448,192,96186,1,0,0:0:0:0:
320,192,96186,1,2,0:0:0:0:
64,192,96186,1,8,0:0:0:0:
448,192,96284,1,0,0:0:0:0:
320,192,96382,1,0,0:0:0:0:
64,192,96382,1,0,0:0:0:40:hithat.wav
192,192,96480,1,0,0:0:0:40:hithat.wav
320,192,96578,1,0,0:0:0:0:
64,192,96578,1,2,0:0:0:0:
64,192,96676,1,0,0:0:0:0:
320,192,96774,1,0,0:0:0:0:
192,192,96774,1,0,0:0:0:40:hithat.wav
448,192,96872,1,0,0:0:0:0:
320,192,96970,1,0,0:0:0:0:
192,192,96970,1,2,0:0:0:0:
64,192,96970,1,8,0:0:0:0:
192,192,97068,1,0,0:0:0:0:
320,192,97166,1,0,0:0:0:0:
64,192,97166,128,0,97215:0:0:0:40:hithat.wav
64,192,97264,128,0,97313:0:0:0:0:
448,192,97362,1,0,0:0:0:0:
320,192,97362,1,2,0:0:0:0:
320,192,97460,1,0,0:0:0:0:
448,192,97558,128,0,97755:0:0:0:0:
64,192,97558,1,0,0:0:0:40:hithat.wav
192,192,97656,1,0,0:0:0:0:
320,192,97755,1,0,0:0:0:0:
192,192,97755,1,2,0:0:0:0:
64,192,97755,1,8,0:0:0:0:
320,192,97853,1,0,0:0:0:0:
448,192,97951,1,0,0:0:0:0:
192,192,97951,1,0,0:0:0:40:hithat.wav
64,192,98049,1,0,0:0:0:40:hithat.wav
448,192,98147,1,0,0:0:0:60:fx-lower_yellow.wav
192,192,98147,1,2,0:0:0:0:
320,192,98212,1,0,0:0:0:0:
192,192,98277,1,0,0:0:0:0:
448,192,98343,1,0,0:0:0:0:
64,192,98343,1,0,0:0:0:40:hithat.wav
320,192,98408,1,0,0:0:0:0:
192,192,98473,1,0,0:0:0:0:
448,192,98539,1,0,0:0:0:60:fx-lower_yellow.wav
64,192,98539,1,10,0:0:0:0:
320,192,98604,1,0,0:0:0:0:
192,192,98670,1,0,0:0:0:0:
448,192,98735,1,0,0:0:0:60:fx-yellow.wav
64,192,98735,1,0,0:0:0:40:hithat.wav
320,192,98833,1,0,0:0:0:0:
192,192,98833,1,0,0:0:0:60:fx-yellow.wav
64,192,98931,1,2,0:0:0:0:
320,192,98956,1,0,0:0:0:0:
64,192,99029,1,0,0:0:0:60:fx-yellow.wav
192,192,99054,1,0,0:0:0:0:
448,192,99127,1,0,0:0:0:0:
320,192,99127,128,0,99323:0:0:0:40:hithat.wav
192,192,99225,1,0,0:0:0:0:
448,192,99323,1,0,0:0:0:0:
192,192,99323,1,2,0:0:0:0:
64,192,99323,1,8,0:0:0:0:
448,192,99421,1,0,0:0:0:0:
320,192,99519,1,0,0:0:0:0:
192,192,99519,1,0,0:0:0:40:hithat.wav
64,192,99617,1,0,0:0:0:40:hithat.wav
448,192,99715,1,0,0:0:0:0:
192,192,99715,1,2,0:0:0:0:
192,192,99813,1,0,0:0:0:0:
448,192,99911,1,0,0:0:0:0:
320,192,99911,1,0,0:0:0:40:hithat.wav
192,192,100009,1,0,0:0:0:0:
448,192,100107,1,0,0:0:0:60:fx-lower_yellow.wav
320,192,100107,128,2,100206:0:0:0:0:
64,192,100107,128,8,100500:0:0:0:0:
448,192,100206,128,0,100304:0:0:0:60:fx-lower_yellow.wav
320,192,100304,128,0,100402:0:0:0:60:fx-lower_yellow.wav
192,192,100304,1,0,0:0:0:40:hithat.wav
448,192,100402,128,0,100500:0:0:0:60:fx-lower_yellow.wav
320,192,100500,1,4,0:0:0:0:
192,192,100500,1,2,0:0:0:0:
320,192,100598,1,0,0:0:0:0:
64,192,100696,128,0,100892:0:0:0:40:hithat.wav
192,192,100794,1,0,0:0:0:0:
448,192,100892,1,0,0:0:0:0:
320,192,100892,1,8,0:0:0:0:
192,192,100892,1,2,0:0:0:0:
448,192,100990,1,0,0:0:0:0:
320,192,101088,1,0,0:0:0:0:
64,192,101088,1,0,0:0:0:40:hithat.wav
192,192,101186,1,0,0:0:0:40:hithat.wav
448,192,101284,1,0,0:0:0:40:clap_impact.wav
320,192,101284,1,2,0:0:0:0:
192,192,101349,1,0,0:0:0:0:
64,192,101415,1,0,0:0:0:0:
448,192,101480,1,0,0:0:0:0:
192,192,101480,1,0,0:0:0:40:hithat.wav
320,192,101545,1,0,0:0:0:0:
64,192,101611,1,0,0:0:0:0:
448,192,101676,1,0,0:0:0:40:fx-lower_yellow.wav
192,192,101676,1,10,0:0:0:0:
320,192,101741,1,0,0:0:0:0:
64,192,101807,1,0,0:0:0:0:
320,192,101872,1,0,0:0:0:40:fx-lower_yellow.wav
192,192,101872,1,0,0:0:0:40:hithat.wav
448,192,101970,1,0,0:0:0:0:
320,192,102068,1,0,0:0:0:0:
64,192,102068,1,2,0:0:0:0:
64,192,102166,1,0,0:0:0:0:
448,192,102264,1,0,0:0:0:0:
192,192,102264,128,0,102460:0:0:0:40:hithat.wav
320,192,102362,1,0,0:0:0:0:
448,192,102460,1,0,0:0:0:0:
320,192,102460,1,8,0:0:0:0:
64,192,102460,1,2,0:0:0:0:
448,192,102558,1,0,0:0:0:0:
320,192,102656,1,0,0:0:0:0:
64,192,102656,1,0,0:0:0:40:hithat.wav
192,192,102755,1,0,0:0:0:40:hithat.wav
448,192,102853,128,0,103245:0:0:0:0:
64,192,102853,1,2,0:0:0:0:
64,192,102951,1,0,0:0:0:0:
320,192,103049,1,0,0:0:0:0:
192,192,103049,1,0,0:0:0:40:hithat.wav
192,192,103147,1,0,0:0:0:0:
320,192,103245,1,0,0:0:0:0:
192,192,103245,1,8,0:0:0:0:
64,192,103245,1,2,0:0:0:0:
320,192,103343,1,0,0:0:0:0:
448,192,103441,128,0,103490:0:0:0:0:
64,192,103441,1,0,0:0:0:40:hithat.wav
448,192,103539,128,0,103588:0:0:0:0:
192,192,103539,1,0,0:0:0:0:
320,192,103637,1,0,0:0:0:0:
64,192,103637,1,2,0:0:0:0:
320,192,103735,1,0,0:0:0:0:
448,192,103833,128,0,104029:0:0:0:0:
64,192,103833,1,0,0:0:0:40:hithat.wav
192,192,103931,1,0,0:0:0:0:
320,192,104029,1,0,0:0:0:0:
192,192,104029,1,8,0:0:0:0:
64,192,104029,1,2,0:0:0:0:
320,192,104127,1,0,0:0:0:0:
448,192,104225,1,0,0:0:0:0:
192,192,104225,1,0,0:0:0:40:hithat.wav
64,192,104323,1,0,0:0:0:40:hithat.wav
448,192,104421,1,0,0:0:0:60:fx-lower_yellow.wav
192,192,104421,1,2,0:0:0:0:
320,192,104487,1,0,0:0:0:0:
64,192,104552,1,0,0:0:0:0:
448,192,104617,1,0,0:0:0:0:
192,192,104617,1,0,0:0:0:40:hithat.wav
320,192,104683,1,0,0:0:0:0:
64,192,104748,1,0,0:0:0:0:
448,192,104813,1,0,0:0:0:60:fx-lower_yellow.wav
192,192,104813,1,10,0:0:0:0:
320,192,104879,1,0,0:0:0:0:
64,192,104944,1,0,0:0:0:0:
448,192,105009,1,0,0:0:0:60:fx-yellow.wav
192,192,105009,1,0,0:0:0:40:hithat.wav
320,192,105107,1,0,0:0:0:0:
192,192,105107,1,0,0:0:0:60:fx-yellow.wav
64,192,105206,1,2,0:0:0:0:
320,192,105230,1,0,0:0:0:0:
64,192,105304,1,0,0:0:0:60:fx-yellow.wav
192,192,105328,1,0,0:0:0:0:
448,192,105402,1,0,0:0:0:0:
320,192,105402,128,0,105598:0:0:0:40:hithat.wav
192,192,105500,1,0,0:0:0:0:
448,192,105598,1,0,0:0:0:0:
192,192,105598,1,8,0:0:0:0:
64,192,105598,1,2,0:0:0:0:
448,192,105696,1,0,0:0:0:0:
320,192,105794,1,0,0:0:0:0:
192,192,105794,1,0,0:0:0:40:hithat.wav
64,192,105892,1,0,0:0:0:40:hithat.wav
448,192,105990,1,0,0:0:0:0:
192,192,105990,1,2,0:0:0:0:
192,192,106088,1,0,0:0:0:0:
448,192,106186,1,0,0:0:0:0:
320,192,106186,1,0,0:0:0:40:hithat.wav
192,192,106284,1,0,0:0:0:0:
448,192,106382,1,0,0:0:0:0:
320,192,106382,1,8,0:0:0:0:
64,192,106382,128,2,106774:0:0:0:0:
320,192,106480,1,0,0:0:0:0:
448,192,106578,1,0,0:0:0:0:
192,192,106578,1,0,0:0:0:40:hithat.wav
320,192,106676,1,0,0:0:0:0:
448,192,106774,1,0,0:0:0:0:
320,192,106774,1,4,0:0:0:0:
192,192,106774,1,2,0:0:0:0:
448,192,106872,1,0,0:0:0:0:
192,192,106970,128,0,107166:0:0:0:0:
64,192,106970,1,0,0:0:0:40:hithat.wav
320,192,107068,1,0,0:0:0:0:
448,192,107166,1,0,0:0:0:0:
320,192,107166,1,8,0:0:0:0:
64,192,107166,1,2,0:0:0:0:
448,192,107264,1,0,0:0:0:0:
320,192,107362,1,0,0:0:0:0:
192,192,107362,1,0,0:0:0:40:hithat.wav
64,192,107460,1,0,0:0:0:40:hithat.wav
448,192,107558,1,0,0:0:0:40:fx-lower_yellow.wav
320,192,107558,1,2,0:0:0:0:
192,192,107624,1,0,0:0:0:0:
448,192,107689,1,0,0:0:0:0:
320,192,107755,1,0,0:0:0:0:
64,192,107755,1,0,0:0:0:40:hithat.wav
192,192,107820,1,0,0:0:0:0:
448,192,107885,1,0,0:0:0:0:
320,192,107951,1,0,0:0:0:40:fx-lower_yellow.wav
64,192,107951,1,10,0:0:0:0:
192,192,108016,1,0,0:0:0:0:
448,192,108081,1,0,0:0:0:0:
320,192,108147,1,0,0:0:0:40:fx-lower_yellow.wav
64,192,108147,1,0,0:0:0:40:hithat.wav
448,192,108245,1,0,0:0:0:0:
320,192,108343,1,0,0:0:0:0:
192,192,108343,1,2,0:0:0:0:
320,192,108441,1,0,0:0:0:0:
448,192,108539,1,0,0:0:0:0:
64,192,108539,128,0,108735:0:0:0:40:hithat.wav
192,192,108637,1,0,0:0:0:0:
448,192,108735,1,0,0:0:0:0:
320,192,108735,1,8,0:0:0:0:
192,192,108735,1,2,0:0:0:0:
448,192,108833,1,0,0:0:0:0:
320,192,108931,1,0,0:0:0:0:
64,192,108931,1,0,0:0:0:40:hithat.wav
192,192,109029,1,0,0:0:0:40:hithat.wav
320,192,109127,1,0,0:0:0:0:
64,192,109127,1,2,0:0:0:0:
64,192,109225,1,0,0:0:0:0:
320,192,109323,1,0,0:0:0:0:
192,192,109323,1,0,0:0:0:40:hithat.wav
448,192,109421,1,0,0:0:0:0:
448,192,109519,1,0,0:0:0:0:
192,192,109519,1,8,0:0:0:0:
64,192,109519,1,2,0:0:0:0:
192,192,109617,1,0,0:0:0:0:
320,192,109715,1,0,0:0:0:0:
64,192,109715,128,0,109764:0:0:0:40:hithat.wav
64,192,109813,128,0,109862:0:0:0:0:
320,192,109911,1,0,0:0:0:0:
192,192,109911,1,2,0:0:0:0:
320,192,110009,1,0,0:0:0:0:
448,192,110107,128,0,110304:0:0:0:0:
64,192,110107,1,0,0:0:0:40:hithat.wav
192,192,110206,1,0,0:0:0:0:
320,192,110304,1,0,0:0:0:0:
192,192,110304,1,8,0:0:0:0:
64,192,110304,1,2,0:0:0:0:
320,192,110402,1,0,0:0:0:0:
448,192,110500,1,0,0:0:0:0:
192,192,110500,1,0,0:0:0:40:hithat.wav
64,192,110598,1,0,0:0:0:40:hithat.wav
448,192,110696,1,0,0:0:0:40:fx-lower_yellow.wav
192,192,110696,1,2,0:0:0:0:
320,192,110761,1,0,0:0:0:0:
192,192,110826,1,0,0:0:0:0:
448,192,110892,1,0,0:0:0:0:
64,192,110892,1,0,0:0:0:40:hithat.wav
320,192,110957,1,0,0:0:0:0:
192,192,111022,1,0,0:0:0:0:
448,192,111088,1,0,0:0:0:40:fx-lower_yellow.wav
64,192,111088,1,10,0:0:0:0:
320,192,111153,1,0,0:0:0:0:
192,192,111219,1,0,0:0:0:0:
320,192,111284,1,0,0:0:0:60:fx-yellow.wav
64,192,111284,1,0,0:0:0:40:hithat.wav
448,192,111382,1,0,0:0:0:0:
320,192,111382,1,0,0:0:0:60:fx-yellow.wav
192,192,111480,128,0,111872:0:0:0:0:
64,192,111480,1,0,0:0:0:40:filter_kick.wav
64,192,111578,1,0,0:0:0:0:
448,192,111676,1,0,0:0:0:0:
320,192,111774,1,0,0:0:0:0:
64,192,111872,1,0,0:0:0:30:filter_howl.wav
192,192,111921,1,0,0:0:0:0:
320,192,111970,1,0,0:0:0:0:
448,192,112068,1,0,0:0:0:0:
320,192,112117,1,0,0:0:0:0:
192,192,112166,1,0,0:0:0:0:
192,192,112264,128,0,112362:0:0:0:0:
64,192,112264,128,2,112362:0:0:0:0:
448,192,112460,1,0,0:0:0:0:
192,192,112509,1,0,0:0:0:0:
320,192,112558,1,0,0:0:0:0:
448,192,112607,1,0,0:0:0:0:
192,192,112656,1,0,0:0:0:0:
64,192,112656,1,0,0:0:0:40:big_kick.wav
192,192,112755,1,0,0:0:0:0:
64,192,112755,1,0,0:0:0:40:big_kick.wav
448,192,112853,1,0,0:0:0:0:
320,192,112853,1,0,0:0:0:40:big_kick.wav
448,192,112951,1,0,0:0:0:0:
320,192,112951,1,0,0:0:0:40:big_kick.wav
448,192,113049,1,0,0:0:0:0:
192,192,113049,1,2,0:0:0:0:
64,192,113049,1,4,0:0:0:0:
192,192,113147,1,0,0:0:0:0:
320,192,113245,128,0,113441:0:0:0:0:
448,192,113245,1,0,0:0:0:40:hithat.wav
64,192,113343,1,0,0:0:0:0:
448,192,113441,1,0,0:0:0:0:
192,192,113441,1,8,0:0:0:0:
64,192,113441,1,2,0:0:0:0:
448,192,113539,1,0,0:0:0:0:
320,192,113637,1,0,0:0:0:0:
64,192,113637,1,0,0:0:0:40:hithat.wav
192,192,113735,1,0,0:0:0:40:hithat.wav
320,192,113833,1,0,0:0:0:0:
64,192,113833,1,2,0:0:0:0:
64,192,113931,1,0,0:0:0:0:
448,192,114029,1,0,0:0:0:0:
192,192,114029,1,0,0:0:0:40:hithat.wav
320,192,114127,1,0,0:0:0:0:
448,192,114225,1,0,0:0:0:40:fx-lower_yellow.wav
192,192,114225,1,8,0:0:0:0:
64,192,114225,1,2,0:0:0:0:
448,192,114323,1,0,0:0:0:0:
192,192,114421,128,0,114487:0:0:0:40:fx-lower_yellow.wav
64,192,114421,1,0,0:0:0:40:hithat.wav
320,192,114487,128,0,114552:0:0:0:0:
448,192,114552,128,0,114617:0:0:0:0:
320,192,114617,128,0,114715:0:0:0:0:
64,192,114617,128,2,114715:0:0:0:0:
192,192,114715,1,0,0:0:0:0:
448,192,114813,1,0,0:0:0:0:
192,192,114813,128,0,115009:0:0:0:40:hithat.wav
64,192,114911,1,0,0:0:0:0:
448,192,115009,1,0,0:0:0:0:
320,192,115009,1,8,0:0:0:0:
64,192,115009,1,2,0:0:0:0:
448,192,115107,1,0,0:0:0:0:
320,192,115206,1,0,0:0:0:0:
64,192,115206,1,0,0:0:0:40:hithat.wav
192,192,115304,1,0,0:0:0:40:hithat.wav
320,192,115402,1,0,0:0:0:0:
64,192,115402,1,2,0:0:0:0:
64,192,115500,1,0,0:0:0:0:
320,192,115598,1,0,0:0:0:0:
192,192,115598,1,0,0:0:0:40:hithat.wav
448,192,115696,1,0,0:0:0:0:
320,192,115794,1,0,0:0:0:0:
192,192,115794,1,8,0:0:0:0:
64,192,115794,1,2,0:0:0:0:
192,192,115892,1,0,0:0:0:0:
448,192,115990,128,0,116039:0:0:0:0:
64,192,115990,1,0,0:0:0:40:hithat.wav
448,192,116088,128,0,116137:0:0:0:0:
192,192,116088,1,0,0:0:0:0:
320,192,116186,1,0,0:0:0:0:
64,192,116186,1,2,0:0:0:0:
320,192,116284,1,0,0:0:0:0:
448,192,116382,128,0,116578:0:0:0:0:
64,192,116382,1,0,0:0:0:40:hithat.wav
192,192,116480,1,0,0:0:0:0:
320,192,116578,1,0,0:0:0:0:
192,192,116578,1,8,0:0:0:0:
64,192,116578,1,2,0:0:0:0:
320,192,116676,1,0,0:0:0:0:
448,192,116774,1,0,0:0:0:0:
192,192,116774,1,0,0:0:0:40:hithat.wav
64,192,116872,1,0,0:0:0:40:hithat.wav
448,192,116970,1,0,0:0:0:60:fx-lower_yellow.wav
192,192,116970,1,2,0:0:0:0:
448,192,117068,1,0,0:0:0:0:
320,192,117166,1,0,0:0:0:0:
192,192,117166,1,0,0:0:0:40:hithat.wav
64,192,117264,1,0,0:0:0:0:
448,192,117362,1,0,0:0:0:60:fx-lower_yellow.wav
320,192,117362,1,8,0:0:0:0:
192,192,117362,1,2,0:0:0:0:
192,192,117460,1,0,0:0:0:0:
448,192,117558,128,0,117624:0:0:0:60:fx-yellow.wav
64,192,117558,1,0,0:0:0:40:hithat.wav
320,192,117624,128,0,117689:0:0:0:0:
192,192,117689,128,0,117755:0:0:0:0:
320,192,117755,128,0,117853:0:0:0:60:fx-yellow.wav
64,192,117755,128,2,117853:0:0:0:0:
192,192,117853,1,0,0:0:0:60:fx-yellow.wav
448,192,117951,1,0,0:0:0:0:
320,192,117951,128,0,118147:0:0:0:40:hithat.wav
192,192,118049,1,0,0:0:0:0:
448,192,118147,1,0,0:0:0:0:
192,192,118147,1,8,0:0:0:0:
64,192,118147,1,2,0:0:0:0:
448,192,118245,1,0,0:0:0:0:
320,192,118343,1,0,0:0:0:0:
192,192,118343,1,0,0:0:0:40:hithat.wav
64,192,118441,1,0,0:0:0:40:hithat.wav
448,192,118539,1,0,0:0:0:0:
192,192,118539,1,2,0:0:0:0:
192,192,118637,1,0,0:0:0:0:
448,192,118735,1,0,0:0:0:0:
64,192,118735,1,0,0:0:0:40:hithat.wav
192,192,118833,1,0,0:0:0:0:
320,192,118931,1,0,0:0:0:0:
448,192,118931,128,0,119323:0:0:0:0:
64,192,118931,1,2,0:0:0:0:
192,192,118931,1,8,0:0:0:0:
320,192,119029,1,0,0:0:0:0:
192,192,119127,1,0,0:0:0:0:
64,192,119127,128,0,119176:0:0:0:40:hithat.wav
64,192,119225,128,0,119274:0:0:0:0:
320,192,119323,1,0,0:0:0:0:
192,192,119323,1,2,0:0:0:0:
320,192,119421,1,0,0:0:0:0:
192,192,119519,128,0,119715:0:0:0:0:
64,192,119519,1,0,0:0:0:40:hithat.wav
320,192,119617,1,0,0:0:0:0:
448,192,119715,1,0,0:0:0:0:
320,192,119715,1,8,0:0:0:0:
64,192,119715,1,2,0:0:0:0:
448,192,119813,1,0,0:0:0:0:
320,192,119911,1,0,0:0:0:0:
64,192,119911,1,0,0:0:0:40:hithat.wav
192,192,120009,1,0,0:0:0:40:hithat.wav
320,192,120107,1,0,0:0:0:0:
64,192,120107,1,2,0:0:0:0:
64,192,120206,1,0,0:0:0:0:
448,192,120304,1,0,0:0:0:0:
320,192,120304,1,0,0:0:0:40:hithat.wav
192,192,120402,1,0,0:0:0:0:
448,192,120500,1,0,0:0:0:40:fx-lower_yellow.wav
320,192,120500,1,8,0:0:0:0:
64,192,120500,1,2,0:0:0:0:
64,192,120598,1,0,0:0:0:0:
448,192,120696,1,0,0:0:0:40:fx-lower_yellow.wav
320,192,120696,128,0,120761:0:0:0:40:hithat.wav
192,192,120761,128,0,120826:0:0:0:0:
64,192,120826,128,0,120892:0:0:0:0:
448,192,120892,128,0,120990:0:0:0:0:
192,192,120892,128,2,120990:0:0:0:0:
320,192,120990,1,0,0:0:0:0:
448,192,121088,1,0,0:0:0:0:
64,192,121088,128,0,121284:0:0:0:40:hithat.wav
192,192,121186,1,0,0:0:0:0:
448,192,121284,1,0,0:0:0:0:
320,192,121284,1,8,0:0:0:0:
192,192,121284,1,2,0:0:0:0:
448,192,121382,1,0,0:0:0:0:
320,192,121480,1,0,0:0:0:0:
64,192,121480,1,0,0:0:0:40:hithat.wav
192,192,121578,1,0,0:0:0:40:hithat.wav
320,192,121676,1,0,0:0:0:0:
64,192,121676,1,2,0:0:0:0:
64,192,121774,1,0,0:0:0:0:
320,192,121872,1,0,0:0:0:0:
192,192,121872,1,0,0:0:0:40:hithat.wav
448,192,121970,1,0,0:0:0:0:
448,192,122068,1,0,0:0:0:0:
320,192,122068,1,8,0:0:0:0:
192,192,122068,1,2,0:0:0:0:
192,192,122166,1,0,0:0:0:0:
320,192,122264,1,0,0:0:0:0:
64,192,122264,128,0,122313:0:0:0:40:hithat.wav
64,192,122362,128,0,122411:0:0:0:0:
320,192,122460,1,0,0:0:0:0:
192,192,122460,1,2,0:0:0:0:
320,192,122558,1,0,0:0:0:0:
448,192,122656,128,0,122853:0:0:0:0:
64,192,122656,1,0,0:0:0:40:hithat.wav
320,192,122755,1,0,0:0:0:0:
320,192,122853,1,0,0:0:0:0:
192,192,122853,128,0,123245:0:0:0:0:
64,192,122853,128,0,123245:0:0:0:40:filter_kick.wav
448,192,123245,1,0,0:0:0:40:fx-lower_yellow.wav
320,192,123245,1,2,0:0:0:0:
320,192,123343,1,0,0:0:0:0:
448,192,123441,1,0,0:0:0:0:
192,192,123441,1,0,0:0:0:40:hithat.wav
64,192,123539,1,0,0:0:0:0:
448,192,123637,128,0,124029:0:0:0:0:
320,192,123637,1,0,0:0:0:0:
192,192,123637,128,0,124029:0:0:0:60:fx-lower_yellow.wav
320,192,124029,1,0,0:0:0:0:
64,192,124029,1,2,0:0:0:0:
64,192,124127,1,0,0:0:0:0:
448,192,124225,1,0,0:0:0:0:
320,192,124225,1,0,0:0:0:0:
64,192,124323,1,0,0:0:0:0:
320,192,124421,1,0,0:0:0:0:
192,192,124421,1,2,0:0:0:0:
448,192,124519,1,0,0:0:0:0:
192,192,124617,1,0,0:0:0:0:
64,192,124617,1,0,0:0:0:0:
320,192,124715,1,0,0:0:0:0:
448,192,124813,1,0,0:0:0:0:
320,192,124862,1,0,0:0:0:0:
192,192,124911,1,0,0:0:0:0:
64,192,124960,1,0,0:0:0:0:
320,192,125009,1,0,0:0:0:0:
192,192,125058,1,0,0:0:0:0:
64,192,125107,1,0,0:0:0:0:
192,192,125156,1,0,0:0:0:0:
448,192,125205,128,0,125598:0:0:0:0:
320,192,125205,128,0,125500:0:0:0:0:
320,192,125598,1,0,0:0:0:0:
192,192,125598,1,2,0:0:0:0:
64,192,125598,1,4,0:0:0:0:
320,192,125696,1,0,0:0:0:0:
192,192,125794,128,0,125990:0:0:0:0:
64,192,125794,1,0,0:0:0:40:hithat.wav
320,192,125892,1,0,0:0:0:0:
448,192,125990,1,0,0:0:0:0:
320,192,125990,1,2,0:0:0:0:
64,192,125990,1,8,0:0:0:0:
448,192,126088,1,0,0:0:0:0:
320,192,126186,1,0,0:0:0:0:
64,192,126186,1,0,0:0:0:40:hithat.wav
192,192,126284,1,0,0:0:0:40:hithat.wav
320,192,126382,1,0,0:0:0:0:
64,192,126382,1,2,0:0:0:0:
64,192,126480,1,0,0:0:0:0:
448,192,126578,1,0,0:0:0:0:
192,192,126578,1,0,0:0:0:40:hithat.wav
64,192,126676,1,0,0:0:0:0:
448,192,126774,1,0,0:0:0:40:fx-lower_yellow.wav
320,192,126774,1,2,0:0:0:0:
192,192,126774,1,8,0:0:0:0:
448,192,126872,1,0,0:0:0:0:
192,192,126970,1,0,0:0:0:40:fx-lower_yellow.wav
64,192,126970,1,0,0:0:0:40:hithat.wav
320,192,127068,1,0,0:0:0:0:
448,192,127166,1,0,0:0:0:0:
192,192,127166,1,2,0:0:0:0:
448,192,127264,1,0,0:0:0:0:
320,192,127362,128,0,127558:0:0:0:0:
192,192,127362,1,0,0:0:0:40:hithat.wav
64,192,127460,1,0,0:0:0:0:
448,192,127558,1,0,0:0:0:0:
192,192,127558,1,2,0:0:0:0:
64,192,127558,1,8,0:0:0:0:
448,192,127656,1,0,0:0:0:0:
320,192,127755,1,0,0:0:0:0:
64,192,127755,1,0,0:0:0:40:hithat.wav
192,192,127853,1,0,0:0:0:40:hithat.wav
320,192,127951,1,0,0:0:0:0:
64,192,127951,1,2,0:0:0:0:
64,192,128049,1,0,0:0:0:0:
320,192,128147,1,0,0:0:0:0:
192,192,128147,1,0,0:0:0:40:hithat.wav
448,192,128245,1,0,0:0:0:0:
320,192,128343,1,0,0:0:0:0:
192,192,128343,1,2,0:0:0:0:
64,192,128343,1,8,0:0:0:0:
192,192,128441,1,0,0:0:0:0:
320,192,128539,1,0,0:0:0:0:
64,192,128539,1,0,0:0:0:40:hithat.wav
448,192,128637,1,0,0:0:0:0:
320,192,128735,1,0,0:0:0:0:
64,192,128735,1,2,0:0:0:0:
320,192,128833,1,0,0:0:0:0:
448,192,128931,128,0,129127:0:0:0:0:
64,192,128931,1,0,0:0:0:40:hithat.wav
192,192,129029,1,0,0:0:0:0:
320,192,129127,1,0,0:0:0:0:
192,192,129127,1,2,0:0:0:0:
64,192,129127,1,8,0:0:0:0:
320,192,129225,1,0,0:0:0:0:
448,192,129323,1,0,0:0:0:0:
192,192,129323,1,0,0:0:0:40:hithat.wav
64,192,129421,1,0,0:0:0:40:hithat.wav
448,192,129519,1,0,0:0:0:60:fx-lower_yellow.wav
192,192,129519,1,2,0:0:0:0:
448,192,129617,1,0,0:0:0:0:
320,192,129715,1,0,0:0:0:0:
192,192,129715,1,0,0:0:0:40:hithat.wav
64,192,129813,1,0,0:0:0:0:
448,192,129911,1,0,0:0:0:60:fx-lower_yellow.wav
320,192,129911,1,2,0:0:0:0:
192,192,129911,1,8,0:0:0:0:
192,192,130009,1,0,0:0:0:0:
320,192,130107,1,0,0:0:0:60:fx-yellow.wav
64,192,130107,1,0,0:0:0:40:hithat.wav
448,192,130205,1,0,0:0:0:60:fx-yellow.wav
64,192,130304,1,2,0:0:0:0:
320,192,130328,1,0,0:0:0:0:
64,192,130402,1,0,0:0:0:60:fx-yellow.wav
192,192,130426,1,0,0:0:0:0:
448,192,130500,1,0,0:0:0:0:
320,192,130500,128,0,130696:0:0:0:40:hithat.wav
192,192,130598,1,0,0:0:0:0:
448,192,130696,1,0,0:0:0:0:
192,192,130696,1,2,0:0:0:0:
64,192,130696,1,8,0:0:0:0:
448,192,130794,1,0,0:0:0:0:
320,192,130892,1,0,0:0:0:0:
192,192,130892,1,0,0:0:0:40:hithat.wav
64,192,130990,1,0,0:0:0:40:hithat.wav
448,192,131088,1,0,0:0:0:0:
192,192,131088,1,2,0:0:0:0:
192,192,131186,1,0,0:0:0:0:
448,192,131284,1,0,0:0:0:0:
64,192,131284,1,0,0:0:0:40:hithat.wav
192,192,131382,1,0,0:0:0:0:
448,192,131480,1,0,0:0:0:0:
320,192,131480,1,2,0:0:0:0:
64,192,131480,128,8,131872:0:0:0:0:
320,192,131578,1,0,0:0:0:0:
448,192,131676,1,0,0:0:0:0:
192,192,131676,1,0,0:0:0:40:hithat.wav
320,192,131774,1,0,0:0:0:0:
448,192,131872,1,0,0:0:0:0:
192,192,131872,1,2,0:0:0:0:
448,192,131970,1,0,0:0:0:0:
192,192,132068,128,0,132264:0:0:0:0:
64,192,132068,1,0,0:0:0:40:hithat.wav
320,192,132166,1,0,0:0:0:0:
448,192,132264,1,0,0:0:0:0:
320,192,132264,1,2,0:0:0:0:
64,192,132264,1,8,0:0:0:0:
448,192,132362,1,0,0:0:0:0:
320,192,132460,1,0,0:0:0:0:
64,192,132460,1,0,0:0:0:40:hithat.wav
192,192,132558,1,0,0:0:0:40:hithat.wav
320,192,132656,1,0,0:0:0:0:
64,192,132656,1,2,0:0:0:0:
64,192,132755,1,0,0:0:0:0:
448,192,132853,1,0,0:0:0:0:
320,192,132853,1,0,0:0:0:40:hithat.wav
192,192,132951,1,0,0:0:0:0:
448,192,133049,1,0,0:0:0:40:fx-lower_yellow.wav
320,192,133049,1,2,0:0:0:0:
64,192,133049,1,8,0:0:0:0:
64,192,133147,1,0,0:0:0:0:
448,192,133245,1,0,0:0:0:40:fx-lower_yellow.wav
192,192,133245,1,0,0:0:0:40:hithat.wav
320,192,133343,1,0,0:0:0:0:
448,192,133441,1,0,0:0:0:0:
64,192,133441,1,2,0:0:0:0:
448,192,133539,1,0,0:0:0:0:
320,192,133637,1,0,0:0:0:0:
192,192,133637,128,0,133833:0:0:0:40:hithat.wav
64,192,133735,1,0,0:0:0:0:
448,192,133833,1,0,0:0:0:0:
320,192,133833,1,2,0:0:0:0:
64,192,133833,1,8,0:0:0:0:
448,192,133931,1,0,0:0:0:0:
320,192,134029,1,0,0:0:0:0:
64,192,134029,1,0,0:0:0:40:hithat.wav
192,192,134127,1,0,0:0:0:40:hithat.wav
320,192,134225,1,0,0:0:0:0:
64,192,134225,1,2,0:0:0:0:
64,192,134323,1,0,0:0:0:0:
320,192,134421,1,0,0:0:0:0:
192,192,134421,1,0,0:0:0:40:hithat.wav
448,192,134519,1,0,0:0:0:0:
320,192,134617,1,0,0:0:0:0:
192,192,134617,1,2,0:0:0:0:
64,192,134617,1,8,0:0:0:0:
192,192,134715,1,0,0:0:0:0:
320,192,134813,1,0,0:0:0:0:
64,192,134813,1,0,0:0:0:40:hithat.wav
448,192,134911,1,0,0:0:0:0:
320,192,135009,1,0,0:0:0:0:
192,192,135009,1,2,0:0:0:0:
320,192,135107,1,0,0:0:0:0:
192,192,135206,1,0,0:0:0:0:
64,192,135206,128,0,135402:0:0:0:40:hithat.wav
320,192,135304,1,0,0:0:0:0:
448,192,135402,1,0,0:0:0:0:
320,192,135402,1,2,0:0:0:0:
192,192,135402,1,8,0:0:0:0:
448,192,135500,1,0,0:0:0:0:
320,192,135598,1,0,0:0:0:0:
64,192,135598,1,0,0:0:0:40:hithat.wav
192,192,135696,1,0,0:0:0:40:hithat.wav
320,192,135794,1,0,0:0:0:60:fx-lower_yellow.wav
64,192,135794,1,2,0:0:0:0:
64,192,135892,1,0,0:0:0:0:
448,192,135990,1,0,0:0:0:0:
192,192,135990,1,0,0:0:0:40:hithat.wav
64,192,136088,1,0,0:0:0:0:
448,192,136186,1,0,0:0:0:60:fx-lower_yellow.wav
320,192,136186,1,2,0:0:0:0:
192,192,136186,1,8,0:0:0:0:
448,192,136284,1,0,0:0:0:0:
64,192,136382,128,0,136447:0:0:0:40:hithat.wav
192,192,136447,128,0,136513:0:0:0:0:
320,192,136513,128,0,136578:0:0:0:0:
448,192,136578,128,0,136676:0:0:0:60:fx-yellow.wav
192,192,136578,128,2,136676:0:0:0:0:
320,192,136676,1,0,0:0:0:60:fx-yellow.wav
320,192,136774,1,0,0:0:0:0:
64,192,136774,128,0,136970:0:0:0:40:hithat.wav
192,192,136872,1,0,0:0:0:0:
448,192,136970,1,0,0:0:0:0:
320,192,136970,1,2,0:0:0:0:
192,192,136970,1,8,0:0:0:0:
448,192,137068,1,0,0:0:0:0:
320,192,137166,1,0,0:0:0:0:
64,192,137166,1,0,0:0:0:40:hithat.wav
192,192,137264,1,0,0:0:0:40:hithat.wav
320,192,137362,1,0,0:0:0:0:
64,192,137362,1,2,0:0:0:0:
64,192,137460,1,0,0:0:0:0:
320,192,137558,1,0,0:0:0:0:
192,192,137558,1,0,0:0:0:40:hithat.wav
448,192,137656,1,0,0:0:0:0:
320,192,137755,1,0,0:0:0:0:
192,192,137755,1,2,0:0:0:0:
64,192,137755,1,8,0:0:0:0:
192,192,137853,1,0,0:0:0:0:
320,192,137951,1,0,0:0:0:0:
64,192,137951,1,0,0:0:0:40:hithat.wav
448,192,138049,1,0,0:0:0:0:
320,192,138147,1,2,0:0:0:0:
64,192,138147,1,4,0:0:0:0:
320,192,138245,1,0,0:0:0:0:
448,192,138343,1,0,0:0:0:0:
64,192,138343,1,0,0:0:0:40:hithat.wav
192,192,138441,1,0,0:0:0:0:
448,192,138539,1,0,0:0:0:0:
320,192,138539,1,8,0:0:0:0:
64,192,138539,1,2,0:0:0:0:
64,192,138637,1,0,0:0:0:0:
448,192,138735,1,0,0:0:0:0:
192,192,138735,1,0,0:0:0:40:hithat.wav
64,192,138833,1,0,0:0:0:40:hithat.wav
448,192,138931,1,0,0:0:0:0:
192,192,138931,1,2,0:0:0:0:
448,192,139029,1,0,0:0:0:0:
320,192,139127,1,0,0:0:0:0:
192,192,139127,1,0,0:0:0:40:hithat.wav
64,192,139225,1,0,0:0:0:0:
448,192,139323,1,0,0:0:0:40:fx-lower_yellow.wav
320,192,139323,1,8,0:0:0:0:
192,192,139323,1,2,0:0:0:0:
192,192,139421,1,0,0:0:0:0:
448,192,139519,128,0,139585:0:0:0:40:hithat.wav
320,192,139585,128,0,139650:0:0:0:0:
192,192,139650,128,0,139715:0:0:0:0:
320,192,139715,128,0,139813:0:0:0:0:
64,192,139715,128,2,139813:0:0:0:0:
192,192,139813,1,0,0:0:0:0:
448,192,139911,1,0,0:0:0:0:
320,192,139911,1,0,0:0:0:40:hithat.wav
192,192,140009,1,0,0:0:0:0:
448,192,140107,1,0,0:0:0:0:
320,192,140107,1,8,0:0:0:0:
64,192,140107,1,2,0:0:0:0:
448,192,140206,1,0,0:0:0:0:
320,192,140304,1,0,0:0:0:0:
192,192,140304,1,0,0:0:0:40:hithat.wav
64,192,140402,1,0,0:0:0:40:hithat.wav
448,192,140500,1,0,0:0:0:0:
192,192,140500,1,2,0:0:0:0:
192,192,140598,1,0,0:0:0:0:
448,192,140696,1,0,0:0:0:0:
64,192,140696,1,0,0:0:0:40:hithat.wav
192,192,140794,1,0,0:0:0:0:
448,192,140892,1,0,0:0:0:0:
320,192,140892,1,8,0:0:0:0:
64,192,140892,128,2,141284:0:0:0:0:
320,192,140990,1,0,0:0:0:0:
448,192,141088,1,0,0:0:0:0:
192,192,141088,1,0,0:0:0:40:hithat.wav
320,192,141186,1,0,0:0:0:0:
448,192,141284,1,0,0:0:0:0:
192,192,141284,1,2,0:0:0:0:
448,192,141382,1,0,0:0:0:0:
192,192,141480,1,0,0:0:0:0:
64,192,141480,1,0,0:0:0:40:hithat.wav
320,192,141578,1,0,0:0:0:0:
448,192,141676,1,0,0:0:0:0:
192,192,141676,1,8,0:0:0:0:
64,192,141676,1,2,0:0:0:0:
448,192,141774,1,0,0:0:0:0:
320,192,141872,1,0,0:0:0:0:
64,192,141872,1,0,0:0:0:40:hithat.wav
192,192,141970,1,0,0:0:0:40:hithat.wav
320,192,142068,1,0,0:0:0:60:fx-lower_yellow.wav
64,192,142068,1,2,0:0:0:0:
64,192,142166,1,0,0:0:0:0:
448,192,142264,1,0,0:0:0:0:
320,192,142264,1,0,0:0:0:40:hithat.wav
192,192,142362,1,0,0:0:0:0:
448,192,142460,1,0,0:0:0:60:fx-lower_yellow.wav
320,192,142460,1,8,0:0:0:0:
64,192,142460,1,2,0:0:0:0:
320,192,142558,1,0,0:0:0:0:
448,192,142656,128,0,142722:0:0:0:40:hithat.wav
320,192,142722,128,0,142787:0:0:0:0:
192,192,142787,128,0,142853:0:0:0:0:
448,192,142853,128,0,142951:0:0:0:60:fx-yellow.wav
64,192,142853,128,2,142951:0:0:0:0:
320,192,142951,1,0,0:0:0:60:fx-yellow.wav
320,192,143049,1,0,0:0:0:0:
192,192,143049,1,0,0:0:0:40:hithat.wav
64,192,143147,1,0,0:0:0:0:
448,192,143245,1,0,0:0:0:0:
320,192,143245,1,8,0:0:0:0:
192,192,143245,1,2,0:0:0:0:
448,192,143343,1,0,0:0:0:0:
320,192,143441,1,0,0:0:0:0:
64,192,143441,1,0,0:0:0:40:hithat.wav
192,192,143539,1,0,0:0:0:40:hithat.wav
320,192,143637,1,0,0:0:0:0:
64,192,143637,1,2,0:0:0:0:
64,192,143735,1,0,0:0:0:0:
320,192,143833,1,0,0:0:0:0:
192,192,143833,1,0,0:0:0:40:hithat.wav
448,192,143931,1,0,0:0:0:0:
320,192,144029,1,0,0:0:0:0:
192,192,144029,1,8,0:0:0:0:
64,192,144029,1,2,0:0:0:0:
192,192,144127,1,0,0:0:0:0:
320,192,144225,1,0,0:0:0:0:
64,192,144225,1,0,0:0:0:40:hithat.wav
448,192,144323,1,0,0:0:0:0:
320,192,144421,1,0,0:0:0:0:
192,192,144421,1,2,0:0:0:0:
64,192,144421,1,4,0:0:0:0:
64,192,144519,1,0,0:0:0:0:
448,192,144617,1,0,0:0:0:0:
192,192,144617,1,0,0:0:0:40:hithat.wav
320,192,144715,1,0,0:0:0:0:
448,192,144813,1,0,0:0:0:0:
192,192,144813,1,8,0:0:0:0:
64,192,144813,1,2,0:0:0:0:
64,192,144911,1,0,0:0:0:0:
448,192,145009,1,0,0:0:0:0:
320,192,145009,1,0,0:0:0:40:hithat.wav
192,192,145107,1,0,0:0:0:40:hithat.wav
448,192,145206,1,0,0:0:0:0:
64,192,145206,1,2,0:0:0:0:
448,192,145304,1,0,0:0:0:0:
320,192,145402,1,0,0:0:0:0:
64,192,145402,1,0,0:0:0:40:hithat.wav
192,192,145500,1,0,0:0:0:0:
448,192,145598,1,0,0:0:0:40:fx-lower_yellow.wav
320,192,145598,1,8,0:0:0:0:
64,192,145598,1,2,0:0:0:0:
320,192,145696,1,0,0:0:0:0:
448,192,145794,1,0,0:0:0:40:fx-lower_yellow.wav
64,192,145794,128,0,145859:0:0:0:40:hithat.wav
192,192,145859,128,0,145924:0:0:0:0:
320,192,145924,128,0,145990:0:0:0:0:
448,192,145990,128,2,146186:0:0:0:0:
192,192,145990,128,4,146186:0:0:0:0:
320,192,146186,1,0,0:0:0:0:
64,192,146186,1,0,0:0:0:40:hithat.wav
448,192,146284,1,0,0:0:0:0:
320,192,146382,1,0,0:0:0:0:
192,192,146382,1,8,0:0:0:0:
64,192,146382,1,2,0:0:0:0:
64,192,146480,1,0,0:0:0:0:
448,192,146578,1,0,0:0:0:0:
192,192,146578,1,0,0:0:0:40:hithat.wav
320,192,146676,1,0,0:0:0:40:hithat.wav
448,192,146774,1,0,0:0:0:0:
64,192,146774,1,2,0:0:0:0:
448,192,146872,1,0,0:0:0:0:
320,192,146970,1,0,0:0:0:40:hithat.wav
64,192,147068,1,0,0:0:0:0:
448,192,147166,1,0,0:0:0:0:
320,192,147166,1,8,0:0:0:0:
192,192,147166,1,2,0:0:0:0:
192,192,147264,1,0,0:0:0:0:
320,192,147362,1,0,0:0:0:40:hithat.wav
448,192,147460,1,0,0:0:0:0:
448,192,147558,128,0,148343:0:0:0:0:
320,192,147558,128,0,147656:0:0:0:0:
192,192,147558,128,4,147656:0:0:0:0:
64,192,147656,128,0,147755:0:0:0:0:
320,192,147755,128,0,147853:0:0:0:0:
192,192,147853,128,0,147951:0:0:0:0:
320,192,147951,128,0,148049:0:0:0:0:
64,192,147951,128,0,148049:0:0:0:0:
192,192,148049,128,0,148147:0:0:0:0:
320,192,148147,128,0,148245:0:0:0:0:
64,192,148245,128,0,148343:0:0:0:0:
320,192,148343,128,0,148392:0:0:0:0:
192,192,148343,128,4,148392:0:0:0:0:
448,192,148441,128,0,148490:0:0:0:0:
64,192,148441,128,0,148490:0:0:0:0:
320,192,148539,128,0,148588:0:0:0:0:
192,192,148539,128,0,148588:0:0:0:0:
448,192,148637,128,0,148686:0:0:0:0:
64,192,148637,128,0,148686:0:0:0:0:
320,192,148735,128,0,148833:0:0:0:0:
192,192,148735,128,0,148833:0:0:0:0:
64,192,148833,128,0,148931:0:0:0:0:
192,192,148931,128,0,149029:0:0:0:0:
320,192,149029,128,0,149127:0:0:0:0:
64,192,149127,1,2,0:0:0:0:
192,192,149176,1,0,0:0:0:0:
448,192,149225,1,0,0:0:0:0:
320,192,149274,1,0,0:0:0:0:
64,192,149323,1,0,0:0:0:0:
192,192,149372,1,0,0:0:0:0:
448,192,149421,1,0,0:0:0:0:
320,192,149470,1,0,0:0:0:0:
64,192,149519,1,0,0:0:0:0:
192,192,149568,1,0,0:0:0:0:
448,192,149617,1,0,0:0:0:0:
320,192,149666,1,0,0:0:0:0:
64,192,149715,1,0,0:0:0:0:
192,192,149764,1,0,0:0:0:0:
448,192,149813,1,0,0:0:0:0:
320,192,149862,1,0,0:0:0:0:
64,192,149911,1,0,0:0:0:0:
192,192,149960,1,0,0:0:0:0:
448,192,150009,1,0,0:0:0:0:
320,192,150058,1,0,0:0:0:0:
64,192,150107,1,0,0:0:0:0:
192,192,150156,1,0,0:0:0:0:
448,192,150206,1,0,0:0:0:0:
320,192,150255,1,0,0:0:0:0:
64,192,150304,1,0,0:0:0:0:
192,192,150353,1,0,0:0:0:0:
448,192,150402,1,0,0:0:0:0:
320,192,150451,1,0,0:0:0:0:
64,192,150500,1,0,0:0:0:0:
192,192,150549,1,0,0:0:0:0:
448,192,150598,1,0,0:0:0:0:
320,192,150647,1,0,0:0:0:0:
192,192,150696,1,0,0:0:0:0:
64,192,150696,1,0,0:0:0:100:impact.wav
320,192,152068,1,0,0:0:0:0:
192,192,152068,1,0,0:0:0:0:
448,192,153441,1,0,0:0:0:0:
320,192,153441,1,0,0:0:0:0:
320,192,153637,1,0,0:0:0:0:
64,192,153637,1,0,0:0:0:0:
448,192,155009,1,0,0:0:0:0:
192,192,155009,1,0,0:0:0:0:
320,192,155206,1,0,0:0:0:0:
192,192,155206,1,0,0:0:0:0:
448,192,155598,1,0,0:0:0:0:
320,192,155794,1,0,0:0:0:0:
192,192,155990,1,0,0:0:0:0:
64,192,155990,1,0,0:0:0:0:
448,192,156382,1,0,0:0:0:0:
320,192,156480,1,0,0:0:0:0:
192,192,156578,1,0,0:0:0:0:
448,192,156970,1,0,0:0:0:0:
192,192,156970,1,0,0:0:0:0:
320,192,158343,1,0,0:0:0:0:
64,192,158343,1,0,0:0:0:0:
448,192,159715,1,0,0:0:0:0:
320,192,159715,1,0,0:0:0:0:
320,192,159911,1,0,0:0:0:0:
64,192,159911,1,0,0:0:0:0:
320,192,161284,1,0,0:0:0:0:
64,192,161284,1,0,0:0:0:0:
192,192,161480,1,0,0:0:0:0:
64,192,161480,1,0,0:0:0:0:
320,192,161872,1,0,0:0:0:0:
192,192,162068,1,0,0:0:0:0:
192,192,162264,1,0,0:0:0:0:
64,192,162264,1,0,0:0:0:0:
320,192,162656,1,0,0:0:0:0:
192,192,162755,1,0,0:0:0:0:
64,192,162853,1,0,0:0:0:0:
448,192,163245,128,0,164617:0:0:0:0:
320,192,163245,1,0,0:0:0:0:
320,192,163539,1,0,0:0:0:0:
192,192,163539,1,0,0:0:0:0:
320,192,163833,1,0,0:0:0:0:
192,192,163931,1,0,0:0:0:0:
64,192,164029,1,0,0:0:0:0:
192,192,164127,1,0,0:0:0:0:
320,192,164323,1,0,0:0:0:0:
64,192,164421,1,0,0:0:0:0:
192,192,164617,128,0,165990:0:0:0:0:
64,192,164813,1,0,0:0:0:0:
320,192,164911,1,0,0:0:0:0:
448,192,165107,1,0,0:0:0:0:
320,192,165206,1,0,0:0:0:0:
64,192,165598,1,0,0:0:0:0:
320,192,165696,1,0,0:0:0:0:
448,192,165892,1,0,0:0:0:0:
320,192,165990,128,0,166186:0:0:0:0:
64,192,166186,128,0,167558:0:0:0:0:
448,192,166676,1,0,0:0:0:0:
192,192,166676,1,0,0:0:0:0:
320,192,166970,1,0,0:0:0:0:
192,192,166970,1,0,0:0:0:0:
448,192,167068,1,0,0:0:0:0:
192,192,167166,1,0,0:0:0:0:
320,192,167264,1,0,0:0:0:0:
448,192,167362,1,0,0:0:0:0:
192,192,167460,1,0,0:0:0:0:
320,192,167558,128,0,167755:0:0:0:0:
64,192,167656,1,0,0:0:0:0:
448,192,167755,128,0,168147:0:0:0:0:
64,192,167951,1,0,0:0:0:0:
192,192,168049,1,0,0:0:0:0:
320,192,168147,128,0,168343:0:0:0:0:
448,192,168245,1,0,0:0:0:0:
64,192,168245,1,0,0:0:0:0:
192,192,168343,128,0,168539:0:0:0:0:
64,192,168539,128,0,168931:0:0:0:0:
192,192,168735,1,0,0:0:0:0:
320,192,168833,1,0,0:0:0:0:
448,192,168931,128,0,169029:0:0:0:0:
320,192,169029,128,0,169127:0:0:0:0:
64,192,169029,1,0,0:0:0:0:
192,192,169127,128,0,169519:0:0:0:0:
64,192,169323,1,0,0:0:0:0:
448,192,169519,128,0,170892:0:0:0:0:
320,192,169519,1,0,0:0:0:0:
192,192,169617,1,0,0:0:0:0:
64,192,169617,1,0,0:0:0:0:
320,192,169715,1,0,0:0:0:0:
192,192,169813,1,0,0:0:0:0:
64,192,169911,1,0,0:0:0:0:
192,192,170107,1,0,0:0:0:0:
320,192,170206,1,0,0:0:0:0:
64,192,170304,1,0,0:0:0:0:
320,192,170402,1,0,0:0:0:0:
192,192,170500,1,0,0:0:0:0:
320,192,170598,1,0,0:0:0:0:
64,192,170598,1,0,0:0:0:0:
192,192,170696,1,0,0:0:0:0:
192,192,170892,128,0,172264:0:0:0:0:
320,192,171088,1,0,0:0:0:0:
448,192,171186,1,0,0:0:0:0:
448,192,171382,1,0,0:0:0:0:
64,192,171382,1,0,0:0:0:0:
320,192,171480,1,0,0:0:0:0:
320,192,171872,1,0,0:0:0:0:
448,192,171970,1,0,0:0:0:0:
448,192,172166,1,0,0:0:0:0:
320,192,172264,128,0,172460:0:0:0:0:
64,192,172460,128,0,173833:0:0:0:0:
448,192,173245,1,0,0:0:0:0:
320,192,173343,1,0,0:0:0:0:
448,192,173441,1,0,0:0:0:0:
192,192,173539,1,0,0:0:0:0:
448,192,173637,1,0,0:0:0:0:
320,192,173637,1,0,0:0:0:0:
192,192,173735,1,0,0:0:0:0:
448,192,173833,1,0,0:0:0:0:
320,192,173833,128,0,174029:0:0:0:0:
192,192,173931,1,0,0:0:0:0:
448,192,174029,128,0,174617:0:0:0:0:
64,192,174029,1,0,0:0:0:0:
320,192,174323,1,0,0:0:0:0:
192,192,174323,1,0,0:0:0:0:
192,192,174617,128,0,174813:0:0:0:0:
64,192,174813,128,0,175206:0:0:0:0:
448,192,175206,128,0,175304:0:0:0:0:
320,192,175304,128,0,175402:0:0:0:0:
192,192,175402,128,0,175794:0:0:0:0:
320,192,175696,128,0,175794:0:0:0:0:
448,192,175794,128,0,177166:0:0:0:0:
64,192,175794,128,0,176186:0:0:0:100:impact.wav
192,192,176186,128,0,176578:0:0:0:0:
64,192,176578,128,0,176774:0:0:0:0:
320,192,176774,128,0,177166:0:0:0:0:
192,192,177166,128,0,178539:0:0:0:0:
64,192,177166,128,0,177558:0:0:0:0:
448,192,177558,128,0,178147:0:0:0:0:
320,192,178147,1,0,0:0:0:0:
64,192,178147,128,0,178539:0:0:0:0:
320,192,178539,128,0,178735:0:0:0:0:
448,192,178735,1,0,0:0:0:0:
192,192,178735,128,0,180107:0:0:0:0:
64,192,178735,128,0,180107:0:0:0:0:
448,192,180107,128,0,180206:0:0:0:0:
320,192,180107,128,0,180304:0:0:0:0:
448,192,180304,128,0,180696:0:0:0:0:
192,192,180304,128,0,180402:0:0:0:0:
320,192,180696,128,0,180990:0:0:0:0:
448,192,180892,128,0,180990:0:0:0:0:
192,192,180892,128,0,181186:0:0:0:0:
320,192,181088,128,0,181186:0:0:0:0:
64,192,181088,128,0,181480:0:0:0:0:
448,192,181480,128,0,181578:0:0:0:0:
192,192,181480,1,0,0:0:0:0:
320,192,181578,1,0,0:0:0:0:
192,192,181578,128,0,181676:0:0:0:0:
448,192,181676,1,0,0:0:0:0:
64,192,181676,128,0,182068:0:0:0:0:
320,192,181774,1,0,0:0:0:0:
192,192,181872,1,0,0:0:0:0:
448,192,182068,128,0,183441:0:0:0:0:
320,192,182068,128,0,182460:0:0:0:0:
64,192,182460,128,0,182853:0:0:0:0:
192,192,182853,128,0,183147:0:0:0:0:
320,192,183147,128,0,183441:0:0:0:0:
192,192,183441,128,0,183931:0:0:0:0:
64,192,183441,128,0,184813:0:0:0:0:
320,192,183931,128,0,184421:0:0:0:0:
448,192,184225,128,0,184421:0:0:0:0:
192,192,184421,128,0,184813:0:0:0:0:
448,192,184715,128,0,184813:0:0:0:0:
320,192,184813,128,0,185009:0:0:0:0:
448,192,185009,128,0,186382:0:0:0:0:
64,192,185009,128,0,186382:0:0:0:0:
320,192,186382,1,0,0:0:0:0:
192,192,186382,128,0,186578:0:0:0:0:
448,192,186578,128,0,186970:0:0:0:0:
320,192,186578,128,0,186676:0:0:0:0:
320,192,186970,128,0,187264:0:0:0:0:
448,192,187166,128,0,187264:0:0:0:0:
192,192,187166,128,0,187460:0:0:0:0:
320,192,187362,128,0,187460:0:0:0:0:
64,192,187362,128,0,187755:0:0:0:0:
448,192,187755,128,0,187951:0:0:0:0:
320,192,187755,128,0,187951:0:0:0:0:
192,192,187951,128,0,188343:0:0:0:0:
64,192,187951,128,0,188147:0:0:0:0:
448,192,188343,128,0,189715:0:0:0:0:
320,192,188343,1,4,0:0:0:0:
64,192,188343,128,2,188735:0:0:0:0:
192,192,188735,128,0,189127:0:0:0:0:
320,192,189029,1,0,0:0:0:0:
64,192,189127,128,0,189323:0:0:0:0:
320,192,189323,128,0,189715:0:0:0:0:
192,192,189421,1,0,0:0:0:0:
192,192,189715,128,0,191088:0:0:0:0:
64,192,189715,128,0,190107:0:0:0:0:
320,192,189813,1,0,0:0:0:0:
448,192,190107,128,0,190696:0:0:0:0:
64,192,190206,1,0,0:0:0:0:
320,192,190598,1,0,0:0:0:0:
320,192,190696,1,0,0:0:0:0:
64,192,190696,128,0,191088:0:0:0:0:
320,192,191088,128,0,191284:0:0:0:0:
448,192,191284,1,0,0:0:0:0:
192,192,191284,128,0,192656:0:0:0:0:
64,192,191284,128,0,192656:0:0:0:0:
320,192,191382,1,0,0:0:0:0:
320,192,191676,1,0,0:0:0:0:
448,192,191774,1,0,0:0:0:0:
448,192,192068,1,0,0:0:0:0:
320,192,192166,1,0,0:0:0:0:
448,192,192656,1,0,0:0:0:0:
320,192,192706,1,0,0:0:0:0:
192,192,192755,1,0,0:0:0:0:
320,192,192804,1,0,0:0:0:0:
448,192,192853,128,0,193245:0:0:0:0:
64,192,192951,1,0,0:0:0:0:
320,192,193245,128,0,193539:0:0:0:0:
64,192,193343,1,0,0:0:0:0:
448,192,193441,128,0,193539:0:0:0:0:
192,192,193441,128,0,193735:0:0:0:0:
320,192,193637,128,0,193735:0:0:0:0:
64,192,193637,128,0,194029:0:0:0:0:
448,192,193735,1,0,0:0:0:0:
320,192,193833,1,0,0:0:0:0:
448,192,194029,128,0,194127:0:0:0:0:
192,192,194029,1,0,0:0:0:0:
320,192,194127,128,0,194225:0:0:0:0:
64,192,194225,128,0,194617:0:0:0:0:
192,192,194519,128,0,194617:0:0:0:0:
448,192,194617,1,0,0:0:0:0:
320,192,194666,1,0,0:0:0:0:
64,192,194715,1,0,0:0:0:0:
192,192,194764,1,0,0:0:0:0:
448,192,194813,128,0,195990:0:0:0:0:
320,192,194813,128,0,195009:0:0:0:0:
64,192,195009,128,0,195402:0:0:0:0:
192,192,195402,128,0,195598:0:0:0:0:
320,192,195598,128,0,195990:0:0:0:0:
64,192,195990,1,0,0:0:0:0:
320,192,196063,1,0,0:0:0:0:
64,192,196137,1,0,0:0:0:0:
320,192,196210,1,0,0:0:0:0:
192,192,196284,1,0,0:0:0:0:
448,192,196357,1,0,0:0:0:0:
192,192,196431,1,0,0:0:0:0:
448,192,196505,1,0,0:0:0:0:
192,192,196578,128,0,197362:0:0:0:0:
64,192,196578,128,0,197362:0:0:0:0:
448,192,196774,128,0,197166:0:0:0:0:
320,192,197362,128,0,197558:0:0:0:0:
448,192,197558,128,0,198931:0:0:0:0:
64,192,197558,128,0,198931:0:0:0:0:
320,192,198539,1,0,0:0:0:0:
192,192,198539,1,0,0:0:0:0:
320,192,198637,128,0,198735:0:0:0:0:
192,192,198637,128,0,198735:0:0:0:0:
320,192,198784,128,0,198882:0:0:0:0:
192,192,198784,128,0,198882:0:0:0:0:
320,192,198931,128,0,199127:0:0:0:0:
192,192,198931,128,0,199127:0:0:0:0:
448,192,199127,1,0,0:0:0:0:
64,192,199127,1,0,0:0:0:0:
320,192,199225,1,0,0:0:0:0:
192,192,199225,1,0,0:0:0:0:
448,192,199323,128,0,199617:0:0:0:0:
64,192,199323,128,0,199421:0:0:0:0:
320,192,199519,128,0,199813:0:0:0:0:
192,192,199519,128,0,199617:0:0:0:0:
448,192,199715,128,0,199813:0:0:0:0:
64,192,199715,128,0,199911:0:0:0:0:
448,192,199911,128,0,200304:0:0:0:0:
192,192,199911,128,0,200009:0:0:0:0:
320,192,200304,128,0,200500:0:0:0:0:
192,192,200402,128,0,200598:0:0:0:0:
64,192,200500,128,0,200892:0:0:0:0:
448,192,200892,1,0,0:0:0:0:
320,192,200892,1,4,0:0:0:0:
192,192,200892,1,2,0:0:0:0:
320,192,200990,1,0,0:0:0:0:
192,192,201088,1,0,0:0:0:0:
64,192,201186,1,0,0:0:0:0:
448,192,201284,1,0,0:0:0:0:
320,192,201382,1,0,0:0:0:0:
192,192,201480,128,0,201578:0:0:0:0:
64,192,201480,128,0,201578:0:0:0:0:
448,192,201578,1,0,0:0:0:0:
64,192,201676,1,0,0:0:0:0:
192,192,201774,1,0,0:0:0:0:
448,192,201872,128,0,201970:0:0:0:0:
320,192,201872,128,0,201970:0:0:0:0:
192,192,201970,1,0,0:0:0:0:
64,192,202068,1,0,0:0:0:0:
192,192,202166,1,0,0:0:0:0:
448,192,202264,128,0,202362:0:0:0:0:
320,192,202264,128,0,202362:0:0:0:0:
192,192,202362,128,0,202460:0:0:0:0:
64,192,202362,128,0,202460:0:0:0:0:
448,192,202460,1,0,0:0:0:8:normal-hitwhistle.wav
320,192,202558,1,0,0:0:0:0:
192,192,202656,128,0,202755:0:0:0:0:
64,192,202656,128,0,202755:0:0:0:8:normal-hitwhistle.wav
448,192,202755,128,0,202853:0:0:0:0:
320,192,202755,128,0,202853:0:0:0:0:
64,192,202853,1,0,0:0:0:8:normal-hitwhistle.wav
320,192,202951,1,0,0:0:0:0:
192,192,203049,128,0,203147:0:0:0:0:
64,192,203049,128,0,203147:0:0:0:8:normal-hitwhistle.wav
448,192,203147,128,0,203245:0:0:0:0:
320,192,203147,128,0,203245:0:0:0:0:
64,192,203245,1,0,0:0:0:10:normal-hitwhistle.wav
192,192,203343,1,0,0:0:0:0:
448,192,203441,128,0,203539:0:0:0:0:
320,192,203441,128,0,203539:0:0:0:12:normal-hitwhistle.wav
192,192,203539,128,0,203637:0:0:0:0:
64,192,203539,128,0,203637:0:0:0:0:
448,192,203637,1,0,0:0:0:14:normal-hitwhistle.wav
320,192,203735,1,0,0:0:0:0:
192,192,203833,128,0,203931:0:0:0:0:
64,192,203833,128,0,203931:0:0:0:16:normal-hitwhistle.wav
448,192,203931,128,0,204029:0:0:0:0:
320,192,203931,128,0,204029:0:0:0:0:
192,192,204029,1,0,0:0:0:0:
64,192,204029,1,0,0:0:0:18:normal-hitwhistle.wav
64,192,204127,128,0,204225:0:0:0:0:
448,192,204225,1,0,0:0:0:0:
192,192,204225,128,0,204323:0:0:0:20:normal-hitwhistle.wav
64,192,204323,128,0,204421:0:0:0:0:
448,192,204421,1,0,0:0:0:0:
192,192,204421,128,0,204519:0:0:0:22:normal-hitwhistle.wav
320,192,204519,128,0,204617:0:0:0:0:
192,192,204617,1,0,0:0:0:0:
64,192,204617,1,0,0:0:0:24:normal-hitwhistle.wav
448,192,204715,128,0,204813:0:0:0:0:
320,192,204813,1,0,0:0:0:0:
64,192,204813,1,0,0:0:0:26:normal-hitwhistle.wav
192,192,204911,128,0,205009:0:0:0:0:
448,192,205009,128,0,205107:0:0:0:0:
64,192,205009,1,0,0:0:0:28:normal-hitwhistle.wav
320,192,205107,128,0,205206:0:0:0:0:
192,192,205206,1,0,0:0:0:0:
64,192,205206,128,0,205304:0:0:0:30:normal-hitwhistle.wav
448,192,205304,128,0,205402:0:0:0:0:
320,192,205402,1,0,0:0:0:0:
64,192,205402,1,0,0:0:0:32:normal-hitwhistle.wav
192,192,205500,128,0,205598:0:0:0:0:
448,192,205598,1,0,0:0:0:0:
320,192,205598,1,0,0:0:0:34:normal-hitwhistle.wav
64,192,205696,128,0,205892:0:0:0:0:
320,192,205794,128,0,205990:0:0:0:36:normal-hitwhistle.wav
192,192,205892,128,0,206088:0:0:0:0:
448,192,205990,1,0,0:0:0:0:
64,192,205990,128,0,206186:0:0:0:38:normal-hitwhistle.wav
320,192,206088,128,0,206186:0:0:0:0:
448,192,206186,1,0,0:0:0:0:
192,192,206186,1,0,0:0:0:40:normal-hitwhistle.wav
64,192,206284,128,0,206382:0:0:0:0:
320,192,206382,1,0,0:0:0:0:
192,192,206382,1,2,0:0:0:0:
448,192,206480,128,0,206676:0:0:0:0:
192,192,206578,128,2,206774:0:0:0:0:
320,192,206676,128,0,206872:0:0:0:0:
448,192,206774,128,0,206970:0:0:0:0:
64,192,206774,1,2,0:0:0:0:
192,192,206872,128,0,206970:0:0:0:0:
320,192,206970,1,0,0:0:0:0:
64,192,206970,1,2,0:0:0:0:
448,192,207068,128,0,207166:0:0:0:0:
320,192,207166,1,0,0:0:0:0:
192,192,207166,1,2,0:0:0:0:
64,192,207264,128,0,207460:0:0:0:0:
448,192,207362,1,0,0:0:0:0:
192,192,207362,128,2,207558:0:0:0:0:
320,192,207460,128,0,207656:0:0:0:0:
448,192,207558,128,0,207755:0:0:0:0:
64,192,207558,1,2,0:0:0:0:
192,192,207656,128,0,207755:0:0:0:0:
320,192,207755,1,0,0:0:0:0:
64,192,207755,1,2,0:0:0:0:
448,192,207853,128,0,207951:0:0:0:0:
192,192,207951,1,0,0:0:0:0:
64,192,207951,1,2,0:0:0:0:
448,192,208049,128,0,208245:0:0:0:0:
320,192,208147,128,0,208343:0:0:0:0:
64,192,208147,1,2,0:0:0:0:
192,192,208245,128,0,208441:0:0:0:0:
448,192,208343,128,0,208441:0:0:0:0:
64,192,208343,128,2,208539:0:0:0:0:
320,192,208441,128,0,208539:0:0:0:0:
448,192,208539,1,0,0:0:0:0:
192,192,208539,1,2,0:0:0:0:
64,192,208637,128,0,208735:0:0:0:0:
448,192,208735,1,0,0:0:0:0:
320,192,208735,1,2,0:0:0:0:
64,192,208833,128,0,209029:0:0:0:0:
192,192,208931,128,2,209127:0:0:0:0:
320,192,209029,128,0,209225:0:0:0:0:
448,192,209127,128,2,209323:0:0:0:0:
192,192,209225,128,0,209519:0:0:0:0:
320,192,209323,1,0,0:0:0:0:
64,192,209323,1,2,0:0:0:0:
448,192,209421,128,0,209519:0:0:0:0:
320,192,209519,1,0,0:0:0:0:
64,192,209519,1,2,0:0:0:0:
448,192,209617,128,0,209813:0:0:0:0:
320,192,209715,128,2,209911:0:0:0:0:
192,192,209813,128,0,210009:0:0:0:0:
64,192,209911,128,2,210107:0:0:0:0:
320,192,210009,128,0,210304:0:0:0:0:
448,192,210107,1,0,0:0:0:0:
192,192,210107,1,2,0:0:0:0:
64,192,210206,128,0,210304:0:0:0:0:
448,192,210304,1,0,0:0:0:0:
192,192,210304,1,2,0:0:0:0:
448,192,210402,1,2,0:0:0:0:
320,192,210402,1,0,0:0:0:0:
192,192,210500,1,0,0:0:0:0:
64,192,210500,1,2,0:0:0:0:
64,192,210598,1,2,0:0:0:0:
192,192,210598,1,0,0:0:0:0:
448,192,210696,1,0,0:0:0:0:
320,192,210696,1,2,0:0:0:0:
448,192,210794,1,2,0:0:0:0:
320,192,210794,1,0,0:0:0:0:
192,192,210892,1,0,0:0:0:0:
64,192,210892,1,2,0:0:0:0:
64,192,210990,1,2,0:0:0:0:
192,192,210990,1,0,0:0:0:0:
448,192,211088,1,0,0:0:0:0:
320,192,211088,1,2,0:0:0:0:
448,192,211186,1,0,0:0:0:0:
320,192,211186,1,2,0:0:0:0:
192,192,211284,1,0,0:0:0:0:
64,192,211284,1,2,0:0:0:0:
192,192,211382,1,0,0:0:0:0:
64,192,211382,1,2,0:0:0:0:
448,192,211480,1,0,0:0:0:0:
320,192,211480,1,2,0:0:0:0:
448,192,211578,1,0,0:0:0:0:
320,192,211578,1,2,0:0:0:0:
192,192,211676,1,0,0:0:0:0:
64,192,211676,1,2,0:0:0:0:
192,192,211774,1,0,0:0:0:0:
64,192,211774,1,2,0:0:0:0:
448,192,211872,1,0,0:0:0:0:
320,192,211872,1,2,0:0:0:0:
192,192,211938,1,0,0:0:0:0:
64,192,211938,1,2,0:0:0:0:
448,192,212003,1,0,0:0:0:0:
320,192,212003,1,2,0:0:0:0:
192,192,212068,1,0,0:0:0:0:
64,192,212068,1,2,0:0:0:0:
448,192,212134,1,0,0:0:0:0:
320,192,212134,1,2,0:0:0:0:
192,192,212199,1,0,0:0:0:0:
64,192,212199,1,2,0:0:0:0:
448,192,212264,1,0,0:0:0:0:
320,192,212264,1,2,0:0:0:0:
192,192,212330,1,0,0:0:0:0:
64,192,212330,1,2,0:0:0:0:
448,192,212395,1,0,0:0:0:0:
320,192,212395,1,2,0:0:0:0:
192,192,212460,1,0,0:0:0:0:
64,192,212460,1,2,0:0:0:0:
448,192,212526,1,0,0:0:0:0:
320,192,212526,1,2,0:0:0:0:
192,192,212591,1,0,0:0:0:0:
64,192,212591,1,2,0:0:0:0:
448,192,212656,1,0,0:0:0:0:
320,192,212656,1,2,0:0:0:0:
192,192,212722,1,0,0:0:0:0:
64,192,212722,1,2,0:0:0:0:
448,192,212787,1,0,0:0:0:0:
320,192,212787,1,2,0:0:0:0:
192,192,212853,1,0,0:0:0:0:
64,192,212853,1,2,0:0:0:0:
448,192,212918,1,0,0:0:0:0:
320,192,212918,1,2,0:0:0:0:
192,192,212983,1,0,0:0:0:0:
64,192,212983,1,2,0:0:0:0:
448,192,213049,1,0,0:0:0:0:
320,192,213049,1,2,0:0:0:0:
192,192,213114,1,0,0:0:0:0:
64,192,213114,1,2,0:0:0:0:
448,192,213179,1,0,0:0:0:0:
320,192,213179,1,2,0:0:0:0:
192,192,213245,1,0,0:0:0:0:
64,192,213245,1,2,0:0:0:0:
448,192,213310,1,0,0:0:0:0:
320,192,213310,1,2,0:0:0:0:
192,192,213375,1,0,0:0:0:0:
64,192,213375,1,2,0:0:0:0:
448,192,213441,128,0,213539:0:0:0:0:
320,192,213441,128,2,213637:0:0:0:0:
192,192,213539,128,0,213735:0:0:0:0:
64,192,213637,128,0,213735:0:0:0:0:
448,192,213833,128,0,213931:0:0:0:0:
320,192,213931,128,0,214029:0:0:0:0:
192,192,214029,128,0,214127:0:0:0:0:
64,192,214127,1,0,0:0:0:0:
448,192,214225,128,0,214421:0:0:0:0:
320,192,214323,128,0,214715:0:0:0:0:
192,192,214421,128,0,214715:0:0:0:0:
448,192,214519,128,0,214715:0:0:0:0:
64,192,214715,1,0,0:0:0:0:
192,192,214813,1,0,0:0:0:0:
320,192,214911,1,0,0:0:0:0:
448,192,215009,128,4,215107:0:0:0:0:
64,192,215009,1,2,0:0:0:0:
192,192,215107,128,0,215206:0:0:0:0:
320,192,215206,128,0,215304:0:0:0:0:
64,192,215304,1,0,0:0:0:0:
320,192,215402,128,0,215500:0:0:0:0:
192,192,215500,128,0,215598:0:0:0:0:
448,192,215598,1,0,0:0:0:0:
192,192,215696,128,0,215794:0:0:0:0:
64,192,215794,1,0,0:0:0:0:
320,192,215892,128,0,215990:0:0:0:0:
192,192,215990,1,0,0:0:0:0:
448,192,216088,128,0,216186:0:0:0:0:
320,192,216186,1,0,0:0:0:0:
64,192,216284,128,0,216382:0:0:0:0:
192,192,216382,128,0,216480:0:0:0:0:
320,192,216480,128,0,216578:0:0:0:0:
192,192,216578,1,0,0:0:0:0:
64,192,216578,1,0,0:0:0:8:normal-hitwhistle.wav
192,192,216676,1,0,0:0:0:0:
64,192,216676,1,0,0:0:0:11:normal-hitwhistle.wav
448,192,216774,1,0,0:0:0:0:
320,192,216774,1,0,0:0:0:14:normal-hitwhistle.wav
448,192,216872,1,0,0:0:0:0:
320,192,216872,1,0,0:0:0:17:normal-hitwhistle.wav
192,192,216970,1,0,0:0:0:0:
64,192,216970,1,0,0:0:0:20:normal-hitwhistle.wav
192,192,217068,1,0,0:0:0:0:
64,192,217068,1,0,0:0:0:23:normal-hitwhistle.wav
448,192,217166,1,0,0:0:0:0:
320,192,217166,1,0,0:0:0:26:normal-hitwhistle.wav
448,192,217264,1,0,0:0:0:0:
320,192,217264,1,0,0:0:0:32:normal-hitwhistle.wav
192,192,217362,1,0,0:0:0:0:
64,192,217362,1,0,0:0:0:35:normal-hitwhistle.wav
320,192,217460,1,0,0:0:0:0:
64,192,217460,1,0,0:0:0:38:normal-hitwhistle.wav
320,192,217558,1,0,0:0:0:0:
192,192,217558,1,2,0:0:0:0:
448,192,217656,1,0,0:0:0:0:
192,192,217656,1,2,0:0:0:0:
448,192,217755,1,0,0:0:0:0:
320,192,217755,1,8,0:0:0:100:impact.wav
64,192,217755,128,2,218147:0:0:0:0:
448,192,218147,1,0,0:0:0:0:
320,192,218147,1,4,0:0:0:0:
192,192,218147,1,2,0:0:0:0:
192,192,218245,128,0,218343:0:0:0:0:
64,192,218245,128,0,218343:0:0:0:0:
448,192,218343,128,0,218441:0:0:0:0:
320,192,218343,1,0,0:0:0:40:hithat.wav
320,192,218441,1,0,0:0:0:0:
448,192,218539,1,0,0:0:0:0:
192,192,218539,128,8,218637:0:0:0:0:
64,192,218539,128,2,218637:0:0:0:0:
448,192,218637,128,0,218735:0:0:0:0:
320,192,218637,128,0,218735:0:0:0:0:
64,192,218735,1,0,0:0:0:40:hithat.wav
448,192,218833,128,0,218931:0:0:0:0:
64,192,218833,128,0,218931:0:0:0:0:
320,192,218931,1,0,0:0:0:0:
192,192,218931,1,2,0:0:0:0:
320,192,219029,128,0,219127:0:0:0:0:
64,192,219029,128,0,219127:0:0:0:0:
192,192,219127,1,0,0:0:0:40:hithat.wav
448,192,219225,1,0,0:0:0:0:
192,192,219225,128,0,219323:0:0:0:0:
448,192,219323,1,0,0:0:0:0:
320,192,219323,1,8,0:0:0:0:
64,192,219323,1,2,0:0:0:0:
192,192,219421,1,0,0:0:0:0:
320,192,219519,1,0,0:0:0:0:
64,192,219519,128,0,219617:0:0:0:40:hithat.wav
448,192,219617,128,0,219715:0:0:0:0:
320,192,219617,128,0,219715:0:0:0:0:
192,192,219715,1,0,0:0:0:0:
64,192,219715,1,2,0:0:0:0:
448,192,219813,128,0,219911:0:0:0:0:
320,192,219813,128,0,219911:0:0:0:0:
192,192,219911,1,0,0:0:0:0:
64,192,219911,128,0,220009:0:0:0:40:hithat.wav
192,192,220009,1,0,0:0:0:0:
448,192,220107,1,0,0:0:0:0:
320,192,220107,128,8,220206:0:0:0:0:
64,192,220107,128,2,220206:0:0:0:0:
448,192,220206,128,0,220304:0:0:0:0:
192,192,220206,128,0,220304:0:0:0:0:
64,192,220304,1,0,0:0:0:40:hithat.wav
320,192,220304,128,0,220402:0:0:0:0:
192,192,220402,128,0,220500:0:0:0:0:
64,192,220402,128,0,220500:0:0:0:40:hithat.wav
448,192,220500,1,0,0:0:0:0:
320,192,220500,1,2,0:0:0:0:
192,192,220598,128,0,220696:0:0:0:0:
64,192,220598,128,0,220696:0:0:0:0:
448,192,220696,1,0,0:0:0:0:
320,192,220696,128,0,220794:0:0:0:40:hithat.wav
448,192,220794,1,0,0:0:0:0:
320,192,220892,128,0,220990:0:0:0:0:
192,192,220892,128,8,220990:0:0:0:0:
64,192,220892,1,2,0:0:0:0:
448,192,220990,128,0,221088:0:0:0:0:
64,192,220990,128,0,221088:0:0:0:0:
320,192,221088,1,0,0:0:0:0:
192,192,221088,128,0,221186:0:0:0:40:hithat.wav
320,192,221186,128,0,221284:0:0:0:0:
64,192,221186,128,0,221284:0:0:0:0:
448,192,221284,1,0,0:0:0:0:
192,192,221284,1,2,0:0:0:0:
64,192,221382,1,0,0:0:0:0:
320,192,221480,1,0,0:0:0:0:
192,192,221480,128,0,221578:0:0:0:40:hithat.wav
320,192,221578,1,0,0:0:0:0:
448,192,221676,128,0,221774:0:0:0:0:
192,192,221676,128,8,221774:0:0:0:0:
64,192,221676,1,2,0:0:0:0:
320,192,221774,128,0,221872:0:0:0:0:
64,192,221774,128,0,221872:0:0:0:0:
448,192,221872,1,0,0:0:0:40:hithat.wav
448,192,221970,128,0,222068:0:0:0:0:
192,192,221970,128,0,222068:0:0:0:40:hithat.wav
320,192,222068,1,0,0:0:0:0:
64,192,222068,1,2,0:0:0:0:
448,192,222166,128,0,222264:0:0:0:0:
192,192,222166,128,0,222264:0:0:0:0:
320,192,222264,1,0,0:0:0:0:
64,192,222264,128,0,222362:0:0:0:40:hithat.wav
320,192,222362,128,0,222460:0:0:0:0:
192,192,222362,1,0,0:0:0:0:
448,192,222460,1,0,0:0:0:0:
192,192,222460,128,8,222558:0:0:0:0:
64,192,222460,128,2,222558:0:0:0:0:
448,192,222558,128,0,222656:0:0:0:0:
320,192,222558,128,0,222656:0:0:0:0:
64,192,222656,1,0,0:0:0:40:hithat.wav
320,192,222755,128,0,222853:0:0:0:0:
64,192,222755,128,0,222853:0:0:0:0:
448,192,222853,1,0,0:0:0:0:
192,192,222853,1,2,0:0:0:0:
448,192,222951,128,0,223049:0:0:0:0:
64,192,222951,128,0,223049:0:0:0:0:
320,192,223049,1,0,0:0:0:40:hithat.wav
320,192,223147,128,0,223245:0:0:0:0:
192,192,223147,1,0,0:0:0:0:
448,192,223245,128,0,223343:0:0:0:0:
192,192,223245,128,8,223343:0:0:0:0:
64,192,223245,1,2,0:0:0:0:
320,192,223343,128,0,223441:0:0:0:0:
64,192,223343,128,0,223441:0:0:0:0:
448,192,223441,1,0,0:0:0:0:
192,192,223441,128,0,223539:0:0:0:40:hithat.wav
448,192,223539,128,0,223637:0:0:0:0:
320,192,223539,128,0,223637:0:0:0:40:hithat.wav
192,192,223637,1,0,0:0:0:0:
64,192,223637,1,2,0:0:0:0:
448,192,223735,128,0,223833:0:0:0:0:
320,192,223735,128,0,223833:0:0:0:0:
192,192,223833,128,0,223931:0:0:0:0:
64,192,223833,1,0,0:0:0:40:hithat.wav
64,192,223931,1,0,0:0:0:0:
448,192,224029,128,0,224127:0:0:0:0:
320,192,224029,1,8,0:0:0:0:
192,192,224029,128,2,224127:0:0:0:0:
320,192,224127,128,0,224225:0:0:0:0:
64,192,224127,128,0,224225:0:0:0:0:
192,192,224225,1,0,0:0:0:40:hithat.wav
448,192,224323,128,0,224421:0:0:0:0:
192,192,224323,128,0,224421:0:0:0:0:
320,192,224421,1,0,0:0:0:0:
64,192,224421,1,2,0:0:0:0:
448,192,224519,128,0,224617:0:0:0:0:
192,192,224519,128,0,224617:0:0:0:0:
320,192,224617,1,0,0:0:0:0:
64,192,224617,128,0,224715:0:0:0:40:hithat.wav
320,192,224715,1,0,0:0:0:0:
448,192,224813,128,0,224911:0:0:0:0:
192,192,224813,1,8,0:0:0:0:
64,192,224813,128,2,224911:0:0:0:0:
320,192,224911,128,0,225009:0:0:0:0:
192,192,224911,128,0,225009:0:0:0:0:
448,192,225009,1,0,0:0:0:40:hithat.wav
448,192,225107,128,0,225206:0:0:0:0:
64,192,225107,128,0,225206:0:0:0:40:hithat.wav
320,192,225206,1,0,0:0:0:0:
192,192,225206,1,2,0:0:0:0:
320,192,225304,128,0,225402:0:0:0:0:
64,192,225304,128,0,225402:0:0:0:0:
192,192,225402,1,0,0:0:0:40:hithat.wav
448,192,225500,1,0,0:0:0:0:
192,192,225500,128,0,225598:0:0:0:0:
448,192,225598,1,0,0:0:0:0:
320,192,225598,1,8,0:0:0:0:
64,192,225598,1,2,0:0:0:0:
192,192,225696,1,0,0:0:0:0:
320,192,225794,1,0,0:0:0:0:
64,192,225794,128,0,225892:0:0:0:40:hithat.wav
320,192,225892,128,0,225990:0:0:0:0:
192,192,225892,128,0,225990:0:0:0:0:
448,192,225990,1,0,0:0:0:0:
64,192,225990,1,2,0:0:0:0:
320,192,226088,1,0,0:0:0:0:
64,192,226186,1,0,0:0:0:40:hithat.wav
64,192,226284,1,0,0:0:0:0:
448,192,226382,128,0,226480:0:0:0:0:
320,192,226382,1,8,0:0:0:0:
192,192,226382,128,2,226480:0:0:0:0:
320,192,226480,128,0,226578:0:0:0:0:
64,192,226480,128,0,226578:0:0:0:0:
448,192,226578,128,0,226676:0:0:0:0:
192,192,226578,1,0,0:0:0:40:hithat.wav
320,192,226676,128,0,226774:0:0:0:0:
192,192,226676,128,0,226774:0:0:0:40:hithat.wav
448,192,226774,1,0,0:0:0:0:
64,192,226774,1,2,0:0:0:0:
448,192,226872,128,0,226970:0:0:0:0:
192,192,226872,128,0,226970:0:0:0:0:
320,192,226970,1,0,0:0:0:40:hithat.wav
320,192,227068,128,0,227166:0:0:0:0:
64,192,227068,1,0,0:0:0:0:
448,192,227166,128,0,227264:0:0:0:0:
192,192,227166,1,8,0:0:0:0:
64,192,227166,128,2,227264:0:0:0:0:
320,192,227264,128,0,227362:0:0:0:0:
192,192,227264,128,0,227362:0:0:0:0:
448,192,227362,1,0,0:0:0:0:
64,192,227362,128,0,227460:0:0:0:40:hithat.wav
448,192,227460,128,0,227558:0:0:0:0:
192,192,227460,128,0,227558:0:0:0:0:
320,192,227558,1,0,0:0:0:0:
64,192,227558,1,2,0:0:0:0:
192,192,227656,1,0,0:0:0:0:
448,192,227755,128,0,227853:0:0:0:0:
64,192,227755,1,0,0:0:0:40:hithat.wav
64,192,227853,1,0,0:0:0:0:
448,192,227951,128,0,228049:0:0:0:0:
320,192,227951,128,2,228049:0:0:0:0:
192,192,227951,1,8,0:0:0:0:
192,192,228049,128,0,228147:0:0:0:0:
64,192,228049,128,0,228147:0:0:0:0:
320,192,228147,1,0,0:0:0:40:hithat.wav
320,192,228245,128,0,228343:0:0:0:0:
64,192,228245,128,0,228343:0:0:0:40:hithat.wav
448,192,228343,1,0,0:0:0:0:
192,192,228343,1,2,0:0:0:0:
320,192,228441,128,0,228539:0:0:0:0:
64,192,228441,128,0,228539:0:0:0:0:
448,192,228539,1,0,0:0:0:0:
192,192,228539,128,0,228637:0:0:0:40:hithat.wav
448,192,228637,1,0,0:0:0:0:
320,192,228735,128,0,228833:0:0:0:0:
192,192,228735,128,2,228833:0:0:0:0:
64,192,228735,1,8,0:0:0:0:
448,192,228833,128,0,228931:0:0:0:0:
64,192,228833,128,0,228931:0:0:0:0:
320,192,228931,1,0,0:0:0:40:hithat.wav
320,192,229029,128,0,229127:0:0:0:0:
64,192,229029,128,0,229127:0:0:0:0:
448,192,229127,1,0,0:0:0:0:
192,192,229127,1,2,0:0:0:0:
320,192,229225,128,0,229323:0:0:0:0:
192,192,229225,128,0,229323:0:0:0:0:
448,192,229323,1,0,0:0:0:40:hithat.wav
448,192,229421,128,0,229519:0:0:0:0:
64,192,229421,1,0,0:0:0:0:
320,192,229519,128,0,229617:0:0:0:0:
192,192,229519,1,2,0:0:0:0:
64,192,229519,128,8,229617:0:0:0:0:
192,192,229617,1,0,0:0:0:0:
448,192,229617,1,0,0:0:0:0:
320,192,229715,1,0,0:0:0:0:
64,192,229715,128,0,229813:0:0:0:40:hithat.wav
320,192,229813,128,0,229911:0:0:0:0:
192,192,229813,128,0,229911:0:0:0:40:hithat.wav
64,192,229911,1,2,0:0:0:0:
448,192,229911,128,0,230009:0:0:0:0:
320,192,230009,128,0,230107:0:0:0:0:
192,192,230009,128,0,230107:0:0:0:0:
448,192,230107,1,0,0:0:0:0:
64,192,230107,128,0,230206:0:0:0:40:hithat.wav
448,192,230206,128,0,230304:0:0:0:0:
192,192,230206,1,0,0:0:0:0:
320,192,230304,1,0,0:0:0:0:
192,192,230304,128,2,230402:0:0:0:0:
64,192,230304,128,8,230402:0:0:0:0:
448,192,230402,128,0,230598:0:0:0:0:
320,192,230402,128,0,230500:0:0:0:0:
192,192,230500,128,0,230598:0:0:0:0:
64,192,230500,1,0,0:0:0:40:hithat.wav
320,192,230598,1,0,0:0:0:0:
64,192,230598,128,0,230696:0:0:0:0:
448,192,230696,1,0,0:0:0:0:
320,192,230696,1,2,0:0:0:0:
192,192,230696,1,4,0:0:0:0:
192,192,230794,128,0,230892:0:0:0:0:
64,192,230794,128,0,230892:0:0:0:0:
448,192,230892,128,0,230990:0:0:0:0:
320,192,230892,1,0,0:0:0:40:hithat.wav
320,192,230990,1,0,0:0:0:0:
448,192,231088,1,0,0:0:0:0:
192,192,231088,128,8,231186:0:0:0:0:
64,192,231088,128,2,231186:0:0:0:0:
448,192,231186,128,0,231284:0:0:0:0:
320,192,231186,128,0,231284:0:0:0:0:
64,192,231284,1,0,0:0:0:40:hithat.wav
448,192,231382,128,0,231480:0:0:0:0:
64,192,231382,128,0,231480:0:0:0:0:
320,192,231480,1,0,0:0:0:0:
192,192,231480,1,2,0:0:0:0:
320,192,231578,128,0,231676:0:0:0:0:
64,192,231578,128,0,231676:0:0:0:0:
192,192,231676,1,0,0:0:0:40:hithat.wav
448,192,231774,1,0,0:0:0:0:
192,192,231774,128,0,231872:0:0:0:0:
448,192,231872,1,0,0:0:0:0:
320,192,231872,1,8,0:0:0:0:
64,192,231872,1,2,0:0:0:0:
192,192,231970,1,0,0:0:0:0:
320,192,232068,1,0,0:0:0:0:
64,192,232068,128,0,232166:0:0:0:40:hithat.wav
448,192,232166,128,0,232264:0:0:0:0:
320,192,232166,128,0,232264:0:0:0:0:
192,192,232264,1,0,0:0:0:0:
64,192,232264,1,2,0:0:0:0:
448,192,232362,128,0,232460:0:0:0:0:
320,192,232362,128,0,232460:0:0:0:0:
192,192,232460,1,0,0:0:0:0:
64,192,232460,128,0,232558:0:0:0:40:hithat.wav
192,192,232558,1,0,0:0:0:0:
448,192,232656,1,0,0:0:0:0:
320,192,232656,128,8,232755:0:0:0:0:
64,192,232656,128,2,232755:0:0:0:0:
448,192,232755,128,0,232853:0:0:0:0:
192,192,232755,128,0,232853:0:0:0:0:
64,192,232853,1,0,0:0:0:40:hithat.wav
320,192,232853,128,0,232951:0:0:0:0:
192,192,232951,128,0,233049:0:0:0:0:
64,192,232951,128,0,233049:0:0:0:0:
448,192,233049,1,0,0:0:0:0:
320,192,233049,1,2,0:0:0:0:
192,192,233147,128,0,233245:0:0:0:0:
64,192,233147,128,0,233245:0:0:0:0:
448,192,233245,1,0,0:0:0:0:
320,192,233245,128,0,233343:0:0:0:40:hithat.wav
448,192,233343,1,0,0:0:0:0:
320,192,233441,128,0,233539:0:0:0:0:
192,192,233441,128,8,233539:0:0:0:0:
64,192,233441,1,2,0:0:0:0:
448,192,233539,128,0,233637:0:0:0:0:
64,192,233539,128,0,233637:0:0:0:0:
320,192,233637,1,0,0:0:0:0:
192,192,233637,128,0,233735:0:0:0:40:hithat.wav
320,192,233735,128,0,233833:0:0:0:0:
64,192,233735,128,0,233833:0:0:0:0:
448,192,233833,1,0,0:0:0:0:
192,192,233833,1,2,0:0:0:0:
64,192,233931,1,0,0:0:0:0:
320,192,234029,1,0,0:0:0:0:
192,192,234029,128,0,234127:0:0:0:40:hithat.wav
320,192,234127,1,0,0:0:0:0:
448,192,234225,128,0,234323:0:0:0:0:
192,192,234225,128,2,234323:0:0:0:0:
64,192,234225,1,8,0:0:0:0:
320,192,234323,128,0,234421:0:0:0:0:
64,192,234323,128,0,234421:0:0:0:0:
448,192,234421,1,0,0:0:0:40:hithat.wav
448,192,234519,128,0,234617:0:0:0:0:
192,192,234519,128,0,234617:0:0:0:0:
320,192,234617,1,0,0:0:0:0:
64,192,234617,1,2,0:0:0:0:
448,192,234715,128,0,234813:0:0:0:0:
192,192,234715,128,0,234813:0:0:0:0:
320,192,234813,1,0,0:0:0:0:
64,192,234813,128,0,234911:0:0:0:40:hithat.wav
320,192,234911,128,0,235009:0:0:0:0:
192,192,234911,1,0,0:0:0:0:
448,192,235009,1,0,0:0:0:0:
192,192,235009,128,2,235107:0:0:0:0:
64,192,235009,128,8,235107:0:0:0:0:
448,192,235107,128,0,235206:0:0:0:0:
320,192,235107,128,0,235206:0:0:0:0:
64,192,235206,1,0,0:0:0:40:hithat.wav
320,192,235304,128,0,235402:0:0:0:0:
64,192,235304,128,0,235402:0:0:0:0:
448,192,235402,1,0,0:0:0:0:
192,192,235402,1,2,0:0:0:0:
448,192,235500,128,0,235598:0:0:0:0:
64,192,235500,128,0,235598:0:0:0:0:
320,192,235598,1,0,0:0:0:40:hithat.wav
320,192,235696,128,0,235794:0:0:0:0:
192,192,235696,1,0,0:0:0:0:
448,192,235794,128,0,235892:0:0:0:0:
192,192,235794,128,2,235892:0:0:0:0:
64,192,235794,1,8,0:0:0:0:
320,192,235892,128,0,235990:0:0:0:0:
64,192,235892,128,0,235990:0:0:0:0:
448,192,235990,1,0,0:0:0:0:
192,192,235990,128,0,236088:0:0:0:40:hithat.wav
448,192,236088,128,0,236186:0:0:0:0:
320,192,236088,128,0,236186:0:0:0:0:
192,192,236186,1,0,0:0:0:0:
64,192,236186,1,2,0:0:0:0:
448,192,236284,128,0,236382:0:0:0:0:
320,192,236284,128,0,236382:0:0:0:0:
192,192,236382,128,0,236480:0:0:0:0:
64,192,236382,1,0,0:0:0:40:hithat.wav
64,192,236480,1,0,0:0:0:0:
448,192,236578,128,0,236676:0:0:0:0:
320,192,236578,1,2,0:0:0:0:
192,192,236578,128,8,236676:0:0:0:0:
320,192,236676,128,0,236774:0:0:0:0:
64,192,236676,128,0,236774:0:0:0:0:
192,192,236774,1,0,0:0:0:40:hithat.wav
448,192,236872,128,0,236970:0:0:0:0:
192,192,236872,128,0,236970:0:0:0:0:
320,192,236970,1,0,0:0:0:0:
64,192,236970,1,2,0:0:0:0:
448,192,237068,128,0,237166:0:0:0:0:
192,192,237068,128,0,237166:0:0:0:0:
320,192,237166,1,0,0:0:0:0:
64,192,237166,128,0,237264:0:0:0:40:hithat.wav
320,192,237264,1,0,0:0:0:0:
448,192,237362,128,0,237460:0:0:0:0:
192,192,237362,1,8,0:0:0:0:
64,192,237362,128,2,237460:0:0:0:0:
320,192,237460,128,0,237558:0:0:0:0:
192,192,237460,128,0,237558:0:0:0:0:
448,192,237558,1,0,0:0:0:40:hithat.wav
448,192,237656,128,0,237755:0:0:0:0:
64,192,237656,128,0,237755:0:0:0:0:
320,192,237755,1,0,0:0:0:0:
192,192,237755,1,2,0:0:0:0:
320,192,237853,128,0,237951:0:0:0:0:
64,192,237853,128,0,237951:0:0:0:0:
192,192,237951,1,0,0:0:0:40:hithat.wav
448,192,238049,1,0,0:0:0:0:
192,192,238049,128,0,238147:0:0:0:0:
448,192,238147,1,0,0:0:0:0:
320,192,238147,1,8,0:0:0:0:
64,192,238147,1,2,0:0:0:0:
192,192,238245,1,0,0:0:0:0:
320,192,238343,1,0,0:0:0:0:
64,192,238343,128,0,238441:0:0:0:40:hithat.wav
320,192,238441,128,0,238539:0:0:0:0:
192,192,238441,128,0,238539:0:0:0:0:
448,192,238539,1,0,0:0:0:0:
64,192,238539,1,2,0:0:0:0:
320,192,238637,1,0,0:0:0:0:
64,192,238735,1,0,0:0:0:40:hithat.wav
64,192,238833,1,0,0:0:0:0:
448,192,238931,128,0,239029:0:0:0:0:
320,192,238931,1,8,0:0:0:0:
192,192,238931,128,2,239029:0:0:0:0:
320,192,239029,128,0,239127:0:0:0:0:
64,192,239029,128,0,239127:0:0:0:0:
448,192,239127,128,0,239225:0:0:0:0:
192,192,239127,1,0,0:0:0:40:hithat.wav
320,192,239225,128,0,239323:0:0:0:0:
192,192,239225,128,0,239323:0:0:0:0:
448,192,239323,1,0,0:0:0:0:
64,192,239323,1,2,0:0:0:0:
448,192,239421,128,0,239519:0:0:0:0:
192,192,239421,128,0,239519:0:0:0:0:
320,192,239519,1,0,0:0:0:40:hithat.wav
320,192,239617,128,0,239715:0:0:0:0:
64,192,239617,1,0,0:0:0:0:
448,192,239715,128,0,239813:0:0:0:0:
192,192,239715,1,8,0:0:0:0:
64,192,239715,128,2,239813:0:0:0:0:
320,192,239813,128,0,239911:0:0:0:0:
192,192,239813,128,0,239911:0:0:0:0:
448,192,239911,1,0,0:0:0:0:
64,192,239911,128,0,240009:0:0:0:40:hithat.wav
448,192,240009,128,0,240107:0:0:0:0:
192,192,240009,128,0,240107:0:0:0:0:
320,192,240107,1,0,0:0:0:0:
64,192,240107,1,2,0:0:0:0:
192,192,240206,1,0,0:0:0:0:
448,192,240304,128,0,240402:0:0:0:0:
64,192,240304,1,0,0:0:0:40:hithat.wav
64,192,240402,1,0,0:0:0:0:
448,192,240500,128,0,240598:0:0:0:0:
320,192,240500,128,2,240598:0:0:0:0:
192,192,240500,1,8,0:0:0:0:
192,192,240598,128,0,240696:0:0:0:0:
64,192,240598,128,0,240696:0:0:0:0:
320,192,240696,1,0,0:0:0:40:hithat.wav
320,192,240794,128,0,240892:0:0:0:0:
64,192,240794,128,0,240892:0:0:0:0:
448,192,240892,1,0,0:0:0:0:
192,192,240892,1,2,0:0:0:0:
320,192,240990,128,0,241088:0:0:0:0:
64,192,240990,128,0,241088:0:0:0:0:
448,192,241088,1,0,0:0:0:0:
192,192,241088,128,0,241186:0:0:0:40:hithat.wav
448,192,241186,1,0,0:0:0:0:
320,192,241284,128,0,241382:0:0:0:0:
192,192,241284,128,2,241382:0:0:0:0:
64,192,241284,1,8,0:0:0:0:
448,192,241382,128,0,241480:0:0:0:0:
64,192,241382,128,0,241480:0:0:0:0:
320,192,241480,1,0,0:0:0:40:hithat.wav
320,192,241578,128,0,241676:0:0:0:0:
192,192,241578,128,0,241676:0:0:0:0:
448,192,241676,1,0,0:0:0:0:
64,192,241676,1,2,0:0:0:0:
320,192,241774,128,0,241872:0:0:0:0:
64,192,241774,128,0,241872:0:0:0:0:
448,192,241872,1,0,0:0:0:40:hithat.wav
448,192,241970,128,0,242068:0:0:0:0:
192,192,241970,1,0,0:0:0:0:
320,192,242068,128,0,242166:0:0:0:0:
192,192,242068,128,2,242166:0:0:0:0:
64,192,242068,1,8,0:0:0:0:
448,192,242166,128,0,242264:0:0:0:0:
64,192,242166,128,0,242264:0:0:0:0:
320,192,242264,1,0,0:0:0:0:
192,192,242264,128,0,242362:0:0:0:40:hithat.wav
320,192,242362,128,0,242460:0:0:0:0:
64,192,242362,128,0,242460:0:0:0:0:
192,192,242460,1,2,0:0:0:0:
448,192,242460,128,0,242558:0:0:0:0:
320,192,242558,128,0,242656:0:0:0:0:
64,192,242558,128,0,242656:0:0:0:0:
448,192,242656,1,0,0:0:0:0:
192,192,242656,128,0,242755:0:0:0:40:hithat.wav
448,192,242755,128,0,242902:0:0:0:0:
320,192,242755,128,0,242804:0:0:0:0:
320,192,242853,128,0,243000:0:0:0:0:
192,192,242853,1,2,0:0:0:0:
64,192,242853,1,8,0:0:0:0:
448,192,242951,128,0,243098:0:0:0:0:
192,192,242951,1,0,0:0:0:0:
64,192,242951,1,2,0:0:0:0:
320,192,243049,128,0,243196:0:0:0:0:
192,192,243049,1,0,0:0:0:40:hithat.wav
64,192,243049,1,2,0:0:0:0:
448,192,243147,128,0,243245:0:0:0:0:
192,192,243147,1,0,0:0:0:0:
64,192,243147,1,2,0:0:0:0:
320,192,243245,1,0,0:0:0:0:
64,192,243343,1,0,0:0:0:0:
192,192,243441,1,0,0:0:0:0:
320,192,243539,1,0,0:0:0:0:
448,192,243637,1,8,0:0:0:0:
192,192,243637,128,4,243735:0:0:0:0:
64,192,243637,128,2,243735:0:0:0:0:
448,192,243735,128,0,243833:0:0:0:0:
320,192,243735,128,0,243833:0:0:0:0:
64,192,243833,1,0,0:0:0:40:hithat.wav
448,192,243931,128,0,244029:0:0:0:0:
64,192,243931,128,0,244029:0:0:0:0:
320,192,244029,1,0,0:0:0:0:
192,192,244029,1,2,0:0:0:0:
320,192,244127,128,0,244225:0:0:0:0:
64,192,244127,128,0,244225:0:0:0:0:
192,192,244225,1,0,0:0:0:40:hithat.wav
448,192,244323,1,0,0:0:0:0:
192,192,244323,128,0,244421:0:0:0:0:
448,192,244421,1,0,0:0:0:0:
320,192,244421,1,8,0:0:0:0:
64,192,244421,1,2,0:0:0:0:
192,192,244519,1,0,0:0:0:0:
320,192,244617,1,0,0:0:0:0:
64,192,244617,128,0,244715:0:0:0:40:hithat.wav
448,192,244715,128,0,244813:0:0:0:0:
320,192,244715,128,0,244813:0:0:0:0:
192,192,244813,1,0,0:0:0:0:
64,192,244813,1,2,0:0:0:0:
448,192,244911,128,0,245009:0:0:0:0:
320,192,244911,128,0,245009:0:0:0:0:
192,192,245009,1,0,0:0:0:0:
64,192,245009,128,0,245107:0:0:0:40:hithat.wav
192,192,245107,1,0,0:0:0:0:
448,192,245206,1,0,0:0:0:0:
320,192,245206,128,8,245304:0:0:0:0:
64,192,245206,128,2,245304:0:0:0:0:
448,192,245304,128,0,245402:0:0:0:0:
192,192,245304,128,0,245402:0:0:0:0:
64,192,245402,1,0,0:0:0:40:hithat.wav
320,192,245402,128,0,245500:0:0:0:0:
192,192,245500,128,0,245598:0:0:0:0:
64,192,245500,128,0,245598:0:0:0:0:
448,192,245598,1,0,0:0:0:0:
320,192,245598,1,2,0:0:0:0:
192,192,245696,128,0,245794:0:0:0:0:
64,192,245696,128,0,245794:0:0:0:0:
448,192,245794,1,0,0:0:0:0:
320,192,245794,128,0,245892:0:0:0:40:hithat.wav
448,192,245892,1,0,0:0:0:0:
320,192,245990,128,0,246088:0:0:0:0:
192,192,245990,128,8,246088:0:0:0:0:
64,192,245990,1,2,0:0:0:0:
448,192,246088,128,0,246186:0:0:0:0:
64,192,246088,128,0,246186:0:0:0:0:
320,192,246186,1,0,0:0:0:0:
192,192,246186,128,0,246284:0:0:0:40:hithat.wav
320,192,246284,128,0,246382:0:0:0:0:
64,192,246284,128,0,246382:0:0:0:0:
448,192,246382,1,0,0:0:0:0:
192,192,246382,1,2,0:0:0:0:
64,192,246480,1,0,0:0:0:0:
320,192,246578,1,0,0:0:0:0:
192,192,246578,128,0,246676:0:0:0:40:hithat.wav
320,192,246676,1,0,0:0:0:0:
448,192,246774,128,0,246872:0:0:0:0:
192,192,246774,128,8,246872:0:0:0:0:
64,192,246774,1,2,0:0:0:0:
320,192,246872,128,0,246970:0:0:0:0:
64,192,246872,128,0,246970:0:0:0:0:
448,192,246970,1,0,0:0:0:40:hithat.wav
448,192,247068,128,0,247166:0:0:0:0:
192,192,247068,128,0,247166:0:0:0:0:
320,192,247166,1,0,0:0:0:0:
64,192,247166,1,2,0:0:0:0:
448,192,247264,128,0,247362:0:0:0:0:
192,192,247264,128,0,247362:0:0:0:0:
320,192,247362,1,0,0:0:0:0:
64,192,247362,128,0,247460:0:0:0:40:hithat.wav
320,192,247460,128,0,247558:0:0:0:0:
192,192,247460,1,0,0:0:0:0:
448,192,247558,1,0,0:0:0:0:
192,192,247558,128,8,247656:0:0:0:0:
64,192,247558,128,2,247656:0:0:0:0:
448,192,247656,128,0,247755:0:0:0:0:
320,192,247656,128,0,247755:0:0:0:0:
64,192,247755,1,0,0:0:0:40:hithat.wav
320,192,247853,128,0,247951:0:0:0:0:
64,192,247853,128,0,247951:0:0:0:0:
448,192,247951,1,0,0:0:0:0:
192,192,247951,1,2,0:0:0:0:
448,192,248049,128,0,248147:0:0:0:0:
64,192,248049,128,0,248147:0:0:0:0:
320,192,248147,1,0,0:0:0:40:hithat.wav
320,192,248245,128,0,248343:0:0:0:0:
192,192,248245,1,0,0:0:0:0:
448,192,248343,128,0,248441:0:0:0:0:
192,192,248343,128,8,248441:0:0:0:0:
64,192,248343,1,2,0:0:0:0:
320,192,248441,128,0,248539:0:0:0:0:
64,192,248441,128,0,248539:0:0:0:0:
448,192,248539,1,0,0:0:0:0:
192,192,248539,128,0,248637:0:0:0:40:hithat.wav
448,192,248637,128,0,248735:0:0:0:0:
320,192,248637,128,0,248735:0:0:0:0:
192,192,248735,1,0,0:0:0:0:
64,192,248735,1,2,0:0:0:0:
448,192,248833,128,0,248931:0:0:0:0:
320,192,248833,128,0,248931:0:0:0:0:
192,192,248931,128,0,249029:0:0:0:0:
64,192,248931,1,0,0:0:0:40:hithat.wav
64,192,249029,1,0,0:0:0:0:
448,192,249127,128,0,249225:0:0:0:0:
320,192,249127,1,8,0:0:0:0:
192,192,249127,128,2,249225:0:0:0:0:
320,192,249225,128,0,249323:0:0:0:0:
64,192,249225,128,0,249323:0:0:0:0:
192,192,249323,1,0,0:0:0:40:hithat.wav
448,192,249421,128,0,249519:0:0:0:0:
192,192,249421,128,0,249519:0:0:0:0:
320,192,249519,1,0,0:0:0:0:
64,192,249519,1,2,0:0:0:0:
448,192,249617,128,0,249715:0:0:0:0:
192,192,249617,128,0,249715:0:0:0:0:
320,192,249715,1,0,0:0:0:0:
64,192,249715,128,0,249813:0:0:0:40:hithat.wav
320,192,249813,1,0,0:0:0:0:
448,192,249911,128,0,250009:0:0:0:0:
192,192,249911,1,8,0:0:0:0:
64,192,249911,128,2,250009:0:0:0:0:
320,192,250009,128,0,250107:0:0:0:0:
192,192,250009,128,0,250107:0:0:0:0:
448,192,250107,1,0,0:0:0:40:hithat.wav
448,192,250206,128,0,250304:0:0:0:0:
64,192,250206,128,0,250304:0:0:0:40:hithat.wav
320,192,250304,1,0,0:0:0:0:
192,192,250304,1,2,0:0:0:0:
320,192,250402,128,0,250500:0:0:0:0:
64,192,250402,128,0,250500:0:0:0:0:
192,192,250500,1,0,0:0:0:40:hithat.wav
448,192,250598,1,0,0:0:0:0:
192,192,250598,128,0,250696:0:0:0:0:
448,192,250696,1,0,0:0:0:0:
320,192,250696,1,8,0:0:0:0:
64,192,250696,1,2,0:0:0:0:
192,192,250794,1,0,0:0:0:0:
320,192,250892,1,0,0:0:0:0:
64,192,250892,128,0,250990:0:0:0:40:hithat.wav
320,192,250990,128,0,251088:0:0:0:0:
192,192,250990,128,0,251088:0:0:0:0:
448,192,251088,1,0,0:0:0:0:
64,192,251088,1,2,0:0:0:0:
320,192,251186,1,0,0:0:0:0:
64,192,251284,1,0,0:0:0:40:hithat.wav
64,192,251382,1,0,0:0:0:0:
448,192,251480,128,0,251578:0:0:0:0:
320,192,251480,1,8,0:0:0:0:
192,192,251480,128,2,251578:0:0:0:0:
320,192,251578,128,0,251676:0:0:0:0:
64,192,251578,128,0,251676:0:0:0:0:
448,192,251676,128,0,251774:0:0:0:0:
192,192,251676,1,0,0:0:0:40:hithat.wav
320,192,251774,128,0,251872:0:0:0:0:
192,192,251774,128,0,251872:0:0:0:40:hithat.wav
448,192,251872,1,0,0:0:0:0:
64,192,251872,1,2,0:0:0:0:
448,192,251970,128,0,252068:0:0:0:0:
192,192,251970,128,0,252068:0:0:0:0:
320,192,252068,1,0,0:0:0:40:hithat.wav
320,192,252166,128,0,252264:0:0:0:0:
64,192,252166,1,0,0:0:0:0:
448,192,252264,128,0,252362:0:0:0:0:
192,192,252264,1,8,0:0:0:0:
64,192,252264,128,2,252362:0:0:0:0:
320,192,252362,128,0,252460:0:0:0:0:
192,192,252362,128,0,252460:0:0:0:0:
448,192,252460,1,0,0:0:0:0:
64,192,252460,128,0,252558:0:0:0:40:hithat.wav
448,192,252558,128,0,252656:0:0:0:0:
192,192,252558,128,0,252656:0:0:0:0:
320,192,252656,1,0,0:0:0:0:
64,192,252656,1,2,0:0:0:0:
192,192,252755,1,0,0:0:0:0:
448,192,252853,128,0,252951:0:0:0:0:
64,192,252853,1,0,0:0:0:40:hithat.wav
64,192,252951,1,0,0:0:0:0:
448,192,253049,128,0,253147:0:0:0:0:
320,192,253049,128,2,253147:0:0:0:0:
192,192,253049,1,8,0:0:0:0:
192,192,253147,128,0,253245:0:0:0:0:
64,192,253147,128,0,253245:0:0:0:0:
320,192,253245,1,0,0:0:0:40:hithat.wav
320,192,253343,128,0,253441:0:0:0:0:
64,192,253343,128,0,253441:0:0:0:40:hithat.wav
448,192,253441,1,0,0:0:0:0:
192,192,253441,1,2,0:0:0:0:
320,192,253539,128,0,253637:0:0:0:0:
64,192,253539,128,0,253637:0:0:0:0:
448,192,253637,1,0,0:0:0:0:
192,192,253637,128,0,253735:0:0:0:40:hithat.wav
448,192,253735,1,0,0:0:0:0:
320,192,253833,128,0,253931:0:0:0:0:
192,192,253833,128,2,253931:0:0:0:0:
64,192,253833,1,8,0:0:0:0:
448,192,253931,128,0,254029:0:0:0:0:
64,192,253931,128,0,254029:0:0:0:0:
320,192,254029,1,0,0:0:0:40:hithat.wav
320,192,254127,128,0,254225:0:0:0:0:
64,192,254127,128,0,254225:0:0:0:0:
448,192,254225,1,0,0:0:0:0:
192,192,254225,1,2,0:0:0:0:
320,192,254323,128,0,254421:0:0:0:0:
192,192,254323,128,0,254421:0:0:0:0:
448,192,254421,1,0,0:0:0:40:hithat.wav
448,192,254519,128,0,254617:0:0:0:0:
64,192,254519,1,0,0:0:0:0:
320,192,254617,128,0,254715:0:0:0:0:
192,192,254617,1,2,0:0:0:0:
64,192,254617,128,8,254715:0:0:0:0:
448,192,254715,128,0,254813:0:0:0:0:
192,192,254715,128,0,254813:0:0:0:0:
320,192,254813,1,0,0:0:0:0:
64,192,254813,128,0,254911:0:0:0:40:hithat.wav
448,192,254911,128,0,255009:0:0:0:0:
320,192,254911,128,0,255009:0:0:0:40:hithat.wav
64,192,255009,1,2,0:0:0:0:
192,192,255009,128,0,255107:0:0:0:0:
448,192,255107,128,0,255206:0:0:0:0:
320,192,255107,128,0,255206:0:0:0:0:
192,192,255206,128,0,255304:0:0:0:0:
64,192,255206,128,0,255304:0:0:0:40:hithat.wav
320,192,255304,128,0,255402:0:0:0:0:
448,192,255402,1,0,0:0:0:0:
192,192,255402,1,2,0:0:0:0:
64,192,255402,1,8,0:0:0:0:
448,192,255500,1,0,0:0:0:0:
192,192,255500,1,0,0:0:0:0:
64,192,255500,1,2,0:0:0:0:
448,192,255598,1,0,0:0:0:0:
192,192,255598,1,0,0:0:0:40:hithat.wav
64,192,255598,1,2,0:0:0:0:
448,192,255696,1,0,0:0:0:0:
192,192,255696,1,0,0:0:0:0:
64,192,255696,1,2,0:0:0:0:
448,192,255794,1,2,0:0:0:0:
320,192,255794,1,4,0:0:0:0:
192,192,255892,128,0,255990:0:0:0:0:
64,192,255892,128,0,255990:0:0:0:0:
448,192,255990,128,0,256088:0:0:0:0:
320,192,255990,1,0,0:0:0:40:hithat.wav
320,192,256088,1,0,0:0:0:0:
448,192,256186,1,0,0:0:0:0:
192,192,256186,128,8,256284:0:0:0:0:
64,192,256186,128,2,256284:0:0:0:0:
448,192,256284,128,0,256382:0:0:0:0:
320,192,256284,128,0,256382:0:0:0:0:
64,192,256382,1,0,0:0:0:40:hithat.wav
448,192,256480,128,0,256578:0:0:0:0:
64,192,256480,128,0,256578:0:0:0:40:hithat.wav
320,192,256578,1,0,0:0:0:0:
192,192,256578,1,2,0:0:0:0:
320,192,256676,128,0,256774:0:0:0:0:
64,192,256676,128,0,256774:0:0:0:0:
192,192,256774,1,0,0:0:0:40:hithat.wav
448,192,256872,1,0,0:0:0:0:
192,192,256872,128,0,256970:0:0:0:0:
448,192,256970,1,0,0:0:0:0:
320,192,256970,1,8,0:0:0:0:
64,192,256970,1,2,0:0:0:0:
192,192,257068,1,0,0:0:0:0:
320,192,257166,1,0,0:0:0:0:
64,192,257166,128,0,257264:0:0:0:40:hithat.wav
448,192,257264,128,0,257362:0:0:0:0:
320,192,257264,128,0,257362:0:0:0:0:
192,192,257362,1,0,0:0:0:0:
64,192,257362,1,2,0:0:0:0:
448,192,257460,128,0,257558:0:0:0:0:
320,192,257460,128,0,257558:0:0:0:0:
192,192,257558,1,0,0:0:0:0:
64,192,257558,128,0,257656:0:0:0:40:hithat.wav
192,192,257656,1,0,0:0:0:0:
448,192,257755,1,0,0:0:0:0:
320,192,257755,128,8,257853:0:0:0:0:
64,192,257755,128,2,257853:0:0:0:0:
448,192,257853,128,0,257951:0:0:0:0:
192,192,257853,128,0,257951:0:0:0:0:
64,192,257951,1,0,0:0:0:40:hithat.wav
320,192,258049,128,0,258147:0:0:0:0:
64,192,258049,128,0,258147:0:0:0:40:hithat.wav
448,192,258147,1,0,0:0:0:0:
192,192,258147,1,2,0:0:0:0:
320,192,258245,128,0,258343:0:0:0:0:
64,192,258245,128,0,258343:0:0:0:0:
448,192,258343,1,0,0:0:0:0:
192,192,258343,128,0,258441:0:0:0:40:hithat.wav
448,192,258441,1,0,0:0:0:0:
320,192,258539,128,0,258637:0:0:0:0:
192,192,258539,128,8,258637:0:0:0:0:
64,192,258539,1,2,0:0:0:0:
448,192,258637,128,0,258735:0:0:0:0:
64,192,258637,128,0,258735:0:0:0:0:
320,192,258735,1,0,0:0:0:0:
192,192,258735,128,0,258833:0:0:0:40:hithat.wav
320,192,258833,128,0,258931:0:0:0:0:
64,192,258833,128,0,258931:0:0:0:0:
448,192,258931,1,0,0:0:0:0:
192,192,258931,1,2,0:0:0:0:
64,192,259029,1,0,0:0:0:0:
320,192,259127,1,0,0:0:0:0:
192,192,259127,128,0,259225:0:0:0:40:hithat.wav
320,192,259225,1,0,0:0:0:0:
448,192,259323,128,0,259421:0:0:0:0:
192,192,259323,128,2,259421:0:0:0:0:
64,192,259323,1,8,0:0:0:0:
320,192,259421,128,0,259519:0:0:0:0:
64,192,259421,128,0,259519:0:0:0:0:
448,192,259519,1,0,0:0:0:40:hithat.wav
448,192,259617,128,0,259715:0:0:0:0:
192,192,259617,128,0,259715:0:0:0:40:hithat.wav
320,192,259715,1,0,0:0:0:0:
64,192,259715,1,2,0:0:0:0:
448,192,259813,128,0,259911:0:0:0:0:
192,192,259813,128,0,259911:0:0:0:0:
320,192,259911,1,0,0:0:0:0:
64,192,259911,128,0,260009:0:0:0:40:hithat.wav
320,192,260009,128,0,260107:0:0:0:0:
192,192,260009,1,0,0:0:0:0:
448,192,260107,1,0,0:0:0:0:
192,192,260107,128,2,260206:0:0:0:0:
64,192,260107,128,8,260206:0:0:0:0:
448,192,260206,128,0,260304:0:0:0:0:
320,192,260206,128,0,260304:0:0:0:0:
64,192,260304,1,0,0:0:0:40:hithat.wav
320,192,260402,128,0,260500:0:0:0:0:
64,192,260402,128,0,260500:0:0:0:0:
448,192,260500,1,0,0:0:0:0:
192,192,260500,1,2,0:0:0:0:
448,192,260598,128,0,260696:0:0:0:0:
64,192,260598,128,0,260696:0:0:0:0:
320,192,260696,1,0,0:0:0:40:hithat.wav
320,192,260794,128,0,260892:0:0:0:0:
192,192,260794,1,0,0:0:0:0:
448,192,260892,128,0,260990:0:0:0:0:
192,192,260892,128,2,260990:0:0:0:0:
64,192,260892,1,8,0:0:0:0:
320,192,260990,128,0,261088:0:0:0:0:
64,192,260990,128,0,261088:0:0:0:0:
448,192,261088,1,0,0:0:0:0:
192,192,261088,128,0,261186:0:0:0:40:hithat.wav
448,192,261186,128,0,261284:0:0:0:0:
320,192,261186,128,0,261284:0:0:0:40:hithat.wav
192,192,261284,1,0,0:0:0:0:
64,192,261284,1,2,0:0:0:0:
448,192,261382,128,0,261480:0:0:0:0:
320,192,261382,128,0,261480:0:0:0:0:
192,192,261480,128,0,261578:0:0:0:0:
64,192,261480,1,0,0:0:0:40:hithat.wav
64,192,261578,1,0,0:0:0:0:
448,192,261676,128,0,261774:0:0:0:0:
320,192,261676,1,2,0:0:0:0:
192,192,261676,128,8,261774:0:0:0:0:
320,192,261774,128,0,261872:0:0:0:0:
64,192,261774,128,0,261872:0:0:0:0:
192,192,261872,1,0,0:0:0:40:hithat.wav
448,192,261970,128,0,262068:0:0:0:0:
192,192,261970,128,0,262068:0:0:0:0:
320,192,262068,1,2,0:0:0:0:
64,192,262068,1,4,0:0:0:0:
448,192,262166,128,0,262264:0:0:0:0:
192,192,262166,128,0,262264:0:0:0:0:
320,192,262264,1,0,0:0:0:0:
64,192,262264,128,0,262362:0:0:0:40:hithat.wav
320,192,262362,1,0,0:0:0:0:
448,192,262460,128,0,262558:0:0:0:0:
192,192,262460,1,8,0:0:0:0:
64,192,262460,128,2,262558:0:0:0:0:
320,192,262558,128,0,262656:0:0:0:0:
192,192,262558,128,0,262656:0:0:0:0:
448,192,262656,1,0,0:0:0:40:hithat.wav
448,192,262755,128,0,262853:0:0:0:0:
64,192,262755,128,0,262853:0:0:0:0:
320,192,262853,1,0,0:0:0:0:
192,192,262853,1,2,0:0:0:0:
320,192,262951,128,0,263049:0:0:0:0:
64,192,262951,128,0,263049:0:0:0:0:
192,192,263049,1,0,0:0:0:40:hithat.wav
448,192,263147,1,0,0:0:0:0:
192,192,263147,128,0,263245:0:0:0:0:
448,192,263245,1,0,0:0:0:0:
320,192,263245,1,8,0:0:0:0:
64,192,263245,1,2,0:0:0:0:
192,192,263343,1,0,0:0:0:0:
320,192,263441,1,0,0:0:0:0:
64,192,263441,128,0,263539:0:0:0:40:hithat.wav
320,192,263539,128,0,263637:0:0:0:0:
192,192,263539,128,0,263637:0:0:0:0:
448,192,263637,1,2,0:0:0:0:
64,192,263637,1,4,0:0:0:0:
320,192,263735,1,0,0:0:0:0:
64,192,263833,1,0,0:0:0:40:hithat.wav
64,192,263931,1,0,0:0:0:0:
448,192,264029,128,0,264127:0:0:0:0:
320,192,264029,1,8,0:0:0:0:
192,192,264029,128,2,264127:0:0:0:0:
320,192,264127,128,0,264225:0:0:0:0:
64,192,264127,128,0,264225:0:0:0:0:
448,192,264225,128,0,264323:0:0:0:0:
192,192,264225,1,0,0:0:0:40:hithat.wav
320,192,264323,128,0,264421:0:0:0:0:
192,192,264323,128,0,264421:0:0:0:0:
448,192,264421,1,0,0:0:0:0:
64,192,264421,1,2,0:0:0:0:
448,192,264519,128,0,264617:0:0:0:0:
192,192,264519,128,0,264617:0:0:0:0:
320,192,264617,1,0,0:0:0:40:hithat.wav
320,192,264715,128,0,264813:0:0:0:0:
64,192,264715,1,0,0:0:0:0:
448,192,264813,128,0,264911:0:0:0:0:
192,192,264813,1,8,0:0:0:0:
64,192,264813,128,2,264911:0:0:0:0:
320,192,264911,128,0,265009:0:0:0:0:
192,192,264911,128,0,265009:0:0:0:0:
448,192,265009,1,0,0:0:0:0:
64,192,265009,128,0,265107:0:0:0:40:hithat.wav
448,192,265107,128,0,265205:0:0:0:0:
192,192,265107,128,0,265205:0:0:0:0:
320,192,265205,1,2,0:0:0:0:
64,192,265205,1,4,0:0:0:0:
192,192,265304,1,0,0:0:0:0:
448,192,265402,128,0,265500:0:0:0:0:
64,192,265402,1,0,0:0:0:40:hithat.wav
64,192,265500,1,0,0:0:0:0:
448,192,265598,128,0,265696:0:0:0:0:
320,192,265598,128,8,265696:0:0:0:0:
192,192,265598,1,2,0:0:0:0:
192,192,265696,128,0,265794:0:0:0:0:
64,192,265696,128,0,265794:0:0:0:0:
320,192,265794,1,0,0:0:0:40:hithat.wav
320,192,265892,128,0,265990:0:0:0:0:
64,192,265892,128,0,265990:0:0:0:0:
448,192,265990,1,2,0:0:0:0:
192,192,265990,1,4,0:0:0:0:
320,192,266088,128,0,266186:0:0:0:0:
64,192,266088,128,0,266186:0:0:0:0:
448,192,266186,1,0,0:0:0:0:
192,192,266186,128,0,266284:0:0:0:40:hithat.wav
448,192,266284,1,0,0:0:0:0:
320,192,266382,128,0,266480:0:0:0:0:
192,192,266382,128,2,266480:0:0:0:0:
64,192,266382,1,8,0:0:0:0:
448,192,266480,128,0,266578:0:0:0:0:
64,192,266480,128,0,266578:0:0:0:0:
320,192,266578,1,0,0:0:0:40:hithat.wav
320,192,266676,128,0,266774:0:0:0:0:
192,192,266676,128,0,266823:0:0:0:0:
448,192,266774,128,0,266921:0:0:0:0:
64,192,266774,128,0,266823:0:0:0:40:lower_clap.wav
320,192,266872,128,0,266970:0:0:0:0:
192,192,266970,128,0,267019:0:0:0:0:
64,192,266970,128,0,267019:0:0:0:40:lower_clap.wav
320,192,267166,128,0,267215:0:0:0:0:
448,192,267215,128,0,267264:0:0:0:0:
192,192,267264,128,0,267313:0:0:0:0:
64,192,267264,128,0,267313:0:0:0:0:
448,192,267362,128,0,267411:0:0:0:0:
320,192,267411,128,0,267460:0:0:0:0:
192,192,267460,128,0,267509:0:0:0:0:
64,192,267509,128,0,267558:0:0:0:0:
448,192,267558,128,0,267607:0:0:0:0:
320,192,267558,128,0,267607:0:0:0:0:
448,192,267656,128,0,267755:0:0:0:0:
320,192,267656,128,0,267755:0:0:0:0:
64,192,267755,128,0,267853:0:0:0:0:
192,192,267804,128,0,267902:0:0:0:0:
320,192,267853,128,0,267951:0:0:0:0:
448,192,267902,128,0,268000:0:0:0:0:
64,192,267951,128,0,268000:0:0:0:0:
192,192,268000,128,0,268049:0:0:0:0:
320,192,268049,128,0,268098:0:0:0:0:
448,192,268098,128,0,268147:0:0:0:0:
192,192,268147,128,0,268343:0:0:0:0:
64,192,268147,128,0,268343:0:0:0:0:
448,192,268343,128,2,268637:0:0:0:0:
320,192,268343,1,4,0:0:0:0:
192,192,268539,1,0,0:0:0:0:
64,192,268539,1,0,0:0:0:40:hithat.wav
192,192,268637,1,0,0:0:0:0:
448,192,268735,128,0,268931:0:0:0:0:
320,192,268735,1,2,0:0:0:0:
64,192,268735,1,8,0:0:0:0:
192,192,268833,1,0,0:0:0:0:
320,192,268931,128,0,269029:0:0:0:0:
64,192,268931,1,0,0:0:0:40:hithat.wav
448,192,269029,128,0,269127:0:0:0:0:
64,192,269029,1,0,0:0:0:40:hithat.wav
320,192,269127,128,0,269225:0:0:0:0:
192,192,269127,1,0,0:0:0:0:
64,192,269127,1,2,0:0:0:0:
192,192,269225,1,0,0:0:0:0:
320,192,269323,128,0,269421:0:0:0:0:
64,192,269323,1,0,0:0:0:40:hithat.wav
64,192,269421,1,0,0:0:0:0:
448,192,269519,1,0,0:0:0:40:fx-lower_yellow.wav
320,192,269519,1,2,0:0:0:0:
192,192,269519,1,8,0:0:0:0:
64,192,269617,1,0,0:0:0:0:
448,192,269715,1,0,0:0:0:40:fx-lower_yellow.wav
192,192,269715,1,0,0:0:0:40:hithat.wav
192,192,269813,1,0,0:0:0:0:
448,192,269911,1,0,0:0:0:0:
320,192,269911,1,0,0:0:0:0:
64,192,269911,1,2,0:0:0:0:
320,192,270107,128,0,270304:0:0:0:0:
192,192,270107,1,0,0:0:0:40:hithat.wav
64,192,270205,1,0,0:0:0:0:
448,192,270304,1,0,0:0:0:0:
192,192,270304,1,2,0:0:0:0:
64,192,270304,1,8,0:0:0:0:
192,192,270402,1,0,0:0:0:0:
448,192,270500,1,0,0:0:0:0:
64,192,270500,1,0,0:0:0:40:hithat.wav
64,192,270598,1,0,0:0:0:40:hithat.wav
448,192,270696,1,0,0:0:0:0:
320,192,270696,1,0,0:0:0:0:
192,192,270696,1,2,0:0:0:0:
64,192,270745,1,0,0:0:0:0:
192,192,270794,1,0,0:0:0:0:
448,192,270892,1,0,0:0:0:40:hithat.wav
320,192,270941,1,0,0:0:0:0:
192,192,270990,1,0,0:0:0:0:
64,192,270990,1,0,0:0:0:0:
448,192,271088,1,0,0:0:0:0:
320,192,271088,1,2,0:0:0:0:
64,192,271088,1,8,0:0:0:0:
320,192,271186,128,0,271284:0:0:0:0:
448,192,271284,1,0,0:0:0:0:
192,192,271284,128,0,271480:0:0:0:40:hithat.wav
320,192,271382,1,0,0:0:0:0:
448,192,271480,1,0,0:0:0:0:
320,192,271480,1,0,0:0:0:0:
64,192,271480,128,2,271578:0:0:0:0:
192,192,271578,128,0,271676:0:0:0:0:
448,192,271676,1,0,0:0:0:0:
64,192,271676,128,0,271774:0:0:0:40:hithat.wav
448,192,271774,1,0,0:0:0:0:
320,192,271872,1,0,0:0:0:0:
192,192,271872,128,2,271970:0:0:0:0:
64,192,271872,1,8,0:0:0:0:
448,192,271970,1,0,0:0:0:0:
320,192,272068,1,0,0:0:0:0:
192,192,272068,128,0,272166:0:0:0:40:hithat.wav
320,192,272166,1,0,0:0:0:0:
64,192,272166,128,0,272264:0:0:0:40:hithat.wav
448,192,272264,1,0,0:0:0:0:
320,192,272264,1,0,0:0:0:60:fx-lower_yellow.wav
192,192,272264,128,2,272362:0:0:0:0:
448,192,272362,1,0,0:0:0:0:
320,192,272460,1,0,0:0:0:0:
192,192,272460,128,0,272558:0:0:0:40:hithat.wav
320,192,272558,1,0,0:0:0:0:
448,192,272656,1,0,0:0:0:60:fx-lower_yellow.wav
192,192,272656,1,2,0:0:0:0:
64,192,272656,1,8,0:0:0:0:
320,192,272705,1,0,0:0:0:0:
448,192,272755,1,0,0:0:0:0:
320,192,272853,1,0,0:0:0:60:fx-yellow.wav
192,192,272853,1,0,0:0:0:40:hithat.wav
320,192,272951,1,0,0:0:0:60:fx-yellow.wav
192,192,273049,1,0,0:0:0:60:fx-yellow.wav
64,192,273049,1,2,0:0:0:0:
448,192,273073,1,0,0:0:0:0:
320,192,273147,1,0,0:0:0:60:fx-yellow.wav
448,192,273171,1,0,0:0:0:0:
320,192,273245,1,0,0:0:0:0:
192,192,273245,128,0,273441:0:0:0:40:hithat.wav
448,192,273343,1,0,0:0:0:0:
448,192,273441,1,0,0:0:0:0:
320,192,273441,1,2,0:0:0:0:
64,192,273441,1,8,0:0:0:0:
320,192,273539,1,0,0:0:0:0:
192,192,273539,128,0,273637:0:0:0:0:
448,192,273637,1,0,0:0:0:0:
64,192,273637,1,0,0:0:0:40:hithat.wav
448,192,273735,1,0,0:0:0:40:hithat.wav
448,192,273833,1,0,0:0:0:0:
192,192,273833,128,0,274029:0:0:0:0:
64,192,273833,128,2,274225:0:0:0:0:
320,192,273931,128,0,274127:0:0:0:0:
448,192,274029,128,0,274127:0:0:0:40:hithat.wav
192,192,274127,128,0,274225:0:0:0:0:
448,192,274225,128,2,274421:0:0:0:0:
320,192,274225,128,8,274323:0:0:0:0:
64,192,274323,128,0,274617:0:0:0:0:
192,192,274421,128,0,274617:0:0:0:40:hithat.wav
320,192,274519,128,0,274617:0:0:0:0:
448,192,274617,128,2,274911:0:0:0:0:
192,192,274813,1,0,0:0:0:0:
64,192,274813,1,0,0:0:0:40:hithat.wav
192,192,274911,1,0,0:0:0:0:
448,192,275009,128,0,275205:0:0:0:0:
320,192,275009,1,8,0:0:0:0:
64,192,275009,1,2,0:0:0:0:
192,192,275107,1,0,0:0:0:0:
320,192,275205,128,0,275500:0:0:0:0:
64,192,275205,1,0,0:0:0:40:hithat.wav
64,192,275304,1,0,0:0:0:40:hithat.wav
448,192,275402,1,0,0:0:0:0:
192,192,275402,1,0,0:0:0:60:fx-lower_yellow.wav
64,192,275402,1,2,0:0:0:0:
448,192,275598,128,0,275794:0:0:0:0:
192,192,275598,1,0,0:0:0:40:hithat.wav
64,192,275696,1,0,0:0:0:0:
320,192,275794,1,0,0:0:0:40:fx-lower_yellow.wav
192,192,275794,1,8,0:0:0:0:
64,192,275794,1,2,0:0:0:0:
448,192,275990,1,0,0:0:0:40:fx-lower_yellow.wav
64,192,275990,1,0,0:0:0:40:hithat.wav
192,192,276088,1,0,0:0:0:0:
448,192,276186,1,0,0:0:0:0:
192,192,276186,1,0,0:0:0:0:
64,192,276186,1,2,0:0:0:0:
64,192,276284,1,0,0:0:0:0:
448,192,276382,1,0,0:0:0:0:
192,192,276382,1,0,0:0:0:40:hithat.wav
320,192,276480,128,0,276578:0:0:0:0:
64,192,276480,1,0,0:0:0:0:
448,192,276578,1,0,0:0:0:0:
192,192,276578,1,8,0:0:0:0:
64,192,276578,1,2,0:0:0:0:
192,192,276676,1,0,0:0:0:0:
320,192,276774,1,0,0:0:0:0:
64,192,276774,1,0,0:0:0:40:hithat.wav
448,192,276872,128,0,276970:0:0:0:0:
64,192,276872,1,0,0:0:0:40:hithat.wav
320,192,276970,1,0,0:0:0:0:
192,192,276970,1,0,0:0:0:0:
64,192,276970,1,2,0:0:0:0:
448,192,277068,1,0,0:0:0:0:
320,192,277166,128,0,277264:0:0:0:0:
192,192,277166,1,0,0:0:0:40:hithat.wav
448,192,277264,128,0,277362:0:0:0:0:
64,192,277264,1,0,0:0:0:0:
320,192,277362,1,0,0:0:0:0:
192,192,277362,1,8,0:0:0:0:
64,192,277362,1,2,0:0:0:0:
448,192,277460,1,0,0:0:0:0:
192,192,277460,128,0,277558:0:0:0:0:
320,192,277558,1,0,0:0:0:0:
64,192,277558,128,0,277755:0:0:0:40:hithat.wav
448,192,277656,1,0,0:0:0:0:
448,192,277755,1,0,0:0:0:0:
320,192,277755,1,0,0:0:0:0:
192,192,277755,128,2,277853:0:0:0:0:
64,192,277853,128,0,277951:0:0:0:0:
448,192,277951,1,0,0:0:0:0:
192,192,277951,128,0,278049:0:0:0:40:hithat.wav
320,192,278049,1,0,0:0:0:0:
448,192,278147,1,0,0:0:0:0:
320,192,278147,1,8,0:0:0:0:
64,192,278147,128,2,278245:0:0:0:0:
448,192,278343,1,0,0:0:0:0:
64,192,278343,128,0,278441:0:0:0:40:hithat.wav
448,192,278441,1,0,0:0:0:0:
192,192,278441,128,0,278539:0:0:0:40:hithat.wav
448,192,278539,1,0,0:0:0:0:
320,192,278539,1,0,0:0:0:60:fx-lower_yellow.wav
64,192,278539,128,2,278637:0:0:0:0:
320,192,278637,1,0,0:0:0:0:
448,192,278735,1,0,0:0:0:0:
64,192,278735,128,0,278833:0:0:0:40:hithat.wav
448,192,278833,1,0,0:0:0:0:
320,192,278931,1,0,0:0:0:60:fx-lower_yellow.wav
192,192,278931,1,8,0:0:0:0:
64,192,278931,1,2,0:0:0:0:
320,192,279029,1,0,0:0:0:0:
448,192,279127,1,0,0:0:0:60:fx-yellow.wav
192,192,279127,1,0,0:0:0:40:hithat.wav
320,192,279225,1,0,0:0:0:60:fx-yellow.wav
448,192,279323,1,0,0:0:0:0:
320,192,279323,1,0,0:0:0:60:fx-yellow.wav
64,192,279323,128,2,279421:0:0:0:0:
192,192,279372,128,0,279470:0:0:0:0:
448,192,279421,128,0,279519:0:0:0:60:fx-yellow.wav
320,192,279470,128,0,279568:0:0:0:0:
64,192,279519,128,0,279617:0:0:0:40:hithat.wav
448,192,279568,128,0,279666:0:0:0:0:
192,192,279617,128,0,279715:0:0:0:0:
320,192,279666,128,0,279764:0:0:0:0:
448,192,279715,128,8,280009:0:0:0:0:
64,192,279715,128,2,280009:0:0:0:0:
192,192,279813,128,0,279911:0:0:0:0:
320,192,279911,128,0,280107:0:0:0:40:hithat.wav
192,192,280009,128,0,280107:0:0:0:40:hithat.wav
448,192,280107,128,0,280402:0:0:0:0:
64,192,280107,128,2,280402:0:0:0:0:
320,192,280205,128,0,280304:0:0:0:0:
192,192,280304,128,0,280500:0:0:0:40:hithat.wav
320,192,280402,128,0,280500:0:0:0:0:
448,192,280500,128,8,280794:0:0:0:0:
64,192,280500,128,2,280696:0:0:0:0:
320,192,280598,128,0,280794:0:0:0:0:
192,192,280696,128,0,280892:0:0:0:40:hithat.wav
64,192,280794,128,0,280892:0:0:0:0:
448,192,280892,128,2,281186:0:0:0:0:
320,192,280892,1,4,0:0:0:0:
192,192,281088,1,0,0:0:0:0:
64,192,281088,1,0,0:0:0:40:hithat.wav
192,192,281186,1,0,0:0:0:0:
448,192,281284,128,0,281480:0:0:0:0:
320,192,281284,1,2,0:0:0:0:
64,192,281284,1,8,0:0:0:0:
192,192,281382,1,0,0:0:0:0:
320,192,281480,128,0,281578:0:0:0:0:
64,192,281480,1,0,0:0:0:40:hithat.wav
448,192,281578,128,0,281676:0:0:0:0:
64,192,281578,1,0,0:0:0:40:hithat.wav
320,192,281676,128,0,281774:0:0:0:0:
192,192,281676,1,0,0:0:0:60:fx-lower_yellow.wav
64,192,281676,1,2,0:0:0:0:
192,192,281774,1,0,0:0:0:0:
448,192,281872,1,0,0:0:0:0:
320,192,281872,128,0,281970:0:0:0:0:
64,192,281872,1,0,0:0:0:40:hithat.wav
64,192,281970,1,0,0:0:0:0:
448,192,282068,1,0,0:0:0:40:fx-lower_yellow.wav
320,192,282068,1,2,0:0:0:0:
192,192,282068,1,8,0:0:0:0:
64,192,282166,1,0,0:0:0:0:
448,192,282264,128,0,282460:0:0:0:40:fx-lower_yellow.wav
192,192,282264,1,0,0:0:0:40:hithat.wav
64,192,282362,1,0,0:0:0:0:
320,192,282460,1,0,0:0:0:0:
192,192,282460,1,0,0:0:0:0:
64,192,282460,1,2,0:0:0:0:
320,192,282656,128,0,282853:0:0:0:0:
192,192,282656,1,0,0:0:0:40:hithat.wav
64,192,282755,1,0,0:0:0:0:
448,192,282853,1,0,0:0:0:0:
192,192,282853,1,2,0:0:0:0:
64,192,282853,1,8,0:0:0:0:
320,192,282951,1,0,0:0:0:0:
448,192,283049,1,0,0:0:0:0:
64,192,283049,1,0,0:0:0:40:hithat.wav
64,192,283147,1,0,0:0:0:40:hithat.wav
448,192,283245,1,0,0:0:0:0:
320,192,283245,1,0,0:0:0:0:
192,192,283245,1,2,0:0:0:0:
64,192,283294,1,0,0:0:0:0:
192,192,283343,1,0,0:0:0:0:
448,192,283441,1,0,0:0:0:40:hithat.wav
320,192,283490,1,0,0:0:0:0:
192,192,283539,1,0,0:0:0:0:
64,192,283539,1,0,0:0:0:0:
448,192,283637,1,0,0:0:0:0:
320,192,283637,1,2,0:0:0:0:
64,192,283637,1,8,0:0:0:0:
320,192,283735,128,0,283833:0:0:0:0:
448,192,283833,1,0,0:0:0:0:
192,192,283833,128,0,284029:0:0:0:40:hithat.wav
320,192,283931,1,0,0:0:0:0:
448,192,284029,1,0,0:0:0:0:
320,192,284029,1,0,0:0:0:0:
64,192,284029,128,2,284127:0:0:0:0:
192,192,284127,128,0,284225:0:0:0:0:
448,192,284225,1,0,0:0:0:0:
320,192,284225,1,0,0:0:0:0:
64,192,284225,128,0,284323:0:0:0:40:hithat.wav
448,192,284323,1,0,0:0:0:0:
320,192,284421,1,0,0:0:0:0:
192,192,284421,128,2,284519:0:0:0:0:
64,192,284421,1,8,0:0:0:0:
448,192,284519,1,0,0:0:0:0:
448,192,284617,1,0,0:0:0:0:
320,192,284617,1,0,0:0:0:0:
192,192,284617,128,0,284715:0:0:0:40:hithat.wav
320,192,284715,1,0,0:0:0:0:
64,192,284715,128,0,284813:0:0:0:40:hithat.wav
448,192,284813,1,0,0:0:0:0:
320,192,284813,1,0,0:0:0:60:fx-lower_yellow.wav
192,192,284813,128,2,284911:0:0:0:0:
448,192,284911,1,0,0:0:0:0:
320,192,285009,1,0,0:0:0:0:
192,192,285009,128,0,285107:0:0:0:40:hithat.wav
320,192,285107,1,0,0:0:0:0:
448,192,285205,1,0,0:0:0:60:fx-lower_yellow.wav
192,192,285205,1,2,0:0:0:0:
64,192,285205,1,8,0:0:0:0:
320,192,285255,1,0,0:0:0:0:
448,192,285304,1,0,0:0:0:0:
320,192,285402,1,0,0:0:0:60:fx-yellow.wav
192,192,285402,1,0,0:0:0:40:hithat.wav
320,192,285500,1,0,0:0:0:60:fx-yellow.wav
192,192,285598,1,0,0:0:0:60:fx-yellow.wav
64,192,285598,1,2,0:0:0:0:
448,192,285622,1,0,0:0:0:0:
320,192,285696,1,0,0:0:0:60:fx-yellow.wav
448,192,285720,1,0,0:0:0:0:
320,192,285794,1,0,0:0:0:0:
192,192,285794,1,0,0:0:0:0:
64,192,285794,1,0,0:0:0:40:hithat.wav
448,192,285892,1,0,0:0:0:0:
192,192,285892,128,0,285990:0:0:0:0:
448,192,285990,1,0,0:0:0:0:
320,192,285990,1,2,0:0:0:0:
64,192,285990,1,8,0:0:0:0:
320,192,286088,1,0,0:0:0:0:
448,192,286186,1,0,0:0:0:0:
192,192,286186,1,0,0:0:0:0:
64,192,286186,1,0,0:0:0:40:hithat.wav
448,192,286284,1,0,0:0:0:40:hithat.wav
448,192,286382,1,0,0:0:0:0:
192,192,286382,128,0,286578:0:0:0:0:
64,192,286382,128,2,286774:0:0:0:0:
320,192,286480,128,0,286676:0:0:0:0:
448,192,286578,128,0,286676:0:0:0:40:hithat.wav
192,192,286676,128,0,286774:0:0:0:0:
448,192,286774,128,2,286970:0:0:0:0:
320,192,286774,128,8,286872:0:0:0:0:
64,192,286872,128,0,287166:0:0:0:0:
192,192,286970,128,0,287166:0:0:0:40:hithat.wav
320,192,287068,128,0,287166:0:0:0:0:
448,192,287166,128,2,287460:0:0:0:0:
192,192,287362,1,0,0:0:0:0:
64,192,287362,1,0,0:0:0:40:hithat.wav
192,192,287460,1,0,0:0:0:0:
448,192,287558,128,0,287755:0:0:0:0:
320,192,287558,1,8,0:0:0:0:
64,192,287558,1,2,0:0:0:0:
192,192,287656,1,0,0:0:0:0:
320,192,287755,128,0,288049:0:0:0:0:
64,192,287755,1,0,0:0:0:40:hithat.wav
64,192,287853,1,0,0:0:0:40:hithat.wav
448,192,287951,1,0,0:0:0:0:
192,192,287951,1,0,0:0:0:60:fx-lower_yellow.wav
64,192,287951,1,2,0:0:0:0:
448,192,288147,128,0,288343:0:0:0:0:
320,192,288147,1,0,0:0:0:0:
192,192,288147,1,0,0:0:0:40:hithat.wav
64,192,288245,1,0,0:0:0:0:
320,192,288343,1,0,0:0:0:40:fx-lower_yellow.wav
192,192,288343,1,8,0:0:0:0:
64,192,288343,1,2,0:0:0:0:
448,192,288539,128,0,288735:0:0:0:40:fx-lower_yellow.wav
64,192,288539,1,0,0:0:0:40:hithat.wav
192,192,288637,1,0,0:0:0:0:
320,192,288735,1,0,0:0:0:0:
192,192,288735,1,0,0:0:0:0:
64,192,288735,1,2,0:0:0:0:
64,192,288833,1,0,0:0:0:0:
448,192,288931,128,0,289029:0:0:0:0:
192,192,288931,1,0,0:0:0:40:hithat.wav
320,192,289029,128,0,289127:0:0:0:0:
64,192,289029,1,0,0:0:0:0:
448,192,289127,1,0,0:0:0:0:
192,192,289127,1,8,0:0:0:0:
64,192,289127,1,2,0:0:0:0:
192,192,289225,1,0,0:0:0:0:
320,192,289323,1,0,0:0:0:0:
64,192,289323,1,0,0:0:0:40:hithat.wav
448,192,289421,128,0,289519:0:0:0:0:
64,192,289421,1,0,0:0:0:40:hithat.wav
320,192,289519,1,0,0:0:0:0:
192,192,289519,1,0,0:0:0:0:
64,192,289519,1,2,0:0:0:0:
448,192,289617,1,0,0:0:0:0:
320,192,289715,128,0,289813:0:0:0:0:
192,192,289715,1,0,0:0:0:40:hithat.wav
448,192,289813,128,0,289911:0:0:0:0:
64,192,289813,1,0,0:0:0:0:
320,192,289911,1,0,0:0:0:0:
192,192,289911,1,8,0:0:0:0:
64,192,289911,1,2,0:0:0:0:
448,192,290009,1,0,0:0:0:0:
192,192,290009,128,0,290107:0:0:0:0:
320,192,290107,1,0,0:0:0:0:
64,192,290107,128,0,290304:0:0:0:40:hithat.wav
448,192,290205,1,0,0:0:0:0:
448,192,290304,1,0,0:0:0:0:
320,192,290304,1,0,0:0:0:0:
192,192,290304,128,2,290402:0:0:0:0:
64,192,290402,128,0,290500:0:0:0:0:
448,192,290500,1,0,0:0:0:0:
320,192,290500,1,0,0:0:0:0:
192,192,290500,128,0,290598:0:0:0:40:hithat.wav
448,192,290598,1,0,0:0:0:0:
320,192,290696,1,0,0:0:0:0:
192,192,290696,1,8,0:0:0:0:
64,192,290696,128,2,290794:0:0:0:0:
448,192,290892,1,0,0:0:0:0:
320,192,290892,1,0,0:0:0:0:
64,192,290892,128,0,290990:0:0:0:40:hithat.wav
448,192,290990,1,0,0:0:0:0:
192,192,290990,128,0,291088:0:0:0:40:hithat.wav
448,192,291088,1,0,0:0:0:0:
320,192,291088,1,0,0:0:0:60:fx-lower_yellow.wav
64,192,291088,128,2,291186:0:0:0:0:
320,192,291186,1,0,0:0:0:0:
448,192,291284,1,0,0:0:0:0:
64,192,291284,128,0,291382:0:0:0:40:hithat.wav
448,192,291382,1,0,0:0:0:0:
320,192,291480,1,0,0:0:0:60:fx-lower_yellow.wav
192,192,291480,1,8,0:0:0:0:
64,192,291480,1,2,0:0:0:0:
320,192,291578,1,0,0:0:0:0:
448,192,291676,1,0,0:0:0:60:fx-yellow.wav
64,192,291676,1,0,0:0:0:40:hithat.wav
320,192,291774,1,0,0:0:0:60:fx-yellow.wav
448,192,291872,128,0,291970:0:0:0:0:
192,192,291872,1,0,0:0:0:60:fx-yellow.wav
64,192,291872,1,2,0:0:0:0:
320,192,291921,128,0,292019:0:0:0:0:
64,192,291970,128,0,292068:0:0:0:60:fx-yellow.wav
192,192,292019,128,0,292117:0:0:0:0:
448,192,292068,128,0,292166:0:0:0:40:hithat.wav
64,192,292117,128,0,292215:0:0:0:0:
320,192,292166,128,0,292264:0:0:0:0:
192,192,292215,128,0,292313:0:0:0:0:
448,192,292264,128,8,292558:0:0:0:0:
64,192,292264,128,2,292558:0:0:0:0:
320,192,292362,128,0,292460:0:0:0:0:
192,192,292460,128,0,292656:0:0:0:40:hithat.wav
320,192,292558,128,0,292656:0:0:0:40:hithat.wav
448,192,292656,128,0,292951:0:0:0:0:
64,192,292656,128,2,292951:0:0:0:0:
192,192,292755,128,0,292853:0:0:0:0:
320,192,292853,128,0,293049:0:0:0:40:hithat.wav
192,192,292951,128,0,293049:0:0:0:0:
448,192,293049,128,8,293245:0:0:0:0:
64,192,293049,128,2,293343:0:0:0:0:
192,192,293147,128,0,293343:0:0:0:0:
320,192,293245,128,0,293441:0:0:0:40:hithat.wav
448,192,293343,128,0,293441:0:0:0:0:
192,192,293441,1,2,0:0:0:0:
64,192,293441,128,4,294029:0:0:0:0:
192,192,293539,1,0,0:0:0:0:
448,192,293637,1,0,0:0:0:40:hithat.wav
320,192,293735,1,0,0:0:0:0:
448,192,293833,1,2,0:0:0:0:
192,192,293833,1,8,0:0:0:0:
192,192,293931,1,0,0:0:0:0:
320,192,294029,128,0,294127:0:0:0:40:hithat.wav
192,192,294127,128,0,294225:0:0:0:40:hithat.wav
448,192,294225,1,0,0:0:0:0:
320,192,294225,1,0,0:0:0:0:
64,192,294225,128,2,295663:0:0:0:0:
320,192,294323,1,0,0:0:0:0:
192,192,294421,1,0,0:0:0:40:hithat.wav
448,192,294519,1,0,0:0:0:0:
320,192,294617,1,0,0:0:0:40:fx-lower_yellow.wav
192,192,294617,1,10,0:0:0:0:
320,192,294715,1,0,0:0:0:0:
448,192,294813,1,0,0:0:0:40:hithat.wav
320,192,294911,1,0,0:0:0:0:
448,192,295009,1,0,0:0:0:0:
192,192,295009,1,2,0:0:0:0:
448,192,295107,1,0,0:0:0:0:
192,192,295205,1,0,0:0:0:40:hithat.wav
320,192,295304,1,0,0:0:0:0:
448,192,295402,1,2,0:0:0:0:
192,192,295402,1,8,0:0:0:0:
448,192,295500,1,0,0:0:0:0:
320,192,295598,1,0,0:0:0:40:hithat.wav
192,192,295663,128,0,295728:0:0:0:0:
320,192,295728,128,0,295794:0:0:0:0:
448,192,295794,128,0,296382:0:0:0:0:
64,192,295794,1,2,0:0:0:0:
64,192,295892,1,0,0:0:0:0:
320,192,295990,1,0,0:0:0:40:hithat.wav
192,192,296088,1,0,0:0:0:0:
320,192,296186,1,2,0:0:0:0:
64,192,296186,1,8,0:0:0:0:
64,192,296284,1,0,0:0:0:0:
320,192,296382,128,0,296480:0:0:0:40:hithat.wav
192,192,296480,128,0,296578:0:0:0:0:
448,192,296578,1,0,0:0:0:0:
64,192,296578,128,2,297166:0:0:0:0:
448,192,296676,1,0,0:0:0:0:
192,192,296774,1,0,0:0:0:40:hithat.wav
320,192,296872,1,0,0:0:0:0:
448,192,296970,1,2,0:0:0:0:
192,192,296970,1,8,0:0:0:0:
448,192,297068,1,0,0:0:0:0:
320,192,297166,128,0,297264:0:0:0:40:hithat.wav
192,192,297264,128,0,297362:0:0:0:40:hithat.wav
320,192,297362,1,0,0:0:0:60:fx-lower_yellow.wav
64,192,297362,128,2,298931:0:0:0:0:
320,192,297460,1,0,0:0:0:0:
192,192,297558,1,0,0:0:0:40:hithat.wav
448,192,297656,1,0,0:0:0:0:
320,192,297755,1,0,0:0:0:60:fx-lower_yellow.wav
192,192,297755,1,10,0:0:0:0:
192,192,297853,1,0,0:0:0:0:
320,192,297951,1,0,0:0:0:40:hithat.wav
448,192,298049,1,0,0:0:0:60:fx-yellow.wav
448,192,298147,1,0,0:0:0:60:fx-yellow.wav
192,192,298147,1,2,0:0:0:0:
320,192,298212,1,0,0:0:0:0:
448,192,298277,1,0,0:0:0:0:
192,192,298343,1,0,0:0:0:40:hithat.wav
320,192,298441,1,0,0:0:0:0:
448,192,298539,1,2,0:0:0:0:
192,192,298539,1,8,0:0:0:0:
448,192,298637,1,0,0:0:0:0:
192,192,298735,1,0,0:0:0:40:hithat.wav
320,192,298833,1,0,0:0:0:40:hithat.wav
448,192,298931,128,0,299225:0:0:0:0:
192,192,298931,128,2,299127:0:0:0:0:
320,192,299029,128,0,299225:0:0:0:0:
64,192,299127,128,0,299225:0:0:0:40:hithat.wav
192,192,299225,128,0,299323:0:0:0:0:
448,192,299323,128,2,299519:0:0:0:0:
64,192,299323,128,8,300107:0:0:0:0:
320,192,299421,128,0,299617:0:0:0:0:
192,192,299519,1,0,0:0:0:40:hithat.wav
448,192,299617,128,0,299715:0:0:0:0:
320,192,299715,1,0,0:0:0:0:
192,192,299715,1,2,0:0:0:0:
192,192,299813,1,0,0:0:0:0:
320,192,299911,1,0,0:0:0:40:hithat.wav
448,192,300009,1,0,0:0:0:0:
320,192,300107,1,8,0:0:0:0:
192,192,300107,1,2,0:0:0:0:
320,192,300205,1,0,0:0:0:0:
192,192,300304,128,0,300402:0:0:0:40:hithat.wav
320,192,300402,128,0,300500:0:0:0:40:hithat.wav
448,192,300500,1,0,0:0:0:0:
64,192,300500,128,2,300892:0:0:0:0:
448,192,300598,1,0,0:0:0:0:
320,192,300696,1,0,0:0:0:40:hithat.wav
192,192,300794,1,0,0:0:0:0:
448,192,300892,1,0,0:0:0:40:fx-lower_yellow.wav
320,192,300892,1,10,0:0:0:0:
320,192,300990,1,0,0:0:0:0:
64,192,301088,1,0,0:0:0:40:hithat.wav
192,192,301186,1,0,0:0:0:0:
448,192,301284,1,0,0:0:0:0:
64,192,301284,1,2,0:0:0:0:
448,192,301382,1,0,0:0:0:0:
320,192,301480,1,0,0:0:0:40:hithat.wav
192,192,301578,1,0,0:0:0:0:
320,192,301676,1,8,0:0:0:0:
64,192,301676,1,2,0:0:0:0:
320,192,301774,1,0,0:0:0:0:
64,192,301872,128,0,301970:0:0:0:40:hithat.wav
192,192,301970,128,0,302019:0:0:0:40:hithat.wav
320,192,302019,128,0,302068:0:0:0:0:
448,192,302068,128,0,302722:0:0:0:0:
64,192,302068,1,2,0:0:0:0:
64,192,302166,1,0,0:0:0:0:
192,192,302264,1,0,0:0:0:40:hithat.wav
320,192,302362,1,0,0:0:0:0:
192,192,302460,1,8,0:0:0:0:
64,192,302460,1,2,0:0:0:0:
64,192,302558,1,0,0:0:0:0:
192,192,302656,1,0,0:0:0:40:hithat.wav
320,192,302722,128,0,302787:0:0:0:0:
192,192,302787,128,0,302853:0:0:0:0:
448,192,302853,1,0,0:0:0:0:
64,192,302853,128,2,303506:0:0:0:0:
448,192,302951,1,0,0:0:0:0:
192,192,303049,1,0,0:0:0:40:hithat.wav
320,192,303147,1,0,0:0:0:0:
448,192,303245,1,8,0:0:0:0:
192,192,303245,1,2,0:0:0:0:
192,192,303343,1,0,0:0:0:0:
448,192,303441,1,0,0:0:0:40:hithat.wav
320,192,303506,128,0,303572:0:0:0:40:hithat.wav
192,192,303572,128,0,303637:0:0:0:0:
448,192,303637,1,0,0:0:0:60:fx-lower_yellow.wav
64,192,303637,128,2,304715:0:0:0:0:
448,192,303735,1,0,0:0:0:0:
192,192,303833,1,0,0:0:0:40:hithat.wav
448,192,303931,1,0,0:0:0:0:
320,192,304029,1,0,0:0:0:60:fx-lower_yellow.wav
192,192,304029,1,10,0:0:0:0:
320,192,304127,1,0,0:0:0:0:
448,192,304225,1,0,0:0:0:40:hithat.wav
192,192,304323,1,0,0:0:0:60:fx-yellow.wav
448,192,304421,128,0,304519:0:0:0:60:fx-yellow.wav
320,192,304421,128,2,304617:0:0:0:0:
192,192,304519,128,0,304813:0:0:0:60:fx-yellow.wav
448,192,304617,128,0,304715:0:0:0:40:hithat.wav
320,192,304715,128,0,304813:0:0:0:0:
448,192,304813,128,8,305107:0:0:0:0:
64,192,304813,128,2,305107:0:0:0:0:
320,192,304911,128,0,305009:0:0:0:0:
192,192,305009,128,0,305205:0:0:0:40:hithat.wav
320,192,305107,128,0,305205:0:0:0:40:hithat.wav
448,192,305205,128,0,305500:0:0:0:0:
64,192,305205,128,2,305500:0:0:0:0:
192,192,305304,128,0,305402:0:0:0:0:
320,192,305402,128,0,305598:0:0:0:40:hithat.wav
192,192,305500,128,0,305598:0:0:0:0:
448,192,305598,128,8,305794:0:0:0:0:
64,192,305598,128,2,305892:0:0:0:0:
192,192,305696,128,0,305892:0:0:0:0:
320,192,305794,128,0,305990:0:0:0:40:hithat.wav
448,192,305892,128,0,305990:0:0:0:0:
192,192,305990,1,2,0:0:0:0:
64,192,305990,128,4,306578:0:0:0:0:
320,192,306088,1,0,0:0:0:0:
448,192,306186,1,0,0:0:0:40:hithat.wav
192,192,306284,1,0,0:0:0:0:
320,192,306382,1,2,0:0:0:0:
192,192,306382,1,8,0:0:0:0:
448,192,306480,1,0,0:0:0:0:
320,192,306578,128,0,306676:0:0:0:40:hithat.wav
192,192,306676,128,0,306774:0:0:0:40:hithat.wav
448,192,306774,1,0,0:0:0:0:
320,192,306774,1,0,0:0:0:0:
64,192,306774,128,2,308212:0:0:0:0:
192,192,306872,1,0,0:0:0:0:
320,192,306970,1,0,0:0:0:40:hithat.wav
448,192,307068,1,0,0:0:0:0:
448,192,307166,1,0,0:0:0:40:fx-lower_yellow.wav
320,192,307166,1,10,0:0:0:0:
192,192,307264,1,0,0:0:0:0:
320,192,307362,1,0,0:0:0:40:hithat.wav
448,192,307460,1,0,0:0:0:0:
448,192,307558,1,0,0:0:0:0:
192,192,307558,1,2,0:0:0:0:
320,192,307656,1,0,0:0:0:0:
448,192,307755,1,0,0:0:0:40:hithat.wav
192,192,307853,1,0,0:0:0:0:
320,192,307951,1,2,0:0:0:0:
192,192,307951,1,8,0:0:0:0:
448,192,308049,1,0,0:0:0:0:
320,192,308147,1,0,0:0:0:40:hithat.wav
192,192,308212,128,0,308277:0:0:0:0:
320,192,308277,128,0,308343:0:0:0:0:
448,192,308343,128,0,308931:0:0:0:0:
64,192,308343,1,2,0:0:0:0:
192,192,308441,1,0,0:0:0:0:
320,192,308539,1,0,0:0:0:40:hithat.wav
64,192,308637,1,0,0:0:0:0:
320,192,308735,1,2,0:0:0:0:
64,192,308735,1,8,0:0:0:0:
192,192,308833,1,0,0:0:0:0:
320,192,308931,128,0,309029:0:0:0:40:hithat.wav
192,192,309029,128,0,309127:0:0:0:0:
448,192,309127,1,0,0:0:0:0:
64,192,309127,128,2,309715:0:0:0:0:
320,192,309225,1,0,0:0:0:0:
192,192,309323,1,0,0:0:0:40:hithat.wav
320,192,309421,1,0,0:0:0:0:
320,192,309519,1,2,0:0:0:0:
192,192,309519,1,8,0:0:0:0:
448,192,309617,1,0,0:0:0:0:
320,192,309715,128,0,309813:0:0:0:40:hithat.wav
192,192,309813,128,0,309911:0:0:0:40:hithat.wav
320,192,309911,1,0,0:0:0:60:fx-lower_yellow.wav
64,192,309911,128,2,311480:0:0:0:0:
448,192,310009,1,0,0:0:0:0:
320,192,310107,1,0,0:0:0:40:hithat.wav
192,192,310205,1,0,0:0:0:0:
320,192,310304,1,0,0:0:0:60:fx-lower_yellow.wav
192,192,310304,1,10,0:0:0:0:
448,192,310402,1,0,0:0:0:0:
192,192,310500,1,0,0:0:0:40:hithat.wav
320,192,310598,1,0,0:0:0:60:fx-yellow.wav
448,192,310696,1,2,0:0:0:0:
320,192,310761,1,0,0:0:0:0:
192,192,310826,1,0,0:0:0:0:
448,192,310892,1,0,0:0:0:40:hithat.wav
192,192,310990,1,0,0:0:0:0:
448,192,311088,1,2,0:0:0:0:
192,192,311088,1,8,0:0:0:0:
320,192,311186,1,0,0:0:0:0:
192,192,311284,1,0,0:0:0:40:hithat.wav
320,192,311382,1,0,0:0:0:40:hithat.wav
448,192,311480,128,0,311774:0:0:0:0:
192,192,311480,128,2,311676:0:0:0:0:
320,192,311578,128,0,311774:0:0:0:0:
64,192,311676,128,0,311774:0:0:0:40:hithat.wav
192,192,311774,128,0,311872:0:0:0:0:
448,192,311872,128,2,312166:0:0:0:0:
64,192,311872,128,8,312656:0:0:0:0:
320,192,311970,128,0,312068:0:0:0:0:
192,192,312068,128,0,312166:0:0:0:40:hithat.wav
320,192,312166,128,0,312264:0:0:0:0:
448,192,312264,128,0,312362:0:0:0:0:
192,192,312264,1,2,0:0:0:0:
320,192,312362,1,0,0:0:0:0:
448,192,312460,1,0,0:0:0:40:hithat.wav
320,192,312558,1,0,0:0:0:0:
320,192,312656,1,8,0:0:0:0:
192,192,312656,1,2,0:0:0:0:
64,192,312755,1,0,0:0:0:0:
192,192,312853,128,0,312951:0:0:0:40:hithat.wav
320,192,312951,128,0,313049:0:0:0:40:hithat.wav
448,192,313049,1,0,0:0:0:0:
64,192,313049,128,2,313441:0:0:0:0:
320,192,313147,1,0,0:0:0:0:
192,192,313245,1,0,0:0:0:40:hithat.wav
448,192,313343,1,0,0:0:0:0:
448,192,313441,1,0,0:0:0:40:fx-lower_yellow.wav
320,192,313441,1,10,0:0:0:0:
192,192,313539,1,0,0:0:0:0:
64,192,313637,1,0,0:0:0:40:hithat.wav
320,192,313735,1,0,0:0:0:0:
320,192,313833,1,0,0:0:0:0:
64,192,313833,1,2,0:0:0:0:
448,192,313931,1,0,0:0:0:0:
192,192,314029,1,0,0:0:0:40:hithat.wav
448,192,314127,1,0,0:0:0:0:
448,192,314225,1,8,0:0:0:0:
64,192,314225,1,2,0:0:0:0:
320,192,314323,1,0,0:0:0:0:
64,192,314421,128,0,314519:0:0:0:40:hithat.wav
192,192,314519,128,0,314568:0:0:0:40:hithat.wav
320,192,314568,128,0,314617:0:0:0:0:
448,192,314617,128,0,315271:0:0:0:0:
64,192,314617,1,2,0:0:0:0:
192,192,314715,1,0,0:0:0:0:
320,192,314813,1,0,0:0:0:40:hithat.wav
192,192,314911,1,0,0:0:0:0:
320,192,315009,1,8,0:0:0:0:
192,192,315009,1,2,0:0:0:0:
64,192,315107,1,0,0:0:0:0:
192,192,315205,1,0,0:0:0:40:hithat.wav
320,192,315271,128,0,315336:0:0:0:0:
192,192,315336,128,0,315402:0:0:0:0:
448,192,315402,1,0,0:0:0:0:
64,192,315402,128,2,316055:0:0:0:0:
320,192,315500,1,0,0:0:0:0:
192,192,315598,1,0,0:0:0:40:hithat.wav
448,192,315696,1,0,0:0:0:0:
448,192,315794,1,8,0:0:0:0:
192,192,315794,1,2,0:0:0:0:
320,192,315892,1,0,0:0:0:0:
448,192,315990,1,0,0:0:0:40:hithat.wav
320,192,316055,128,0,316121:0:0:0:40:hithat.wav
192,192,316121,128,0,316186:0:0:0:0:
448,192,316186,1,0,0:0:0:60:fx-lower_yellow.wav
64,192,316186,128,2,317264:0:0:0:0:
320,192,316284,1,0,0:0:0:0:
192,192,316382,1,0,0:0:0:40:hithat.wav
320,192,316480,1,0,0:0:0:0:
448,192,316578,1,0,0:0:0:60:fx-lower_yellow.wav
320,192,316578,1,10,0:0:0:0:
192,192,316676,1,0,0:0:0:0:
320,192,316774,1,0,0:0:0:40:hithat.wav
192,192,316872,1,0,0:0:0:60:fx-yellow.wav
448,192,316970,128,0,317068:0:0:0:60:fx-yellow.wav
320,192,316970,128,2,317166:0:0:0:0:
192,192,317068,128,0,317362:0:0:0:60:fx-yellow.wav
448,192,317166,128,0,317264:0:0:0:40:hithat.wav
320,192,317264,128,0,317362:0:0:0:0:
448,192,317362,128,8,317656:0:0:0:0:
64,192,317362,128,2,317656:0:0:0:0:
320,192,317460,128,0,317558:0:0:0:0:
192,192,317558,128,0,317755:0:0:0:40:hithat.wav
320,192,317656,128,0,317755:0:0:0:40:hithat.wav
448,192,317755,128,0,318049:0:0:0:0:
64,192,317755,128,2,318049:0:0:0:0:
192,192,317853,128,0,317951:0:0:0:0:
320,192,317951,128,0,318147:0:0:0:40:hithat.wav
192,192,318049,128,0,318147:0:0:0:0:
448,192,318147,128,8,318343:0:0:0:0:
64,192,318147,128,2,318441:0:0:0:0:
192,192,318245,128,0,318441:0:0:0:0:
320,192,318343,128,0,318539:0:0:0:40:hithat.wav
448,192,318441,128,0,318539:0:0:0:0:
192,192,318539,1,2,0:0:0:0:
64,192,318539,1,4,0:0:0:0:
448,192,318637,1,0,0:0:0:0:
192,192,318735,1,0,0:0:0:0:
64,192,318735,1,0,0:0:0:40:hithat.wav
320,192,318833,1,0,0:0:0:0:
448,192,318931,1,0,0:0:0:0:
192,192,318931,1,2,0:0:0:0:
64,192,318931,1,8,0:0:0:0:
448,192,319029,1,0,0:0:0:0:
320,192,319127,1,0,0:0:0:0:
64,192,319127,1,0,0:0:0:40:hithat.wav
192,192,319225,1,0,0:0:0:40:hithat.wav
448,192,319323,1,0,0:0:0:40:clap_impact.wav
320,192,319323,1,0,0:0:0:60:fx-lower_yellow.wav
64,192,319323,1,2,0:0:0:0:
64,192,319421,1,0,0:0:0:0:
448,192,319519,1,0,0:0:0:0:
192,192,319519,1,0,0:0:0:40:hithat.wav
320,192,319617,1,0,0:0:0:0:
448,192,319715,1,0,0:0:0:40:fx-lower_yellow.wav
192,192,319715,1,2,0:0:0:0:
64,192,319715,1,8,0:0:0:0:
448,192,319813,1,0,0:0:0:0:
192,192,319911,128,0,319977:0:0:0:40:fx-lower_yellow.wav
64,192,319911,1,0,0:0:0:40:hithat.wav
320,192,319977,128,0,320042:0:0:0:0:
448,192,320042,128,0,320107:0:0:0:0:
192,192,320107,128,0,320205:0:0:0:0:
64,192,320107,128,2,320205:0:0:0:0:
320,192,320205,1,0,0:0:0:0:
448,192,320304,1,0,0:0:0:0:
192,192,320304,1,0,0:0:0:40:hithat.wav
64,192,320402,1,0,0:0:0:0:
448,192,320500,1,0,0:0:0:0:
320,192,320500,1,2,0:0:0:0:
192,192,320500,1,8,0:0:0:0:
448,192,320598,1,0,0:0:0:0:
320,192,320696,1,0,0:0:0:0:
64,192,320696,1,0,0:0:0:40:hithat.wav
192,192,320794,1,0,0:0:0:40:hithat.wav
320,192,320892,1,0,0:0:0:0:
64,192,320892,1,2,0:0:0:0:
64,192,320990,1,0,0:0:0:0:
320,192,321088,1,0,0:0:0:0:
192,192,321088,1,0,0:0:0:40:hithat.wav
448,192,321186,1,0,0:0:0:0:
320,192,321284,1,0,0:0:0:0:
192,192,321284,1,2,0:0:0:0:
64,192,321284,1,8,0:0:0:0:
192,192,321382,1,0,0:0:0:0:
448,192,321480,128,0,321529:0:0:0:0:
64,192,321480,1,0,0:0:0:40:hithat.wav
448,192,321578,128,0,321627:0:0:0:0:
192,192,321578,1,0,0:0:0:0:
320,192,321676,1,0,0:0:0:0:
64,192,321676,1,2,0:0:0:0:
320,192,321774,1,0,0:0:0:0:
448,192,321872,1,0,0:0:0:0:
64,192,321872,1,0,0:0:0:40:hithat.wav
192,192,321970,1,0,0:0:0:0:
448,192,322068,1,0,0:0:0:0:
320,192,322068,1,2,0:0:0:0:
64,192,322068,1,8,0:0:0:0:
64,192,322166,1,0,0:0:0:0:
448,192,322264,1,0,0:0:0:0:
192,192,322264,1,0,0:0:0:40:hithat.wav
64,192,322362,1,0,0:0:0:40:hithat.wav
448,192,322460,1,0,0:0:0:0:
320,192,322460,1,0,0:0:0:60:fx-lower_yellow.wav
192,192,322460,1,2,0:0:0:0:
448,192,322558,1,0,0:0:0:0:
320,192,322656,1,0,0:0:0:0:
192,192,322656,1,0,0:0:0:40:hithat.wav
64,192,322755,1,0,0:0:0:0:
448,192,322853,1,0,0:0:0:60:fx-lower_yellow.wav
320,192,322853,1,2,0:0:0:0:
192,192,322853,1,8,0:0:0:0:
192,192,322951,1,0,0:0:0:0:
448,192,323049,128,0,323114:0:0:0:60:fx-yellow.wav
64,192,323049,1,0,0:0:0:40:hithat.wav
320,192,323114,128,0,323179:0:0:0:0:
192,192,323179,128,0,323245:0:0:0:0:
320,192,323245,128,0,323343:0:0:0:60:fx-yellow.wav
64,192,323245,128,2,323343:0:0:0:0:
192,192,323343,1,0,0:0:0:60:fx-yellow.wav
448,192,323441,1,0,0:0:0:0:
320,192,323441,1,0,0:0:0:40:hithat.wav
192,192,323539,1,0,0:0:0:0:
448,192,323637,1,0,0:0:0:0:
320,192,323637,1,2,0:0:0:0:
64,192,323637,1,8,0:0:0:0:
448,192,323735,1,0,0:0:0:0:
320,192,323833,1,0,0:0:0:0:
192,192,323833,1,0,0:0:0:40:hithat.wav
64,192,323931,1,0,0:0:0:40:hithat.wav
448,192,324029,1,0,0:0:0:0:
192,192,324029,1,2,0:0:0:0:
192,192,324127,1,0,0:0:0:0:
448,192,324225,1,0,0:0:0:0:
64,192,324225,1,0,0:0:0:40:hithat.wav
192,192,324323,1,0,0:0:0:0:
448,192,324421,128,0,324813:0:0:0:0:
320,192,324421,1,2,0:0:0:0:
64,192,324421,1,8,0:0:0:0:
320,192,324519,1,0,0:0:0:0:
192,192,324617,1,0,0:0:0:0:
64,192,324617,128,0,324666:0:0:0:40:hithat.wav
64,192,324715,128,0,324764:0:0:0:0:
320,192,324813,1,0,0:0:0:0:
192,192,324813,1,2,0:0:0:0:
320,192,324911,1,0,0:0:0:0:
192,192,325009,1,0,0:0:0:0:
64,192,325009,1,0,0:0:0:40:hithat.wav
320,192,325107,1,0,0:0:0:0:
448,192,325205,1,0,0:0:0:0:
192,192,325205,1,8,0:0:0:0:
64,192,325205,1,2,0:0:0:0:
448,192,325304,1,0,0:0:0:0:
320,192,325402,1,0,0:0:0:0:
64,192,325402,1,0,0:0:0:40:hithat.wav
192,192,325500,1,0,0:0:0:40:hithat.wav
320,192,325598,1,0,0:0:0:60:fx-lower_yellow.wav
64,192,325598,1,2,0:0:0:0:
64,192,325696,1,0,0:0:0:0:
448,192,325794,1,0,0:0:0:0:
320,192,325794,1,0,0:0:0:40:hithat.wav
192,192,325892,1,0,0:0:0:0:
448,192,325990,1,0,0:0:0:40:fx-lower_yellow.wav
320,192,325990,1,8,0:0:0:0:
64,192,325990,1,2,0:0:0:0:
64,192,326088,1,0,0:0:0:0:
448,192,326186,1,0,0:0:0:40:fx-lower_yellow.wav
320,192,326186,128,0,326251:0:0:0:40:hithat.wav
192,192,326251,128,0,326317:0:0:0:0:
64,192,326317,128,0,326382:0:0:0:0:
448,192,326382,128,0,326480:0:0:0:0:
192,192,326382,128,2,326480:0:0:0:0:
320,192,326480,1,0,0:0:0:0:
448,192,326578,1,0,0:0:0:0:
192,192,326578,1,0,0:0:0:40:hithat.wav
64,192,326676,1,0,0:0:0:0:
448,192,326774,1,0,0:0:0:0:
320,192,326774,1,8,0:0:0:0:
192,192,326774,1,2,0:0:0:0:
448,192,326872,1,0,0:0:0:0:
320,192,326970,1,0,0:0:0:0:
64,192,326970,1,0,0:0:0:40:hithat.wav
192,192,327068,1,0,0:0:0:40:hithat.wav
320,192,327166,1,0,0:0:0:0:
64,192,327166,1,2,0:0:0:0:
64,192,327264,1,0,0:0:0:0:
320,192,327362,1,0,0:0:0:0:
192,192,327362,1,0,0:0:0:40:hithat.wav
448,192,327460,1,0,0:0:0:0:
320,192,327558,1,0,0:0:0:0:
192,192,327558,1,8,0:0:0:0:
64,192,327558,1,2,0:0:0:0:
192,192,327656,1,0,0:0:0:0:
320,192,327755,1,0,0:0:0:0:
64,192,327755,128,0,327804:0:0:0:40:hithat.wav
64,192,327853,128,0,327902:0:0:0:0:
320,192,327951,1,0,0:0:0:0:
192,192,327951,1,2,0:0:0:0:
320,192,328049,1,0,0:0:0:0:
448,192,328147,1,0,0:0:0:0:
192,192,328147,1,0,0:0:0:40:hithat.wav
64,192,328245,1,0,0:0:0:0:
448,192,328343,1,0,0:0:0:0:
320,192,328343,1,8,0:0:0:0:
192,192,328343,1,2,0:0:0:0:
192,192,328441,1,0,0:0:0:0:
64,192,328539,1,0,0:0:0:40:hithat.wav
320,192,328637,1,0,0:0:0:40:hithat.wav
448,192,328735,1,0,0:0:0:60:fx-lower_yellow.wav
192,192,328735,1,2,0:0:0:0:
448,192,328833,1,0,0:0:0:0:
192,192,328931,1,0,0:0:0:40:hithat.wav
320,192,329029,1,0,0:0:0:0:
448,192,329127,1,0,0:0:0:60:fx-lower_yellow.wav
192,192,329127,1,8,0:0:0:0:
64,192,329127,1,2,0:0:0:0:
192,192,329225,1,0,0:0:0:0:
64,192,329323,128,0,329389:0:0:0:40:hithat.wav
192,192,329389,128,0,329454:0:0:0:0:
320,192,329454,128,0,329519:0:0:0:0:
448,192,329519,128,0,329715:0:0:0:60:fx-yellow.wav
192,192,329519,128,2,329715:0:0:0:0:
320,192,329715,1,0,0:0:0:0:
64,192,329715,1,0,0:0:0:40:hithat.wav
448,192,329813,1,0,0:0:0:0:
192,192,329911,1,8,0:0:0:0:
64,192,329911,1,2,0:0:0:0:
192,192,330009,1,0,0:0:0:0:
448,192,330107,1,0,0:0:0:40:hithat.wav
320,192,330205,1,0,0:0:0:40:hithat.wav
192,192,330304,1,0,0:0:0:0:
64,192,330304,1,2,0:0:0:0:
64,192,330402,1,0,0:0:0:0:
320,192,330500,1,0,0:0:0:40:hithat.wav
192,192,330598,1,0,0:0:0:0:
448,192,330696,128,0,330794:0:0:0:60:fx-lower_yellow.wav
320,192,330696,1,8,0:0:0:0:
64,192,330696,128,2,330794:0:0:0:0:
192,192,330794,128,0,330892:0:0:0:60:fx-lower_yellow.wav
320,192,330892,128,0,330990:0:0:0:40:hithat.wav
64,192,330990,128,0,331088:0:0:0:60:fx-lower_yellow.wav
448,192,331088,1,0,0:0:0:0:
320,192,331088,1,4,0:0:0:0:
192,192,331088,1,2,0:0:0:0:
448,192,331186,1,0,0:0:0:0:
192,192,331284,1,0,0:0:0:0:
64,192,331284,1,0,0:0:0:40:hithat.wav
320,192,331382,1,0,0:0:0:0:
448,192,331480,1,0,0:0:0:0:
192,192,331480,1,2,0:0:0:0:
64,192,331480,1,8,0:0:0:0:
448,192,331578,1,0,0:0:0:0:
320,192,331676,1,0,0:0:0:0:
64,192,331676,1,0,0:0:0:40:hithat.wav
192,192,331774,1,0,0:0:0:40:hithat.wav
320,192,331872,1,0,0:0:0:60:fx-lower_yellow.wav
64,192,331872,1,2,0:0:0:0:
64,192,331970,1,0,0:0:0:0:
448,192,332068,1,0,0:0:0:0:
192,192,332068,1,0,0:0:0:40:hithat.wav
320,192,332166,1,0,0:0:0:0:
448,192,332264,1,0,0:0:0:40:fx-lower_yellow.wav
192,192,332264,1,2,0:0:0:0:
64,192,332264,1,8,0:0:0:0:
448,192,332362,1,0,0:0:0:0:
192,192,332460,128,0,332526:0:0:0:40:fx-lower_yellow.wav
64,192,332460,1,0,0:0:0:40:hithat.wav
320,192,332526,128,0,332591:0:0:0:0:
448,192,332591,128,0,332656:0:0:0:0:
192,192,332656,128,0,332755:0:0:0:0:
64,192,332656,128,2,332755:0:0:0:0:
320,192,332755,1,0,0:0:0:0:
448,192,332853,1,0,0:0:0:0:
192,192,332853,1,0,0:0:0:40:hithat.wav
64,192,332951,1,0,0:0:0:0:
448,192,333049,1,0,0:0:0:0:
320,192,333049,1,2,0:0:0:0:
192,192,333049,1,8,0:0:0:0:
448,192,333147,1,0,0:0:0:0:
320,192,333245,1,0,0:0:0:0:
64,192,333245,1,0,0:0:0:40:hithat.wav
192,192,333343,1,0,0:0:0:40:hithat.wav
320,192,333441,1,0,0:0:0:0:
64,192,333441,1,2,0:0:0:0:
64,192,333539,1,0,0:0:0:0:
320,192,333637,1,0,0:0:0:0:
192,192,333637,1,0,0:0:0:40:hithat.wav
448,192,333735,1,0,0:0:0:0:
320,192,333833,1,0,0:0:0:0:
192,192,333833,1,2,0:0:0:0:
64,192,333833,1,8,0:0:0:0:
192,192,333931,1,0,0:0:0:0:
448,192,334029,128,0,334078:0:0:0:0:
64,192,334029,1,0,0:0:0:40:hithat.wav
448,192,334127,128,0,334176:0:0:0:0:
192,192,334127,1,0,0:0:0:0:
320,192,334225,1,0,0:0:0:0:
64,192,334225,1,2,0:0:0:0:
320,192,334323,1,0,0:0:0:0:
448,192,334421,1,0,0:0:0:0:
64,192,334421,1,0,0:0:0:40:hithat.wav
192,192,334519,1,0,0:0:0:0:
448,192,334617,1,0,0:0:0:0:
320,192,334617,1,2,0:0:0:0:
64,192,334617,1,8,0:0:0:0:
320,192,334715,1,0,0:0:0:0:
448,192,334813,1,0,0:0:0:0:
192,192,334813,1,0,0:0:0:40:hithat.wav
64,192,334911,1,0,0:0:0:40:hithat.wav
448,192,335009,1,0,0:0:0:60:fx-lower_yellow.wav
192,192,335009,1,2,0:0:0:0:
448,192,335107,1,0,0:0:0:0:
320,192,335205,1,0,0:0:0:0:
192,192,335205,1,0,0:0:0:40:hithat.wav
64,192,335304,1,0,0:0:0:0:
448,192,335402,1,0,0:0:0:60:fx-lower_yellow.wav
320,192,335402,1,2,0:0:0:0:
192,192,335402,1,8,0:0:0:0:
192,192,335500,1,0,0:0:0:0:
448,192,335598,128,0,335663:0:0:0:60:fx-yellow.wav
64,192,335598,1,0,0:0:0:40:hithat.wav
320,192,335663,128,0,335728:0:0:0:0:
192,192,335728,128,0,335794:0:0:0:0:
320,192,335794,128,0,335892:0:0:0:60:fx-yellow.wav
64,192,335794,128,2,335892:0:0:0:0:
192,192,335892,1,0,0:0:0:60:fx-yellow.wav
448,192,335990,1,0,0:0:0:0:
320,192,335990,1,0,0:0:0:40:hithat.wav
192,192,336088,1,0,0:0:0:0:
448,192,336186,1,0,0:0:0:0:
320,192,336186,1,2,0:0:0:0:
64,192,336186,1,8,0:0:0:0:
448,192,336284,1,0,0:0:0:0:
320,192,336382,1,0,0:0:0:0:
192,192,336382,1,0,0:0:0:40:hithat.wav
64,192,336480,1,0,0:0:0:40:hithat.wav
448,192,336578,1,0,0:0:0:0:
192,192,336578,1,2,0:0:0:0:
192,192,336676,1,0,0:0:0:0:
448,192,336774,1,0,0:0:0:0:
64,192,336774,1,0,0:0:0:40:hithat.wav
192,192,336872,1,0,0:0:0:0:
448,192,336970,128,0,337362:0:0:0:0:
320,192,336970,1,2,0:0:0:0:
64,192,336970,1,8,0:0:0:0:
320,192,337068,1,0,0:0:0:0:
192,192,337166,1,0,0:0:0:0:
64,192,337166,128,0,337215:0:0:0:40:hithat.wav
64,192,337264,128,0,337313:0:0:0:0:
320,192,337362,1,0,0:0:0:0:
192,192,337362,1,2,0:0:0:0:
320,192,337460,1,0,0:0:0:0:
192,192,337558,1,0,0:0:0:0:
64,192,337558,1,0,0:0:0:40:hithat.wav
320,192,337656,1,0,0:0:0:0:
448,192,337755,1,0,0:0:0:0:
192,192,337755,1,8,0:0:0:0:
64,192,337755,1,2,0:0:0:0:
448,192,337853,1,0,0:0:0:0:
320,192,337951,1,0,0:0:0:0:
64,192,337951,1,0,0:0:0:40:hithat.wav
192,192,338049,1,0,0:0:0:40:hithat.wav
320,192,338147,1,0,0:0:0:60:fx-lower_yellow.wav
64,192,338147,1,2,0:0:0:0:
64,192,338245,1,0,0:0:0:0:
448,192,338343,1,0,0:0:0:0:
320,192,338343,1,0,0:0:0:40:hithat.wav
192,192,338441,1,0,0:0:0:0:
448,192,338539,1,0,0:0:0:40:fx-lower_yellow.wav
320,192,338539,1,8,0:0:0:0:
64,192,338539,1,2,0:0:0:0:
64,192,338637,1,0,0:0:0:0:
448,192,338735,1,0,0:0:0:40:fx-lower_yellow.wav
320,192,338735,128,0,338800:0:0:0:40:hithat.wav
192,192,338800,128,0,338866:0:0:0:0:
64,192,338866,128,0,338931:0:0:0:0:
448,192,338931,128,0,339029:0:0:0:0:
192,192,338931,128,2,339029:0:0:0:0:
320,192,339029,1,0,0:0:0:0:
448,192,339127,1,0,0:0:0:0:
192,192,339127,1,0,0:0:0:40:hithat.wav
64,192,339225,1,0,0:0:0:0:
448,192,339323,1,0,0:0:0:0:
320,192,339323,1,8,0:0:0:0:
192,192,339323,1,2,0:0:0:0:
448,192,339421,1,0,0:0:0:0:
320,192,339519,1,0,0:0:0:0:
64,192,339519,1,0,0:0:0:40:hithat.wav
192,192,339617,1,0,0:0:0:40:hithat.wav
320,192,339715,1,0,0:0:0:0:
64,192,339715,1,2,0:0:0:0:
64,192,339813,1,0,0:0:0:0:
320,192,339911,1,0,0:0:0:0:
192,192,339911,1,0,0:0:0:40:hithat.wav
448,192,340009,1,0,0:0:0:0:
320,192,340107,1,0,0:0:0:0:
192,192,340107,1,8,0:0:0:0:
64,192,340107,1,2,0:0:0:0:
192,192,340205,1,0,0:0:0:0:
320,192,340304,1,0,0:0:0:0:
64,192,340304,128,0,340353:0:0:0:40:hithat.wav
64,192,340402,128,0,340451:0:0:0:0:
320,192,340500,1,0,0:0:0:0:
192,192,340500,1,2,0:0:0:0:
320,192,340598,1,0,0:0:0:0:
448,192,340696,1,0,0:0:0:0:
192,192,340696,1,0,0:0:0:40:hithat.wav
64,192,340794,1,0,0:0:0:0:
448,192,340892,1,0,0:0:0:0:
320,192,340892,1,8,0:0:0:0:
192,192,340892,1,2,0:0:0:0:
192,192,340990,1,0,0:0:0:0:
448,192,341088,1,0,0:0:0:0:
64,192,341088,1,0,0:0:0:40:hithat.wav
320,192,341186,1,0,0:0:0:40:hithat.wav
448,192,341284,1,0,0:0:0:60:fx-lower_yellow.wav
192,192,341284,1,2,0:0:0:0:
448,192,341382,1,0,0:0:0:0:
192,192,341480,1,0,0:0:0:0:
64,192,341480,1,0,0:0:0:40:hithat.wav
320,192,341578,1,0,0:0:0:0:
448,192,341676,1,0,0:0:0:60:fx-lower_yellow.wav
192,192,341676,1,8,0:0:0:0:
64,192,341676,1,2,0:0:0:0:
192,192,341774,1,0,0:0:0:0:
64,192,341872,128,0,341938:0:0:0:40:hithat.wav
192,192,341938,128,0,342003:0:0:0:0:
320,192,342003,128,0,342068:0:0:0:0:
448,192,342068,128,0,342264:0:0:0:60:fx-yellow.wav
192,192,342068,128,2,342264:0:0:0:0:
320,192,342264,1,0,0:0:0:0:
64,192,342264,1,0,0:0:0:40:hithat.wav
448,192,342362,1,0,0:0:0:0:
320,192,342460,1,0,0:0:0:0:
192,192,342460,1,8,0:0:0:0:
64,192,342460,1,2,0:0:0:0:
192,192,342558,1,0,0:0:0:0:
448,192,342656,1,0,0:0:0:40:hithat.wav
320,192,342755,1,0,0:0:0:40:hithat.wav
192,192,342853,1,0,0:0:0:0:
64,192,342853,1,2,0:0:0:0:
64,192,342951,1,0,0:0:0:0:
320,192,343049,1,0,0:0:0:40:hithat.wav
192,192,343147,1,0,0:0:0:0:
448,192,343245,128,0,343343:0:0:0:60:fx-lower_yellow.wav
320,192,343245,1,8,0:0:0:0:
64,192,343245,128,2,343343:0:0:0:0:
192,192,343343,128,0,343441:0:0:0:60:fx-lower_yellow.wav
320,192,343441,128,0,343539:0:0:0:40:hithat.wav
64,192,343539,128,0,343637:0:0:0:60:fx-lower_yellow.wav
448,192,343637,1,0,0:0:0:0:
320,192,343637,1,4,0:0:0:0:
192,192,343637,1,2,0:0:0:0:
320,192,343735,1,0,0:0:0:0:
192,192,343833,1,0,0:0:0:0:
320,192,343931,1,0,0:0:0:0:
448,192,344029,1,8,0:0:0:0:
64,192,344029,1,2,0:0:0:0:
448,192,344127,1,0,0:0:0:0:
320,192,344225,1,0,0:0:0:0:
192,192,344323,1,0,0:0:0:0:
320,192,344421,1,0,0:0:0:60:clap_impact.wav
64,192,344421,1,2,0:0:0:0:
64,192,344519,1,0,0:0:0:0:
448,192,344617,1,0,0:0:0:0:
320,192,344715,1,0,0:0:0:0:
448,192,344813,1,0,0:0:0:60:fx-lower_yellow.wav
192,192,344813,1,10,0:0:0:0:
192,192,344911,1,0,0:0:0:0:
320,192,345009,1,0,0:0:0:60:fx-lower_yellow.wav
448,192,345107,1,0,0:0:0:0:
320,192,345205,1,0,0:0:0:0:
64,192,345205,1,2,0:0:0:0:
320,192,345304,1,0,0:0:0:0:
192,192,345402,1,0,0:0:0:0:
64,192,345500,1,0,0:0:0:0:
448,192,345598,1,8,0:0:0:0:
320,192,345598,1,2,0:0:0:0:
448,192,345696,1,0,0:0:0:0:
320,192,345794,1,0,0:0:0:0:
192,192,345892,1,0,0:0:0:0:
320,192,345990,1,0,0:0:0:0:
64,192,345990,1,2,0:0:0:0:
64,192,346088,1,0,0:0:0:0:
192,192,346186,1,0,0:0:0:0:
448,192,346284,1,0,0:0:0:0:
320,192,346382,1,8,0:0:0:0:
192,192,346382,1,2,0:0:0:0:
192,192,346480,1,0,0:0:0:0:
320,192,346578,1,0,0:0:0:0:
448,192,346676,1,0,0:0:0:0:
320,192,346774,1,0,0:0:0:0:
64,192,346774,1,2,0:0:0:0:
320,192,346872,1,0,0:0:0:0:
448,192,346970,1,0,0:0:0:0:
192,192,347068,1,0,0:0:0:0:
320,192,347166,1,2,0:0:0:0:
64,192,347166,1,8,0:0:0:0:
64,192,347264,1,0,0:0:0:0:
320,192,347362,1,0,0:0:0:100:fx-yellow.wav
192,192,347460,1,0,0:0:0:0:
448,192,347558,1,0,0:0:0:60:fx-lower_yellow.wav
320,192,347558,1,2,0:0:0:0:
320,192,347656,1,0,0:0:0:0:
192,192,347755,1,0,0:0:0:0:
64,192,347853,1,0,0:0:0:0:
448,192,347951,1,0,0:0:0:60:fx-lower_yellow.wav
192,192,347951,1,10,0:0:0:0:
192,192,348049,1,0,0:0:0:0:
320,192,348147,1,0,0:0:0:0:
64,192,348147,1,0,0:0:0:60:fx-yellow.wav
448,192,348245,1,0,0:0:0:0:
192,192,348245,1,0,0:0:0:60:fx-yellow.wav
64,192,348343,1,2,0:0:0:0:
448,192,348367,1,0,0:0:0:0:
320,192,348441,1,0,0:0:0:60:fx-yellow.wav
192,192,348465,1,0,0:0:0:0:
448,192,348539,1,0,0:0:0:60:fx-lower_yellow.wav
192,192,348637,1,0,0:0:0:0:
448,192,348735,1,2,0:0:0:0:
64,192,348735,1,8,0:0:0:0:
448,192,348833,1,0,0:0:0:0:
192,192,348931,1,0,0:0:0:0:
64,192,349029,1,0,0:0:0:0:
448,192,349127,1,0,0:0:0:0:
192,192,349127,1,2,0:0:0:0:
192,192,349225,1,0,0:0:0:0:
448,192,349323,1,0,0:0:0:0:
192,192,349421,1,0,0:0:0:0:
320,192,349519,1,2,0:0:0:0:
64,192,349519,128,8,349911:0:0:0:0:
320,192,349617,1,0,0:0:0:0:
192,192,349715,1,0,0:0:0:0:
320,192,349813,1,0,0:0:0:0:
448,192,349911,1,2,0:0:0:0:
448,192,350009,1,0,0:0:0:0:
192,192,350107,1,0,0:0:0:0:
320,192,350205,1,0,0:0:0:0:
448,192,350304,1,8,0:0:0:0:
64,192,350304,1,2,0:0:0:0:
64,192,350402,1,0,0:0:0:0:
320,192,350500,1,0,0:0:0:0:
192,192,350598,1,0,0:0:0:0:
320,192,350696,1,0,0:0:0:60:clap_impact.wav
64,192,350696,1,2,0:0:0:0:
320,192,350794,1,0,0:0:0:0:
448,192,350892,1,0,0:0:0:0:
192,192,350990,1,0,0:0:0:0:
448,192,351088,1,0,0:0:0:60:fx-lower_yellow.wav
64,192,351088,1,10,0:0:0:0:
448,192,351186,1,0,0:0:0:0:
192,192,351284,1,0,0:0:0:60:fx-lower_yellow.wav
448,192,351382,1,0,0:0:0:0:
320,192,351480,1,0,0:0:0:0:
64,192,351480,1,2,0:0:0:0:
320,192,351578,1,0,0:0:0:0:
192,192,351676,1,0,0:0:0:0:
64,192,351774,1,0,0:0:0:0:
448,192,351872,1,8,0:0:0:0:
320,192,351872,1,2,0:0:0:0:
448,192,351970,1,0,0:0:0:0:
320,192,352068,1,0,0:0:0:0:
192,192,352166,1,0,0:0:0:0:
320,192,352264,1,0,0:0:0:0:
64,192,352264,1,2,0:0:0:0:
64,192,352362,1,0,0:0:0:0:
192,192,352460,1,0,0:0:0:0:
448,192,352558,1,0,0:0:0:0:
320,192,352656,1,8,0:0:0:0:
192,192,352656,1,2,0:0:0:0:
192,192,352755,1,0,0:0:0:0:
320,192,352853,1,0,0:0:0:0:
448,192,352951,1,0,0:0:0:0:
320,192,353049,1,0,0:0:0:0:
64,192,353049,1,2,0:0:0:0:
320,192,353147,1,0,0:0:0:0:
448,192,353245,1,0,0:0:0:0:
192,192,353343,1,0,0:0:0:0:
320,192,353441,1,8,0:0:0:0:
64,192,353441,1,2,0:0:0:0:
64,192,353539,1,0,0:0:0:0:
320,192,353637,1,0,0:0:0:100:fx-yellow.wav
192,192,353735,1,0,0:0:0:0:
448,192,353833,1,0,0:0:0:60:fx-lower_yellow.wav
320,192,353833,1,2,0:0:0:0:
320,192,353931,1,0,0:0:0:0:
192,192,354029,1,0,0:0:0:0:
64,192,354127,1,0,0:0:0:0:
448,192,354225,1,0,0:0:0:60:fx-lower_yellow.wav
192,192,354225,1,10,0:0:0:0:
192,192,354323,1,0,0:0:0:0:
320,192,354421,1,0,0:0:0:0:
64,192,354421,1,0,0:0:0:60:fx-yellow.wav
448,192,354519,1,0,0:0:0:0:
192,192,354519,1,0,0:0:0:60:fx-yellow.wav
64,192,354617,1,2,0:0:0:0:
320,192,354642,1,0,0:0:0:0:
448,192,354715,1,0,0:0:0:60:fx-yellow.wav
192,192,354740,1,0,0:0:0:0:
320,192,354813,1,0,0:0:0:60:fx-lower_yellow.wav
192,192,354911,1,0,0:0:0:0:
448,192,355009,1,8,0:0:0:0:
320,192,355009,1,2,0:0:0:0:
448,192,355107,1,0,0:0:0:0:
192,192,355205,1,0,0:0:0:0:
64,192,355304,1,0,0:0:0:0:
448,192,355402,1,0,0:0:0:0:
192,192,355402,1,2,0:0:0:0:
192,192,355500,1,0,0:0:0:0:
448,192,355598,1,0,0:0:0:0:
320,192,355696,1,0,0:0:0:0:
448,192,355794,128,0,355892:0:0:0:60:fx-lower_yellow.wav
64,192,355794,128,10,355892:0:0:0:0:
192,192,355892,128,0,355990:0:0:0:60:fx-lower_yellow.wav
320,192,355990,128,0,356088:0:0:0:0:
64,192,355990,128,0,356088:0:0:0:60:fx-lower_yellow.wav
448,192,356088,128,0,356186:0:0:0:60:fx-lower_yellow.wav
320,192,356186,1,0,0:0:0:0:
192,192,356186,1,2,0:0:0:0:
64,192,356186,1,4,0:0:0:0:
64,192,356382,1,0,0:0:0:0:
320,192,356480,1,0,0:0:0:0:
448,192,356578,1,0,0:0:0:0:
192,192,356578,1,2,0:0:0:0:
448,192,356774,1,0,0:0:0:0:
192,192,356872,1,0,0:0:0:0:
320,192,356970,1,0,0:0:0:0:
64,192,356970,1,2,0:0:0:0:
448,192,357166,1,0,0:0:0:0:
320,192,357264,1,0,0:0:0:0:
448,192,357362,1,0,0:0:0:60:fx-lower_yellow.wav
192,192,357362,1,2,0:0:0:0:
64,192,357558,1,0,0:0:0:60:fx-lower_yellow.wav
192,192,357656,1,0,0:0:0:0:
320,192,357755,1,0,0:0:0:0:
64,192,357755,1,2,0:0:0:0:
192,192,357951,1,0,0:0:0:0:
320,192,358049,1,0,0:0:0:0:
448,192,358147,1,0,0:0:0:0:
192,192,358147,1,2,0:0:0:0:
320,192,358343,1,0,0:0:0:0:
192,192,358441,1,0,0:0:0:0:
320,192,358539,1,0,0:0:0:0:
64,192,358539,1,2,0:0:0:0:
192,192,358735,1,0,0:0:0:0:
448,192,358833,1,0,0:0:0:0:
320,192,358931,1,0,0:0:0:0:
192,192,358931,1,2,0:0:0:0:
64,192,359127,1,0,0:0:0:0:
448,192,359225,1,0,0:0:0:0:
320,192,359323,1,0,0:0:0:0:
64,192,359323,1,2,0:0:0:0:
448,192,359519,1,0,0:0:0:0:
192,192,359617,1,0,0:0:0:0:
320,192,359715,1,0,0:0:0:0:
64,192,359715,1,2,0:0:0:0:
64,192,359911,1,0,0:0:0:60:fx-yellow.wav
192,192,360009,1,0,0:0:0:0:
448,192,360107,1,0,0:0:0:60:fx-lower_yellow.wav
320,192,360107,1,2,0:0:0:0:
448,192,360304,1,0,0:0:0:0:
320,192,360402,1,0,0:0:0:0:
192,192,360500,1,0,0:0:0:60:fx-lower_yellow.wav
64,192,360500,1,2,0:0:0:0:
448,192,360696,1,0,0:0:0:60:fx-yellow.wav
192,192,360794,1,0,0:0:0:60:fx-yellow.wav
320,192,360892,1,0,0:0:0:60:fx-yellow.wav
64,192,360892,1,2,0:0:0:0:
448,192,361088,1,0,0:0:0:60:fx-lower_yellow.wav
192,192,361186,1,0,0:0:0:0:
448,192,361284,1,0,0:0:0:0:
64,192,361284,1,2,0:0:0:0:
320,192,361480,1,0,0:0:0:0:
64,192,361578,1,0,0:0:0:0:
448,192,361676,1,0,0:0:0:0:
192,192,361676,1,2,0:0:0:0:
192,192,361872,1,0,0:0:0:0:
320,192,361970,1,0,0:0:0:0:
448,192,362068,1,0,0:0:0:0:
64,192,362068,1,2,0:0:0:0:
320,192,362264,1,0,0:0:0:0:
192,192,362362,1,0,0:0:0:0:
320,192,362460,1,0,0:0:0:0:
64,192,362460,1,2,0:0:0:0:
192,192,362656,1,0,0:0:0:0:
320,192,362755,1,0,0:0:0:0:
448,192,362853,1,0,0:0:0:0:
64,192,362853,1,2,0:0:0:0:
320,192,363049,1,0,0:0:0:0:
192,192,363147,1,0,0:0:0:0:
448,192,363245,1,0,0:0:0:0:
64,192,363245,1,2,0:0:0:0:
320,192,363441,1,0,0:0:0:0:
64,192,363539,1,0,0:0:0:0:
320,192,363637,1,0,0:0:0:0:
192,192,363637,1,2,0:0:0:0:
448,192,363833,1,0,0:0:0:0:
192,192,363931,1,0,0:0:0:0:
320,192,364029,1,0,0:0:0:0:
64,192,364029,1,2,0:0:0:0:
192,192,364225,1,0,0:0:0:0:
64,192,364323,1,0,0:0:0:0:
448,192,364421,1,0,0:0:0:0:
320,192,364421,1,2,0:0:0:0:
448,192,364617,1,0,0:0:0:0:
192,192,364715,1,0,0:0:0:0:
320,192,364813,1,0,0:0:0:0:
64,192,364813,1,2,0:0:0:0:
192,192,365009,1,0,0:0:0:0:
448,192,365107,1,0,0:0:0:0:
192,192,365205,1,0,0:0:0:0:
64,192,365205,1,2,0:0:0:0:
320,192,365598,1,0,0:0:0:0:
64,192,365598,1,2,0:0:0:0:
320,192,365990,1,0,0:0:0:0:
192,192,365990,1,2,0:0:0:0:
448,192,366382,1,0,0:0:0:0:
192,192,366382,1,2,0:0:0:0:
192,192,366774,1,0,0:0:0:0:
64,192,366774,1,2,0:0:0:0:
320,192,367166,128,0,368735:0:0:0:0:
192,192,367166,128,0,368735:0:0:0:0:
