osu file format v14

[General]
AudioFilename: 7 Colors.mp3
AudioLeadIn: 0
PreviewTime: 52040
Countdown: 1
SampleSet: None
StackLeniency: 0.7
Mode: 0
LetterboxInBreaks: 1
WidescreenStoryboard: 1

[Editor]
Bookmarks: 43386,46458
DistanceSpacing: 1.6
BeatDivisor: 4
GridSize: 4
TimelineZoom: 2.1

[Metadata]
Title:7 Colors
TitleUnicode:7 Colors
Artist:kors k feat.Yoshikawa Sunao
ArtistUnicode:kors k feat.吉河順央
Creator:Citrus
Version:Hard
Source:REFLEC BEAT colette
Tags:
BeatmapID:688586
BeatmapSetID:232373

[Difficulty]
HPDrainRate:5
CircleSize:4
OverallDifficulty:5
ApproachRate:7
SliderMultiplier:1.6
SliderTickRate:1

[Events]
//Background and Video events
0,0,"wa.jpg",0,0
//Break Periods
//Storyboard Layer 0 (Background)
//Storyboard Layer 1 (Fail)
//Storyboard Layer 2 (Pass)
//Storyboard Layer 3 (Foreground)
//Storyboard Sound Samples

[TimingPoints]
310,384.615384615385,4,1,1,45,1,0
694,-100,4,1,2,45,0,0
790,-100,4,1,1,45,0,0
1848,-100,4,1,1,50,0,0
12617,-100,4,1,1,60,0,0
13386,-100,4,1,1,50,0,0
49925,-100,4,1,1,60,0,0
50310,-100,4,1,1,65,0,0
52233,-83.3333333333333,4,1,1,50,0,0
52521,-83.3333333333333,4,1,1,10,0,0
52617,-100,4,1,1,60,0,1
64156,-100,4,1,1,50,0,1
64540,-100,4,1,1,60,0,1
64829,-100,4,1,1,60,0,0
64925,-100,4,1,1,60,0,1
79829,-100,4,1,1,60,0,0
79925,-100,4,1,1,60,0,1
80021,-100,4,1,1,60,0,0

[Colours]
Combo1 : 102,0,204
Combo2 : 255,53,53
Combo3 : 255,142,30
Combo4 : 255,255,0
Combo5 : 0,255,0
Combo6 : 0,158,234
Combo7 : 115,115,185

[HitObjects]
36,316,310,6,0,P|88:300|152:316,1,120
140,332,694,2,0,L|220:348,1,80,8|0,0:0|0:0,0:0:0:0:
292,316,1079,2,0,P|320:264|294:196,1,120,2|0,0:3|0:0,0:0:0:0:
292,193,1463,2,0,L|256:169,2,40,0|0|0,0:0|0:0|0:0,0:0:0:0:
355,143,1848,5,8,0:0:0:0:
418,93,2040,1,0,0:0:0:0:
292,193,2425,1,0,0:0:0:0:
441,252,2810,1,0,0:0:0:0:
418,93,3194,5,0,0:0:0:0:
355,143,3386,1,0,0:0:0:0:
292,193,3579,2,0,P|273:154|280:113,2,80,0|0|0,0:0|0:0|0:0,0:0:0:0:
355,143,4156,2,0,P|397:146|429:173,1,80,0|0,0:0|0:0,0:0:0:0:
366,222,4540,2,0,P|342:256|302:271,1,80,0|0,0:0|0:0,0:0:0:0:
164,286,4925,6,0,P|188:255|225:241,2,80,0|0|0,0:0|0:0|0:0,0:0:0:0:
164,286,5502,2,0,P|96:322|28:286,2,160,0|0|0,0:0|0:0|0:0,0:0:0:0:
258,269,6463,6,0,L|266:229,3,40,0|0|0|0,0:0|0:0|0:0|0:0,0:0:0:0:
225,228,6848,6,0,L|233:188,3,40,0|0|0|0,0:0|0:0|0:0|0:0,0:0:0:0:
192,187,7233,6,0,L|200:147,3,40,0|0|0|0,0:0|0:0|0:0|0:0,0:0:0:0:
159,146,7617,6,0,L|167:106,3,40,0|0|0|0,0:0|0:0|0:0|0:0,0:0:0:0:
133,66,8002,6,0,P|189:86|245:66,1,120,4|0,0:0|0:0,0:0:0:0:
250,87,8386,2,0,L|330:75,1,80,8|0,0:0|0:0,0:0:0:0:
400,112,8771,1,8,0:0:0:0:
470,148,8963,1,0,0:0:0:0:
434,271,9156,5,8,0:0:0:0:
391,204,9348,1,0,0:0:0:0:
391,204,9540,2,0,P|335:224|279:204,1,120,4|0,0:2|0:0,0:0:0:0:
249,177,9925,1,8,0:0:0:0:
249,177,10117,1,0,0:0:0:0:
155,89,10310,1,8,0:0:0:0:
155,89,10502,1,0,0:0:0:0:
125,214,10694,6,0,L|110:270,3,40,8|0|0|0,0:0|0:0|0:0|0:0,0:0:0:0:
86,281,11079,2,0,P|142:261|198:281,1,120,4|0,0:2|0:0,0:0:0:0:
210,296,11463,2,0,L|290:288,1,80,8|0,0:0|0:0,0:0:0:0:
369,279,11848,1,8,0:0:0:0:
444,250,12040,1,0,0:0:0:0:
443,171,12233,1,8,0:0:0:0:
367,148,12425,1,0,0:0:0:0:
321,214,12617,5,4,0:2:0:0:
321,214,12906,1,4,0:2:0:0:
321,214,13194,1,4,0:2:0:0:
86,281,13771,5,0,0:0:0:0:
86,281,14156,6,0,P|139:302|193:275,1,120,4|0,0:0|0:0,0:0:0:0:
221,303,14540,2,0,L|237:223,1,80,8|0,0:0|0:0,0:0:0:0:
304,180,14925,2,0,L|296:140,1,40,8|0,0:0|0:0,0:0:0:0:
355,56,15213,2,0,L|363:96,1,40,0|8,0:0|0:0,0:0:0:0:
434,130,15502,1,0,0:0:0:0:
512,118,15694,5,8,0:0:0:0:
510,138,15790,1,0,0:0:0:0:
508,158,15886,2,0,L|504:205,2,40,0|0|8,0:0|0:0|0:0,0:0:0:0:
446,253,16271,1,0,0:0:0:0:
387,308,16463,2,0,P|439:334|494:316,2,120,8|0|8,0:0|0:0|0:0,0:0:0:0:
387,308,17233,6,0,P|335:281|280:298,2,120,8|0|0,0:0|0:0|0:0,0:0:0:0:
328,363,18002,2,0,L|320:323,1,40,8|0,0:0|0:0,0:0:0:0:
219,350,18290,2,0,L|192:319,1,40,0|8,0:0|0:0,0:0:0:0:
113,308,18579,1,0,0:0:0:0:
33,296,18771,5,8,0:0:0:0:
29,276,18867,1,0,0:0:0:0:
26,256,18963,1,0,0:0:0:0:
23,236,19060,1,0,0:0:0:0:
20,216,19156,2,0,P|58:225|95:214,2,80,8|0|8,0:0|0:0|0:0,0:0:0:0:
56,144,19733,1,0,0:0:0:0:
92,72,19925,6,0,L|82:33,3,40,8|8|8|8,0:0|0:0|0:0|0:0,0:0:0:0:
120,50,20310,2,0,P|173:71|227:44,1,120,4|0,0:0|0:0,0:0:0:0:
240,82,20694,2,0,L|320:74,1,80,8|0,0:0|0:0,0:0:0:0:
395,101,21079,1,8,0:0:0:0:
395,101,21175,2,0,P|407:139|403:179,1,80,0|0,0:0|0:0,0:0:0:0:
395,197,21463,2,0,L|315:205,1,80,8|0,0:0|0:0,0:0:0:0:
295,284,21848,6,0,L|334:285,3,40,8|0|0|0,0:0|0:0|0:0|0:0,0:0:0:0:
274,319,22233,2,0,P|220:339|168:313,1,120,8|0,0:0|0:0,0:0:0:0:
148,276,22617,2,0,P|95:249|41:270,2,120,8|0|8,0:0|0:0|0:0,0:0:0:0:
226,259,23386,5,8,0:0:0:0:
305,168,23675,1,0,0:0:0:0:
242,64,23963,1,0,0:0:0:0:
318,89,24156,1,8,0:0:0:0:
318,89,24252,2,0,L|399:75,1,80
400,95,24540,2,0,L|481:81,1,80,8|0,0:0|0:0,0:0:0:0:
473,162,24925,6,0,L|512:169,4,40,8|0|0|0|0,0:0|0:0|0:0|0:0|0:0,0:0:0:0:
438,249,25502,2,0,L|477:242,4,40,8|0|8|0|0,0:0|0:0|0:0|0:0|0:0,0:0:0:0:
407,323,26079,2,0,L|318:310,1,80
267,260,26463,6,0,P|228:269|191:256,2,80,4|0|8,0:0|0:0|0:0,0:0:0:0:
324,204,27040,1,0,0:0:0:0:
348,127,27233,2,0,P|387:118|424:131,2,80,8|0|8,0:0|0:0|0:0,0:0:0:0:
277,89,27810,1,0,0:0:0:0:
206,51,28002,6,0,P|167:60|130:47,2,80,8|0|8,0:0|0:0|0:0,0:0:0:0:
277,89,28579,1,0,0:0:0:0:
297,87,28675,1,0,0:0:0:0:
317,85,28771,1,8,0:0:0:0:
260,192,29060,1,0,0:0:0:0:
344,280,29348,1,0,0:0:0:0:
344,280,29540,6,0,L|444:288,2,80,4|0|8,0:0|0:0|0:0,0:0:0:0:
284,336,30117,1,0,0:0:0:0:
284,336,30213,2,0,L|136:348,1,120
96,304,30694,1,8,0:0:0:0:
27,262,30886,6,0,P|-4:193|28:121,1,160,0|0,0:0|0:0,0:0:0:0:
100,157,31463,2,0,P|139:166|176:153,1,80,8|0,0:0|0:0,0:0:0:0:
272,71,31848,2,0,P|234:63|197:76,1,80,8|0,0:0|0:0,0:0:0:0:
302,146,32233,2,0,P|340:154|377:142,1,80,8|8,0:0|0:0,0:0:0:0:
456,196,32617,6,0,L|476:115,2,80,4|0|8,0:0|0:0|0:0,0:0:0:0:
400,256,33194,1,0,0:0:0:0:
400,256,33290,2,0,P|344:236|292:260,1,120
198,273,33771,6,0,L|223:303,4,40,8|0|0|0|0,0:0|0:0|0:0|0:0|0:0,0:0:0:0:
118,265,34348,1,0,0:0:0:0:
38,257,34540,1,8,0:0:0:0:
85,192,34733,1,0,0:0:0:0:
85,192,34829,2,0,P|109:139|85:87,1,120,0|0,0:0|0:0,0:0:0:0:
153,44,35310,6,0,L|196:47,3,40,8|0|0|0,0:0|0:0|0:0|0:0,0:0:0:0:
216,80,35694,2,0,P|255:89|292:76,1,80,8|0,0:0|0:0,0:0:0:0:
395,155,36079,2,0,P|358:142|320:152,2,80,4|0|8,0:2|0:0|0:0,0:0:0:0:
448,95,36656,1,0,0:0:0:0:
473,171,36848,1,8,0:0:0:0:
420,231,37040,5,0,0:0:0:0:
400,234,37136,1,0,0:0:0:0:
380,237,37232,1,4,0:2:0:0:
327,297,37425,2,0,L|247:286,2,80,0|8|0,0:0|0:0|0:0,0:0:0:0:
369,365,38002,5,0,0:0:0:0:
369,365,38194,1,8,0:0:0:0:
303,219,38386,1,8,0:0:0:0:
303,219,38579,1,8,0:0:0:0:
209,349,38771,6,0,P|134:363|91:301,1,160,4|8,0:0|0:0,0:0:0:0:
88,221,39348,1,0,0:0:0:0:
1,86,39733,2,0,L|164:78,1,160
176,91,40213,1,0,0:0:0:0:
191,104,40310,6,0,L|275:100,2,80,8|0|8,0:0|0:0|0:0,0:0:0:0:
171,181,40886,1,0,0:0:0:0:
151,181,40982,1,0,0:0:0:0:
131,182,41078,1,8,0:0:0:0:
92,271,41271,1,0,0:0:0:0:
52,359,41463,1,8,0:0:0:0:
52,359,41848,6,0,B|36:312|36:312|72:260|40:208,1,160,8|8,0:0|0:0,0:0:0:0:
0,140,42425,2,0,P|64:180|132:144,1,160
161,68,43002,1,8,0:0:0:0:
212,129,43194,5,0,0:0:0:0:
232,127,43290,1,0,0:0:0:0:
252,125,43386,2,0,B|291:121|291:121|351:137|351:137|311:89,2,160,4|8|8,0:2|0:0|0:0,0:0:0:0:
237,204,44348,1,0,0:0:0:0:
237,204,44540,2,0,P|247:241|236:279,1,80,8|0,0:0|0:0,0:0:0:0:
189,346,44925,2,0,L|92:356,2,80,4|0|8,0:2|0:0|0:0,0:0:0:0:
267,366,45502,1,0,0:0:0:0:
279,350,45598,1,0,0:0:0:0:
291,334,45694,2,0,L|388:324,1,80,8|0,0:0|0:0,0:0:0:0:
352,248,46079,2,0,L|431:256,1,80,8|0,0:0|0:0,0:0:0:0:
413,178,46463,6,0,L|493:170,2,80,4|0|8,0:2|0:0|0:0,0:0:0:0:
381,104,47040,2,0,L|325:98,1,40
310,74,47233,1,4,0:2:0:0:
230,127,47425,1,0,0:0:0:0:
140,93,47617,1,8,0:0:0:0:
140,93,48002,6,0,P|87:148|109:221,1,160,4|8,0:2|0:0,0:0:0:0:
150,298,48579,2,0,B|212:256|185:180|185:180|162:165,2,160,0|0|0,0:0|0:0|0:0,0:0:0:0:
59,330,49540,6,0,L|52:288,3,40,8|0|0|0,0:0|0:0|0:0|0:0,0:0:0:0:
79,260,49925,6,0,L|72:218,3,40,8|0|0|0,0:0|0:0|0:0|0:0,0:0:0:0:
99,190,50310,6,0,L|92:148,3,40,8|0|0|0,0:0|0:0|0:0|0:0,0:0:0:0:
119,120,50694,6,0,L|112:78,3,40,8|0|0|0,0:0|0:0|0:0|0:0,0:0:0:0:
139,50,51079,5,4,0:0:0:0:
139,50,52233,6,0,P|192:92|257:68,1,143.999995605469
255,47,52617,6,0,L|337:37,1,80,4|0,0:0|0:0,0:0:0:0:
409,66,53002,1,8,0:0:0:0:
483,94,53194,1,0,0:0:0:0:
483,94,53290,2,0,P|511:145|492:200,1,120,0|0,0:0|0:0,0:0:0:0:
422,241,53771,2,0,P|408:205|419:165,1,80,8|0,0:0|0:0,0:0:0:0:
328,258,54156,6,0,P|341:293|330:333,2,80,8|0|8,0:0|0:0|0:0,0:0:0:0:
282,192,54733,1,0,0:0:0:0:
266,180,54829,1,0,0:0:0:0:
250,168,54925,2,0,L|162:162,1,80,8|0,0:0|0:0,0:0:0:0:
142,87,55310,6,0,L|195:84,4,40,8|0|8|0|4,0:0|0:0|0:0|0:0|0:0,0:0:0:0:
91,148,55886,1,0,0:0:0:0:
17,113,56079,2,0,P|7:152|19:188,1,80,8|0,0:0|0:0,0:0:0:0:
30,205,56367,2,0,P|79:230|139:214,1,120
204,166,56848,2,0,P|241:153|278:164,1,80,8|0,0:0|0:0,0:0:0:0:
346,207,57233,5,4,0:0:0:0:
461,278,57425,1,0,0:0:0:0:
439,185,57617,1,8,0:0:0:0:
368,300,57810,1,0,0:0:0:0:
368,300,57906,2,0,P|316:325|264:300,1,120
222,231,58386,6,0,L|210:187,4,40,8|8|8|8|4,0:0|0:0|0:0|0:0|0:0,0:0:0:0:
148,263,58963,1,0,0:0:0:0:
74,295,59156,2,0,P|65:255|78:220,1,80,8|0,0:0|0:0,0:0:0:0:
92,205,59444,2,0,P|108:148|83:95,1,120,0|0,0:0|0:0,0:0:0:0:
28,155,59925,1,8,0:0:0:0:
138,35,60117,1,0,0:0:0:0:
199,86,60310,6,0,L|278:77,1,80,8|0,0:0|0:0,0:0:0:0:
370,165,60694,2,0,L|291:156,1,80,8|0,0:0|0:0,0:0:0:0:
375,245,61079,1,8,0:0:0:0:
445,206,61271,2,0,P|457:166|447:130,2,80,0|8|0,0:0|0:0|0:0,0:0:0:0:
396,323,61848,6,0,P|324:355|252:323,2,160,8|8|8,0:0|0:0|0:0,0:0:0:0:
447,261,62810,2,0,L|458:178,1,80,0|8,0:0|0:0,0:0:0:0:
469,102,63194,1,0,0:0:0:0:
469,102,63386,5,8,0:0:0:0:
354,138,63675,1,0,0:0:0:0:
261,62,63963,1,0,0:0:0:0:
274,141,64156,6,0,L|260:181,3,40,8|0|0|0,0:0|0:0|0:0|0:0,0:0:0:0:
221,191,64541,2,0,L|207:231,3,40,8|0|0|0,0:0|0:0|0:0|0:0,0:0:0:0:
171,244,64925,6,0,P|133:255|96:243,2,80,4|0|8,0:0|0:0|0:0,0:0:0:0:
228,300,65502,1,0,0:0:0:0:
228,300,65598,2,0,P|281:275|334:299,1,120
385,360,66079,1,8,0:0:0:0:
412,285,66271,1,0,0:0:0:0:
360,223,66463,6,0,P|349:186|362:148,1,80,8|0,0:0|0:0,0:0:0:0:
282,48,66848,2,0,P|292:85|280:123,1,80,8|0,0:0|0:0,0:0:0:0:
264,136,67136,1,0,0:0:0:0:
248,148,67233,2,0,L|168:156,1,80,8|0,0:0|0:0,0:0:0:0:
124,90,67617,5,8,0:0:0:0:
108,102,67713,1,0,0:0:0:0:
96,117,67809,1,0,0:0:0:0:
88,136,67905,1,0,0:0:0:0:
86,156,68002,2,0,P|93:193|120:222,2,80,8|0|8,0:0|0:0|0:0,0:0:0:0:
169,156,68579,1,0,0:0:0:0:
169,156,68675,2,0,P|220:129|275:147,1,120
357,134,69156,2,0,P|357:170|337:205,1,80,8|0,0:0|0:0,0:0:0:0:
278,263,69540,5,4,0:0:0:0:
395,314,69733,1,0,0:0:0:0:
278,263,69925,1,8,0:0:0:0:
151,262,70117,1,0,0:0:0:0:
151,262,70213,2,0,P|138:205|169:156,1,120
236,111,70694,6,0,L|271:92,4,40,8|8|8|8|4,0:0|0:0|0:0|0:0|0:0,0:0:0:0:
163,75,71271,1,0,0:0:0:0:
90,39,71463,2,0,P|78:76|90:114,1,80,8|0,0:0|0:0,0:0:0:0:
101,131,71752,2,0,B|123:160|123:160|125:202|94:235,1,120
33,289,72233,1,8,0:0:0:0:
185,242,72425,1,0,0:0:0:0:
261,219,72617,6,0,L|341:228,2,80,8|0|8,0:0|0:0|0:0,0:0:0:0:
219,150,73194,1,0,0:0:0:0:
209,133,73290,1,0,0:0:0:0:
198,116,73386,2,0,L|118:107,1,80,8|0,0:0|0:0,0:0:0:0:
242,49,73771,2,0,L|322:40,1,80,8|0,0:0|0:0,0:0:0:0:
434,154,74156,6,0,P|370:114|298:146,2,160,8|8|8,0:0|0:0|0:0,0:0:0:0:
504,192,75117,2,0,L|511:271,1,80,0|8,0:0|0:0,0:0:0:0:
437,303,75502,5,8,0:0:0:0:
437,303,75598,1,8,0:0:0:0:
437,303,75694,1,4,0:0:0:0:
362,334,75886,2,0,B|301:366|234:333|234:333|252:312,2,160,4|8|8,0:0|0:0|0:0,0:0:0:0:
437,303,76848,5,0,0:0:0:0:
437,303,77233,6,0,P|464:251|446:196,1,120,4|0,0:0|0:0,0:0:0:0:
435,180,77617,2,0,P|416:124|444:73,1,120,8|0,0:0|0:0,0:0:0:0:
454,90,78002,2,0,L|334:102,1,120,8|0,0:0|0:0,0:0:0:0:
323,85,78386,2,0,L|203:97,1,120,8|0,0:0|0:0,0:0:0:0:
192,80,78771,5,8,0:0:0:0:
116,55,78963,1,8,0:0:0:0:
68,119,79156,1,8,0:0:0:0:
114,184,79348,1,8,0:0:0:0:
190,160,79540,5,0,0:0:0:0:
268,174,79732,1,8,0:0:0:0:
347,188,79924,1,4,0:0:0:0:
502,147,80310,6,0,B|528:197|494:243|494:243|479:251,1,120,4|0,0:0|0:0,0:0:0:0:
459,256,80694,2,0,L|380:267,1,80,8|0,0:0|0:0,0:0:0:0:
316,316,81079,1,8,0:0:0:0:
316,316,81175,2,0,P|278:328|240:318,1,80
221,311,81463,2,0,P|182:301|145:313,1,80,8|0,0:0|0:0,0:0:0:0:
74,352,81848,6,0,L|60:310,3,40,8|0|0|0,0:0|0:0|0:0|0:0,0:0:0:0:
71,275,82233,2,0,P|83:237|71:199,1,80,8|0,0:0|0:0,0:0:0:0:
24,135,82617,1,8,0:0:0:0:
141,161,82906,1,0,0:0:0:0:
221,72,83194,1,8,0:0:0:0:
221,151,83386,6,0,P|278:132|301:80,2,120,8|0|0,0:0|0:0|0:0,0:0:0:0:
141,161,84156,1,8,0:0:0:0:
141,161,84252,2,0,L|125:82,1,80
96,110,84540,2,0,L|112:189,1,80,8|0,0:0|0:0,0:0:0:0:
83,263,84925,5,8,0:0:0:0:
103,269,85021,1,0,0:0:0:0:
121,270,85117,1,0,0:0:0:0:
142,266,85213,1,0,0:0:0:0:
159,255,85310,2,0,P|197:243|235:255,2,80,8|0|8,0:0|0:0|0:0,0:0:0:0:
111,188,85886,1,0,0:0:0:0:
149,117,86079,6,0,L|137:77,3,40,8|8|8|8,0:0|0:0|0:0|0:0,0:0:0:0:
175,96,86463,2,0,B|221:127|271:99|271:99|281:85,1,120,4|0,0:0|0:0,0:0:0:0:
299,49,86848,1,8,0:0:0:0:
361,99,87040,1,0,0:0:0:0:
437,73,87233,2,0,L|477:59,1,40,8|0,0:0|0:0,0:0:0:0:
479,141,87521,1,0,0:0:0:0:
479,141,87617,2,0,B|489:180|489:180|475:221,1,80,8|0,0:0|0:0,0:0:0:0:
444,291,88002,5,8,0:0:0:0:
424,293,88098,1,0,0:0:0:0:
404,295,88194,2,0,L|357:301,2,40,0|0|8,0:0|0:0|0:0,0:0:0:0:
298,254,88579,1,0,0:0:0:0:
232,208,88771,6,0,P|253:153|232:100,2,120,8|0|0,0:0|0:0|0:0,0:0:0:0:
168,256,89540,2,0,L|286:233,2,120,8|0|0,0:0|0:0|0:0,0:0:0:0:
133,183,90310,2,0,L|93:179,1,40,8|0,0:0|0:0,0:0:0:0:
79,98,90598,2,0,L|42:82,1,40,0|8,0:0|0:0,0:0:0:0:
152,66,90886,1,0,0:0:0:0:
225,34,91079,6,0,L|261:49,4,40,4|0|0|0|0,0:0|0:0|0:0|0:0|0:0,0:0:0:0:
79,98,91656,2,0,L|42:82,4,40,8|0|8|0|0,0:0|0:0|0:0|0:0|0:0,0:0:0:0:
152,66,92233,1,0,0:0:0:0:
256,140,92425,1,0,0:0:0:0:
360,66,92617,6,0,B|385:66|385:66|449:107|422:183,1,160,8|8,0:0|0:0,0:0:0:0:
375,335,93386,2,0,B|349:334|349:334|285:293|312:217,1,160,8|8,0:0|0:0,0:0:0:0:
349,146,93963,5,8,0:0:0:0:
349,146,94060,1,8,0:0:0:0:
349,146,94156,2,0,P|312:134|274:146,1,80,8|8,0:0|0:0,0:0:0:0:
169,73,94540,2,0,P|207:85|245:72,2,80,8|8|8,0:0|0:0|0:0,0:0:0:0:
89,73,95117,5,8,0:0:0:0:
92,54,95213,1,8,0:0:0:0:
95,34,95309,1,4,0:0:0:0:
